osu file format v14

[General]
AudioFilename: audio.mp3
AudioLeadIn: 0
PreviewTime: 156
Countdown: 0
SampleSet: Soft
StackLeniency: 0.6
Mode: 0
LetterboxInBreaks: 0
WidescreenStoryboard: 1

[Editor]
Bookmarks: 10322,82576,143282
DistanceSpacing: 1
BeatDivisor: 4
GridSize: 16
TimelineZoom: 1.1

[Metadata]
Title:Diane Young
TitleUnicode:Diane Young
Artist:Vampire Weekend
ArtistUnicode:Vampire Weekend
Creator:Fsjallink
Version:Hard
Source:
Tags:renumi zglock english indie pop rock modern vampires of the city rostam batmanglij ezra koenig chris baio chris tomson ariel rechtshaid
BeatmapID:3710126
BeatmapSetID:1780856

[Difficulty]
HPDrainRate:4.5
CircleSize:3.8
OverallDifficulty:6
ApproachRate:8
SliderMultiplier:1.2
SliderTickRate:1

[Events]
//Background and Video events
0,0,"78a95ckkuyt61 (2).jpg",0,0
//Break Periods
2,16522,20239
2,97776,102180
2,119130,129454
2,154966,156679
//Storyboard Layer 0 (Background)
//Storyboard Layer 1 (Fail)
//Storyboard Layer 2 (Pass)
//Storyboard Layer 3 (Foreground)
//Storyboard Layer 4 (Overlay)
//Storyboard Sound Samples

[TimingPoints]
156,333.333333333333,4,2,0,50,1,0
156,-100,4,2,0,50,0,0
323,333.333333333333,4,2,0,50,1,0
16656,-100,4,2,0,40,0,0
20989,-100,4,2,0,60,0,0
21656,-90.9090909090909,4,2,0,60,0,0
32322,-90.9090909090909,4,2,0,60,0,0
42989,352.941176470588,4,2,0,40,1,0
42989,-111.111111111111,4,2,0,40,0,0
63126,352.941176470588,4,2,0,40,1,0
63126,-111.111111111111,4,2,0,40,0,0
65047,352.941176470588,4,2,0,60,1,0
65047,-100,4,2,0,60,0,0
65577,333.333333333333,4,2,0,60,1,0
65577,-90.9090909090909,4,2,0,60,0,0
81576,-100,4,2,0,60,0,0
84243,-90.9090909090909,4,2,0,60,0,0
91576,-90.9090909090909,4,2,0,65,0,0
92243,-90.9090909090909,4,2,0,70,0,1
97576,-100,4,2,0,60,0,0
102930,333.333333333333,4,2,0,50,1,0
102930,-100,4,2,0,50,0,0
113596,-90.9090909090909,4,2,0,60,0,0
118930,352.319436288902,4,2,0,60,1,0
130204,-111.111111111111,4,2,0,40,0,0
135841,365.853658536585,4,2,0,60,1,0
138767,333.333333333333,4,2,0,60,1,0
141452,332.871012482663,4,2,0,70,1,0
141452,-83.3333333333333,4,2,0,70,0,1
154766,-71.4285714285714,4,2,0,60,0,0
157429,336.605890603086,4,2,0,60,1,0
157429,-71.4285714285714,4,2,0,60,0,0

[Colours]
Combo1 : 17,254,176
Combo2 : 173,255,95
Combo3 : 255,88,100
Combo4 : 255,94,55

[HitObjects]
71,103,323,6,0,P|124:89|197:94,1,120,2|8,1:0|0:0,0:0:0:0:
342,171,989,1,2,1:2:0:0:
342,171,1156,1,0,1:0:0:0:
405,116,1322,1,8,0:0:0:0:
244,166,1656,6,0,P|236:233|256:307,1,120,2|8,1:2|0:0,0:0:0:0:
398,366,2322,1,0,1:0:0:0:
398,366,2489,1,0,1:0:0:0:
461,311,2655,1,8,0:0:0:0:
295,277,2989,6,0,P|236:283|164:326,1,120,2|8,1:0|0:0,0:0:0:0:
112,357,3489,1,0,1:0:0:0:
112,357,3656,1,2,1:2:0:0:
13,220,3989,1,10,0:0:0:0:
138,108,4322,6,0,P|159:171|140:245,1,120,2|8,1:2|0:0,0:0:0:0:
223,71,4989,1,0,1:0:0:0:
55,81,5322,1,8,0:0:0:0:
150,222,5656,6,0,P|227:195|289:199,1,120,2|8,1:0|0:0,0:0:0:0:
418,274,6322,1,2,1:2:0:0:
418,274,6489,1,0,1:0:0:0:
481,219,6655,1,8,0:0:0:0:
312,215,6989,6,0,P|281:129|282:75,1,120,2|8,1:2|0:0,0:0:0:0:
448,135,7656,1,0,1:0:0:0:
448,135,7823,1,0,1:0:0:0:
511,80,7989,1,8,0:0:0:0:
346,44,8322,6,0,P|269:53|215:39,1,120,2|10,1:0|0:0,0:0:0:0:
149,14,8822,1,2,1:2:0:0:
149,14,8989,1,0,1:0:0:0:
181,178,9322,1,8,0:0:0:0:
18,135,9656,6,0,P|14:209|36:271,1,120,0|8,1:0|0:0,0:0:0:0:
111,107,10322,2,0,P|95:179|107:244,1,120,0|8,1:0|0:0,0:0:0:0:
271,176,10989,6,0,P|335:171|407:194,1,120,2|8,1:0|0:0,0:0:0:0:
459,267,11489,2,0,P|395:272|323:249,1,120,2|0,0:1|1:0,0:0:0:0:
341,258,11989,1,8,0:0:0:0:
189,186,12322,2,0,P|203:251|189:324,1,120,2|8,1:0|0:0,0:0:0:0:
119,376,12822,2,0,P|105:311|119:238,1,120,2|0,0:1|1:0,0:0:0:0:
111,258,13322,1,8,0:0:0:0:
30,110,13656,6,0,P|38:72|51:24,1,60,2|0,1:0|0:0,0:0:0:0:
95,166,13989,1,8,0:0:0:0:
95,166,14156,2,0,P|103:128|116:80,1,60,2|2,1:1|1:0,0:0:0:0:
166,224,14489,1,0,0:0:0:0:
166,224,14656,6,0,P|174:186|187:138,1,60,10|0,0:1|0:0,0:0:0:0:
234,284,14989,1,2,1:0:0:0:
234,284,15156,2,0,P|242:246|255:198,1,60,2|8,1:0|0:0,0:0:0:0:
308,341,15489,1,0,0:0:0:0:
308,341,15656,6,0,P|316:303|319:285,3,30,2|0|0|0,3:1|3:0|3:0|3:0,0:0:0:0:
327,271,15989,2,0,P|330:256|333:241,3,30,2|0|0|0,3:1|3:0|3:0|3:0,0:0:0:0:
343,200,16322,1,2,1:0:0:0:
157,130,20989,6,0,L|164:160,3,30,0|0|0|0,3:0|3:0|3:0|3:0,0:0:0:0:
162,180,21322,1,0,3:0:0:0:
159,201,21406,1,0,3:0:0:0:
156,221,21489,1,0,3:0:0:0:
154,241,21572,1,0,3:0:0:0:
152,257,21656,6,0,P|90:254|56:262,2,66.0000020141602,6|0|8,1:1|0:0|0:0,0:0:0:0:
215,333,22156,2,0,P|273:335|321:253,1,132.00000402832,2|0,0:0|1:2,0:0:0:0:
282,190,22656,1,8,0:0:0:0:
282,190,22822,1,2,0:3:0:0:
380,175,22989,2,0,P|386:116|377:40,1,132.00000402832,2|8,1:2|0:0,0:0:0:0:
481,96,23489,2,0,P|475:155|484:231,1,132.00000402832,2|2,1:2|1:2,0:0:0:0:
439,315,23989,2,0,P|407:301|361:294,1,66.0000020141602,8|2,0:0|0:1,0:0:0:0:
277,299,24322,6,0,L|227:309,4,33.0000010070801,0|0|0|0|8,1:2|3:0|3:0|3:0|3:2,0:0:0:0:
325,212,24822,1,2,1:2:0:0:
325,212,24906,1,0,3:0:0:0:
325,212,24989,2,0,P|332:148|328:121,1,66.0000020141602,0|0,1:2|1:2,0:0:0:0:
232,152,25322,2,0,P|222:88|211:63,1,66.0000020141602,8|2,3:2|3:2,0:0:0:0:
132,131,25656,5,0,1:2:0:0:
132,131,25739,1,0,3:0:0:0:
132,131,25822,2,0,P|106:72|89:50,1,66.0000020141602,2|8,1:2|3:2,0:0:0:0:
31,138,26156,2,0,P|47:179|108:257,1,132.00000402832,2|0,3:2|1:2,0:0:0:0:
198,252,26656,1,10,3:2:0:0:
213,245,26739,1,0,3:0:0:0:
228,239,26822,1,0,3:0:0:0:
244,235,26906,1,0,3:0:0:0:
259,229,26989,6,0,P|321:213|351:210,2,66.0000020141602,6|2|8,1:1|0:0|0:0,0:0:0:0:
190,157,27489,1,2,0:3:0:0:
238,70,27656,2,0,P|278:39|376:67,1,132.00000402832,2|8,1:2|0:0,0:0:0:0:
417,124,28156,1,2,0:3:0:0:
374,212,28322,2,0,P|369:258|385:359,1,132.00000402832,2|8,1:2|0:0,0:0:0:0:
286,375,28822,2,0,P|217:340|156:332,1,132.00000402832,2|0,0:0|1:0,0:0:0:0:
66,354,29322,1,8,0:0:0:0:
66,354,29489,1,2,0:0:0:0:
37,259,29656,6,0,P|27:222|28:115,1,132.00000402832,2|8,1:2|0:0,0:0:0:0:
109,47,30156,2,0,P|119:84|118:191,1,132.00000402832,2|0,1:2|1:0,0:0:0:0:
183,253,30656,1,8,0:0:0:0:
265,198,30822,2,0,P|329:195|361:193,1,66.0000020141602,2|0,0:0|1:0,0:0:0:0:
394,271,31156,2,0,P|330:274|298:276,1,66.0000020141602,2|8,1:2|0:0,0:0:0:0:
452,202,31489,2,0,P|457:150|447:51,1,132.00000402832,2|0,0:0|1:0,0:0:0:0:
362,25,31989,1,8,0:0:0:0:
151,72,32322,6,0,P|242:76|306:106,1,132.00000402832,2|8,1:1|0:0,0:0:0:0:
207,165,32822,2,0,P|133:164|51:135,1,132.00000402832,2|0,0:1|1:0,0:0:0:0:
18,241,33322,2,0,P|19:286|26:330,1,66.0000020141602,10|2,0:0|0:3,0:0:0:0:
116,367,33656,6,0,P|131:316|218:285,1,132.00000402832,2|8,1:1|0:0,0:0:0:0:
313,251,34156,2,0,P|298:200|210:169,1,132.00000402832,2|0,0:1|1:0,0:0:0:0:
110,165,34656,1,8,3:2:0:0:
104,151,34739,1,0,3:0:0:0:
101,136,34822,1,0,3:0:0:0:
98,121,34906,1,0,3:0:0:0:
96,106,34989,6,0,P|98:57|107:33,1,66.0000020141602,2|0,1:0|0:0,0:0:0:0:
191,85,35322,1,8,0:0:0:0:
191,85,35489,2,0,P|205:38|216:18,1,66.0000020141602,2|0,1:0|1:0,0:0:0:0:
291,86,35822,1,0,1:0:0:0:
291,86,35989,6,0,P|317:44|333:28,1,66.0000020141602,10|2,0:1|0:3,0:0:0:0:
382,116,36322,1,0,1:0:0:0:
382,116,36489,2,0,P|418:82|438:70,1,66.0000020141602,2|8,1:0|0:0,0:0:0:0:
464,168,36822,1,0,1:0:0:0:
464,168,36989,6,0,P|461:227|451:256,1,66.0000020141602,2|0,1:0|1:0,0:0:0:0:
359,307,37322,2,0,P|362:248|371:217,1,66.0000020141602,10|0,0:1|1:0,0:0:0:0:
305,168,37656,2,0,P|221:196|159:189,1,132.00000402832,6|8,1:1|0:0,0:0:0:0:
178,193,38156,1,2,0:1:0:0:
101,143,38322,1,0,1:0:0:0:
101,143,38489,1,0,1:0:0:0:
26,197,38656,2,0,P|18:260|22:293,1,66.0000020141602,8|2,0:0|0:3,0:0:0:0:
98,342,38989,2,0,P|106:279|102:246,1,66.0000020141602,0|0,1:0|1:0,0:0:0:0:
186,230,39322,6,0,P|196:283|259:338,1,132.00000402832,8|0,0:0|1:0,0:0:0:0:
343,325,39822,1,0,1:0:0:0:
375,238,39989,1,8,3:2:0:0:
397,239,40072,1,0,3:0:0:0:
419,243,40156,1,2,3:3:0:0:
440,250,40239,1,0,3:0:0:0:
461,257,40322,6,0,P|469:192|474:106,1,132.00000402832,6|8,1:0|0:0,0:0:0:0:
386,156,40822,2,0,P|378:91|373:5,1,132.00000402832,2|0,1:0|0:0,0:0:0:0:
293,70,41322,2,0,P|253:77|208:79,1,66.0000020141602,8|0,0:0|0:0,0:0:0:0:
151,25,41656,6,0,P|101:19|62:101,1,132.00000402832,6|8,1:0|0:2,0:0:0:0:
126,142,42156,1,0,1:1:0:0:
126,142,42239,1,0,3:0:0:0:
126,142,42322,2,0,L|116:197,3,33.0000010070801,2|0|2|0,1:0|3:0|1:1|3:0,0:0:0:0:
88,208,42656,2,0,L|98:263,3,33.0000010070801,2|0|2|0,1:0|3:0|1:1|3:0,0:0:0:0:
113,263,42989,6,0,P|181:258|234:266,1,107.999996704102,2|8,0:0|0:0,0:0:0:0:
220,262,43518,1,2,0:0:0:0:
359,332,43871,1,0,0:0:0:0:
359,332,44047,2,0,P|363:278|374:212,1,107.999996704102,10|0,0:0|0:0,0:0:0:0:
290,211,44577,2,0,P|286:157|275:91,1,107.999996704102,2|0,0:0|0:0,0:0:0:0:
277,103,45106,1,2,0:0:0:0:
418,24,45459,1,10,0:0:0:0:
496,166,45812,6,0,P|489:231|489:296,1,107.999996704102,2|8,1:0|0:0,0:0:0:0:
488,273,46341,1,2,1:2:0:0:
347,353,46694,1,0,0:0:0:0:
347,353,46871,2,0,P|295:328|222:325,1,107.999996704102,10|0,0:0|1:0,0:0:0:0:
173,360,47400,2,0,P|119:353|71:329,1,107.999996704102,2|0,1:2|0:0,0:0:0:0:
71,329,47930,1,2,1:2:0:0:
177,206,48283,1,10,0:0:0:0:
25,148,48636,6,0,P|27:108|32:35,1,107.999996704102,2|8,0:1|0:0,0:0:0:0:
31,40,49165,1,2,0:0:0:0:
159,140,49518,1,0,0:0:0:0:
159,140,49694,2,0,P|212:132|242:76,1,107.999996704102,10|0,0:0|0:0,0:0:0:0:
301,34,50224,2,0,P|341:42|394:81,1,107.999996704102,2|0,0:0|0:0,0:0:0:0:
394,81,50753,1,2,0:0:0:0:
313,221,51106,1,2,0:0:0:0:
443,317,51459,6,0,P|482:255|487:202,1,107.999996704102,2|8,1:1|0:0,0:0:0:0:
419,177,51988,2,0,P|410:145|415:59,1,107.999996704102,2|0,1:2|0:0,0:0:0:0:
330,78,52518,2,0,P|282:44|215:41,1,107.999996704102,10|0,0:0|1:0,0:0:0:0:
209,115,53047,2,0,P|167:117|87:152,1,107.999996704102,2|0,1:2|0:0,0:0:0:0:
105,139,53577,1,2,1:2:0:0:
150,295,53930,1,10,0:0:0:0:
267,183,54283,6,0,P|330:187|372:219,1,107.999996704102,2|8,0:1|0:0,0:0:0:0:
365,211,54812,1,2,0:0:0:0:
279,348,55165,1,0,0:0:0:0:
279,348,55341,2,0,P|216:344|174:312,1,107.999996704102,10|0,0:0|0:0,0:0:0:0:
104,314,55871,2,0,P|97:243|100:191,1,107.999996704102,2|0,0:0|0:0,0:0:0:0:
98,206,56400,1,2,0:0:0:0:
244,245,56753,1,10,0:0:0:0:
201,99,57106,6,0,P|257:92|325:118,1,107.999996704102,2|8,0:1|0:0,0:0:0:0:
328,33,57636,2,0,P|379:54|425:111,1,107.999996704102,2|0,1:2|0:0,0:0:0:0:
415,91,58165,1,10,0:0:0:0:
316,295,58694,1,2,1:2:0:0:
466,286,59047,1,0,0:0:0:0:
466,286,59224,1,2,1:2:0:0:
337,205,59577,1,10,0:0:0:0:
458,115,59930,6,0,P|406:88|338:87,1,107.999996704102,2|8,0:1|0:0,0:0:0:0:
335,11,60459,2,0,P|300:7|215:35,1,107.999996704102,2|0,0:0|0:0,0:0:0:0:
155,13,60988,2,0,P|130:37|105:108,1,107.999996704102,10|0,0:0|0:0,0:0:0:0:
33,130,61518,2,0,P|35:189|79:244,1,107.999996704102,2|0,0:0|0:0,0:0:0:0:
60,229,62047,1,2,0:0:0:0:
209,202,62400,1,10,0:0:0:0:
160,345,62753,5,2,0:1:0:0:
306,308,63126,2,0,P|313:366|314:373,2,53.9999983520508,8|0|0,0:0|1:0|1:0,0:0:0:0:
202,196,63831,1,8,0:0:0:0:
335,124,64184,2,0,P|331:80|329:51,2,53.9999983520508,0|0|8,1:0|1:0|0:0,0:0:0:0:
477,177,64890,1,0,1:0:0:0:
416,235,65047,1,0,3:0:0:0:
395,229,65136,1,0,3:0:0:0:
374,225,65224,2,0,L|336:227,3,30,0|0|0|0,3:0|3:0|3:0|3:0,0:0:0:0:
312,228,65577,6,0,P|293:272|194:297,1,132.00000402832,6|8,1:0|0:0,0:0:0:0:
218,302,66077,1,2,0:1:0:0:
163,229,66243,1,0,1:2:0:0:
163,229,66410,1,0,1:2:0:0:
80,270,66577,2,0,P|84:318|77:367,1,66.0000020141602,8|2,0:0|0:3,0:0:0:0:
9,228,66910,6,0,P|6:175|8:88,1,132.00000402832,2|8,1:2|0:0,0:0:0:0:
189,16,67577,2,0,P|192:69|189:107,1,66.0000020141602,2|0,1:2|1:2,0:0:0:0:
256,156,67910,2,0,P|340:130|394:134,1,132.00000402832,8|0,0:0|1:2,0:0:0:0:
481,140,68410,1,0,3:0:0:0:
481,140,68493,1,0,3:0:0:0:
481,140,68577,2,0,L|476:196,3,33.0000010070801,8|0|0|0,3:2|3:0|1:2|3:0,0:0:0:0:
451,202,68910,2,0,L|456:258,3,33.0000010070801,0|0|0|0,1:2|3:0|3:0|3:0,0:0:0:0:
486,251,69243,2,0,L|481:307,2,33.0000010070801,8|0|0,3:2|3:0|3:0,0:0:0:0:
425,346,69577,5,2,1:2:0:0:
402,339,69660,1,0,3:0:0:0:
379,333,69743,1,0,1:2:0:0:
356,329,69827,1,0,3:0:0:0:
332,328,69910,2,0,L|271:337,3,33.0000010070801,8|0|0|0,3:2|3:0|1:2|3:0,0:0:0:0:
280,347,70243,2,0,L|247:342,2,33.0000010070801,2|0|0,1:2|3:0|1:2,0:0:0:0:
176,301,70577,1,8,3:2:0:0:
181,275,70660,1,0,3:0:0:0:
184,248,70743,1,0,3:0:0:0:
181,221,70827,1,0,3:0:0:0:
178,194,70910,6,0,P|218:161|311:188,1,132.00000402832,6|8,1:1|0:0,0:0:0:0:
293,170,71410,1,0,0:0:0:0:
391,219,71577,1,0,1:2:0:0:
391,219,71743,1,0,1:2:0:0:
472,162,71910,2,0,P|470:109|475:74,1,66.0000020141602,8|2,0:0|0:1,0:0:0:0:
398,29,72243,5,0,1:2:0:0:
357,119,72410,1,2,0:0:0:0:
268,75,72577,1,8,0:0:0:0:
248,171,72743,2,0,P|271:207|244:312,1,132.00000402832,2|0,0:0|1:2,0:0:0:0:
333,360,73243,1,8,0:0:0:0:
333,360,73410,1,2,0:0:0:0:
365,266,73576,2,0,P|436:242|498:290,1,132.00000402832,0|8,1:2|0:0,0:0:0:0:
499,364,74076,1,0,1:2:0:0:
499,364,74243,1,0,1:2:0:0:
400,192,74576,6,0,P|390:143|389:106,1,66.0000020141602,8|2,0:0|1:2,0:0:0:0:
328,48,74910,1,0,1:2:0:0:
244,101,75076,1,2,1:1:0:0:
244,101,75243,1,8,0:0:0:0:
191,16,75410,2,0,P|140:15|79:96,1,132.00000402832,2|0,0:1|1:0,0:0:0:0:
138,151,75910,1,8,3:2:0:0:
68,336,76243,6,0,P|53:276|63:196,1,132.00000402832,2|8,1:1|0:0,0:0:0:0:
154,250,76743,2,0,P|169:310|159:390,1,132.00000402832,2|0,0:1|1:2,0:0:0:0:
162,379,77243,1,10,0:0:0:0:
325,266,77576,6,0,P|386:268|420:344,1,132.00000402832,2|8,1:1|0:0,0:0:0:0:
325,347,78076,2,0,P|264:345|230:269,1,132.00000402832,2|0,1:1|1:2,0:0:0:0:
247,192,78576,1,8,3:2:0:0:
267,181,78660,1,0,3:0:0:0:
288,174,78743,1,0,3:0:0:0:
310,171,78826,1,0,3:0:0:0:
333,169,78910,6,0,P|340:116|341:93,1,66.0000020141602,2|0,1:1|0:0,0:0:0:0:
271,15,79243,1,8,0:0:0:0:
271,15,79410,2,0,P|264:68|263:91,1,66.0000020141602,2|0,0:1|1:2,0:0:0:0:
173,152,79743,1,0,1:2:0:0:
173,152,79910,6,0,P|180:99|181:76,1,66.0000020141602,10|0,0:1|0:0,0:0:0:0:
108,2,80243,1,0,1:2:0:0:
108,2,80410,2,0,P|101:55|100:78,1,66.0000020141602,2|8,1:1|0:0,0:0:0:0:
16,100,80743,1,0,1:2:0:0:
16,100,80910,6,0,P|18:133|24:166,1,66.0000020141602,2|0,1:1|1:2,0:0:0:0:
95,213,81243,2,0,P|92:245|87:278,1,66.0000020141602,10|0,0:1|0:0,0:0:0:0:
139,336,81576,6,0,P|190:359|192:360,10,30,0|0|0|0|0|0|0|0|0|0|0,3:0|3:0|3:0|3:0|3:0|3:0|3:0|3:0|3:0|3:0|3:0,3:0:0:0:
248,310,82576,2,0,P|299:287|301:286,10,30,0|0|0|0|0|0|0|0|0|0|0,3:0|3:0|3:0|3:0|3:0|3:0|3:0|3:0|3:0|3:0|3:0,3:0:0:0:
353,344,83576,2,0,P|366:350|380:355,3,30,0|0|0|0,3:0|3:0|3:0|3:0,3:0:0:0:
419,348,83910,1,0,3:0:0:0:
428,326,83993,1,0,3:0:0:0:
433,302,84076,1,0,3:0:0:0:
432,277,84160,1,0,3:0:0:0:
425,253,84243,6,0,P|406:206|391:119,1,132.00000402832,6|8,1:0|0:0,0:0:0:0:
302,81,84743,2,0,P|299:126|290:161,1,66.0000020141602,2|0,1:0|1:0,0:0:0:0:
203,184,85076,2,0,P|148:170|117:170,2,66.0000020141602,0|8|0,1:0|0:0|0:0,0:0:0:0:
263,262,85576,1,2,1:0:0:0:
84,348,85910,2,0,P|34:311|35:219,1,132.00000402832,10|2,0:1|1:1,0:0:0:0:
86,168,86410,2,0,P|78:110|71:82,1,66.0000020141602,0|8,1:0|3:2,0:0:0:0:
136,23,86743,1,0,3:0:0:0:
136,23,86826,1,0,3:0:0:0:
136,23,86910,6,0,B|160:17|160:17|186:15,10,33.0000010070801,0|0|0|0|0|0|0|0|0|0|0,3:0|3:0|3:0|3:0|3:0|3:0|3:0|3:0|3:0|3:0|3:0,3:0:0:0:
248,62,87910,2,0,P|275:72|304:80,10,33.0000010070801,0|0|0|0|0|0|0|0|0|0|0,3:0|0:0|3:0|0:0|0:0|0:0|0:0|0:0|0:0|0:0|0:0,0:0:0:0:
350,15,88910,2,0,P|363:9|382:3,3,33.0000010070801,0|0|0|0,3:0|3:0|3:0|3:0,3:0:0:0:
416,11,89244,1,0,3:0:0:0:
425,33,89327,1,0,3:0:0:0:
430,57,89410,1,0,3:0:0:0:
429,82,89494,1,0,3:0:0:0:
423,103,89576,6,0,P|424:152|447:263,1,132.00000402832,6|8,1:0|0:2,0:0:0:0:
362,298,90076,2,0,P|310:277|282:274,1,66.0000020141602,2|0,1:1|1:0,0:0:0:0:
201,267,90410,2,0,P|143:275|112:286,2,66.0000020141602,0|8|2,0:0|0:2|0:3,0:0:0:0:
262,189,90910,1,0,1:0:0:0:
262,189,90993,1,0,3:0:0:0:
262,189,91076,2,0,L|270:142,5,33.0000010070801,0|0|8|0|0|0,1:0|3:0|3:2|3:0|3:0|3:0,0:0:0:0:
250,135,91576,2,0,L|242:88,3,33.0000010070801,2|0|0|0,1:1|3:0|1:0|3:0,0:0:0:0:
260,81,91910,1,8,3:2:0:0:
264,68,91993,1,0,3:0:0:0:
269,56,92076,1,0,3:0:0:0:
274,43,92160,1,0,3:0:0:0:
279,30,92243,6,0,P|241:26|193:12,2,66.0000020141602,6|2|8,1:1|0:3|0:2,0:0:0:0:
371,25,92743,1,2,0:0:0:0:
449,73,92910,2,0,P|486:108|499:152,2,66.0000020141602,2|2|8,1:1|1:3|0:2,0:0:0:0:
367,117,93410,1,2,0:0:0:0:
391,205,93576,2,0,P|396:264|396:297,1,66.0000020141602,2|2,1:1|0:3,0:0:0:0:
320,344,93910,2,0,P|315:285|315:252,1,66.0000020141602,8|2,0:2|0:3,0:0:0:0:
224,219,94243,2,0,P|229:278|229:311,1,66.0000020141602,2|2,1:1|1:3,0:0:0:0:
148,364,94577,2,0,P|143:305|143:272,1,66.0000020141602,8|2,0:2|0:2,0:0:0:0:
51,278,94910,5,2,1:1:0:0:
18,191,95076,2,0,P|6:144|5:117,2,66.0000020141602,2|8|2,0:3|0:2|1:2,0:0:0:0:
109,203,95576,1,2,1:1:0:0:
198,177,95743,2,0,P|245:167|286:169,2,66.0000020141602,2|8|2,0:3|0:2|0:2,0:0:0:0:
142,102,96243,6,0,P|142:53|141:13,1,66.0000020141602,2|2,1:1|1:3,0:0:0:0:
239,0,96576,2,0,P|239:49|240:89,1,66.0000020141602,8|2,0:2|0:3,0:0:0:0:
320,112,96910,1,2,1:1:0:0:
410,93,97076,1,2,1:1:0:0:
431,182,97243,1,10,0:1:0:0:
342,207,97410,1,2,1:1:0:0:
254,174,97576,5,2,1:1:0:0:
168,229,102930,6,0,P|145:166|139:97,1,120,2|8,1:1|0:0,0:0:0:0:
200,56,103430,2,0,P|272:65|294:111,1,120,2|0,0:0|1:2,0:0:0:0:
303,185,103930,1,8,0:0:0:0:
303,185,104096,1,2,0:0:0:0:
385,167,104263,2,0,P|398:128|413:92,2,60,0|2|8,1:2|0:0|0:0,0:0:0:0:
372,250,104763,2,0,P|346:302|269:305,1,120,2|0,0:0|1:2,0:0:0:0:
213,349,105263,1,8,0:0:0:0:
105,219,105596,6,0,P|165:202|236:221,1,120,2|8,1:1|0:0,0:0:0:0:
148,294,106096,2,0,P|88:311|17:292,1,120,2|0,1:2|0:0,0:0:0:0:
32,300,106596,1,8,0:0:0:0:
17,217,106763,2,0,P|14:179|14:133,1,60,2|0,0:0|1:2,0:0:0:0:
63,89,107096,1,0,1:2:0:0:
63,89,107263,1,8,0:0:0:0:
135,132,107430,2,0,P|169:113|249:123,1,120,2|0,1:2|1:2,0:0:0:0:
301,196,107930,1,8,0:0:0:0:
419,76,108263,6,0,P|422:127|416:216,1,120,2|8,1:1|0:0,0:0:0:0:
506,267,108763,2,0,P|503:216|509:127,1,120,2|0,0:1|1:2,0:0:0:0:
506,147,109263,1,8,0:0:0:0:
414,287,109596,6,0,P|351:288|314:222,1,120,2|8,1:1|0:0,0:0:0:0:
316,163,110096,2,0,P|276:120|218:123,1,120,2|0,0:1|1:2,0:0:0:0:
149,171,110596,1,8,0:0:0:0:
7,80,110929,6,0,P|36:43|56:17,1,60,2|0,1:1|0:0,0:0:0:0:
121,78,111263,1,8,0:0:0:0:
121,78,111429,2,0,P|150:41|170:15,1,60,2|0,1:1|1:2,0:0:0:0:
230,83,111763,1,0,0:0:0:0:
230,83,111929,6,0,P|259:46|279:20,1,60,10|0,0:1|0:0,0:0:0:0:
337,91,112263,1,0,1:2:0:0:
337,91,112429,2,0,P|366:54|386:28,1,60,2|8,1:1|0:0,0:0:0:0:
436,101,112763,1,0,0:0:0:0:
436,101,112929,6,0,P|437:153|434:189,1,60,2|0,1:1|0:0,0:0:0:0:
356,240,113263,2,0,P|355:188|358:152,1,60,10|0,0:1|0:0,0:0:0:0:
282,122,113596,6,0,P|234:105|137:143,1,132.00000402832,6|8,1:1|0:0,0:0:0:0:
157,124,114096,1,2,0:1:0:0:
116,207,114263,1,0,1:0:0:0:
116,207,114429,1,0,1:0:0:0:
190,262,114596,2,0,P|184:298|184:348,1,66.0000020141602,8|2,0:0|0:3,0:0:0:0:
266,367,114929,2,0,P|272:331|272:281,1,66.0000020141602,0|0,1:0|1:0,0:0:0:0:
280,208,115263,2,0,P|359:192|406:241,1,132.00000402832,8|0,0:0|1:0,0:0:0:0:
472,272,115763,1,0,1:0:0:0:
489,181,115929,1,8,3:2:0:0:
495,158,116013,1,0,3:0:0:0:
495,134,116096,1,0,3:3:0:0:
495,110,116179,1,0,3:0:0:0:
493,86,116263,6,0,P|439:67|362:79,1,132.00000402832,6|8,1:0|0:0,0:0:0:0:
360,169,116763,2,0,P|295:179|233:160,1,132.00000402832,2|0,1:0|0:0,0:0:0:0:
171,91,117263,2,0,P|176:49|190:12,1,66.0000020141602,8|0,0:0|0:0,0:0:0:0:
91,17,117596,2,0,P|48:27|24:128,1,132.00000402832,6|8,1:0|0:2,0:0:0:0:
78,167,118096,1,0,1:1:0:0:
78,167,118179,1,0,3:0:0:0:
78,167,118263,2,0,L|66:216,3,33.0000010070801,2|0|2|0,1:0|3:0|1:1|3:0,0:0:0:0:
40,234,118596,2,0,L|52:283,3,33.0000010070801,2|0|2|0,1:0|3:0|1:1|3:0,0:0:0:0:
76,294,118930,5,2,0:0:0:0:
131,211,130204,6,0,P|113:143|112:93,1,107.999996704102,2|0,0:0|0:0,0:0:0:0:
160,48,130732,2,0,P|228:30|278:29,1,107.999996704102,2|0,0:0|0:0,0:0:0:0:
325,75,131261,2,0,P|343:143|344:193,1,107.999996704102,2|0,0:0|0:0,0:0:0:0:
302,243,131789,2,0,P|234:261|184:262,1,107.999996704102,2|0,0:0|0:0,0:0:0:0:
196,262,132318,1,2,0:0:0:0:
322,346,132670,1,2,0:0:0:0:
445,259,133022,6,0,P|449:202|437:143,1,107.999996704102,2|0,0:0|0:0,0:0:0:0:
491,96,133551,1,2,0:0:0:0:
322,38,134079,1,2,0:0:0:0:
165,123,134608,1,2,0:0:0:0:
271,174,134960,1,0,0:0:0:0:
271,174,135136,1,2,0:0:0:0:
236,60,135489,1,2,0:0:0:0:
112,89,135841,6,0,P|110:152|86:222,1,120,2|0,0:0|0:0,0:0:0:0:
142,274,136389,2,0,P|205:276|275:300,1,120,2|0,0:0|0:0,0:0:0:0:
332,249,136938,2,0,P|334:186|358:116,1,120,2|0,0:0|0:0,0:0:0:0:
305,59,137487,2,0,P|242:57|172:33,1,120,2|0,0:0|0:0,0:0:0:0:
187,40,138036,1,2,0:0:0:0:
76,166,138401,1,2,0:0:0:0:
256,192,138767,1,2,0:0:0:0:
256,192,138933,12,2,140767,0:0:0:0:
145,195,141452,5,6,1:0:0:0:
145,195,141618,2,0,P|193:198|281:268,1,143.999995605469,2|0,0:0|1:0,0:0:0:0:
344,319,142117,2,0,P|391:300|432:293,1,71.9999978027344,0|0,1:0|1:0,0:0:0:0:
474,216,142450,1,8,0:0:0:0:
474,216,142617,1,2,0:0:0:0:
377,188,142783,6,0,P|404:127|386:27,1,143.999995605469,2|8,1:0|0:0,0:0:0:0:
313,108,143282,2,0,P|286:169|304:269,1,143.999995605469,2|0,1:0|1:0,0:0:0:0:
241,332,143782,1,8,3:2:0:0:
220,324,143865,1,0,3:0:0:0:
199,316,143948,1,0,3:0:0:0:
177,311,144031,1,0,3:0:0:0:
155,308,144114,6,0,P|99:308|13:339,1,143.999995605469,2|8,1:0|0:0,0:0:0:0:
17,219,144614,2,0,P|73:219|159:188,1,143.999995605469,2|0,1:0|1:0,0:0:0:0:
169,104,145113,1,8,0:0:0:0:
305,209,145446,1,2,1:0:0:0:
273,128,145612,2,0,P|261:68|263:32,1,71.9999978027344,0|8,1:0|0:0,0:0:0:0:
338,18,145945,2,0,P|447:52|460:85,1,143.999995605469,2|0,0:1|3:0,0:0:0:0:
403,139,146445,1,8,3:2:0:0:
405,156,146528,1,0,3:0:0:0:
409,173,146611,1,0,3:0:0:0:
414,190,146694,1,0,3:0:0:0:
419,207,146777,5,6,1:0:0:0:
490,267,146944,2,0,P|452:284|370:371,1,143.999995605469,2|0,0:0|1:0,0:0:0:0:
331,273,147443,2,0,P|295:253|248:240,1,71.9999978027344,2|0,1:2|1:0,0:0:0:0:
142,284,147776,2,0,P|178:304|225:317,1,71.9999978027344,8|0,0:0|0:0,0:0:0:0:
181,203,148109,6,0,P|174:168|170:44,1,143.999995605469,2|8,1:0|0:0,0:0:0:0:
66,18,148608,2,0,P|73:53|77:177,1,143.999995605469,2|0,0:1|1:0,0:0:0:0:
14,230,149108,1,10,3:2:0:0:
17,247,149191,1,0,3:0:0:0:
20,264,149274,1,0,3:0:0:0:
23,281,149357,1,0,3:0:0:0:
25,298,149440,6,0,P|98:305|123:379,1,143.999995605469,2|8,1:0|0:0,0:0:0:0:
226,352,149940,2,0,P|215:266|223:201,1,143.999995605469,2|0,1:0|1:0,0:0:0:0:
282,129,150439,2,0,P|331:138|361:160,1,71.9999978027344,10|0,0:0|0:0,0:0:0:0:
452,188,150772,1,2,1:2:0:0:
452,188,150855,1,0,3:0:0:0:
452,188,150938,2,0,L|461:133,5,35.9999989013672,0|2|8|0|2|0,1:0|3:2|3:2|3:0|3:2|3:0,0:0:0:0:
434,107,151438,2,0,L|425:52,3,35.9999989013672,0|0|0|0,1:0|3:0|3:0|3:0,0:0:0:0:
443,38,151771,1,8,3:2:0:0:
415,29,151854,1,0,3:0:0:0:
386,24,151937,1,2,3:2:0:0:
357,20,152020,1,0,3:0:0:0:
328,22,152103,6,0,P|254:27|173:43,1,143.999995605469,6|8,1:0|0:0,0:0:0:0:
120,133,152603,2,0,P|194:128|275:112,1,143.999995605469,2|0,0:1|1:0,0:0:0:0:
263,115,153102,1,8,0:0:0:0:
416,193,153435,6,0,P|421:245|394:347,1,143.999995605469,2|8,1:0|0:0,0:0:0:0:
310,374,153934,2,0,P|305:322|332:220,1,143.999995605469,2|0,1:1|1:0,0:0:0:0:
266,169,154433,1,8,3:2:0:0:
240,169,154517,1,0,0:0:0:0:
214,170,154600,1,0,1:0:0:0:
188,171,154683,1,0,0:0:0:0:
165,173,154766,1,2,3:1:0:0:
256,288,157429,6,0,L|256:336,1,41.9999987182618,6|0,3:1|0:0,0:0:0:0:
256,80,158102,1,2,0:3:0:0:
256,288,158607,1,4,0:3:0:0:
256,288,158775,1,4,0:3:0:0:
256,192,159448,5,2,0:3:0:0:
