osu file format v14

[General]
AudioFilename: audio.mp3
AudioLeadIn: 0
PreviewTime: 156
Countdown: 0
SampleSet: Soft
StackLeniency: 0.6
Mode: 0
LetterboxInBreaks: 0
WidescreenStoryboard: 0

[Editor]
DistanceSpacing: 0.1
BeatDivisor: 4
GridSize: 8
TimelineZoom: 1.1

[Metadata]
Title:Diane Young
TitleUnicode:Diane Young
Artist:Vampire Weekend
ArtistUnicode:Vampire Weekend
Creator:Fsjallink
Version:Dying Young
Source:
Tags:renumi zglock english indie pop rock modern vampires of the city rostam batmanglij ezra koenig chris baio chris tomson ariel rechtshaid
BeatmapID:3647055
BeatmapSetID:1780856

[Difficulty]
HPDrainRate:6
CircleSize:4
OverallDifficulty:8.5
ApproachRate:9.2
SliderMultiplier:1.4
SliderTickRate:1

[Events]
//Background and Video events
0,0,"78a95ckkuyt61 (2).jpg",0,0
//Break Periods
2,97776,102360
2,119129,129634
2,154966,156859
//Storyboard Layer 0 (Background)
//Storyboard Layer 1 (Fail)
//Storyboard Layer 2 (Pass)
//Storyboard Layer 3 (Foreground)
//Storyboard Layer 4 (Overlay)
//Storyboard Sound Samples

[TimingPoints]
156,333.333333333333,4,2,0,50,1,0
156,-100,4,2,0,50,0,0
323,333.333333333333,4,2,0,50,1,0
16656,-100,4,2,0,40,0,0
20989,-100,4,2,0,60,0,0
21656,-71.4285714285714,4,2,0,60,0,0
32322,-83.3333333333333,4,2,0,60,0,0
37656,-71.4285714285714,4,2,0,60,0,0
42989,352.941176470588,4,2,0,40,1,0
42989,-100,4,2,0,40,0,0
43518,-90.9090909090909,4,2,0,40,0,0
44047,-83.3333333333333,4,2,0,40,0,0
44577,-76.9230769230769,4,2,0,40,0,0
45106,-83.3333333333333,4,2,0,40,0,0
45459,-90.9090909090909,4,2,0,40,0,0
45812,-100,4,2,0,40,0,0
46341,-90.9090909090909,4,2,0,40,0,0
46871,-83.3333333333333,4,2,0,40,0,0
47400,-76.9230769230769,4,2,0,40,0,0
47930,-71.4285714285714,4,2,0,40,0,0
48636,-76.9230769230769,4,2,0,40,0,0
49165,-83.3333333333333,4,2,0,40,0,0
49694,-90.9090909090909,4,2,0,40,0,0
50224,-100,4,2,0,40,0,0
50753,-111.111111111111,4,2,0,40,0,0
51459,-100,4,2,0,40,0,0
51988,-90.9090909090909,4,2,0,40,0,0
52518,-83.3333333333333,4,2,0,40,0,0
53047,-76.9230769230769,4,2,0,40,0,0
53577,-71.4285714285714,4,2,0,40,0,0
54283,-90.9090909090909,4,2,0,40,0,0
57106,-111.111111111111,4,2,0,40,0,0
57636,-76.9230769230769,4,2,0,40,0,0
58165,-100,4,2,0,40,0,0
58253,-100,4,2,0,10,0,0
58694,-83.3333333333333,4,2,0,40,0,0
58783,-83.3333333333333,4,2,0,10,0,0
59224,-90.9090909090909,4,2,0,40,0,0
59312,-90.9090909090909,4,2,0,10,0,0
59577,-71.4285714285714,4,2,0,40,0,0
59930,-100,4,2,0,40,0,0
60459,-111.111111111111,4,2,0,40,0,0
60988,-125,4,2,0,40,0,0
61518,-142.857142857143,4,2,0,40,0,0
62047,-166.666666666667,4,2,0,40,0,0
62400,-200,4,2,0,40,0,0
63126,352.941176470588,4,2,0,40,1,0
65047,352.941176470588,4,2,0,60,1,0
65047,-100,4,2,0,60,0,0
65577,333.333333333333,4,2,0,60,1,0
65577,-71.4285714285714,4,2,0,60,0,0
81576,-133.333333333333,4,2,0,60,0,0
84243,-71.4285714285714,4,2,0,60,0,0
86910,-133.333333333333,4,2,0,60,0,0
89576,-71.4285714285714,4,2,0,60,0,0
91576,-71.4285714285714,4,2,0,65,0,0
92243,-71.4285714285714,4,2,0,70,0,1
97576,-71.4285714285714,4,2,0,70,0,0
102930,333.333333333333,4,2,0,50,1,0
102930,-83.3333333333333,4,2,0,50,0,0
113596,-71.4285714285714,4,2,0,60,0,0
118930,352.319436288902,4,2,0,60,1,0
130204,-100,4,2,0,40,0,0
135841,365.853658536585,4,2,0,40,1,0
138767,333.333333333333,4,2,0,40,1,0
141452,332.871012482663,4,2,0,70,1,0
141452,-71.4285714285714,4,2,0,70,0,1
154766,-71.4285714285714,4,2,0,60,0,0
157429,336.605890603086,4,2,0,60,1,0
157429,-71.4285714285714,4,2,0,60,0,0

[Colours]
Combo1 : 17,254,176
Combo2 : 173,255,95
Combo3 : 255,88,100
Combo4 : 255,94,55

[HitObjects]
104,289,323,6,0,P|174:277|241:249,1,140,2|8,1:0|0:0,0:0:0:0:
104,289,989,1,2,1:2:0:0:
104,289,1156,1,0,1:0:0:0:
231,244,1322,1,8,0:0:0:0:
180,21,1656,6,0,P|110:33|43:61,1,140,2|8,1:2|0:0,0:0:0:0:
180,21,2322,1,0,1:0:0:0:
180,21,2489,1,0,1:0:0:0:
41,53,2656,1,8,0:0:0:0:
302,94,2989,6,0,P|370:79|451:38,1,140,2|8,1:0|0:0,0:0:0:0:
433,49,3489,1,0,1:0:0:0:
433,49,3656,1,2,1:2:0:0:
302,94,3989,1,10,0:0:0:0:
486,259,4322,6,0,P|418:274|337:315,1,140,2|8,1:2|0:0,0:0:0:0:
486,259,4989,1,0,1:0:0:0:
354,303,5322,1,8,0:0:0:0:
78,280,5656,6,0,P|184:267|236:239,1,140,2|8,1:0|0:0,0:0:0:0:
78,280,6322,1,2,1:2:0:0:
78,280,6489,1,0,1:0:0:0:
206,246,6656,1,8,0:0:0:0:
447,49,6989,6,0,P|341:62|289:90,1,140,2|8,1:2|0:0,0:0:0:0:
447,49,7656,1,0,1:0:0:0:
447,49,7822,1,0,1:0:0:0:
305,68,7989,1,8,0:0:0:0:
302,336,8322,6,0,P|316:245|304:172,1,140,2|10,1:0|0:0,0:0:0:0:
310,197,8822,1,2,1:2:0:0:
310,197,8989,1,0,1:0:0:0:
302,336,9322,1,8,0:0:0:0:
219,31,9656,6,0,P|205:122|217:195,1,140,2|8,1:0|0:0,0:0:0:0:
137,27,10322,2,0,P|123:118|135:191,1,140,2|8,1:0|0:0,0:0:0:0:
128,165,10822,1,2,0:0:0:0:
300,222,10989,6,0,P|381:210|453:170,1,140,2|8,1:0|0:0,0:0:0:0:
471,310,11489,2,0,P|390:322|318:362,1,140,2|0,0:1|1:0,0:0:0:0:
338,347,11989,1,8,0:0:0:0:
212,222,12322,6,0,P|131:210|59:170,1,140,2|8,1:0|0:0,0:0:0:0:
41,310,12822,2,0,P|122:322|194:362,1,140,2|0,0:1|1:0,0:0:0:0:
174,347,13322,1,8,0:0:0:0:
287,36,13656,6,0,P|276:93|272:127,1,70,2|0,1:0|0:0,0:0:0:0:
390,170,13989,1,8,0:0:0:0:
239,80,14156,6,0,P|243:137|248:171,1,70,2|2,1:1|1:0,0:0:0:0:
412,175,14489,1,0,0:0:0:0:
204,134,14656,6,0,P|222:188|236:220,1,70,10|0,0:1|0:0,0:0:0:0:
433,181,14989,1,2,1:0:0:0:
184,195,15156,6,0,P|216:243|237:269,1,70,2|8,1:0|0:0,0:0:0:0:
459,187,15489,1,0,0:0:0:0:
173,260,15656,5,2,3:1:0:0:
204,287,15739,1,0,3:0:0:0:
243,301,15822,1,0,3:0:0:0:
285,298,15906,1,0,3:0:0:0:
316,270,15989,1,2,3:1:0:0:
355,255,16072,1,0,3:0:0:0:
394,269,16156,1,0,3:0:0:0:
419,302,16239,1,0,3:0:0:0:
411,343,16322,5,2,1:0:0:0:
295,95,16656,1,8,0:0:0:0:
247,215,16989,1,0,1:0:0:0:
247,215,17156,1,0,1:0:0:0:
333,325,17322,1,8,0:0:0:0:
295,95,17656,5,2,1:0:0:0:
247,215,17989,1,8,0:0:0:0:
424,77,18322,1,2,1:0:0:0:
424,77,18489,1,0,1:0:0:0:
295,95,18656,1,8,0:0:0:0:
508,187,18989,6,0,P|500:252|491:340,1,140,2|8,1:0|0:0,0:0:0:0:
492,326,19489,1,0,1:0:0:0:
492,326,19656,1,0,1:0:0:0:
508,187,19989,1,8,0:0:0:0:
334,325,20322,1,0,1:0:0:0:
334,325,20489,1,2,1:0:0:0:
496,333,20656,1,8,0:0:0:0:
235,320,20989,5,0,3:0:0:0:
246,286,21072,1,0,3:0:0:0:
255,253,21156,1,0,3:0:0:0:
261,218,21239,1,0,3:0:0:0:
264,183,21322,1,0,3:0:0:0:
263,148,21406,1,0,3:0:0:0:
259,114,21489,1,0,3:0:0:0:
251,80,21572,1,0,3:0:0:0:
239,46,21656,6,0,P|225:123|199:170,1,97.9999970092774,6|0,1:1|0:0,0:0:0:0:
24,169,21989,1,8,0:0:0:0:
47,23,22156,2,0,P|128:71|116:164,1,195.999994018555,2|0,0:0|1:2,0:0:0:0:
87,297,22656,1,8,0:0:0:0:
214,170,22822,1,2,0:3:0:0:
87,297,22989,6,0,P|131:336|182:368,1,97.9999970092774,2|0,1:2|0:0,0:0:0:0:
360,338,23322,1,8,0:0:0:0:
250,289,23489,2,0,P|230:239|223:180,1,97.9999970092774,2|0,1:2|1:2,0:0:0:0:
247,72,23822,1,2,1:2:0:0:
316,222,23989,1,8,0:0:0:0:
461,173,24156,6,0,P|479:127|487:79,1,97.9999970092774,2|0,0:1|1:2,0:0:0:0:
488,40,24406,1,0,3:0:0:0:
456,63,24489,1,0,3:0:0:0:
420,78,24572,1,0,3:0:0:0:
380,78,24656,1,8,3:2:0:0:
342,67,24739,1,0,3:0:0:0:
305,52,24822,1,2,1:2:0:0:
268,67,24906,1,0,3:0:0:0:
245,98,24989,5,0,1:2:0:0:
246,137,25072,1,0,3:0:0:0:
272,166,25156,1,0,1:2:0:0:
310,173,25239,1,0,3:0:0:0:
341,195,25322,1,8,3:2:0:0:
349,233,25406,1,0,3:0:0:0:
335,269,25489,1,2,3:2:0:0:
302,290,25572,1,0,3:0:0:0:
263,282,25656,5,0,1:2:0:0:
234,255,25739,1,0,3:0:0:0:
203,230,25822,1,2,1:2:0:0:
163,225,25906,1,0,3:0:0:0:
125,235,25989,1,8,3:2:0:0:
87,243,26072,1,0,3:0:0:0:
47,238,26156,1,2,3:2:0:0:
21,208,26239,1,0,3:0:0:0:
13,169,26322,5,0,1:2:0:0:
32,134,26406,1,0,3:0:0:0:
66,116,26489,1,0,1:2:0:0:
105,117,26572,1,0,3:0:0:0:
139,136,26656,5,10,3:2:0:0:
177,156,26739,1,0,3:0:0:0:
220,161,26822,1,0,3:0:0:0:
263,145,26906,1,0,3:0:0:0:
300,120,26989,5,6,1:1:0:0:
311,216,27156,2,0,P|327:282|342:330,1,97.9999970092774,2|8,0:0|0:0,0:0:0:0:
279,383,27489,1,2,0:3:0:0:
434,290,27656,2,0,P|407:223|424:86,1,195.999994018555,2|8,1:2|0:0,0:0:0:0:
334,26,28156,1,2,0:3:0:0:
304,194,28322,1,2,1:2:0:0:
144,133,28489,1,0,1:0:0:0:
304,194,28656,1,8,0:0:0:0:
142,31,28822,2,0,P|80:80|71:193,1,195.999994018555,2|0,0:0|1:0,0:0:0:0:
164,265,29322,5,8,0:0:0:0:
14,349,29489,1,2,0:0:0:0:
164,265,29656,2,0,P|154:182|139:122,1,97.9999970092774,2|2,1:2|0:3,0:0:0:0:
12,252,29989,1,8,0:0:0:0:
236,353,30156,2,0,P|253:284|262:149,1,195.999994018555,2|0,1:2|1:0,0:0:0:0:
151,167,30656,5,8,0:0:0:0:
351,265,30822,2,0,P|338:330|334:377,1,97.9999970092774,2|0,0:0|1:0,0:0:0:0:
151,167,31156,2,0,P|164:232|168:279,1,97.9999970092774,2|8,1:2|0:0,0:0:0:0:
66,130,31489,2,0,P|82:58|206:19,1,195.999994018555,2|0,0:0|1:0,0:0:0:0:
285,189,31989,1,8,0:0:0:0:
285,189,32322,6,0,P|340:174|387:156,1,83.9999974365235,2|0,1:1|0:0,0:0:0:0:
239,82,32656,1,8,0:0:0:0:
172,197,32822,2,0,P|187:283|215:377,1,167.999994873047,2|0,0:1|1:0,0:0:0:0:
471,323,33322,1,10,0:0:0:0:
471,323,33656,6,0,P|418:340|365:353,1,83.9999974365235,2|0,1:1|0:0,0:0:0:0:
295,361,33989,1,8,0:0:0:0:
471,240,34156,2,0,P|493:191|482:68,1,167.999994873047,2|0,0:1|1:0,0:0:0:0:
367,8,34656,1,8,3:2:0:0:
381,42,34739,1,0,3:0:0:0:
381,81,34822,1,0,3:0:0:0:
372,118,34906,1,0,3:0:0:0:
346,145,34989,6,0,P|292:172|236:155,1,83.9999974365235,2|0,1:0|0:0,0:0:0:0:
138,29,35322,1,8,0:0:0:0:
315,209,35489,6,0,P|255:199|220:152,1,83.9999974365235,2|0,1:0|1:0,0:0:0:0:
183,36,35822,1,0,1:0:0:0:
252,242,35989,6,0,P|209:198|208:140,1,83.9999974365235,10|2,0:1|0:3,0:0:0:0:
234,43,36322,1,0,1:0:0:0:
181,231,36489,6,0,P|172:171|205:123,1,83.9999974365235,2|8,1:0|0:0,0:0:0:0:
282,49,36822,1,0,1:0:0:0:
100,108,36989,6,0,P|72:143|16:164,1,83.9999974365235,2|0,1:0|1:0,0:0:0:0:
81,367,37322,2,0,P|139:323|176:316,1,83.9999974365235,10|0,0:1|1:0,0:0:0:0:
347,369,37656,6,0,P|314:322|326:197,1,146.999995513916,6|0,1:1|0:0,0:0:0:0:
337,194,37989,2,0,P|419:204|467:218,1,97.9999970092774,8|2,0:0|0:1,0:0:0:0:
206,270,38322,1,0,1:0:0:0:
206,270,38489,1,0,1:0:0:0:
290,104,38656,2,0,P|260:35|121:53,1,195.999994018555,8|0,0:0|1:0,0:0:0:0:
149,24,39156,1,0,1:0:0:0:
12,86,39322,2,0,P|14:139|25:201,1,97.9999970092774,8|0,0:0|1:0,0:0:0:0:
109,288,39656,1,0,1:0:0:0:
149,271,39739,1,0,3:0:0:0:
192,264,39822,1,0,1:0:0:0:
235,273,39906,1,0,3:0:0:0:
269,300,39989,1,8,3:2:0:0:
307,320,40072,1,0,3:0:0:0:
351,320,40156,1,2,3:3:0:0:
392,304,40239,1,0,3:0:0:0:
413,265,40322,6,0,P|413:199|396:136,1,97.9999970092774,6|0,1:0|0:0,0:0:0:0:
324,221,40656,1,8,0:0:0:0:
500,285,40822,2,0,P|508:220|494:82,1,195.999994018555,2|0,1:0|0:0,0:0:0:0:
305,37,41322,2,0,P|305:103|322:166,1,97.9999970092774,8|0,0:0|0:0,0:0:0:0:
407,301,41656,6,0,P|285:286|201:335,1,195.999994018555,6|8,1:0|0:2,0:0:0:0:
64,355,42156,1,0,1:1:0:0:
46,331,42239,1,0,3:0:0:0:
38,302,42322,2,0,P|31:276|40:224,1,48.9999985046387,2|0,1:0|3:0,0:0:0:0:
196,219,42489,2,0,P|195:243|189:266,1,48.9999985046387,2|0,1:1|3:0,0:0:0:0:
28,237,42656,2,0,P|21:211|30:159,1,48.9999985046387,2|0,1:0|3:0,0:0:0:0:
181,289,42822,2,0,P|180:313|174:336,1,48.9999985046387,2|0,1:1|3:0,0:0:0:0:
111,233,42989,6,0,P|112:143|110:77,1,140,2|8,0:0|0:0,0:0:0:0:
200,11,43518,2,0,P|199:78|202:190,1,154.000004699707,2|0,0:0|0:0,0:0:0:0:
290,278,44047,2,0,P|292:198|288:80,1,167.999994873047,10|0,0:0|0:0,0:0:0:0:
388,9,44577,2,0,P|386:99|389:218,1,181.999991668702,2|0,0:0|0:0,0:0:0:0:
512,188,45106,2,0,P|510:245|510:278,1,83.9999974365235,2|0,0:0|0:0,0:0:0:0:
429,362,45459,2,0,P|431:305|429:253,1,77.0000023498536,10|0,0:0|0:0,0:0:0:0:
431,54,45812,6,0,P|429:136|432:221,1,140,2|8,1:0|0:0,0:0:0:0:
332,323,46341,2,0,P|337:245|335:139,1,154.000004699707,2|0,1:2|0:0,0:0:0:0:
242,12,46871,2,0,P|245:113|241:206,1,167.999994873047,10|0,0:0|1:0,0:0:0:0:
142,340,47400,2,0,P|138:232|146:130,1,181.999991668702,2|0,1:2|0:0,0:0:0:0:
0,202,47930,2,0,P|2:155|0:104,1,97.9999970092774,2|0,1:2|0:0,0:0:0:0:
81,0,48283,2,0,P|79:50|80:97,1,97.9999970092774,10|0,0:0|0:0,0:0:0:0:
82,363,48636,6,0,P|87:288|81:172,1,181.999991668702,2|8,0:1|0:0,0:0:0:0:
175,64,49165,2,0,P|172:139|179:259,1,167.999994873047,2|0,0:0|0:0,0:0:0:0:
259,343,49694,2,0,P|262:246|258:169,1,154.000004699707,10|0,0:0|0:0,0:0:0:0:
346,95,50224,2,0,P|344:167|347:237,1,140,2|0,0:0|0:0,0:0:0:0:
495,226,50753,2,0,P|496:278|495:315,1,62.9999980773926,2|0,0:0|0:0,0:0:0:0:
415,365,51106,2,0,P|413:320|414:292,1,62.9999980773926,10|0,0:0|0:0,0:0:0:0:
407,78,51459,6,0,P|410:167|407:234,1,140,2|8,1:1|0:0,0:0:0:0:
312,161,51988,2,0,P|315:74|312:-4,1,154.000004699707,2|0,1:2|0:0,0:0:0:0:
224,83,52518,2,0,P|221:155|224:268,1,167.999994873047,10|0,0:0|1:0,0:0:0:0:
131,188,53047,2,0,P|129:118|135:0,1,181.999991668702,2|0,1:2|0:0,0:0:0:0:
5,138,53577,2,0,P|6:211|3:255,1,97.9999970092774,2|0,1:2|0:0,0:0:0:0:
86,363,53930,2,0,P|84:298|85:246,1,97.9999970092774,10|0,0:0|0:0,0:0:0:0:
88,16,54283,6,0,P|84:91|88:195,1,154.000004699707,2|8,0:1|0:0,0:0:0:0:
176,283,54812,2,0,P|179:214|177:101,1,154.000004699707,2|0,0:0|0:0,0:0:0:0:
266,0,55341,2,0,P|264:67|269:187,1,154.000004699707,10|0,0:0|0:0,0:0:0:0:
356,268,55871,2,0,P|357:171|354:92,1,154.000004699707,2|0,0:0|0:0,0:0:0:0:
512,182,56400,2,0,P|509:114|511:74,1,77.0000023498536,2|0,0:0|0:0,0:0:0:0:
431,8,56753,2,0,P|433:61|430:120,1,77.0000023498536,10|0,0:0|0:0,0:0:0:0:
430,303,57106,6,0,P|433:241|428:154,1,125.999996154785,2|8,0:1|0:0,0:0:0:0:
322,14,57636,2,0,P|325:107|322:209,1,181.999991668702,2|0,1:2|0:0,0:0:0:0:
235,280,58165,2,0,P|236:238|239:212,1,35,10|0,0:0|0:0,0:0:0:0:
157,146,58694,2,0,P|156:179|157:202,1,41.9999987182618,2|0,1:2|0:0,0:0:0:0:
2,238,59224,2,0,P|4:282|4:305,1,38.5000011749268,2|0,1:2|0:0,0:0:0:0:
89,361,59577,2,0,P|87:309|88:226,1,97.9999970092774,10|0,0:0|0:0,0:0:0:0:
86,32,59930,6,0,P|85:89|86:186,1,140,2|8,0:1|0:0,0:0:0:0:
174,291,60459,2,0,P|174:227|173:144,1,125.999996154785,2|0,0:0|0:0,0:0:0:0:
260,53,60988,2,0,P|261:119|260:186,1,112,10|0,0:0|0:0,0:0:0:0:
341,274,61518,2,0,P|343:232|343:163,1,97.9999970092774,2|0,0:0|0:0,0:0:0:0:
428,117,62047,2,0,P|428:161|427:177,1,41.9999987182618,2|0,0:0|0:0,0:0:0:0:
512,224,62400,2,0,P|512:180|512:177,1,35,10|0,0:0|0:0,0:0:0:0:
512,189,62753,5,2,0:1:0:0:
424,192,63126,1,8,0:0:0:0:
344,192,63302,1,0,1:0:0:0:
344,192,63478,1,0,1:0:0:0:
256,192,63831,5,8,0:0:0:0:
176,192,64184,1,0,1:0:0:0:
176,192,64361,1,0,1:0:0:0:
88,192,64537,1,8,0:0:0:0:
8,192,64890,1,0,1:0:0:0:
67,314,65047,1,0,3:0:0:0:
99,300,65135,1,0,3:0:0:0:
133,292,65223,1,0,3:0:0:0:
167,289,65311,1,0,3:0:0:0:
201,289,65399,1,0,3:0:0:0:
234,298,65488,1,0,3:0:0:0:
264,311,65577,6,0,P|278:262|284:183,1,97.9999970092774,6|0,1:0|0:0,0:0:0:0:
141,90,65910,2,0,P|147:138|160:185,1,97.9999970092774,8|2,0:0|0:1,0:0:0:0:
348,357,66243,1,0,1:2:0:0:
389,231,66410,1,0,1:2:0:0:
218,259,66577,2,0,P|224:308|237:372,1,97.9999970092774,8|2,0:0|0:3,0:0:0:0:
297,219,66910,2,0,P|272:118|177:108,1,195.999994018555,2|8,1:2|0:0,0:0:0:0:
29,139,67410,1,0,0:0:0:0:
157,18,67577,2,0,P|214:8|296:9,1,97.9999970092774,2|0,1:2|1:2,0:0:0:0:
481,1,67910,6,0,P|449:37|444:192,1,195.999994018555,8|0,0:0|1:2,0:0:0:0:
454,213,68327,1,0,3:0:0:0:
472,247,68410,1,0,3:0:0:0:
482,284,68493,1,0,3:0:0:0:
477,323,68577,1,8,3:2:0:0:
456,355,68660,1,0,3:0:0:0:
421,373,68743,1,0,1:2:0:0:
382,362,68827,1,0,3:0:0:0:
347,343,68910,5,0,1:2:0:0:
339,304,68993,1,0,3:0:0:0:
347,265,69077,1,0,3:0:0:0:
362,229,69160,1,0,3:0:0:0:
363,189,69243,1,8,3:2:0:0:
345,153,69327,1,0,3:0:0:0:
312,130,69410,1,0,3:0:0:0:
273,132,69493,1,0,3:0:0:0:
240,154,69577,5,2,1:2:0:0:
212,181,69660,1,0,3:0:0:0:
173,183,69743,1,0,1:2:0:0:
135,171,69827,1,0,3:0:0:0:
119,132,69910,1,8,3:2:0:0:
125,93,69993,1,0,3:0:0:0:
158,71,70077,1,0,1:2:0:0:
197,72,70160,1,0,3:0:0:0:
230,92,70243,5,2,1:2:0:0:
241,129,70327,1,0,3:0:0:0:
235,167,70410,1,0,1:2:0:0:
224,204,70493,1,0,3:0:0:0:
215,242,70577,1,8,3:2:0:0:
211,280,70660,1,0,3:0:0:0:
211,319,70743,1,0,3:0:0:0:
219,357,70827,1,0,3:0:0:0:
243,384,70910,6,0,P|270:309|269:255,1,97.9999970092774,6|0,1:1|0:0,0:0:0:0:
125,93,71243,2,0,P|101:169|99:222,1,97.9999970092774,8|0,0:0|0:0,0:0:0:0:
51,338,71577,1,0,1:2:0:0:
195,253,71743,1,0,1:2:0:0:
51,162,71910,1,8,0:0:0:0:
37,343,72077,1,2,0:1:0:0:
205,253,72243,5,0,1:2:0:0:
45,263,72410,2,0,P|19:193|17:124,1,97.9999970092774,2|8,0:0|0:0,0:0:0:0:
90,14,72743,2,0,P|89:99|194:151,1,195.999994018555,2|0,0:0|1:2,0:0:0:0:
418,98,73243,1,8,0:0:0:0:
290,149,73410,1,2,0:0:0:0:
319,30,73576,6,0,P|340:191|327:228,1,195.999994018555,0|8,1:2|0:0,0:0:0:0:
221,274,74076,1,0,1:2:0:0:
376,332,74243,2,0,P|439:324|481:325,1,97.9999970092774,0|0,1:2|0:0,0:0:0:0:
241,280,74576,1,8,0:0:0:0:
469,246,74743,2,0,P|482:182|465:115,1,97.9999970092774,2|0,1:2|1:2,0:0:0:0:
396,28,75076,1,2,1:1:0:0:
359,200,75243,5,8,0:0:0:0:
191,164,75410,1,2,0:1:0:0:
371,204,75576,2,0,P|359:259|330:314,1,97.9999970092774,0|0,1:2|1:0,0:0:0:0:
248,382,75910,1,8,3:2:0:0:
248,382,75993,1,0,3:0:0:0:
248,382,76076,1,0,3:0:0:0:
120,289,76243,6,0,P|100:244|90:196,1,97.9999970092774,2|0,1:1|0:0,0:0:0:0:
232,246,76576,1,8,0:0:0:0:
2,255,76743,2,0,P|-7:189|2:46,1,195.999994018555,2|0,0:1|1:2,0:0:0:0:
184,24,77243,1,10,0:0:0:0:
184,24,77576,6,0,P|188:90|211:156,1,97.9999970092774,2|0,1:1|0:0,0:0:0:0:
294,64,77910,1,8,0:0:0:0:
75,92,78076,2,0,P|94:162|157:276,1,195.999994018555,2|0,1:1|1:2,0:0:0:0:
306,316,78576,1,8,3:2:0:0:
342,301,78660,1,0,3:0:0:0:
371,274,78743,1,0,3:0:0:0:
395,244,78826,1,0,3:0:0:0:
412,208,78910,6,0,P|400:144|393:103,1,97.9999970092774,2|0,1:1|0:0,0:0:0:0:
219,178,79243,1,8,0:0:0:0:
444,225,79410,6,0,P|415:166|398:128,1,97.9999970092774,2|0,0:1|1:2,0:0:0:0:
219,224,79743,1,0,1:2:0:0:
479,233,79910,6,0,P|436:183|410:151,1,97.9999970092774,10|0,0:1|0:0,0:0:0:0:
218,277,80243,1,0,1:2:0:0:
512,230,80410,6,0,P|458:193|424:169,1,97.9999970092774,2|8,1:1|0:0,0:0:0:0:
216,328,80743,1,0,1:2:0:0:
361,99,80910,6,0,P|330:178|338:221,1,97.9999970092774,2|0,1:1|1:2,0:0:0:0:
217,374,81243,2,0,P|211:325|186:283,1,97.9999970092774,10|0,0:1|0:0,0:0:0:0:
25,186,81576,5,0,3:0:0:0:
25,191,81660,1,0,3:0:0:0:
25,196,81743,1,0,3:0:0:0:
25,201,81826,1,0,3:0:0:0:
26,206,81910,1,0,3:0:0:0:
26,211,81993,1,0,3:0:0:0:
26,216,82076,1,0,3:0:0:0:
27,221,82160,1,0,3:0:0:0:
27,226,82243,1,0,3:0:0:0:
27,231,82326,1,0,3:0:0:0:
28,236,82410,1,0,3:0:0:0:
28,241,82493,1,0,3:0:0:0:
28,246,82576,1,0,3:0:0:0:
29,251,82660,1,0,3:0:0:0:
29,256,82743,1,0,3:0:0:0:
29,262,82826,1,0,3:0:0:0:
30,267,82910,1,0,3:0:0:0:
30,272,82993,1,0,3:0:0:0:
30,277,83076,1,0,3:0:0:0:
31,282,83160,1,0,3:0:0:0:
31,287,83243,1,0,3:0:0:0:
31,292,83326,1,0,3:0:0:0:
31,297,83410,1,0,3:0:0:0:
32,302,83493,1,0,3:0:0:0:
32,307,83576,1,0,3:0:0:0:
32,312,83660,1,0,3:0:0:0:
33,317,83743,1,0,3:0:0:0:
33,322,83826,1,0,3:0:0:0:
33,327,83910,1,0,3:0:0:0:
34,333,83993,1,0,3:0:0:0:
34,338,84076,1,0,3:0:0:0:
34,343,84160,1,0,3:0:0:0:
35,349,84243,6,0,B|106:342|106:342|160:310|160:310|230:301,1,195.999994018555,6|8,1:0|0:0,0:0:0:0:
346,181,84743,2,0,L|243:196,1,97.9999970092774,2|0,1:0|1:0,0:0:0:0:
31,121,85076,1,0,1:0:0:0:
208,13,85243,1,8,0:0:0:0:
40,124,85410,1,0,0:0:0:0:
204,191,85576,2,0,P|213:129|201:64,1,97.9999970092774,2|0,1:0|0:0,0:0:0:0:
301,272,85910,6,0,P|288:348|302:407,1,97.9999970092774,10|0,0:1|1:0,0:0:0:0:
461,316,86243,1,2,1:1:0:0:
450,293,86326,1,0,3:0:0:0:
442,269,86410,1,0,1:0:0:0:
440,244,86493,1,0,3:0:0:0:
440,219,86576,2,0,P|453:159|456:152,1,48.9999985046387,8|0,3:2|3:0,0:0:0:0:
504,65,86743,2,0,P|509:88|512:113,1,48.9999985046387,0|0,3:0|3:0,0:0:0:0:
358,114,86910,5,0,3:0:0:0:
358,119,86993,1,0,3:0:0:0:
357,124,87076,1,0,3:0:0:0:
357,129,87159,1,0,3:0:0:0:
357,135,87243,1,0,3:0:0:0:
357,140,87326,1,0,3:0:0:0:
356,145,87409,1,0,3:0:0:0:
356,150,87493,1,0,3:0:0:0:
356,155,87576,1,0,3:0:0:0:
356,160,87659,1,0,3:0:0:0:
355,165,87743,1,0,3:0:0:0:
355,170,87826,1,0,3:0:0:0:
355,175,87909,1,0,3:0:0:0:
354,180,87993,1,0,3:0:0:0:
354,185,88076,1,0,3:0:0:0:
354,190,88159,1,0,3:0:0:0:
354,195,88243,1,0,3:0:0:0:
353,200,88326,1,0,3:0:0:0:
353,206,88409,1,0,3:0:0:0:
353,211,88493,1,0,3:0:0:0:
353,216,88576,1,0,3:0:0:0:
352,221,88659,1,0,3:0:0:0:
352,226,88743,1,0,3:0:0:0:
352,231,88826,1,0,3:0:0:0:
351,236,88909,1,0,3:0:0:0:
351,241,88993,1,0,3:0:0:0:
351,246,89076,1,0,3:0:0:0:
351,251,89159,1,0,3:0:0:0:
350,256,89243,1,0,3:0:0:0:
350,261,89326,1,0,3:0:0:0:
350,266,89409,1,0,3:0:0:0:
350,272,89493,1,0,3:0:0:0:
350,276,89576,6,0,B|289:270|289:270|227:289|227:289|134:277,1,195.999994018555,6|8,1:0|0:2,0:0:0:0:
26,158,90076,2,0,P|30:92|38:39,1,97.9999970092774,2|0,1:1|1:0,0:0:0:0:
222,211,90410,1,0,0:0:0:0:
112,108,90576,1,8,0:2:0:0:
234,26,90743,1,2,0:3:0:0:
339,127,90910,5,0,1:0:0:0:
334,151,90993,1,0,3:0:0:0:
330,175,91076,1,0,1:0:0:0:
329,199,91160,1,0,3:0:0:0:
329,223,91243,1,8,3:2:0:0:
329,247,91326,1,0,3:0:0:0:
331,271,91410,1,0,3:0:0:0:
335,295,91493,1,0,3:0:0:0:
341,318,91576,5,2,1:1:0:0:
306,299,91660,1,0,3:0:0:0:
267,290,91743,1,0,1:0:0:0:
227,290,91826,1,0,3:0:0:0:
190,305,91910,1,8,3:2:0:0:
162,332,91993,1,0,3:0:0:0:
128,351,92076,1,0,3:0:0:0:
88,354,92160,1,0,3:0:0:0:
51,340,92243,5,6,1:1:0:0:
192,209,92410,1,2,0:3:0:0:
0,207,92576,1,8,0:2:0:0:
102,263,92743,1,2,0:0:0:0:
77,54,92910,5,2,1:1:0:0:
193,217,93076,1,2,1:3:0:0:
227,43,93243,1,8,0:2:0:0:
99,179,93410,1,2,0:0:0:0:
333,159,93576,5,2,1:1:0:0:
293,278,93743,1,2,0:3:0:0:
412,312,93910,1,8,0:2:0:0:
449,191,94076,1,2,0:3:0:0:
211,214,94243,5,2,1:1:0:0:
223,351,94410,1,2,1:3:0:0:
80,373,94576,1,8,0:2:0:0:
68,229,94743,1,2,0:2:0:0:
300,279,94910,5,2,1:1:0:0:
259,87,95076,1,2,0:3:0:0:
395,219,95243,1,8,0:2:0:0:
193,183,95410,1,2,1:2:0:0:
405,62,95576,5,2,1:1:0:0:
308,172,95743,1,2,0:3:0:0:
248,16,95910,1,8,0:2:0:0:
308,187,96076,1,2,0:2:0:0:
118,156,96243,5,2,1:1:0:0:
234,263,96410,1,2,1:3:0:0:
29,270,96576,1,8,0:2:0:0:
129,155,96743,1,2,0:3:0:0:
185,366,96910,5,2,1:1:0:0:
395,316,97076,1,2,1:1:0:0:
348,105,97243,1,10,0:1:0:0:
279,181,97410,1,2,1:1:0:0:
309,269,97576,5,2,1:1:0:0:
326,187,102930,6,0,P|286:160|273:33,1,167.999994873047,2|0,1:0|0:0,0:0:0:0:
214,218,103430,2,0,P|254:245|267:372,1,167.999994873047,2|0,0:0|1:2,0:0:0:0:
106,345,103930,1,8,0:0:0:0:
106,345,104096,1,2,0:0:0:0:
126,202,104263,2,0,P|142:137|144:85,1,83.9999974365235,0|2,1:2|0:0,0:0:0:0:
37,42,104596,1,8,0:0:0:0:
34,207,104763,2,0,P|52:259|172:280,1,167.999994873047,2|0,0:0|1:2,0:0:0:0:
303,160,105263,1,8,0:0:0:0:
303,160,105596,6,0,P|305:220|312:268,1,83.9999974365235,2|0,1:1|0:0,0:0:0:0:
215,201,105930,1,8,0:0:0:0:
410,270,106096,2,0,P|398:205|396:88,1,167.999994873047,2|0,1:2|0:0,0:0:0:0:
400,13,106596,1,8,0:0:0:0:
486,141,106763,2,0,P|488:201|495:249,1,83.9999974365235,2|0,0:0|1:2,0:0:0:0:
444,366,107096,1,0,1:2:0:0:
444,366,107263,1,8,0:0:0:0:
410,268,107430,2,0,P|331:246|258:301,1,167.999994873047,2|0,1:2|1:2,0:0:0:0:
264,127,107930,1,8,0:0:0:0:
264,127,108263,6,0,P|202:146|69:157,1,167.999994873047,2|8,1:1|0:0,0:0:0:0:
14,274,108763,2,0,P|76:255|209:244,1,167.999994873047,2|0,0:1|1:2,0:0:0:0:
244,313,109263,1,8,0:0:0:0:
244,313,109596,6,0,P|318:287|331:173,1,167.999994873047,2|8,1:1|0:0,0:0:0:0:
102,138,110096,2,0,P|119:207|204:236,1,167.999994873047,2|0,0:1|1:2,0:0:0:0:
363,90,110596,1,8,0:0:0:0:
363,90,110929,6,0,P|358:176|353:197,1,83.9999974365235,2|0,1:1|0:0,0:0:0:0:
150,187,111263,1,8,0:0:0:0:
332,134,111429,6,0,P|332:92|327:50,1,83.9999974365235,2|0,1:1|1:2,0:0:0:0:
186,202,111763,1,0,0:0:0:0:
358,6,111929,6,0,P|363:92|368:113,1,83.9999974365235,10|0,0:1|0:0,0:0:0:0:
226,217,112263,1,0,1:2:0:0:
380,182,112429,6,0,P|380:140|375:98,1,83.9999974365235,2|8,1:1|0:0,0:0:0:0:
260,233,112763,1,0,0:0:0:0:
458,211,112929,6,0,P|475:158|475:98,1,83.9999974365235,2|0,1:1|0:0,0:0:0:0:
274,6,113263,2,0,P|291:59|291:119,1,83.9999974365235,10|0,0:1|0:0,0:0:0:0:
107,147,113596,6,0,P|63:171|65:287,1,146.999995513916,6|0,1:1|0:0,0:0:0:0:
79,286,113929,2,0,P|135:302|196:308,1,97.9999970092774,8|2,0:0|0:1,0:0:0:0:
369,282,114263,1,0,1:0:0:0:
365,154,114429,1,0,1:0:0:0:
253,227,114596,2,0,P|200:198|194:61,1,195.999994018555,8|0,0:0|1:0,0:0:0:0:
185,73,115096,1,0,1:0:0:0:
36,32,115263,2,0,P|56:83|44:169,1,97.9999970092774,8|0,0:0|1:0,0:0:0:0:
22,233,115596,1,0,1:0:0:0:
18,271,115679,1,0,3:0:0:0:
44,306,115763,1,0,1:0:0:0:
79,321,115846,1,0,3:0:0:0:
117,314,115929,1,8,3:2:0:0:
150,293,116013,1,0,3:0:0:0:
188,290,116096,1,0,3:3:0:0:
225,301,116179,1,0,3:0:0:0:
250,331,116263,6,0,P|168:365|134:373,1,97.9999970092774,6|0,1:0|0:0,0:0:0:0:
341,304,116596,1,8,0:0:0:0:
228,215,116763,2,0,P|214:146|307:68,1,195.999994018555,2|0,1:0|0:0,0:0:0:0:
458,270,117263,2,0,P|392:293|333:308,1,97.9999970092774,8|0,0:0|0:0,0:0:0:0:
93,253,117596,6,0,P|75:175|61:44,1,195.999994018555,6|8,1:0|0:2,0:0:0:0:
276,5,118096,1,0,1:1:0:0:
276,34,118179,1,0,3:0:0:0:
272,63,118263,2,0,P|262:119|256:137,1,48.9999985046387,2|0,1:0|3:0,0:0:0:0:
138,94,118429,2,0,P|148:150|154:168,1,48.9999985046387,2|0,1:1|3:0,0:0:0:0:
291,137,118596,2,0,P|281:193|275:211,1,48.9999985046387,2|0,1:0|3:0,0:0:0:0:
138,178,118763,2,0,P|148:234|154:252,1,48.9999985046387,2|0,1:1|3:0,0:0:0:0:
315,306,118929,5,2,0:0:0:0:
149,284,130204,6,0,P|130:221|135:132,1,140,2|0,0:0|0:0,0:0:0:0:
210,47,130732,2,0,P|229:110|224:199,1,140,2|0,0:0|0:0,0:0:0:0:
295,251,131261,2,0,P|352:233|455:224,1,140,2|0,0:0|0:0,0:0:0:0:
321,334,131789,2,0,P|264:352|161:361,1,140,2|0,0:0|0:0,0:0:0:0:
61,303,132318,2,0,P|48:239|45:211,1,70,2|0,0:0|0:0,0:0:0:0:
127,222,132670,2,0,P|132:256|141:291,1,70,2|0,0:0|0:0,0:0:0:0:
287,265,133022,6,0,P|343:235|338:145,1,140,2|0,0:0|0:0,0:0:0:0:
350,164,133551,1,2,0:0:0:0:
203,202,134079,1,2,0:0:0:0:
68,122,134608,1,2,0:0:0:0:
195,15,134960,1,0,0:0:0:0:
195,15,135136,1,2,0:0:0:0:
306,108,135489,2,0,P|358:75|381:19,1,105,2|0,0:0|0:0,0:0:0:0:
410,4,135841,6,0,P|429:79|436:152,1,140,2|0,0:0|0:0,0:0:0:0:
352,183,136389,2,0,P|359:252|377:320,1,140,2|0,0:0|0:0,0:0:0:0:
215,356,136938,2,0,P|206:286|183:202,1,140,2|0,0:0|0:0,0:0:0:0:
106,173,137487,2,0,P|88:105|79:35,1,140,2|0,0:0|0:0,0:0:0:0:
181,5,138036,2,0,P|185:56|194:101,1,70,2|0,0:0|0:0,0:0:0:0:
298,166,138401,2,0,P|303:131|305:96,1,70,2|0,0:0|0:0,0:0:0:0:
411,190,138767,1,2,0:0:0:0:
256,192,138933,12,2,140767,0:0:0:0:
212,159,141452,5,6,1:0:0:0:
360,215,141618,2,0,P|316:294|216:305,1,195.999994018555,2|0,0:0|1:0,0:0:0:0:
124,74,142117,2,0,P|192:55|250:38,1,97.9999970092774,0|0,1:0|1:0,0:0:0:0:
129,190,142450,1,8,0:0:0:0:
306,137,142617,1,2,0:0:0:0:
38,132,142783,6,0,P|23:230|80:338,1,195.999994018555,2|8,1:0|0:0,0:0:0:0:
60,316,143282,1,2,1:0:0:0:
223,257,143449,1,0,1:0:0:0:
327,361,143615,1,0,1:0:0:0:
146,283,143782,1,8,3:2:0:0:
134,245,143865,1,0,3:0:0:0:
126,206,143948,1,0,3:0:0:0:
121,167,144031,1,0,3:0:0:0:
126,128,144114,6,0,P|179:89|286:151,1,195.999994018555,2|8,1:0|0:0,0:0:0:0:
421,114,144614,2,0,P|424:166|413:246,1,97.9999970092774,2|0,1:0|1:0,0:0:0:0:
310,236,144947,1,0,1:0:0:0:
373,39,145113,1,8,0:0:0:0:
373,39,145446,5,2,1:0:0:0:
448,150,145612,2,0,P|445:198|449:247,1,97.9999970092774,0|8,1:0|0:0,0:0:0:0:
275,349,145945,1,2,0:1:0:0:
340,237,146112,1,0,1:0:0:0:
339,188,146195,1,0,3:0:0:0:
306,151,146278,1,0,3:0:0:0:
257,147,146361,1,0,3:0:0:0:
223,183,146445,1,8,3:2:0:0:
174,191,146528,1,0,3:0:0:0:
135,160,146611,1,0,3:0:0:0:
126,111,146694,1,0,3:0:0:0:
155,71,146777,5,6,1:0:0:0:
206,232,146944,2,0,P|191:302|167:351,1,97.9999970092774,2|8,0:0|0:0,0:0:0:0:
61,355,147277,1,0,1:0:0:0:
0,136,147443,2,0,P|111:114|160:176,1,195.999994018555,2|8,1:2|0:0,0:0:0:0:
158,168,147942,1,0,0:0:0:0:
291,316,148109,6,0,P|351:302|421:297,1,97.9999970092774,2|0,1:0|0:0,0:0:0:0:
495,183,148442,1,8,0:0:0:0:
464,353,148608,1,2,0:1:0:0:
495,183,148775,2,0,P|502:121|501:54,1,97.9999970092774,0|0,1:0|1:0,0:0:0:0:
330,8,149108,1,10,3:2:0:0:
280,12,149191,1,0,3:0:0:0:
235,31,149274,1,0,3:0:0:0:
204,69,149357,1,0,3:0:0:0:
194,117,149440,6,0,P|205:184|218:231,1,97.9999970092774,2|0,1:0|0:0,0:0:0:0:
383,222,149773,1,8,0:0:0:0:
247,249,149940,2,0,P|234:323|217:375,1,97.9999970092774,2|0,1:0|1:0,0:0:0:0:
31,328,150273,1,0,1:0:0:0:
146,259,150439,1,10,0:0:0:0:
29,189,150605,6,0,P|16:141|9:93,1,97.9999970092774,0|2,0:0|1:2,0:0:0:0:
25,46,150855,1,0,3:0:0:0:
65,17,150938,1,0,1:0:0:0:
112,7,151022,1,2,3:2:0:0:
156,28,151105,1,8,3:2:0:0:
190,62,151188,1,0,3:0:0:0:
234,81,151271,1,2,3:2:0:0:
282,77,151354,1,0,3:0:0:0:
322,49,151438,5,0,1:0:0:0:
369,39,151521,1,0,3:0:0:0:
408,67,151604,1,0,3:0:0:0:
416,115,151687,1,0,3:0:0:0:
384,152,151771,1,8,3:2:0:0:
335,160,151854,1,0,3:0:0:0:
294,187,151937,1,2,3:2:0:0:
283,234,152020,1,0,3:0:0:0:
301,278,152103,6,0,P|382:252|434:252,1,97.9999970092774,6|0,1:0|0:0,0:0:0:0:
509,246,152436,1,8,0:0:0:0:
265,359,152603,2,0,P|214:336|186:199,1,195.999994018555,2|0,0:1|1:0,0:0:0:0:
23,334,153102,1,8,0:0:0:0:
23,334,153435,6,0,P|49:253|47:203,1,97.9999970092774,2|0,1:0|0:0,0:0:0:0:
7,112,153768,1,8,0:0:0:0:
177,281,153934,2,0,P|181:212|165:70,1,195.999994018555,2|0,1:1|1:0,0:0:0:0:
280,17,154433,1,8,3:2:0:0:
267,64,154517,1,0,0:0:0:0:
267,112,154600,1,0,1:0:0:0:
274,160,154683,1,0,0:0:0:0:
296,203,154766,1,2,3:1:0:0:
256,384,157429,6,0,L|256:320,1,48.9999985046387,6|0,3:1|0:0,0:0:0:0:
256,0,158102,1,2,0:3:0:0:
256,384,158607,1,4,0:3:0:0:
256,384,158775,1,4,0:3:0:0:
256,192,159448,5,2,0:3:0:0:
