osu file format v14

[General]
AudioFilename: audio.mp3
AudioLeadIn: 0
PreviewTime: 17555
Countdown: 0
SampleSet: Normal
StackLeniency: 0.9
Mode: 0
LetterboxInBreaks: 0
WidescreenStoryboard: 1

[Editor]
DistanceSpacing: 1
BeatDivisor: 2
GridSize: 4
TimelineZoom: 1

[Metadata]
Title:Rocket Jump Waltz
TitleUnicode:Rocket Jump Waltz
Artist:Valve Studio Orchestra
ArtistUnicode:Valve Studio Orchestra
Creator:Saltssaumure
Version:// Alternative timing?
Source:Team Fortress 2
Tags:tf2 soldier soundtrack menu
BeatmapID:1373937
BeatmapSetID:629524

[Difficulty]
HPDrainRate:0
CircleSize:0
OverallDifficulty:0
ApproachRate:0
SliderMultiplier:1
SliderTickRate:1

[Events]
//Background and Video events
0,0,"bg.jpg",0,0
//Break Periods
//Storyboard Layer 0 (Background)
//Storyboard Layer 1 (Fail)
//Storyboard Layer 2 (Pass)
//Storyboard Layer 3 (Foreground)
//Storyboard Sound Samples

[TimingPoints]
268,540.540540540541,4,1,0,50,1,0

[Colours]
Combo1 : 184,56,59
Combo2 : 231,181,59
Combo3 : 207,115,54

[HitObjects]
256,192,268,5,0,0:0:0:0:
256,192,538,1,0,0:0:0:0:
256,192,808,1,0,0:0:0:0:
256,192,1078,1,0,0:0:0:0:
256,192,1349,1,0,0:0:0:0:
256,192,1619,1,0,0:0:0:0:
256,192,1889,1,0,0:0:0:0:
256,192,2159,1,0,0:0:0:0:
256,192,2430,1,0,0:0:0:0:
256,192,2700,1,0,0:0:0:0:
256,192,2970,1,0,0:0:0:0:
256,192,3240,1,0,0:0:0:0:
256,192,3511,1,0,0:0:0:0:
256,192,3781,1,0,0:0:0:0:
256,192,4051,1,0,0:0:0:0:
256,192,4322,1,0,0:0:0:0:
256,192,4592,1,0,0:0:0:0:
256,192,4862,1,0,0:0:0:0:
256,192,5132,1,0,0:0:0:0:
256,192,5403,1,0,0:0:0:0:
256,192,5673,1,0,0:0:0:0:
256,192,5943,1,0,0:0:0:0:
256,192,6213,1,0,0:0:0:0:
256,192,6484,1,0,0:0:0:0:
256,192,6754,1,0,0:0:0:0:
256,192,7024,1,0,0:0:0:0:
256,192,7295,1,0,0:0:0:0:
256,192,7565,1,0,0:0:0:0:
256,192,7835,1,0,0:0:0:0:
256,192,8105,1,0,0:0:0:0:
256,192,8376,1,0,0:0:0:0:
256,192,8646,1,0,0:0:0:0:
256,192,8916,1,0,0:0:0:0:
256,192,9186,1,0,0:0:0:0:
256,192,9457,1,0,0:0:0:0:
256,192,9727,1,0,0:0:0:0:
256,192,9997,1,0,0:0:0:0:
256,192,10268,1,0,0:0:0:0:
256,192,10538,1,0,0:0:0:0:
256,192,10808,1,0,0:0:0:0:
256,192,11078,1,0,0:0:0:0:
256,192,11349,1,0,0:0:0:0:
256,192,11619,1,0,0:0:0:0:
256,192,11889,1,0,0:0:0:0:
256,192,12159,1,0,0:0:0:0:
256,192,12430,1,0,0:0:0:0:
256,192,12700,1,0,0:0:0:0:
256,192,12970,1,0,0:0:0:0:
256,192,13240,1,0,0:0:0:0:
256,192,13511,1,0,0:0:0:0:
256,192,13781,1,0,0:0:0:0:
256,192,14051,1,0,0:0:0:0:
256,192,14322,1,0,0:0:0:0:
256,192,14592,1,0,0:0:0:0:
256,192,14862,1,0,0:0:0:0:
256,192,15132,1,0,0:0:0:0:
256,192,15403,1,0,0:0:0:0:
256,192,15673,1,0,0:0:0:0:
256,192,15943,1,0,0:0:0:0:
256,192,16213,1,0,0:0:0:0:
256,192,16484,1,0,0:0:0:0:
256,192,16754,1,0,0:0:0:0:
256,192,17024,1,0,0:0:0:0:
256,192,17295,1,0,0:0:0:0:
256,192,17565,1,0,0:0:0:0:
256,192,17835,1,0,0:0:0:0:
256,192,18105,1,0,0:0:0:0:
256,192,18376,1,0,0:0:0:0:
256,192,18646,1,0,0:0:0:0:
256,192,18916,1,0,0:0:0:0:
256,192,19186,1,0,0:0:0:0:
256,192,19457,1,0,0:0:0:0:
256,192,19727,1,0,0:0:0:0:
256,192,19997,1,0,0:0:0:0:
256,192,20268,1,0,0:0:0:0:
256,192,20538,1,0,0:0:0:0:
256,192,20808,1,0,0:0:0:0:
256,192,21078,1,0,0:0:0:0:
256,192,21349,1,0,0:0:0:0:
256,192,21619,1,0,0:0:0:0:
256,192,21889,1,0,0:0:0:0:
256,192,22159,1,0,0:0:0:0:
256,192,22430,1,0,0:0:0:0:
256,192,22700,1,0,0:0:0:0:
256,192,22970,1,0,0:0:0:0:
256,192,23240,1,0,0:0:0:0:
256,192,23511,1,0,0:0:0:0:
256,192,23781,1,0,0:0:0:0:
256,192,24051,1,0,0:0:0:0:
256,192,24322,1,0,0:0:0:0:
256,192,24592,1,0,0:0:0:0:
256,192,24862,1,0,0:0:0:0:
256,192,25132,1,0,0:0:0:0:
256,192,25403,1,0,0:0:0:0:
256,192,25673,1,0,0:0:0:0:
256,192,25943,1,0,0:0:0:0:
256,192,26213,1,0,0:0:0:0:
256,192,26484,1,0,0:0:0:0:
256,192,26754,1,0,0:0:0:0:
256,192,27024,1,0,0:0:0:0:
256,192,27295,1,0,0:0:0:0:
256,192,27565,1,0,0:0:0:0:
256,192,27835,1,0,0:0:0:0:
256,192,28105,1,0,0:0:0:0:
256,192,28376,1,0,0:0:0:0:
256,192,28646,1,0,0:0:0:0:
256,192,28916,1,0,0:0:0:0:
256,192,29186,1,0,0:0:0:0:
256,192,29457,1,0,0:0:0:0:
256,192,29727,1,0,0:0:0:0:
256,192,29997,1,0,0:0:0:0:
256,192,30268,1,0,0:0:0:0:
256,192,30538,1,0,0:0:0:0:
256,192,30808,1,0,0:0:0:0:
256,192,31078,1,0,0:0:0:0:
256,192,31349,1,0,0:0:0:0:
256,192,31619,1,0,0:0:0:0:
256,192,31889,1,0,0:0:0:0:
256,192,32159,1,0,0:0:0:0:
256,192,32430,1,0,0:0:0:0:
256,192,32700,1,0,0:0:0:0:
256,192,32970,1,0,0:0:0:0:
256,192,33240,1,0,0:0:0:0:
256,192,33511,1,0,0:0:0:0:
256,192,33781,1,0,0:0:0:0:
256,192,34051,1,0,0:0:0:0:
256,192,34322,1,0,0:0:0:0:
256,192,34592,1,0,0:0:0:0:
256,192,34862,1,0,0:0:0:0:
256,192,35132,1,0,0:0:0:0:
256,192,35403,1,0,0:0:0:0:
256,192,35673,1,0,0:0:0:0:
256,192,35943,1,0,0:0:0:0:
256,192,36213,1,0,0:0:0:0:
256,192,36484,1,0,0:0:0:0:
256,192,36754,1,0,0:0:0:0:
256,192,37024,1,0,0:0:0:0:
