osu file format v14

[General]
AudioFilename: audio.mp3
AudioLeadIn: 0
PreviewTime: 44561
Countdown: 0
SampleSet: Soft
StackLeniency: 0.7
Mode: 0
LetterboxInBreaks: 0
WidescreenStoryboard: 1

[Editor]
DistanceSpacing: 1.2
BeatDivisor: 4
GridSize: 32
TimelineZoom: 1.940001

[Metadata]
Title:nevermind
TitleUnicode:nevermind
Artist:Valley
ArtistUnicode:Valley
Creator:Froskya
Version:Narcissistic
Source:
Tags:english pop this is thisisvalley nvm sucks to see you doing better mike brandolino alex alexander dimauro karah james rob laska male female vocals vocalist vocalists revialink riffy bakari aurorance pnky
BeatmapID:3959696
BeatmapSetID:1918826

[Difficulty]
HPDrainRate:6.5
CircleSize:5
OverallDifficulty:8
ApproachRate:9.1
SliderMultiplier:1.7
SliderTickRate:1

[Events]
//Background and Video events
0,0,"my love.jpg",0,0
Video,-620,"nvm.mp4"
//Break Periods
2,146779,148079
//Storyboard Layer 0 (Background)
//Storyboard Layer 1 (Fail)
//Storyboard Layer 2 (Pass)
//Storyboard Layer 3 (Foreground)
//Storyboard Layer 4 (Overlay)
//Storyboard Sound Samples

[TimingPoints]
9023,461.538461538462,4,2,2,70,1,0
9023,-111.111111111111,4,2,2,70,0,0
38561,-111.111111111111,4,2,2,60,0,0
45952,454.545454545455,4,3,1,85,1,1
45952,-83.3333333333333,4,3,1,85,0,1
54474,-83.3333333333333,4,2,1,5,0,1
54588,-83.3333333333333,4,3,1,85,0,1
56292,-83.3333333333333,4,2,1,5,0,1
56406,-83.3333333333333,4,3,1,85,0,1
58565,-83.3333333333333,4,2,1,5,0,1
58679,-83.3333333333333,4,3,1,85,0,1
66292,-83.3333333333333,4,2,1,5,0,1
66406,-83.3333333333333,4,3,1,85,0,1
67202,-83.3333333333333,4,2,1,5,0,1
67315,-83.3333333333333,4,3,1,85,0,1
67770,461.538461538462,4,2,2,40,1,0
67770,-142.857142857143,4,2,2,40,0,0
71462,461.538461538462,4,2,2,70,1,0
71462,-111.111111111111,4,2,2,70,0,0
86231,-142.857142857143,4,2,2,60,0,0
93608,454.545454545455,4,3,1,85,1,1
93608,-83.3333333333333,4,3,1,85,0,1
102130,-83.3333333333333,4,2,1,5,0,1
102244,-83.3333333333333,4,3,1,85,0,1
103948,-83.3333333333333,4,2,1,5,0,1
104062,-83.3333333333333,4,3,1,85,0,1
106221,-83.3333333333333,4,2,1,5,0,1
106335,-83.3333333333333,4,3,1,85,0,1
113948,-83.3333333333333,4,2,1,5,0,1
114062,-83.3333333333333,4,3,1,85,0,1
114858,-83.3333333333333,4,2,1,5,0,1
114971,-83.3333333333333,4,3,1,85,0,1
115426,461.538461538462,4,2,2,40,1,0
115426,-142.857142857143,4,2,2,40,0,0
118656,-142.857142857143,4,2,1,60,0,0
119118,461.538461538462,4,2,2,70,1,0
133887,-90.9090909090909,4,2,1,75,0,0
140810,-90.9090909090909,4,2,1,70,0,0
140925,-90.9090909090909,4,2,1,65,0,0
141041,-90.9090909090909,4,2,1,60,0,0
141156,-90.9090909090909,4,2,1,55,0,0
141271,-200,4,2,1,30,0,0
141387,-200,4,2,1,5,0,0
143118,-200,4,2,1,30,0,0
143233,-200,4,2,1,5,0,0
144964,-200,4,2,1,30,0,0
145079,-200,4,2,1,5,0,0
146579,-200,4,2,1,30,0,0
148663,454.545454545455,4,2,1,70,1,0
148663,-100,4,2,1,70,0,0
148776,-100,4,2,1,5,0,0
149344,-66.6666666666667,4,2,1,70,0,0
149458,-66.6666666666667,4,2,1,5,0,0
150026,-66.6666666666667,4,2,1,70,0,0
150481,-71.4285714285714,4,3,1,85,0,1
159572,-62.5,4,3,1,85,0,1
163208,-71.4285714285714,4,3,1,85,0,1
165253,-66.6666666666667,4,3,1,85,0,1
166844,-71.4285714285714,4,3,1,85,0,1
170481,461.538461538462,4,2,1,40,1,0
170481,-142.857142857143,4,2,2,40,0,0
173711,-142.857142857143,4,2,1,60,0,0
174173,-142.857142857143,4,2,1,85,0,0

[Colours]
Combo1 : 226,221,207
Combo2 : 148,254,185
Combo3 : 111,175,255
Combo4 : 249,236,166

[HitObjects]
472,176,9253,5,2,0:0:0:0:
472,176,9484,1,10,0:2:0:0:
405,277,9715,1,0,3:2:0:0:
294,197,9946,2,0,P|331:203|365:221,1,76.4999976654053,2|2,3:2|0:0,0:0:0:0:
295,313,10407,1,10,0:0:0:0:
230,164,10638,6,0,P|176:195|70:209,1,152.999995330811,2|2,0:2|3:2,0:0:0:0:
8,162,11330,1,8,0:0:0:0:
81,295,11561,1,0,3:0:0:0:
81,295,11792,2,0,P|93:331|102:368,1,76.4999976654053,0|0,3:2|0:0,0:0:0:0:
198,269,12253,1,8,0:0:0:0:
87,210,12484,1,0,0:0:0:0:
162,134,12715,5,0,3:0:0:0:
162,134,12946,1,2,0:0:0:0:
213,253,13176,1,10,0:0:0:0:
277,188,13407,1,2,3:2:0:0:
358,317,13638,2,0,P|367:279|379:243,1,76.4999976654053,2|2,3:2|0:0,0:0:0:0:
421,136,14099,1,10,0:0:0:0:
284,216,14330,6,0,P|270:150|243:65,1,152.999995330811,2|2,0:0|3:2,0:0:0:0:
351,113,15023,1,8,0:0:0:0:
276,235,15253,1,0,3:0:0:0:
276,235,15484,2,0,P|224:214|155:288,1,152.999995330811,0|8,3:0|0:0,0:0:0:0:
237,323,16176,1,0,3:0:0:0:
121,374,16407,5,0,3:2:0:0:
121,374,16638,1,2,0:0:0:0:
42,278,16869,1,10,0:0:0:0:
65,205,17099,1,0,3:2:0:0:
17,354,17330,1,2,3:2:0:0:
156,270,17561,2,0,P|118:278|82:290,1,76.4999976654053,2|8,0:0|0:0,0:0:0:0:
209,187,18023,6,0,P|277:210|369:232,1,152.999995330811,2|2,0:2|3:2,0:0:0:0:
461,250,18715,1,8,0:0:0:0:
352,333,18946,1,0,3:0:0:0:
352,333,19176,1,0,3:0:0:0:
242,231,19407,2,0,P|279:239|315:251,1,76.4999976654053,2|10,0:0|0:0,0:0:0:0:
431,159,19869,5,2,0:0:0:0:
431,159,20099,2,0,P|358:140|256:94,1,152.999995330811,2|8,3:2|0:0,0:0:0:0:
171,10,20792,1,2,3:2:0:0:
171,10,21023,2,0,P|186:45|198:81,2,76.4999976654053,0|2|8,3:2|0:0|0:0,0:0:0:0:
285,110,21715,2,0,P|255:180|236:254,1,152.999995330811,2|0,0:2|3:0,0:0:0:0:
164,367,22407,5,8,0:0:0:0:
119,258,22638,1,0,3:0:0:0:
119,258,22869,1,0,3:0:0:0:
269,339,23099,1,0,3:0:0:0:
269,339,23215,1,8,0:0:0:0:
269,339,23330,1,8,0:2:0:0:
312,224,23561,1,0,3:0:0:0:
406,373,23792,1,2,3:0:0:0:
449,246,24023,5,2,0:0:0:0:
449,246,24253,2,0,P|404:258|360:271,1,76.4999976654053,10|0,0:0|3:2,0:0:0:0:
268,121,24715,1,2,3:2:0:0:
387,177,24946,1,2,0:0:0:0:
288,291,25176,1,10,0:2:0:0:
195,161,25407,6,0,B|102:187|152:239|56:247,1,152.999995330811,2|2,0:0|3:2,0:0:0:0:
30,162,26099,1,8,0:0:0:0:
203,239,26330,2,0,P|192:276|179:323,1,76.4999976654053,2|0,3:2|3:0,0:0:0:0:
297,214,26792,2,0,P|286:177|275:140,1,76.4999976654053,2|8,0:2|0:0,0:0:0:0:
384,258,27253,1,2,0:0:0:0:
384,258,27484,1,0,3:0:0:0:
256,336,27715,5,2,0:0:0:0:
211,209,27946,1,10,0:0:0:0:
93,324,28176,1,0,3:0:0:0:
93,324,28407,2,0,P|125:305|162:311,1,76.4999976654053,2|2,3:2|0:0,0:0:0:0:
269,358,28869,1,10,0:0:0:0:
211,209,29099,6,0,P|159:217|90:143,1,152.999995330811,2|2,2:0|3:2,0:0:0:0:
17,208,29792,1,8,0:0:0:0:
173,134,30023,2,0,P|160:97|151:60,1,76.4999976654053,2|0,3:2|3:0,0:0:0:0:
274,147,30484,2,0,P|261:183|252:220,1,76.4999976654053,2|8,0:2|0:0,0:0:0:0:
373,145,30946,2,0,P|360:108|351:71,1,76.4999976654053,2|0,0:2|3:0,0:0:0:0:
394,224,31407,5,2,0:0:0:0:
278,133,31638,1,10,0:0:0:0:
231,264,31869,1,2,3:2:0:0:
231,264,32099,2,0,P|221:226|209:190,1,76.4999976654053,2|2,3:2|0:0,0:0:0:0:
314,285,32561,1,10,0:0:0:0:
176,347,32792,6,0,P|251:357|325:377,1,152.999995330811,2|2,0:0|3:2,0:0:0:0:
414,314,33484,1,8,0:0:0:0:
366,216,33715,1,2,3:2:0:0:
366,216,33946,1,0,3:0:0:0:
480,127,34176,2,0,P|442:124|410:145,1,76.4999976654053,2|10,0:0|0:0,0:0:0:0:
319,278,34638,5,2,0:0:0:0:
319,278,34869,2,0,P|270:223|196:227,1,152.999995330811,2|8,3:2|0:2,0:0:0:0:
90,356,35561,1,2,3:2:0:0:
90,356,35792,2,0,P|109:319|98:276,2,76.4999976654053,0|2|8,3:2|0:2|0:0,0:0:0:0:
195,227,36484,2,0,P|245:281|320:278,1,152.999995330811,2|0,2:2|3:2,2:0:0:0:
439,194,37176,6,0,P|421:242|410:274,1,76.4999976654053,10|0,0:0|3:0,0:0:0:0:
466,125,37638,1,2,3:2:0:0:
386,342,37869,1,8,0:0:0:0:
386,342,37984,1,0,3:0:0:0:
386,342,38099,1,10,0:2:0:0:
323,199,38330,1,2,3:2:0:0:
213,295,38561,5,0,3:0:0:0:
213,295,38792,1,2,0:0:0:0:
189,224,39023,1,10,0:0:0:0:
244,176,39253,1,0,3:2:0:0:
244,176,39484,1,2,3:2:0:0:
323,199,39715,1,2,0:2:0:0:
372,90,39946,1,10,0:2:0:0:
293,106,40176,1,2,0:2:0:0:
293,106,40638,5,2,3:2:0:0:
395,84,40869,1,10,0:0:0:0:
395,84,40984,1,2,0:0:0:0:
395,84,41099,1,2,3:2:0:0:
323,199,41330,1,2,3:2:0:0:
272,111,41561,1,2,0:0:0:0:
185,159,41792,1,10,0:0:0:0:
236,247,42023,1,2,0:2:0:0:
236,247,42253,1,0,3:0:0:0:
114,204,42484,5,2,0:0:0:0:
185,159,42715,1,10,0:0:0:0:
143,86,42946,1,0,3:2:0:0:
143,86,43176,1,2,3:2:0:0:
54,104,43407,1,2,0:0:0:0:
113,15,43638,1,10,0:0:0:0:
202,33,43869,1,2,0:0:0:0:
202,33,44561,5,2,0:2:0:0:
129,11,44792,1,2,0:2:0:0:
180,119,45023,5,2,0:2:0:0:
253,97,45253,1,2,0:2:0:0:
154,204,45484,5,2,0:2:0:0:
81,182,45715,1,2,0:2:0:0:
182,314,45952,6,0,P|231:302|281:291,1,101.999996887207,6|0,0:2|0:2,0:2:0:0:
250,382,46406,1,8,0:2:0:0:
401,248,46633,6,0,P|351:235|301:224,1,101.999996887207,2|0,0:2|0:2,0:2:0:0:
332,316,47087,1,0,0:2:0:0:
215,180,47315,6,0,P|264:167|314:156,1,101.999996887207,10|0,0:2|0:2,0:2:0:0:
283,248,47769,1,0,0:2:0:0:
239,55,47997,5,2,0:2:0:0:
126,87,48224,1,10,0:2:0:0:
133,205,48452,1,2,0:2:0:0:
239,55,48679,5,2,0:2:0:0:
350,90,48906,1,2,0:2:0:0:
214,180,49133,5,10,0:2:0:0:
322,223,49360,1,2,0:2:0:0:
229,358,49588,6,0,P|186:337|181:284,1,101.999996887207,2|0,0:2|0:2,0:2:0:0:
133,205,50042,1,8,0:2:0:0:
0,311,50270,6,0,P|46:301|65:251,1,101.999996887207,2|0,0:2|0:2,0:2:0:0:
134,186,50724,1,0,0:2:0:0:
114,352,50952,5,10,0:2:0:0:
272,280,51179,1,2,0:2:0:0:
134,186,51407,5,0,0:2:0:0:
134,115,51633,1,0,0:2:0:0:
202,93,51861,1,8,0:2:0:0:
243,151,52088,1,0,0:2:0:0:
202,209,52315,1,0,0:2:0:0:
134,115,52542,5,2,0:2:0:0:
296,64,52770,2,0,L|268:162,1,101.999996887207,10|0,0:2|0:2,0:2:0:0:
88,26,53224,5,2,0:2:0:0:
202,93,53452,1,2,0:2:0:0:
43,147,53679,5,10,0:2:0:0:
178,0,53907,1,2,0:2:0:0:
166,241,54133,6,0,L|202:92,1,152.999995330811,2|0,0:2|0:2,0:2:0:0:
178,0,54588,2,0,P|217:27|265:16,1,101.999996887207,10|0,0:2|0:2,0:2:0:0:
372,177,55042,5,2,0:2:0:0:
271,90,55270,1,2,0:2:0:0:
429,35,55497,5,10,0:2:0:0:
287,173,55724,1,2,0:2:0:0:
480,276,55952,6,0,P|451:210|379:206,1,152.999995330811,2|0,0:2|0:2,0:2:0:0:
302,262,56406,2,0,P|314:214|287:173,1,101.999996887207,10|0,0:2|0:2,0:2:0:0:
130,288,56861,5,2,0:2:0:0:
277,330,57088,1,2,0:2:0:0:
171,198,57315,5,10,0:2:0:0:
307,154,57542,1,2,0:2:0:0:
220,267,57770,5,2,0:2:0:0:
111,127,57997,1,2,0:2:0:0:
316,22,58224,6,0,P|299:96|285:172,1,152.999995330811,10|0,0:2|0:2,0:2:0:0:
362,229,58679,2,0,P|373:177|384:121,1,101.999996887207,2|0,0:2|0:2,0:2:0:0:
270,251,59133,5,10,3:2:0:0:
176,126,59361,1,2,0:2:0:0:
336,50,59588,5,2,0:2:0:0:
221,189,59815,1,2,0:2:0:0:
100,31,60042,5,10,0:2:0:0:
281,123,60270,1,2,0:2:0:0:
99,268,60497,6,0,P|148:277|188:250,1,101.999996887207,6|0,0:2|0:2,0:2:0:0:
200,153,60951,1,8,0:2:0:0:
281,340,61179,6,0,P|319:308|324:260,1,101.999996887207,2|0,0:2|0:2,0:2:0:0:
258,187,61633,1,0,0:2:0:0:
454,245,61861,6,0,P|455:195|420:160,1,101.999996887207,10|0,0:2|0:2,0:2:0:0:
323,165,62315,1,0,0:2:0:0:
412,348,62542,5,2,0:2:0:0:
323,258,62770,1,10,0:2:0:0:
223,337,62997,1,2,0:2:0:0:
412,348,63224,5,2,0:2:0:0:
397,220,63452,1,2,0:2:0:0:
239,261,63679,5,10,0:2:0:0:
258,129,63907,1,2,0:2:0:0:
397,220,64133,6,0,B|351:211|351:211|345:202|345:202|301:192,1,101.999996887207,2|0,0:2|0:2,0:2:0:0:
372,125,64588,1,8,0:2:0:0:
258,245,64815,6,0,B|212:254|212:254|206:263|206:263|162:273,1,101.999996887207,2|0,0:2|0:2,0:2:0:0:
233,340,65270,1,0,0:2:0:0:
118,221,65497,5,10,0:2:0:0:
278,181,65724,1,2,0:2:0:0:
233,340,65952,1,0,0:0:0:0:
118,221,66179,6,0,L|106:171,1,50.9999984436036,2|0,0:2|2:0,0:0:0:0:
43,239,66406,2,0,L|19:139,1,101.999996887207,10|0,0:2|3:0,0:0:0:0:
152,101,66861,1,0,0:0:0:0:
179,262,67088,6,0,L|190:212,1,50.9999984436036,2|0,0:2|2:0,0:0:0:0:
254,280,67315,2,0,L|277:180,1,101.999996887207,10|0,0:2|3:0,0:0:0:0:
159,337,67770,1,0,3:0:0:0:
268,309,68000,5,2,0:0:0:0:
297,303,68116,1,2,0:0:0:0:
325,297,68231,2,0,L|331:326,1,29.7499990921021,10|0,0:0|0:0,0:0:0:0:
386,282,68462,2,0,L|392:311,1,29.7499990921021,2|0,3:2|0:0,0:0:0:0:
447,266,68693,2,0,L|453:295,1,29.7499990921021,2|0,0:0|0:0,0:0:0:0:
432,201,68923,5,2,3:2:0:0:
313,232,69154,1,10,0:2:0:0:
358,159,69385,2,0,L|364:188,1,29.7499990921021,2|0,0:2|0:0,0:0:0:0:
392,311,69616,1,0,3:0:0:0:
313,232,69846,5,2,0:0:0:0:
284,226,69962,1,2,0:0:0:0:
256,220,70077,2,0,L|250:249,1,29.7499990921021,10|0,0:0|0:0,0:0:0:0:
195,205,70308,2,0,L|189:234,1,29.7499990921021,2|0,3:2|0:0,0:0:0:0:
134,189,70539,2,0,L|128:218,1,29.7499990921021,2|0,0:0|0:0,0:0:0:0:
149,124,70770,5,2,3:2:0:0:
268,155,71000,1,10,0:2:0:0:
223,82,71231,2,0,L|217:111,1,29.7499990921021,2|0,0:2|0:0,0:0:0:0:
189,234,71462,5,0,3:0:0:0:
189,234,71692,1,2,0:0:0:0:
135,99,71923,1,10,0:2:0:0:
281,182,72154,1,2,3:2:0:0:
281,182,72385,2,0,B|236:192|252:204|212:216,1,76.4999976654053,2|2,3:2|0:2,0:0:0:0:
302,291,72846,1,10,0:2:0:0:
353,138,73077,6,0,B|439:158|397:186|484:210,1,152.999995330811,2|2,0:0|3:2,0:0:0:0:
484,122,73769,1,8,0:2:0:0:
377,50,74000,2,0,P|389:86|398:123,2,76.4999976654053,2|0|0,3:2|3:0|0:0,0:0:0:0:
484,122,74692,1,10,0:2:0:0:
395,210,74923,1,2,0:0:0:0:
481,280,75154,5,0,3:0:0:0:
481,280,75385,1,2,0:0:0:0:
379,199,75615,1,10,0:2:0:0:
337,282,75846,1,2,3:2:0:0:
252,149,76077,1,2,3:2:0:0:
205,255,76308,2,0,P|236:234|273:225,1,76.4999976654053,2|10,0:0|0:2,0:0:0:0:
157,112,76769,6,0,P|82:95|24:47,1,152.999995330811,2|2,0:0|3:2,0:0:0:0:
54,164,77462,1,8,0:2:0:0:
179,93,77692,1,2,3:2:0:0:
179,93,77923,2,0,P|158:164|142:254,1,152.999995330811,2|8,3:2|0:2,0:0:0:0:
65,186,78615,1,2,0:0:0:0:
94,313,78846,5,0,3:0:0:0:
94,313,79077,1,2,0:0:0:0:
247,221,79308,1,10,0:2:0:0:
179,342,79538,1,2,3:2:0:0:
78,202,79769,1,2,3:2:0:0:
230,244,80000,2,0,P|192:250|155:259,1,76.4999976654053,2|10,0:0|0:2,0:0:0:0:
260,163,80462,6,0,P|320:181|305:266,1,152.999995330811,2|2,0:0|3:2,0:0:0:0:
236,342,81154,1,8,0:0:0:0:
154,228,81385,2,0,P|164:191|167:153,1,76.4999976654053,2|0,3:2|3:2,0:0:0:0:
246,272,81846,1,2,0:0:0:0:
275,129,82077,1,10,0:0:0:0:
417,230,82308,5,2,0:0:0:0:
417,230,82538,2,0,P|379:238|341:271,2,76.4999976654053,2|2|10,3:2|0:0|0:0,0:0:0:0:
493,345,83231,1,2,0:2:0:0:
493,345,83462,2,0,P|459:330|417:318,1,76.4999976654053,2|0,3:2|0:0,0:0:0:0:
508,227,83923,1,10,0:0:0:0:
405,342,84154,6,0,P|354:354|237:386,1,152.999995330811,2|0,0:0|3:0,0:0:0:0:
158,298,84846,2,0,P|190:316|226:307,1,76.4999976654053,10|0,0:0|3:0,0:0:0:0:
306,208,85308,1,2,3:2:0:0:
256,380,85538,1,0,3:0:0:0:
256,380,85654,1,8,0:0:0:0:
256,380,85769,1,10,0:0:0:0:
202,244,86000,1,2,3:2:0:0:
322,324,86231,1,2,3:0:0:0:
343,195,86462,5,2,0:0:0:0:
272,219,86692,1,10,0:0:0:0:
224,164,86923,1,0,3:2:0:0:
224,164,87154,1,2,3:2:0:0:
247,85,87385,1,2,0:2:0:0:
138,36,87615,1,10,0:2:0:0:
154,115,87846,1,2,0:2:0:0:
154,115,88308,5,2,3:2:0:0:
132,13,88538,1,10,0:0:0:0:
132,13,88654,1,2,0:0:0:0:
132,13,88769,1,2,3:2:0:0:
247,85,89000,1,2,3:2:0:0:
159,136,89231,1,2,0:0:0:0:
207,223,89462,1,10,0:0:0:0:
295,172,89692,1,2,0:2:0:0:
295,172,89923,1,0,3:0:0:0:
252,294,90154,5,2,0:0:0:0:
207,223,90385,1,10,0:0:0:0:
134,265,90615,1,0,3:2:0:0:
134,265,90846,1,2,3:2:0:0:
152,354,91077,1,2,0:0:0:0:
63,295,91308,1,10,0:0:0:0:
81,206,91538,1,2,0:0:0:0:
81,206,92231,5,2,0:2:0:0:
67,279,92462,1,2,0:2:0:0:
167,215,92692,5,2,0:2:0:0:
136,146,92923,1,2,0:2:0:0:
254,230,93154,5,2,0:2:0:0:
241,306,93385,1,2,0:2:0:0:
359,190,93608,6,0,P|347:141|336:91,1,101.999996887207,6|0,0:2|0:2,0:2:0:0:
427,122,94062,1,8,0:2:0:0:
277,257,94289,6,0,P|266:207|253:157,1,101.999996887207,2|0,0:2|0:2,0:2:0:0:
185,225,94743,1,0,0:2:0:0:
382,289,94971,6,0,P|370:240|359:190,1,101.999996887207,10|0,0:2|0:2,0:2:0:0:
450,221,95425,1,0,0:2:0:0:
302,371,95653,5,2,0:2:0:0:
277,257,95880,1,10,0:2:0:0:
159,257,96108,1,2,0:2:0:0:
302,371,96335,5,2,0:2:0:0:
418,350,96562,1,2,0:2:0:0:
277,257,96789,5,10,0:2:0:0:
393,236,97016,1,2,0:2:0:0:
338,92,97244,6,0,P|320:141|304:188,1,101.999996887207,2|0,0:2|0:0,0:0:0:0:
265,285,97698,1,8,0:2:0:0:
186,110,97926,6,0,P|204:157|220:206,1,101.999996887207,2|0,0:2|0:0,0:0:0:0:
251,306,98380,1,0,0:2:0:0:
132,186,98608,5,10,0:2:0:0:
90,354,98835,1,2,0:2:0:0:
251,306,99062,5,0,0:2:0:0:
275,370,99288,1,0,0:2:0:0:
347,365,99516,1,8,0:2:0:0:
364,296,99743,1,0,0:2:0:0:
304,258,99970,1,0,0:2:0:0:
275,370,100197,5,2,0:2:0:0:
215,204,100426,2,0,L|313:232,1,101.999996887207,10|0,0:2|0:2,0:2:0:0:
147,382,100880,5,2,0:2:0:0:
250,297,101108,1,2,0:2:0:0:
115,179,101335,5,10,0:2:0:0:
306,109,101562,1,2,0:2:0:0:
72,20,101789,6,0,B|138:46|107:100|177:123,1,152.999995330811,2|0,0:2|0:0,0:0:0:0:
276,102,102244,2,0,P|249:141|260:189,1,101.999996887207,10|0,0:2|0:2,0:2:0:0:
404,59,102698,5,2,0:2:0:0:
316,154,102926,1,2,0:2:0:0:
468,235,103153,5,10,0:2:0:0:
335,80,103380,1,2,0:2:0:0:
265,305,103608,6,0,P|253:229|232:155,1,152.999995330811,2|0,0:2|0:0,0:0:0:0:
305,87,104062,2,0,P|315:136|331:185,1,101.999996887207,10|0,0:2|0:0,0:0:0:0:
198,45,104517,5,2,0:2:0:0:
161,193,104744,1,2,0:2:0:0:
283,76,104971,5,10,0:2:0:0:
320,224,105198,1,2,0:2:0:0:
210,131,105426,5,2,0:2:0:0:
357,30,105653,1,2,0:2:0:0:
492,217,105880,6,0,B|427:205|427:205|406:222|406:222|346:211,1,152.999995330811,10|0,0:2|0:0,0:0:0:0:
311,126,106335,2,0,B|351:132|351:132|366:122|366:122|408:129,1,101.999996887207,2|0,0:2|0:0,0:0:0:0:
278,266,106789,5,10,3:2:0:0:
236,107,107017,1,2,0:2:0:0:
95,240,107244,5,2,0:2:0:0:
259,197,107471,1,2,0:2:0:0:
207,0,107698,5,10,0:2:0:0:
177,217,107926,1,2,0:2:0:0:
6,52,108153,6,0,P|18:101|28:151,1,101.999996887207,6|0,0:2|0:0,0:0:0:0:
3,40,108608,1,8,0:2:0:0:
158,172,108835,6,0,P|148:121|135:72,1,101.999996887207,2|0,0:2|0:0,0:0:0:0:
160,184,109290,1,0,0:2:0:0:
271,14,109517,6,0,P|283:63|293:113,1,101.999996887207,10|0,0:2|0:0,0:0:0:0:
268,2,109972,1,0,0:2:0:0:
310,200,110198,5,2,0:2:0:0:
381,93,110426,1,10,0:2:0:0:
493,152,110653,1,2,0:2:0:0:
310,200,110880,5,2,0:2:0:0:
330,328,111108,1,2,0:2:0:0:
468,242,111335,5,10,0:2:0:0:
454,374,111563,1,2,0:2:0:0:
330,328,111789,6,0,P|380:335|429:348,1,101.999996887207,2|0,0:2|0:0,0:0:0:0:
399,256,112244,1,8,0:2:0:0:
236,246,112471,6,0,P|228:195|215:146,1,101.999996887207,2|0,0:2|0:0,0:0:0:0:
308,177,112926,1,0,0:2:0:0:
250,329,113153,5,10,0:2:0:0:
145,203,113380,1,2,0:2:0:0:
308,177,113608,1,0,0:0:0:0:
249,328,113835,6,0,P|224:329|202:340,1,50.9999984436036,2|0,0:2|2:0,0:0:0:0:
258,253,114062,2,0,P|207:249|163:273,1,101.999996887207,10|0,0:2|3:0,0:0:0:0:
97,384,114517,1,0,0:0:0:0:
26,237,114744,6,0,P|51:237|73:248,1,50.9999984436036,2|0,0:2|2:0,0:0:0:0:
18,161,114971,2,0,P|68:157|112:181,1,101.999996887207,10|0,0:2|3:0,0:0:0:0:
228,339,115426,5,0,3:0:0:0:
322,276,115656,5,2,0:0:0:0:
328,247,115772,1,2,0:0:0:0:
334,219,115887,2,0,L|305:213,1,29.7499990921021,10|0,0:0|0:0,0:0:0:0:
349,158,116118,2,0,L|320:152,1,29.7499990921021,2|0,3:2|0:0,0:0:0:0:
365,97,116349,2,0,L|336:91,1,29.7499990921021,2|0,0:0|0:0,0:0:0:0:
430,112,116579,5,2,3:2:0:0:
399,231,116810,1,10,0:2:0:0:
472,186,117041,2,0,L|443:180,1,29.7499990921021,2|0,0:2|0:0,0:0:0:0:
319,151,117272,6,0,B|257:158|278:187|225:194,1,89.2499972763062,2|0,3:2|0:0,0:0:0:0:
176,207,117733,1,10,0:0:0:0:
113,329,117964,2,0,L|107:300,1,29.7499990921021,0|0,3:2|0:0,0:0:0:0:
90,234,118195,1,2,0:0:0:0:
192,277,118426,1,2,3:2:0:0:
241,190,118656,5,8,0:0:0:0:
294,229,118772,1,8,0:0:0:0:
360,189,118887,5,0,3:0:0:0:
387,208,119002,1,8,3:3:0:0:
459,120,119118,5,4,3:2:0:0:
375,33,119348,6,0,L|383:75,1,42.5,2|0,0:0|0:0,0:0:0:0:
281,129,119579,1,10,0:0:0:0:
292,87,119694,1,0,0:0:0:0:
303,46,119810,1,2,3:2:0:0:
303,195,120041,6,0,L|261:203,1,42.5,2|0,0:0|0:0,0:0:0:0:
192,266,120271,2,0,L|234:274,1,42.5,2|0,3:2|0:0,0:0:0:0:
169,154,120502,1,10,0:0:0:0:
77,278,120733,6,0,L|69:236,1,42.5,2|0,0:0|0:0,0:0:0:0:
140,339,120964,1,0,3:0:0:0:
90,349,121080,1,0,0:0:0:0:
163,260,121194,6,0,L|152:201,1,42.5,2|0,0:0|0:0,0:0:0:0:
238,275,121425,1,8,0:0:0:0:
205,312,121541,1,0,0:0:0:0:
283,383,121656,6,0,L|303:301,1,85,2|0,3:2|0:0,0:0:0:0:
342,270,122002,1,0,0:0:0:0:
268,196,122118,2,0,L|226:203,1,42.5,2|0,3:2|0:0,0:0:0:0:
340,179,122348,6,0,L|329:120,1,42.5,8|0,0:2|0:0,0:0:0:0:
430,205,122579,1,2,0:3:0:0:
413,275,122694,1,2,0:3:0:0:
394,345,122810,1,0,3:0:0:0:
263,305,123041,5,2,0:0:0:0:
329,288,123156,1,2,0:3:0:0:
283,383,123271,2,0,L|241:372,1,42.5,10|0,0:2|0:0,0:0:0:0:
162,310,123502,2,0,L|173:352,1,42.5,2|0,3:2|0:0,0:0:0:0:
92,264,123733,6,0,P|101:245|120:236,1,42.5,2|0,0:0|0:0,0:0:0:0:
134,162,123964,2,0,P|153:154|173:162,1,42.5,2|0,3:2|0:0,0:0:0:0:
226,107,124194,2,0,P|245:116|254:135,1,42.5,10|0,0:2|0:0,0:0:0:0:
269,241,124425,2,0,P|311:232|353:225,1,85,2|0,0:0|3:0,0:0:0:0:
387,250,124771,1,0,0:0:0:0:
456,180,124887,6,0,P|447:161|428:152,1,42.5,2|0,0:0|0:0,0:0:0:0:
414,78,125118,2,0,P|395:70|375:78,1,42.5,10|0,0:2|0:0,0:0:0:0:
300,149,125348,5,2,3:2:0:0:
253,134,125464,1,2,0:3:0:0:
206,118,125579,1,0,0:2:0:0:
159,102,125694,1,2,0:3:0:0:
112,88,125810,2,0,L|70:96,1,42.5,0|0,3:0|0:0,0:0:0:0:
99,193,126041,6,0,L|141:201,1,42.5,8|0,0:0|0:0,0:0:0:0:
0,109,126271,1,2,0:3:0:0:
12,178,126387,1,2,0:3:0:0:
27,249,126502,1,0,3:0:0:0:
159,291,126733,5,2,0:0:0:0:
147,242,126848,1,0,3:0:0:0:
221,179,126964,2,0,L|213:221,1,42.5,10|0,0:0|0:0,0:0:0:0:
265,327,127194,2,0,L|283:243,1,85,2|2,3:2|0:0,0:0:0:0:
318,75,127656,6,0,P|298:66|278:61,1,42.5,2|0,3:2|0:0,0:0:0:0:
373,136,127887,2,0,P|393:127|413:122,1,42.5,10|0,0:2|0:0,0:0:0:0:
342,8,128118,1,2,0:3:0:0:
512,17,128348,6,0,P|498:57|488:98,1,85,0|2,3:0|0:0,0:0:0:0:
428,145,128694,1,0,3:0:0:0:
504,218,128810,2,0,P|484:210|463:204,1,42.5,8|0,0:0|0:0,0:0:0:0:
358,245,129041,2,0,P|398:258|438:272,1,85,2|0,3:2|0:0,0:0:0:0:
321,180,129502,6,0,P|302:190|295:210,1,42.5,2|0,3:2|0:0,0:0:0:0:
232,251,129733,2,0,P|226:271|235:290,1,42.5,10|0,0:2|0:0,0:0:0:0:
296,335,129964,1,2,0:3:0:0:
177,375,130194,6,0,P|164:335|150:295,1,85,2|0,3:2|0:0,0:0:0:0:
95,346,130541,1,0,3:0:0:0:
43,265,130656,2,0,L|90:278,1,42.5,8|0,0:0|0:0,0:0:0:0:
163,172,130887,6,0,B|127:181|127:181|119:195|119:195|88:204,1,85,2|2,3:2|0:3,0:0:0:0:
39,197,131233,1,2,0:3:0:0:
11,155,131348,1,2,0:3:0:0:
28,108,131464,1,2,0:3:0:0:
76,97,131579,6,0,L|64:56,1,42.5,10|0,0:0|0:0,0:0:0:0:
161,106,131810,2,0,L|149:147,1,42.5,2|0,0:0|0:0,0:0:0:0:
228,45,132041,1,0,3:0:0:0:
260,191,132271,5,0,3:2:0:0:
292,171,132387,1,0,3:0:0:0:
333,178,132502,2,0,L|373:191,1,42.5,8|0,0:0|0:0,0:0:0:0:
404,256,132733,2,0,L|489:243,1,85,0|2,3:0|0:3,0:0:0:0:
372,78,133194,5,0,3:2:0:0:
352,110,133310,1,0,0:0:0:0:
359,151,133425,2,0,L|372:191,1,42.5,8|8,0:0|0:0,0:0:0:0:
288,267,133656,5,2,3:2:0:0:
261,196,133771,1,0,3:0:0:0:
235,126,133887,1,2,3:3:0:0:
190,258,134118,5,2,3:2:0:0:
167,187,134233,1,0,1:0:0:0:
72,266,134348,2,0,L|95:174,1,93.5000028533936,2|2,3:2|1:2,3:2:0:0:
256,51,134810,6,0,L|302:60,1,46.7500014266968,2|0,3:2|0:0,0:0:0:0:
166,98,135041,2,0,L|212:107,1,46.7500014266968,2|0,3:2|1:0,0:0:0:0:
99,22,135271,2,0,L|145:31,1,46.7500014266968,2|0,3:2|0:0,0:0:0:0:
7,136,135502,2,0,L|28:45,1,93.5000028533936,2|0,1:2|3:0,0:0:0:0:
221,75,135964,5,2,3:2:0:0:
163,122,136079,1,0,1:0:0:0:
264,197,136194,2,0,P|219:177|175:167,1,93.5000028533936,2|2,3:2|1:2,0:0:0:0:
328,317,136656,6,0,P|314:335|292:341,1,46.7500014266968,2|0,3:2|0:0,0:0:0:0:
411,267,136887,2,0,P|413:289|401:309,1,46.7500014266968,2|0,3:2|1:0,0:0:0:0:
440,174,137118,2,0,P|457:188|463:210,1,46.7500014266968,2|0,3:2|0:0,0:0:0:0:
303,136,137348,2,0,P|300:113|358:59,1,93.5000028533936,2|0,1:2|3:0,0:0:0:0:
351,227,137810,5,2,3:2:0:0:
372,155,137925,1,0,1:0:0:0:
247,205,138041,2,0,B|299:213|276:235|328:246,1,93.5000028533936,2|2,3:2|1:2,0:0:0:0:
142,316,138502,6,0,P|134:338|131:361,1,46.7500014266968,2|0,3:2|0:0,0:0:0:0:
52,245,138733,2,0,P|59:267|62:290,1,46.7500014266968,2|0,3:2|1:0,0:0:0:0:
183,206,138964,2,0,P|171:227|164:248,1,46.7500014266968,2|0,3:2|0:0,0:0:0:0:
26,176,139194,2,0,P|47:168|70:150,1,46.7500014266968,2|0,1:2|0:0,0:0:0:0:
150,20,139425,6,0,P|114:46|122:90,1,93.5000028533936,0|0,3:0|0:0,0:0:0:0:
171,177,139771,1,0,1:0:0:0:
236,119,139887,2,0,P|213:114|190:108,1,46.7500014266968,0|0,3:0|0:0,0:0:0:0:
257,202,140118,2,0,P|279:197|302:191,1,46.7500014266968,0|0,1:0|0:0,0:0:0:0:
391,61,140348,5,2,3:2:0:0:
355,30,140464,1,2,0:0:0:0:
311,47,140579,1,2,1:2:0:0:
301,94,140694,1,2,1:2:0:0:
338,129,140810,5,2,3:2:0:0:
392,160,140925,1,2,0:0:0:0:
429,224,141041,1,2,1:2:0:0:
406,305,141156,5,2,0:0:0:0:
406,305,141271,2,0,B|324:225|193:285|253:383|133:369,1,297.5
60,264,143118,6,0,B|118:245|154:291|154:291|144:185|219:200|187:107,1,297.5
74,32,144964,6,0,B|157:73|139:-2|260:8|214:83|324:47,1,255
187,108,146579,1,0,0:0:0:0:
197,58,148663,6,0,P|170:135|142:58,1,212.5,2|0,0:0|0:0,0:0:0:0:
188,37,149344,6,0,P|172:149|147:39,1,318.750012159348,2|0,0:0|0:0,0:0:0:0:
167,15,150026,5,10,0:2:0:0:
167,15,150481,5,4,1:0:0:0:
282,149,150708,6,0,P|268:190|262:222,1,59.4999981842042,2|0,0:2|2:2,0:2:0:0:
377,143,150935,2,0,P|368:116|344:99,1,59.4999981842042,10|0,0:2|2:0,0:0:0:0:
186,85,151163,2,0,P|200:126|206:158,1,59.4999981842042,2|0,0:2|2:2,0:2:0:0:
246,297,151390,6,0,P|278:285|316:278,1,59.4999981842042,2|0,0:2|2:0,0:0:0:0:
118,177,151617,2,0,P|86:165|48:158,1,59.4999981842042,2|0,0:2|2:0,0:0:0:0:
130,349,151844,6,0,P|157:340|174:316,1,59.4999981842042,10|0,0:2|2:0,0:0:0:0:
229,230,152072,2,0,P|212:205|184:196,1,59.4999981842042,2|0,0:2|2:0,0:0:0:0:
41,352,152299,6,0,P|59:292|75:210,1,118.999996368408,2|0,0:2|0:0,0:0:0:0:
7,97,152640,1,0,2:0:0:0:
7,97,152753,2,0,P|15:129|32:166,1,59.4999981842042,10|0,0:2|2:0,0:0:0:0:
130,349,152981,6,0,P|147:292|159:233,1,118.999996368408,2|2,0:2|0:2,0:0:0:0:
96,94,153322,1,0,2:0:0:0:
96,94,153435,2,0,P|104:126|121:163,1,59.4999981842042,0|0,0:2|2:0,0:0:0:0:
219,346,153663,6,0,P|236:289|248:230,1,118.999996368408,10|2,0:2|0:2,0:0:0:0:
185,91,154004,1,0,2:0:0:0:
185,91,154117,2,0,P|193:123|210:160,1,59.4999981842042,2|0,0:2|2:0,0:0:0:0:
271,214,154344,2,0,P|277:185|289:157,1,59.4999981842042,2|0,0:2|2:0,0:0:0:0:
331,51,154572,2,0,P|337:79|349:107,1,59.4999981842042,10|0,0:2|2:0,0:0:0:0:
391,200,154799,2,0,P|397:171|409:143,1,59.4999981842042,2|0,0:2|2:0,0:0:0:0:
466,37,155026,2,0,P|472:65|484:93,1,59.4999981842042,2|0,0:2|2:0,0:0:0:0:
512,236,155253,6,0,P|491:215|462:209,1,59.4999981842042,2|0,0:2|2:0,0:0:0:0:
404,307,155481,2,0,P|432:302|453:281,1,59.4999981842042,10|0,0:2|2:0,0:0:0:0:
408,143,155708,2,0,P|397:170|391:200,1,59.4999981842042,8|0,0:0|2:0,0:0:0:0:
345,344,155935,6,0,P|317:339|296:318,1,59.4999981842042,4|0,1:0|2:0,0:0:0:0:
252,235,156163,2,0,P|231:213|202:208,1,59.4999981842042,2|0,3:2|2:0,0:0:0:0:
141,345,156390,2,0,P|169:350|196:338,1,59.4999981842042,10|0,3:2|2:0,0:0:0:0:
111,218,156618,2,0,P|82:223|62:245,1,59.4999981842042,2|0,3:2|2:0,0:0:0:0:
208,363,156844,6,0,B|273:333|236:310|299:290,1,118.999996368408,2|0,0:2|0:0,0:0:0:0:
444,381,157185,1,0,2:0:0:0:
444,381,157299,2,0,B|412:366|418:332|418:332|426:274,1,118.999996368408,10|0,0:2|0:0,0:0:0:0:
445,104,157640,5,0,2:0:0:0:
445,104,157753,2,0,P|480:113|500:128,1,59.4999981842042,2|0,0:2|2:0,0:0:0:0:
333,67,157981,2,0,P|357:50|386:44,1,59.4999981842042,2|0,0:2|2:0,0:0:0:0:
248,107,158208,2,0,P|238:71|224:52,1,59.4999981842042,10|0,0:2|2:0,0:0:0:0:
285,219,158435,2,0,P|301:194|307:165,1,59.4999981842042,2|0,0:2|2:0,0:0:0:0:
238,299,158663,6,0,P|181:286|136:330,1,118.999996368408,2|0,0:2|0:0,0:0:0:0:
23,250,159003,1,0,2:0:0:0:
23,250,159117,2,0,P|41:306|51:365,1,118.999996368408,10|0,0:2|0:0,0:0:0:0:
181,256,159458,5,0,2:0:0:0:
180,255,159572,2,0,P|193:224|197:189,1,68,6|0,0:2|2:0,0:0:0:0:
74,135,159799,2,0,P|87:166|91:199,1,68,2|0,0:2|2:0,0:0:0:0:
196,87,160026,2,0,P|228:74|262:71,1,68,10|0,0:2|2:0,0:0:0:0:
403,198,160253,6,0,P|371:187|353:158,1,68,2|0,0:2|2:0,0:0:0:0:
294,66,160481,2,0,P|307:36|337:21,1,68,2|0,0:2|2:0,0:0:0:0:
488,92,160708,6,0,P|477:125|470:158,1,68,2|0,0:2|2:0,0:0:0:0:
300,243,160935,2,0,P|293:209|282:177,1,68,10|0,0:2|2:0,0:0:0:0:
465,271,161163,2,0,P|431:277|399:288,1,68,2|0,0:2|2:0,0:0:0:0:
256,357,161390,6,0,P|289:363|321:375,1,68,2|0,0:2|2:0,0:0:0:0:
182,274,161617,2,0,P|170:305|163:339,1,68,2|0,0:2|2:0,0:0:0:0:
0,256,161844,5,10,0:2:0:0:
21,176,161958,1,8,0:0:0:0:
93,138,162072,1,4,0:0:0:0:
170,167,162185,1,4,0:0:0:0:
207,243,162299,5,4,0:0:0:0:
280,265,162413,1,0,0:0:0:0:
332,210,162526,1,2,0:2:0:0:
304,140,162640,1,0,0:0:0:0:
268,86,162753,5,10,0:2:0:0:
250,42,162868,1,0,0:0:0:0:
284,12,162981,1,2,0:2:0:0:
324,37,163094,1,0,0:0:0:0:
313,81,163208,6,0,P|256:98|197:110,1,118.999996368408,4|0,1:0|0:0,0:0:0:0:
64,34,163549,1,0,2:0:0:0:
64,34,163662,2,0,P|92:40|120:52,1,59.4999981842042,8|0,0:2|2:0,0:0:0:0:
312,165,163890,6,0,P|255:182|196:194,1,118.999996368408,2|0,0:2|0:0,0:0:0:0:
63,118,164231,1,0,2:0:0:0:
63,118,164344,2,0,P|91:124|119:136,1,59.4999981842042,0|0,0:2|2:0,0:0:0:0:
311,248,164572,6,0,P|254:265|195:277,1,118.999996368408,10|0,0:2|0:0,0:0:0:0:
62,201,164913,1,0,2:0:0:0:
62,201,165026,2,0,P|90:207|118:219,1,59.4999981842042,2|0,0:2|2:0,0:0:0:0:
223,379,165253,6,0,P|191:374|170:351,1,63.7500024318696,2|0,0:2|2:0,0:0:0:0:
324,282,165481,2,0,P|309:310|304:341,1,63.7500024318696,10|0,0:2|2:0,0:0:0:0:
432,384,165708,2,0,P|417:355|412:324,1,63.7500024318696,2|0,0:2|2:0,0:0:0:0:
412,90,165935,6,0,P|441:79|472:74,1,63.7500024318696,2|0,3:2|2:0,0:0:0:0:
304,209,166163,2,0,P|275:198|243:193,1,63.7500024318696,2|0,3:2|2:0,0:0:0:0:
315,2,166390,6,0,P|340:22|346:52,1,63.7500024318696,10|0,0:2|2:0,0:0:0:0:
425,116,166617,2,0,P|419:148|396:169,1,63.7500024318696,2|0,0:2|2:0,0:0:0:0:
244,317,166844,6,0,P|226:257|210:175,1,118.999996368408,2|0,0:2|0:0,0:0:0:0:
278,62,167185,1,0,2:0:0:0:
278,62,167298,2,0,P|270:94|253:131,1,59.4999981842042,10|0,0:2|2:0,0:0:0:0:
155,314,167526,6,0,P|138:257|126:198,1,118.999996368408,2|0,0:2|0:2,0:0:0:0:
189,59,167867,1,0,2:0:0:0:
189,59,167980,2,0,P|181:91|164:128,1,59.4999981842042,0|0,0:2|2:0,0:0:0:0:
66,311,168208,6,0,P|49:254|37:195,1,118.999996368408,10|2,0:2|0:2,0:0:0:0:
100,56,168549,1,0,2:0:0:0:
100,56,168663,2,0,P|92:88|75:125,1,59.4999981842042,0|0,0:2|2:0,0:0:0:0:
169,260,168890,6,0,P|157:232|150:203,1,59.4999981842042,2|0,0:2|2:0,0:0:0:0:
262,231,169117,1,10,0:2:0:0:
240,168,169231,1,8,0:0:0:0:
220,105,169344,1,6,0:0:0:0:
356,205,169572,1,0,0:0:0:0:
441,65,169799,5,2,0:2:0:0:
385,36,169913,1,8,3:0:0:0:
336,56,170026,1,10,0:2:0:0:
312,98,170140,1,2,0:2:0:0:
278,121,170253,1,2,0:2:0:0:
241,119,170367,1,2,0:2:0:0:
220,105,170481,1,0,3:0:0:0:
194,214,170711,5,2,0:0:0:0:
165,208,170827,1,2,0:0:0:0:
137,202,170942,2,0,L|131:231,1,29.7499990921021,10|0,0:0|0:0,0:0:0:0:
76,187,171173,2,0,L|70:216,1,29.7499990921021,2|0,3:2|0:0,0:0:0:0:
15,171,171404,2,0,L|9:200,1,29.7499990921021,2|0,0:0|0:0,0:0:0:0:
30,106,171634,5,2,3:2:0:0:
149,137,171865,1,10,0:2:0:0:
104,64,172096,2,0,L|98:93,1,29.7499990921021,2|0,0:2|0:0,0:0:0:0:
70,216,172327,1,0,3:0:0:0:
149,137,172557,5,2,0:0:0:0:
178,131,172673,1,2,0:0:0:0:
206,125,172788,2,0,L|212:154,1,29.7499990921021,10|0,0:0|0:0,0:0:0:0:
267,110,173019,2,0,L|273:139,1,29.7499990921021,2|0,3:2|0:0,0:0:0:0:
328,94,173250,2,0,L|334:123,1,29.7499990921021,2|0,0:0|0:0,0:0:0:0:
313,29,173481,1,2,3:2:0:0:
393,172,173711,5,8,0:0:0:0:
340,211,173827,1,8,0:0:0:0:
274,171,173942,5,0,3:0:0:0:
247,190,174058,1,8,3:3:0:0:
178,131,174173,5,8,3:2:0:0:
