osu file format v14

[General]
AudioFilename: audio.mp3
AudioLeadIn: 0
PreviewTime: 44561
Countdown: 0
SampleSet: Drum
StackLeniency: 0.7
Mode: 0
LetterboxInBreaks: 0
WidescreenStoryboard: 1

[Editor]
DistanceSpacing: 1.2
BeatDivisor: 4
GridSize: 4
TimelineZoom: 1.540001

[Metadata]
Title:nevermind
TitleUnicode:nevermind
Artist:Valley
ArtistUnicode:Valley
Creator:Froskya
Version:Insane (feat. riffy)
Source:
Tags:english pop this is thisisvalley nvm sucks to see you doing better mike brandolino alex alexander dimauro karah james rob laska male female vocals vocalist vocalists revialink riffy bakari aurorance pnky
BeatmapID:3959698
BeatmapSetID:1918826

[Difficulty]
HPDrainRate:6
CircleSize:4
OverallDifficulty:7
ApproachRate:8
SliderMultiplier:1.4
SliderTickRate:1

[Events]
//Background and Video events
0,0,"my love.jpg",0,0
Video,-620,"nvm.mp4"
//Break Periods
2,67770,70712
2,115426,118368
2,141272,147913
2,170566,172961
//Storyboard Layer 0 (Background)
//Storyboard Layer 1 (Fail)
//Storyboard Layer 2 (Pass)
//Storyboard Layer 3 (Foreground)
//Storyboard Layer 4 (Overlay)
//Storyboard Sound Samples

[TimingPoints]
9023,461.538461538462,4,2,2,70,1,0
38561,-100,4,2,2,60,0,0
45952,454.545454545455,4,3,1,85,1,1
54474,-100,4,2,1,5,0,1
54588,-100,4,3,1,85,0,1
56292,-100,4,2,1,5,0,1
56406,-100,4,3,1,85,0,1
58565,-100,4,2,1,5,0,1
58679,-100,4,3,1,85,0,1
66292,-100,4,2,1,5,0,1
66406,-100,4,3,1,85,0,1
67202,-100,4,2,1,5,0,1
67315,-100,4,3,1,85,0,1
67770,461.538461538462,4,2,2,40,1,0
67770,-100,4,2,2,40,0,0
71462,461.538461538462,4,2,2,70,1,0
71462,-100,4,2,2,70,0,0
80808,-100,4,2,2,70,0,0
80923,-100,4,2,2,70,0,0
86231,-100,4,2,2,60,0,0
93608,454.545454545455,4,3,1,85,1,1
102130,-100,4,2,1,5,0,1
102244,-100,4,3,1,85,0,1
103948,-100,4,2,1,5,0,1
104062,-100,4,3,1,85,0,1
106221,-100,4,2,1,5,0,1
106335,-100,4,3,1,85,0,1
113948,-100,4,2,1,5,0,1
114062,-100,4,3,1,85,0,1
114858,-100,4,2,1,5,0,1
114971,-100,4,3,1,85,0,1
115426,461.538461538462,4,2,2,40,1,0
118656,-100,4,2,1,60,0,0
119118,461.538461538462,4,2,2,70,1,0
128464,-100,4,2,2,70,0,0
128579,-100,4,2,2,70,0,0
133887,-100,4,2,1,75,0,0
140811,-100,4,2,1,70,0,0
140926,-100,4,2,1,65,0,0
141041,-100,4,2,1,60,0,0
141157,-100,4,2,1,55,0,0
141272,-100,4,2,1,30,0,0
141388,-100,4,2,1,5,0,0
143120,-100,4,2,1,30,0,0
143235,-100,4,2,1,5,0,0
144964,-100,4,2,1,30,0,0
144968,-100,4,2,1,30,0,0
145079,-100,4,2,1,5,0,0
145083,-100,4,2,1,5,0,0
146579,-100,4,2,1,30,0,0
146584,-100,4,2,1,30,0,0
148663,454.545454545455,4,2,1,70,1,0
148663,-100,4,2,1,70,0,0
148776,-100,4,2,1,5,0,0
149344,-100,4,2,1,70,0,0
149458,-100,4,2,1,5,0,0
150026,-100,4,2,1,70,0,0
150253,-100,4,2,1,70,0,0
150481,-100,4,3,1,85,0,1
170481,461.538461538462,4,2,2,40,1,0
173711,-100,4,2,1,60,0,0
174173,-100,4,2,1,85,0,0

[Colours]
Combo1 : 226,221,207
Combo2 : 148,254,185
Combo3 : 111,175,255
Combo4 : 249,236,166

[HitObjects]
40,190,9253,6,0,L|19:110,2,70,2|10|0,0:0|0:2|3:2,0:0:0:0:
62,271,9946,2,0,P|108:246|162:319,1,140,2|10,3:2|0:0,0:0:0:0:
242,358,10638,2,0,P|293:345|312:345,1,70,2|0,0:2|0:0,0:0:0:0:
367,265,11099,2,0,P|332:259|300:246,1,70,2|8,3:2|0:0,0:0:0:0:
233,202,11561,5,0,3:0:0:0:
233,202,11792,1,0,3:2:0:0:
317,9,12253,1,8,0:0:0:0:
207,24,12484,1,0,0:0:0:0:
270,76,12715,1,0,3:0:0:0:
263,83,12946,6,0,P|211:95|180:103,2,70,2|10|2,0:0|0:0|3:2,0:0:0:0:
326,145,13638,1,2,3:2:0:0:
326,145,13869,1,2,0:0:0:0:
389,89,14099,1,10,0:0:0:0:
439,171,14330,2,0,P|446:204|431:235,1,70,2|0,0:0|0:0,0:0:0:0:
512,290,14792,2,0,P|493:319|461:329,1,70,2|8,3:2|0:0,0:0:0:0:
384,308,15253,5,0,3:0:0:0:
384,308,15484,1,0,3:0:0:0:
185,377,15946,1,8,0:0:0:0:
283,340,16176,1,0,3:0:0:0:
215,303,16407,1,0,3:2:0:0:
206,307,16638,6,0,L|188:232,2,70,2|10|0,0:0|0:0|3:2,0:0:0:0:
124,329,17330,2,0,L|89:173,1,140,2|8,3:2|0:0,0:0:0:0:
40,110,18023,2,0,L|108:94,1,70,2|0,0:2|0:0,0:0:0:0:
175,170,18484,2,0,L|243:185,1,70,2|8,3:2|0:0,0:0:0:0:
323,201,18946,1,0,3:0:0:0:
323,201,19176,1,0,3:0:0:0:
296,295,19407,2,0,L|228:280,1,70,2|10,0:0|0:0,0:0:0:0:
139,323,19869,6,0,L|107:186,1,140,2|0,0:0|0:0,0:0:0:0:
43,131,20561,1,8,0:0:0:0:
99,50,20792,2,0,L|235:81,1,140,2|2,3:2|0:0,0:0:0:0:
291,146,21484,1,8,0:0:0:0:
387,128,21715,2,0,L|355:264,1,140,2|0,0:2|3:0,0:0:0:0:
291,320,22407,5,8,0:0:0:0:
453,359,22869,1,0,3:0:0:0:
487,272,23099,1,0,3:0:0:0:
487,272,23215,1,8,0:0:0:0:
487,272,23330,1,8,0:2:0:0:
407,243,23561,1,0,3:0:0:0:
371,319,23792,5,2,3:0:0:0:
287,277,24023,1,2,0:0:0:0:
288,277,24253,2,0,P|253:272|225:291,1,70,10|0,0:0|3:2,0:0:0:0:
167,351,24715,2,0,P|138:369|104:365,2,70,2|2|10,3:2|0:0|0:2,0:0:0:0:
208,261,25407,2,0,P|198:227|192:192,1,70,2|0,0:0|0:0,0:0:0:0:
109,139,25869,2,0,P|118:105|124:70,1,70,2|8,3:2|0:0,0:0:0:0:
233,233,26330,6,0,P|223:199|217:164,1,70,2|0,3:2|3:0,0:0:0:0:
146,120,26792,2,0,P|155:86|161:51,1,70,2|8,0:2|0:0,0:0:0:0:
228,0,27253,1,2,0:0:0:0:
326,139,27715,5,2,0:0:0:0:
326,139,27946,2,0,P|362:147|414:161,1,70,10|0,0:0|3:0,0:0:0:0:
360,232,28407,2,0,P|367:266|376:300,1,70,2|2,3:2|0:0,0:0:0:0:
305,346,28869,1,10,0:0:0:0:
261,258,29099,2,0,P|227:265|192:274,1,70,2|0,2:0|0:0,0:0:0:0:
139,357,29561,2,0,P|105:348|70:341,1,70,2|8,3:2|0:0,0:0:0:0:
233,233,30023,6,0,P|199:240|164:249,1,70,2|0,3:2|3:0,0:0:0:0:
120,320,30484,2,0,P|86:311|51:304,1,70,2|8,0:2|0:0,0:0:0:0:
7,233,30946,1,2,0:2:0:0:
141,132,31407,5,2,0:0:0:0:
141,132,31638,2,0,P|168:152|203:151,1,70,10|2,0:0|3:2,0:0:0:0:
264,93,32099,2,0,P|291:72|326:73,2,70,2|2|10,3:2|0:0|0:0,0:0:0:0:
220,181,32792,2,0,L|208:258,1,70,2|0,0:0|0:0,0:0:0:0:
289,307,33253,2,0,L|299:237,1,70,2|8,3:2|0:0,0:0:0:0:
317,158,33715,1,2,3:2:0:0:
317,158,33946,1,0,3:0:0:0:
255,81,34176,2,0,P|282:60|317:61,1,70,2|10,0:0|0:0,0:0:0:0:
404,16,34638,6,0,P|415:80|441:165,1,140,2|0,0:0|0:0,0:0:0:0:
495,211,35330,1,8,0:2:0:0:
468,305,35561,2,0,P|407:282|320:262,1,140,2|2,3:2|0:2,0:0:0:0:
253,286,36253,1,8,0:0:0:0:
158,258,36484,2,0,P|180:197|200:110,1,140,2|0,2:2|3:2,0:0:0:0:
177,47,37176,5,10,0:0:0:0:
17,94,37638,1,2,3:2:0:0:
31,186,37869,1,8,0:0:0:0:
31,186,37984,1,0,3:0:0:0:
31,186,38099,1,10,0:2:0:0:
115,171,38330,1,2,3:2:0:0:
108,87,38561,5,0,3:0:0:0:
108,87,38792,1,2,0:0:0:0:
108,87,39023,2,0,L|196:72,1,70,10|0,0:0|3:2,0:0:0:0:
233,12,39484,1,2,3:2:0:0:
305,163,39946,1,10,0:2:0:0:
108,87,40638,5,2,3:2:0:0:
108,87,40869,2,0,L|196:72,1,70,10|2,0:0|3:2,0:0:0:0:
233,12,41330,1,2,3:2:0:0:
305,163,41792,1,10,0:0:0:0:
108,87,42253,5,0,3:0:0:0:
108,87,42484,1,2,0:0:0:0:
108,87,42715,2,0,L|196:72,1,70,10|0,0:0|3:2,0:0:0:0:
233,12,43176,1,2,3:2:0:0:
305,163,43638,1,10,0:0:0:0:
269,86,43869,5,2,0:0:0:0:
69,315,45952,6,0,P|144:320|161:322,1,70,6|0,0:2|0:2,0:0:0:0:
138,320,46406,1,8,0:2:0:0:
292,335,46633,2,0,P|358:339|387:340,1,70,2|0,0:2|0:2,0:0:0:0:
361,340,47088,1,0,0:2:0:0:
227,251,47315,2,0,P|229:207|230:168,1,70,10|0,0:2|0:2,0:0:0:0:
229,181,47770,1,0,0:2:0:0:
221,329,47997,1,2,0:2:0:0:
147,252,48224,6,0,P|112:249|78:248,1,70,10|2,0:2|0:2,0:0:0:0:
147,253,48678,1,2,0:2:0:0:
301,268,48905,2,0,P|335:270|370:272,1,70,2|10,0:2|0:2,0:0:0:0:
296,272,49360,1,2,0:2:0:0:
238,114,49587,6,0,P|237:149|235:184,1,70,2|0,0:2|0:2,0:0:0:0:
225,274,50042,1,8,0:2:0:0:
218,359,50270,2,0,P|159:354|129:352,1,70,2|0,0:2|0:2,0:0:0:0:
148,353,50724,1,0,0:2:0:0:
382,375,50952,2,0,P|340:371|308:368,1,70,10|2,0:2|0:2,0:0:0:0:
326,285,51406,5,0,0:2:0:0:
326,285,51633,1,0,0:2:0:0:
408,303,51861,1,8,0:2:0:0:
408,303,52088,1,0,0:2:0:0:
430,222,52315,1,0,0:2:0:0:
464,74,52542,1,2,0:2:0:0:
383,48,52770,1,10,0:2:0:0:
368,130,52997,1,0,0:2:0:0:
221,101,53224,6,0,P|238:53|245:26,1,70,2|2,0:2|0:2,0:0:0:0:
242,34,53679,1,10,0:2:0:0:
161,13,53906,1,2,0:2:0:0:
123,136,54133,2,0,P|104:193|89:231,1,70,2|0,0:2|0:0,0:0:0:0:
151,299,54588,2,0,P|132:356|117:394,1,70,10|0,0:2|0:2,0:0:0:0:
65,280,55042,5,2,0:2:0:0:
92,200,55270,1,2,0:2:0:0:
172,224,55497,1,10,0:2:0:0:
250,253,55724,1,2,0:2:0:0:
205,137,55952,2,0,P|147:116|121:108,1,70,2|0,0:2|0:0,0:0:0:0:
241,44,56406,2,0,P|288:67|323:83,1,70,10|0,0:2|0:2,0:0:0:0:
465,127,56861,5,2,0:2:0:0:
386,96,57088,1,2,0:2:0:0:
440,210,57315,1,10,0:2:0:0:
405,286,57542,1,2,0:2:0:0:
351,187,57770,2,0,P|334:220|313:264,1,70,2|2,0:2|0:2,0:0:0:0:
363,378,58224,2,0,P|316:354|293:344,1,70,10|0,0:2|0:0,0:0:0:0:
150,269,58679,2,0,P|101:242|78:232,1,70,2|0,0:2|0:2,0:0:0:0:
227,309,59133,5,10,3:2:0:0:
264,233,59361,1,2,0:2:0:0:
131,163,59588,2,0,P|183:190|213:206,1,70,2|2,0:2|0:2,0:0:0:0:
348,264,60042,2,0,P|401:286|429:298,1,70,10|2,0:2|0:2,0:0:0:0:
475,146,60497,6,0,P|459:193|448:229,1,70,6|0,0:2|0:2,0:0:0:0:
452,212,60952,1,8,0:2:0:0:
363,37,61179,2,0,P|354:71|346:105,1,70,2|0,0:2|0:2,0:0:0:0:
346,105,61633,1,0,0:2:0:0:
226,137,61861,2,0,P|208:184|192:226,1,70,10|0,0:2|0:2,0:0:0:0:
200,202,62315,1,0,0:2:0:0:
175,34,62542,5,2,0:2:0:0:
145,112,62770,1,10,0:2:0:0:
67,79,62997,1,2,0:2:0:0:
102,197,63224,2,0,P|57:180|17:163,1,70,2|2,0:2|0:2,0:0:0:0:
52,348,63679,2,0,P|67:303|77:273,1,70,10|2,0:2|0:2,0:0:0:0:
262,250,64133,6,0,P|212:231|179:220,1,70,2|0,0:2|0:2,0:0:0:0:
196,225,64588,1,8,0:2:0:0:
413,306,64815,2,0,P|363:287|330:276,1,70,2|0,0:2|0:2,0:0:0:0:
347,281,65270,1,0,0:2:0:0:
299,165,65497,2,0,P|249:146|216:135,1,70,10|2,0:2|0:2,0:0:0:0:
233,140,65952,1,0,0:0:0:0:
395,136,66179,5,2,0:2:0:0:
500,99,66406,1,10,0:2:0:0:
489,13,66633,1,0,3:0:0:0:
486,23,67088,1,2,0:2:0:0:
407,90,67315,1,10,0:2:0:0:
453,168,67542,1,0,3:0:0:0:
40,328,71462,6,0,P|87:322|211:316,1,140,0|10,3:0|0:2,0:0:0:0:
249,361,72154,1,2,3:2:0:0:
249,361,72385,1,2,3:2:0:0:
317,207,72846,1,10,0:2:0:0:
364,276,73077,2,0,P|384:298|456:233,1,140,2|2,0:0|3:2,0:0:0:0:
460,251,73769,1,8,0:2:0:0:
404,187,74000,5,2,3:2:0:0:
505,53,74462,1,0,0:0:0:0:
403,12,74692,1,10,0:2:0:0:
431,88,74923,1,2,0:0:0:0:
422,92,75154,6,0,P|371:77|271:49,1,140,0|10,3:0|0:2,0:0:0:0:
214,95,75846,1,2,3:2:0:0:
192,13,76077,1,2,3:2:0:0:
192,13,76308,1,2,0:0:0:0:
129,89,76538,1,10,0:2:0:0:
68,29,76769,2,0,P|24:21|15:99,1,140,2|2,0:0|3:2,0:0:0:0:
12,96,77462,1,8,0:2:0:0:
59,257,77923,6,0,P|43:304|28:347,1,70,2|0,3:2|0:0,0:0:0:0:
59,257,78385,1,8,0:2:0:0:
227,235,78846,6,0,P|211:282|196:325,1,70,0|2,3:0|0:0,0:0:0:0:
227,235,79308,1,10,0:2:0:0:
294,284,79538,1,2,3:2:0:0:
355,226,79769,1,2,3:2:0:0:
435,248,80000,1,2,0:0:0:0:
484,180,80231,1,10,0:2:0:0:
508,317,80462,6,0,P|454:335|400:320,1,105,2|0,0:0|0:0,0:0:0:0:
408,324,80923,2,0,L|326:334,1,70,2|8,3:2|0:0,0:0:0:0:
261,366,81385,2,0,P|188:353|117:341,1,140,2|2,3:2|0:0,0:0:0:0:
46,376,82077,1,10,0:0:0:0:
27,269,82308,6,0,P|59:227|129:137,1,140,2|2,0:0|0:0,0:0:0:0:
115,73,83000,1,10,0:0:0:0:
204,119,83231,2,0,P|257:179|308:234,1,140,2|0,0:2|0:0,0:0:0:0:
372,184,83923,1,10,0:0:0:0:
408,259,84154,2,0,P|459:211|509:160,1,140,2|0,0:0|3:0,0:0:0:0:
449,100,84846,5,10,0:0:0:0:
288,148,85308,1,2,3:2:0:0:
208,91,85538,1,0,3:0:0:0:
208,91,85654,1,8,0:0:0:0:
208,91,85769,1,10,0:0:0:0:
162,161,86000,1,2,3:2:0:0:
108,96,86231,5,2,3:0:0:0:
108,96,86462,1,2,0:0:0:0:
108,96,86692,2,0,L|126:18,1,70,10|0,0:0|3:2,0:0:0:0:
206,11,87154,1,2,3:2:0:0:
306,145,87615,1,10,0:2:0:0:
108,96,88308,5,2,3:2:0:0:
108,96,88538,2,0,L|126:18,1,70,10|2,0:0|3:2,0:0:0:0:
206,11,89000,1,2,3:2:0:0:
306,145,89462,1,10,0:0:0:0:
108,96,89923,5,0,3:0:0:0:
108,96,90154,1,2,0:0:0:0:
108,96,90385,2,0,L|126:18,1,70,10|0,0:0|3:2,0:0:0:0:
206,11,90846,1,2,3:2:0:0:
306,145,91308,1,10,0:0:0:0:
222,132,91538,5,2,0:0:0:0:
65,46,93608,6,0,P|60:121|58:138,1,70,6|0,0:2|0:2,0:0:0:0:
60,115,94062,1,8,0:2:0:0:
62,199,94289,2,0,P|58:265|57:294,1,70,2|0,0:2|0:2,0:0:0:0:
57,268,94744,1,0,0:2:0:0:
154,47,94971,2,0,P|198:49|237:50,1,70,10|0,0:2|0:2,0:0:0:0:
71,46,95426,1,0,0:2:0:0:
222,135,95653,5,2,0:2:0:0:
64,130,95880,1,10,0:2:0:0:
146,132,96108,1,2,0:2:0:0:
302,141,96335,2,0,P|306:94|309:66,1,70,2|2,0:2|0:2,0:0:0:0:
291,231,96789,2,0,P|342:237|374:241,1,70,10|2,0:2|0:2,0:0:0:0:
453,155,97244,6,0,P|400:149|373:144,1,70,2|0,0:2|0:0,0:0:0:0:
381,145,97698,1,8,0:2:0:0:
437,325,97926,2,0,P|441:288|446:245,1,70,2|0,0:2|0:0,0:0:0:0:
444,255,98380,1,0,0:2:0:0:
473,73,98608,2,0,P|481:18|485:-17,1,70,10|2,0:2|0:2,0:0:0:0:
473,73,99062,5,0,0:2:0:0:
465,156,99289,1,0,0:2:0:0:
380,150,99517,1,8,0:2:0:0:
385,66,99744,1,0,0:2:0:0:
465,156,99971,1,0,0:2:0:0:
369,237,100198,1,2,0:2:0:0:
299,144,100426,1,10,0:2:0:0:
381,153,100653,1,0,0:2:0:0:
449,314,100880,6,0,P|454:249|456:228,1,70,2|2,0:2|0:2,0:0:0:0:
285,235,101335,2,0,P|283:283|280:323,1,70,10|2,0:2|0:2,0:0:0:0:
284,315,101789,1,2,0:2:0:0:
368,316,102017,1,0,0:0:0:0:
373,237,102244,2,0,P|370:302|368:336,1,70,10|0,0:2|0:2,0:0:0:0:
200,315,102698,6,0,P|140:309|106:307,1,70,2|2,0:2|0:2,0:0:0:0:
370,316,103153,1,10,0:2:0:0:
286,307,103380,1,2,0:2:0:0:
458,326,103608,2,0,P|467:274|472:246,1,70,2|0,0:2|0:0,0:0:0:0:
298,238,104062,2,0,P|291:272|285:306,1,70,10|0,0:2|0:0,0:0:0:0:
385,242,104517,5,2,0:2:0:0:
309,146,104744,1,2,0:2:0:0:
282,318,104971,1,10,0:2:0:0:
208,221,105198,1,2,0:2:0:0:
295,235,105426,1,2,0:2:0:0:
309,146,105653,1,2,0:2:0:0:
291,231,105880,1,10,0:2:0:0:
374,238,106108,1,0,0:0:0:0:
124,217,106335,2,0,P|136:157|138:127,1,70,2|0,0:2|0:0,0:0:0:0:
111,303,106789,5,10,3:2:0:0:
27,288,107017,1,2,0:2:0:0:
188,320,107244,2,0,P|196:277|203:239,1,70,2|2,0:2|0:2,0:0:0:0:
200,251,107698,1,10,0:2:0:0:
214,168,107926,1,2,0:2:0:0:
48,284,108153,6,0,P|82:295|116:304,1,70,6|0,0:2|0:0,0:0:0:0:
116,304,108608,1,8,0:2:0:0:
310,336,108835,2,0,P|364:350|395:357,1,70,2|0,0:2|0:0,0:0:0:0:
377,353,109289,1,0,0:2:0:0:
288,179,109517,2,0,P|266:250|261:267,1,70,10|0,0:2|0:0,0:0:0:0:
234,328,109971,1,0,0:2:0:0:
353,268,110198,5,2,0:2:0:0:
433,293,110426,1,10,0:2:0:0:
466,216,110653,1,2,0:2:0:0:
299,351,110880,2,0,P|253:334|227:325,1,70,2|2,0:2|0:2,0:0:0:0:
466,216,111335,2,0,P|449:264|438:302,1,70,10|2,0:2|0:2,0:0:0:0:
432,49,111789,6,0,P|422:83|410:115,1,70,2|0,0:2|0:0,0:0:0:0:
410,116,112244,1,8,0:2:0:0:
379,208,112471,2,0,P|354:262|345:282,1,70,2|0,0:2|0:0,0:0:0:0:
349,271,112926,1,0,0:2:0:0:
288,178,113153,2,0,P|300:145|313:112,1,70,10|2,0:2|0:2,0:0:0:0:
313,111,113608,1,0,0:0:0:0:
274,24,113835,5,2,0:2:0:0:
217,85,114062,1,10,0:2:0:0:
134,71,114289,1,0,3:0:0:0:
134,71,114744,1,2,0:2:0:0:
75,10,114971,1,10,0:2:0:0:
7,59,115198,1,0,3:0:0:0:
262,52,119118,5,4,3:2:0:0:
262,52,119348,1,2,0:0:0:0:
208,117,119579,1,10,0:0:0:0:
216,134,119694,1,0,0:0:0:0:
189,169,119810,1,2,3:2:0:0:
123,113,120041,1,2,0:0:0:0:
44,215,120271,1,2,3:2:0:0:
134,285,120502,2,0,P|143:258|141:234,1,35,10|0,0:0|0:0,0:0:0:0:
130,248,120733,2,0,P|128:297|144:319,1,70,2|0,0:0|3:0,0:0:0:0:
344,354,121194,6,0,P|399:344|485:327,2,140,2|2|2,0:0|3:2|3:2,0:0:0:0:
490,336,122348,1,8,0:2:0:0:
337,241,122579,1,2,0:3:0:0:
355,268,122694,1,2,0:3:0:0:
300,298,122810,6,0,P|302:240|374:192,1,140,0|10,3:0|0:2,0:0:0:0:
436,234,123502,1,2,3:2:0:0:
372,371,123733,2,0,L|324:376,1,35,2|0,0:0|0:0,0:0:0:0:
319,360,123964,1,2,3:2:0:0:
216,375,124194,1,10,0:2:0:0:
136,300,124425,1,2,0:0:0:0:
99,306,124541,1,0,0:0:0:0:
84,365,124656,6,0,P|141:345|147:248,1,140,0|10,3:0|0:2,0:0:0:0:
11,192,125348,2,0,L|-1:250,1,35,2|2,3:2|0:3,0:0:0:0:
61,302,125579,1,0,0:2:0:0:
61,277,125694,1,2,0:3:0:0:
90,244,125810,2,0,L|99:211,1,35,0|0,3:0|0:0,0:0:0:0:
100,96,126041,2,0,L|64:79,1,35,8|0,0:0|0:0,0:0:0:0:
216,153,126271,1,2,0:3:0:0:
232,146,126387,1,2,0:3:0:0:
259,163,126502,6,0,P|271:126|194:81,1,140,0|10,3:0|0:0,0:0:0:0:
165,235,127194,1,2,3:2:0:0:
236,278,127425,1,2,0:0:0:0:
197,384,127656,1,2,3:2:0:0:
172,317,127887,1,10,0:2:0:0:
350,297,128118,6,0,P|317:347|264:361,1,105,2|0,0:3|0:0,0:0:0:0:
268,350,128579,2,0,P|311:321|336:322,1,70,2|8,0:0|0:0,0:0:0:0:
504,355,129041,2,0,P|441:365|353:382,1,140,2|2,3:2|3:2,0:0:0:0:
232,261,129733,1,10,0:2:0:0:
278,349,129964,1,2,0:3:0:0:
403,243,130194,6,0,P|343:253|325:289,1,105,2|0,3:2|3:0,0:0:0:0:
337,296,130656,1,8,0:0:0:0:
236,182,130887,2,0,P|155:154|79:136,1,140,2|2,3:2|0:3,0:0:0:0:
15,269,131579,2,0,L|65:254,1,35,10|0,0:0|0:0,0:0:0:0:
74,274,131810,1,2,0:0:0:0:
16,168,132041,6,0,C|143:170|157:233|233:230|299:308|389:328|386:280,1,490,0|2,3:0|3:2,0:0:0:0:
445,245,133887,5,2,3:3:0:0:
290,306,134118,2,0,L|279:348,2,35,2|0|2,3:2|1:0|3:2,0:0:0:0:
242,236,134579,1,2,1:2:0:0:
184,296,134810,1,2,3:2:0:0:
184,296,135041,1,2,3:2:0:0:
184,296,135271,1,2,3:2:0:0:
305,192,135502,1,2,1:2:0:0:
445,245,135733,5,0,3:0:0:0:
290,306,135964,2,0,L|279:348,2,35,2|0|2,3:2|1:0|3:2,0:0:0:0:
242,236,136425,1,2,1:2:0:0:
184,296,136656,1,2,3:2:0:0:
184,296,136887,1,2,3:2:0:0:
184,296,137118,1,2,3:2:0:0:
305,192,137348,1,2,1:2:0:0:
445,245,137579,5,0,3:0:0:0:
290,306,137810,2,0,L|279:348,2,35,2|0|2,3:2|1:0|3:2,0:0:0:0:
242,236,138271,1,2,1:2:0:0:
184,296,138502,1,2,3:2:0:0:
184,296,138733,1,2,3:2:0:0:
184,296,138964,1,2,3:2:0:0:
305,192,139194,1,2,1:2:0:0:
445,245,139425,5,0,3:0:0:0:
305,296,139771,2,0,L|294:338,1,35,0|0,1:0|3:0,0:0:0:0:
242,236,140118,1,0,1:0:0:0:
170,314,140348,1,2,3:2:0:0:
165,328,140464,1,2,0:0:0:0:
181,357,140579,1,2,1:2:0:0:
229,357,140694,1,2,1:2:0:0:
244,312,140810,1,2,3:2:0:0:
270,298,140925,1,2,0:0:0:0:
301,325,141041,1,2,1:2:0:0:
62,180,148663,5,2,0:0:0:0:
109,105,149344,1,2,0:0:0:0:
90,27,150026,2,0,P|35:21|20:43,1,70,10|0,0:2|0:0,0:0:0:0:
249,95,150481,6,0,P|171:103|94:106,1,140,4|10,1:0|0:2,0:0:0:0:
62,175,151163,1,2,0:2:0:0:
144,288,151390,2,0,P|137:250|131:212,1,70,2|2,0:2|0:2,0:0:0:0:
55,304,151844,1,10,0:2:0:0:
139,297,152072,1,2,0:2:0:0:
304,356,152299,6,0,P|261:318|199:334,1,105,2|0,0:2|2:0,0:0:0:0:
192,363,152753,1,10,0:2:0:0:
113,332,152981,2,0,P|85:300|36:287,1,70,2|2,0:2|0:2,0:0:0:0:
119,210,153435,2,0,L|107:165,1,35,0|0,0:2|2:0,0:0:0:0:
55,154,153663,1,10,0:2:0:0:
109,86,153890,1,2,0:2:0:0:
30,14,154117,5,2,0:2:0:0:
314,159,154572,1,10,0:2:0:0:
468,63,155026,1,2,0:2:0:0:
392,88,155253,5,2,0:2:0:0:
381,201,155481,1,10,0:2:0:0:
481,255,155708,1,8,0:0:0:0:
387,367,155935,6,0,P|394:310|401:274,1,70,4|2,1:0|3:2,0:0:0:0:
228,352,156390,2,0,P|291:363|320:366,1,70,10|2,3:2|3:2,0:0:0:0:
242,268,156844,1,2,0:2:0:0:
158,253,157072,1,0,0:0:0:0:
58,330,157299,1,10,0:2:0:0:
147,346,157526,1,0,0:0:0:0:
69,238,157753,6,0,P|78:191|86:150,1,70,2|2,0:2|0:2,0:0:0:0:
22,27,158208,2,0,P|12:73|0:125,1,70,10|2,0:2|0:2,0:0:0:0:
112,29,158663,1,2,0:2:0:0:
194,42,158890,1,0,0:0:0:0:
331,156,159117,1,10,0:2:0:0:
248,139,159344,1,0,0:0:0:0:
427,45,159572,6,0,P|441:120|453:197,1,140,6|10,0:2|0:2,0:0:0:0:
510,97,160253,1,2,0:2:0:0:
365,215,160481,2,0,P|355:171|370:144,1,70,2|2,0:2|0:2,0:0:0:0:
512,260,160935,2,0,P|499:315|486:357,1,70,10|2,0:2|0:2,0:0:0:0:
389,374,161390,5,2,0:2:0:0:
316,287,161617,1,2,0:2:0:0:
400,372,161844,1,10,0:2:0:0:
400,350,161958,1,8,0:0:0:0:
426,313,162072,1,4,0:0:0:0:
412,288,162185,1,4,0:0:0:0:
428,267,162299,2,0,L|442:218,1,35,4|0,0:0|0:0,0:0:0:0:
409,162,162526,2,0,L|391:118,1,35,2|0,0:2|0:0,0:0:0:0:
467,1,162753,1,10,0:2:0:0:
491,7,162867,1,0,0:0:0:0:
506,57,162981,1,2,0:2:0:0:
489,74,163094,1,0,0:0:0:0:
416,55,163208,6,0,P|359:45|340:40,1,70,4|0,1:0|0:0,0:0:0:0:
347,42,163663,1,8,0:2:0:0:
181,45,163890,2,0,P|131:36|107:31,1,70,2|0,0:2|0:0,0:0:0:0:
112,32,164344,1,0,0:2:0:0:
248,130,164572,2,0,P|237:178|226:212,1,70,10|0,0:2|0:0,0:0:0:0:
283,347,165026,5,2,0:2:0:0:
152,238,165253,1,2,0:2:0:0:
342,218,165481,2,0,P|309:244|266:249,1,70,10|2,0:2|0:2,0:0:0:0:
235,160,165935,2,0,L|227:120,1,35,2|0,3:2|2:0,0:0:0:0:
247,75,166163,1,2,3:2:0:0:
125,160,166390,1,10,0:2:0:0:
200,232,166617,1,2,0:2:0:0:
94,367,166844,6,0,P|61:346|41:275,1,105,2|0,0:2|2:0,0:0:0:0:
67,264,167299,1,10,0:2:0:0:
125,174,167526,2,0,P|80:160|40:152,1,70,2|0,0:2|0:2,0:0:0:0:
20,65,167981,1,0,0:2:0:0:
81,8,168208,1,10,0:2:0:0:
152,51,168435,1,2,0:2:0:0:
269,16,168663,5,0,0:2:0:0:
288,97,168890,1,2,0:2:0:0:
312,182,169117,1,10,0:2:0:0:
312,182,169231,1,8,0:0:0:0:
312,182,169344,1,6,0:0:0:0:
328,259,169572,1,0,0:0:0:0:
333,261,169685,1,0,0:0:0:0:
339,267,169799,1,2,0:2:0:0:
354,290,169913,1,8,3:0:0:0:
338,328,170026,1,10,0:2:0:0:
357,349,170140,1,2,0:2:0:0:
412,361,170253,2,0,L|451:353,1,35,2|2,0:2|0:2,0:0:0:0:
446,353,173711,6,0,L|438:315,1,35,8|8,0:0|0:0,0:0:0:0:
456,287,173942,1,0,3:0:0:0:
419,247,174057,1,8,3:3:0:0:
456,202,174173,1,8,3:2:0:0:
