osu file format v14

[General]
AudioFilename: audio.mp3
AudioLeadIn: 0
PreviewTime: 28471
Countdown: 1
SampleSet: None
StackLeniency: 0.7
Mode: 1
LetterboxInBreaks: 0
WidescreenStoryboard: 1

[Editor]
DistanceSpacing: 1.3
BeatDivisor: 4
GridSize: 32
TimelineZoom: 1.378163

[Metadata]
Title:Eu Sou a Diva que Voce Quer Copiar
TitleUnicode:Eu Sou a Diva que VocĂȘ Quer Copiar
Artist:Valesca Popozuda
ArtistUnicode:Valesca Popozuda
Creator:ARGENTINE DREAM
Version:Normal
Source:
Tags:brazil brasil brazilian pop portuguese portugues gaiola das popozudas 2014 latin south america
BeatmapID:1839098
BeatmapSetID:879423

[Difficulty]
HPDrainRate:6
CircleSize:5
OverallDifficulty:4
ApproachRate:5
SliderMultiplier:1.4
SliderTickRate:3

[Events]
//Background and Video events
0,0,"Valesca-Popozuda5.jpg",0,0
//Break Periods
//Storyboard Layer 0 (Background)
//Storyboard Layer 1 (Fail)
//Storyboard Layer 2 (Pass)
//Storyboard Layer 3 (Foreground)
//Storyboard Sound Samples

[TimingPoints]
290,454.545454545455,4,1,0,50,1,0
5290,-100,4,1,0,5,0,0
6199,-100,4,1,0,50,0,0
13244,-100,4,1,0,5,0,0
14835,-100,4,1,0,50,0,0
28017,-100,4,1,0,5,0,0
29835,-100,4,1,0,50,0,0
30744,-83.3333333333333,4,1,0,50,0,0
31199,-100,4,1,0,50,0,1
45744,-100,4,1,0,50,0,0
47108,-83.3333333333333,4,1,0,50,0,0
47562,-100,4,1,0,50,0,0
60744,-100,4,1,0,5,0,0
62108,-100,4,1,0,50,0,0
63471,-83.3333333333333,4,1,0,50,0,0
63926,-100,4,1,0,50,0,1
76653,-100,4,1,0,50,0,0
78017,-83.3333333333333,4,1,0,50,0,0
78471,-100,4,1,0,50,0,0
91653,-100,4,1,0,5,0,0
93471,-100,4,1,0,50,0,0
94380,-83.3333333333333,4,1,0,50,0,0
94835,-100,4,1,0,50,0,1
109380,-100,4,1,0,50,0,0
124380,-100,4,1,0,5,0,0
125744,-100,4,1,0,50,0,0
127108,-83.3333333333333,4,1,0,50,0,0
127562,-100,4,1,0,50,0,1
140744,-100,4,1,0,50,0,1
141199,-100,4,1,0,50,0,1
142108,-83.3333333333333,4,1,0,50,0,0

[HitObjects]
256,192,5290,8,0,5744,0:0:0:0:
224,224,7108,5,0,0:0:0:0:
224,160,7411,1,8,0:0:0:0:
224,160,7562,1,8,0:0:0:0:
224,224,8017,1,0,0:0:0:0:
224,160,8926,1,8,0:0:0:0:
224,224,9229,1,0,0:0:0:0:
224,224,9380,1,0,0:0:0:0:
224,224,10745,1,0,0:0:0:0:
224,160,11048,1,8,0:0:0:0:
224,160,11199,1,8,0:0:0:0:
224,224,11654,1,0,0:0:0:0:
224,160,12563,1,8,0:0:0:0:
224,224,12866,1,0,0:0:0:0:
224,224,13017,1,0,0:0:0:0:
256,192,13244,8,0,14380,0:0:0:0:
224,160,14835,5,8,0:0:0:0:
224,224,15290,1,0,0:0:0:0:
224,160,15517,1,8,0:0:0:0:
224,160,15971,1,8,0:0:0:0:
224,160,16199,1,8,0:0:0:0:
224,224,16426,1,0,0:0:0:0:
224,224,16653,1,0,0:0:0:0:
224,160,17108,1,8,0:0:0:0:
224,224,17335,1,0,0:0:0:0:
224,160,17790,1,8,0:0:0:0:
224,160,18017,1,8,0:0:0:0:
224,224,18244,5,0,0:0:0:0:
224,224,18471,1,0,0:0:0:0:
224,160,18926,1,8,0:0:0:0:
224,160,19153,1,8,0:0:0:0:
224,160,19608,1,8,0:0:0:0:
224,160,19835,1,8,0:0:0:0:
224,224,20062,1,0,0:0:0:0:
224,224,20289,1,0,0:0:0:0:
224,160,20744,1,8,0:0:0:0:
224,224,20971,1,0,0:0:0:0:
224,160,21426,1,8,0:0:0:0:
224,160,21653,1,8,0:0:0:0:
224,224,21880,5,0,0:0:0:0:
224,224,22107,1,0,0:0:0:0:
224,224,22563,1,0,0:0:0:0:
224,160,22790,1,8,0:0:0:0:
224,160,23244,1,8,0:0:0:0:
224,160,23472,1,8,0:0:0:0:
224,224,23699,1,0,0:0:0:0:
224,224,23926,1,0,0:0:0:0:
224,160,24380,1,8,0:0:0:0:
224,224,24608,1,0,0:0:0:0:
224,160,25062,1,8,0:0:0:0:
224,160,25290,1,8,0:0:0:0:
224,224,25517,5,0,0:0:0:0:
224,224,25744,1,0,0:0:0:0:
224,160,26199,1,8,0:0:0:0:
224,224,26426,1,0,0:0:0:0:
224,160,26880,1,8,0:0:0:0:
224,160,27108,1,8,0:0:0:0:
224,224,27335,1,0,0:0:0:0:
288,224,27562,1,4,0:0:0:0:
256,192,28017,8,0,29380,0:0:0:0:
288,160,30744,5,12,0:0:0:0:
288,224,31199,1,4,0:0:0:0:
224,160,31653,1,8,0:0:0:0:
224,224,31880,1,0,0:0:0:0:
224,224,32108,1,0,0:0:0:0:
224,160,32562,1,8,0:0:0:0:
224,224,32790,1,0,0:0:0:0:
224,224,33017,1,0,0:0:0:0:
224,224,33471,1,0,0:0:0:0:
224,160,33926,1,8,0:0:0:0:
224,224,34153,1,0,0:0:0:0:
224,160,34380,1,8,0:0:0:0:
224,160,34608,1,8,0:0:0:0:
224,224,34835,1,0,0:0:0:0:
224,160,35290,5,8,0:0:0:0:
224,224,35517,1,0,0:0:0:0:
224,224,35744,1,0,0:0:0:0:
224,160,36199,1,8,0:0:0:0:
224,224,36426,1,0,0:0:0:0:
224,224,36654,1,0,0:0:0:0:
224,160,37108,1,8,0:0:0:0:
224,160,37563,1,8,0:0:0:0:
224,224,37790,1,0,0:0:0:0:
224,160,38017,1,8,0:0:0:0:
224,160,38244,1,8,0:0:0:0:
224,224,38471,1,0,0:0:0:0:
224,160,38926,5,8,0:0:0:0:
224,224,39153,1,0,0:0:0:0:
224,224,39381,1,0,0:0:0:0:
224,160,39608,1,8,0:0:0:0:
224,160,39835,1,8,0:0:0:0:
224,224,40290,1,0,0:0:0:0:
224,160,40744,1,8,0:0:0:0:
224,224,40972,1,0,0:0:0:0:
224,160,41199,1,8,0:0:0:0:
224,160,41653,1,8,0:0:0:0:
224,160,41880,1,8,0:0:0:0:
224,224,42108,1,0,0:0:0:0:
224,160,42562,1,8,0:0:0:0:
224,160,43017,5,8,0:0:0:0:
224,224,43244,1,0,0:0:0:0:
224,160,43471,1,8,0:0:0:0:
288,224,43926,1,4,0:0:0:0:
224,160,44380,1,8,0:0:0:0:
224,224,44608,1,0,0:0:0:0:
288,224,44835,1,4,0:0:0:0:
224,160,45290,1,8,0:0:0:0:
224,160,45517,1,8,0:0:0:0:
224,224,45744,1,0,0:0:0:0:
288,160,47108,1,12,0:0:0:0:
288,224,47562,5,4,0:0:0:0:
224,224,48017,1,0,0:0:0:0:
224,160,48244,1,8,0:0:0:0:
224,224,48699,1,0,0:0:0:0:
224,160,48926,1,8,0:0:0:0:
224,224,49153,1,0,0:0:0:0:
224,224,49380,1,0,0:0:0:0:
224,224,49835,1,0,0:0:0:0:
224,160,50062,1,8,0:0:0:0:
224,160,50517,1,8,0:0:0:0:
224,160,50744,1,8,0:0:0:0:
224,224,50971,5,0,0:0:0:0:
224,224,51198,1,0,0:0:0:0:
224,160,51653,1,8,0:0:0:0:
224,160,51880,1,8,0:0:0:0:
224,160,52335,1,8,0:0:0:0:
224,160,52562,1,8,0:0:0:0:
224,224,52789,1,0,0:0:0:0:
224,224,53016,1,0,0:0:0:0:
224,160,53471,1,8,0:0:0:0:
224,224,53698,1,0,0:0:0:0:
224,160,53926,1,8,0:0:0:0:
224,160,54380,1,8,0:0:0:0:
224,160,54608,1,8,0:0:0:0:
224,224,54835,1,0,0:0:0:0:
224,160,55062,1,8,0:0:0:0:
224,224,55290,1,0,0:0:0:0:
224,160,55517,1,8,0:0:0:0:
224,160,55971,1,8,0:0:0:0:
224,160,56199,1,8,0:0:0:0:
224,224,56426,1,0,0:0:0:0:
224,224,56653,1,0,0:0:0:0:
224,160,57107,1,8,0:0:0:0:
224,224,57335,1,0,0:0:0:0:
224,160,57789,1,8,0:0:0:0:
224,160,58017,1,8,0:0:0:0:
224,224,58244,5,0,0:0:0:0:
224,224,58471,1,0,0:0:0:0:
224,160,58926,1,8,0:0:0:0:
224,160,59153,1,8,0:0:0:0:
224,224,59608,1,0,0:0:0:0:
224,160,59835,1,8,0:0:0:0:
224,160,60062,1,8,0:0:0:0:
288,224,60289,1,4,0:0:0:0:
256,192,60744,8,0,61653,0:0:0:0:
256,192,62108,6,0,L|256:160,6,23.3333333333333
288,160,63471,1,12,0:0:0:0:
224,224,63926,1,0,0:0:0:0:
224,160,64153,1,8,0:0:0:0:
224,160,64380,1,8,0:0:0:0:
224,224,64608,1,0,0:0:0:0:
224,160,64835,1,8,0:0:0:0:
224,224,65290,5,0,0:0:0:0:
224,160,65517,1,8,0:0:0:0:
224,160,65744,1,8,0:0:0:0:
224,160,65971,1,8,0:0:0:0:
224,224,66199,1,0,0:0:0:0:
224,224,66426,1,0,0:0:0:0:
224,160,66653,1,8,0:0:0:0:
224,224,67108,5,0,0:0:0:0:
224,224,67562,1,0,0:0:0:0:
224,160,67789,1,8,0:0:0:0:
224,160,68017,1,8,0:0:0:0:
224,224,68244,1,0,0:0:0:0:
224,160,68471,1,8,0:0:0:0:
224,224,68926,5,0,0:0:0:0:
224,160,69153,1,8,0:0:0:0:
224,160,69380,1,8,0:0:0:0:
224,160,69608,1,8,0:0:0:0:
224,224,69835,1,0,0:0:0:0:
224,224,70062,1,0,0:0:0:0:
224,160,70289,1,8,0:0:0:0:
224,224,70744,5,0,0:0:0:0:
224,224,71199,1,0,0:0:0:0:
224,160,71426,1,8,0:0:0:0:
224,160,71653,1,8,0:0:0:0:
224,224,71880,1,0,0:0:0:0:
224,160,72108,1,8,0:0:0:0:
224,224,72563,5,0,0:0:0:0:
224,160,72790,1,8,0:0:0:0:
224,160,73017,1,8,0:0:0:0:
224,224,73244,1,0,0:0:0:0:
224,160,73471,1,8,0:0:0:0:
224,224,73699,1,0,0:0:0:0:
256,224,73926,1,0,0:0:0:0:
224,224,74380,1,0,0:0:0:0:
224,160,74608,1,8,0:0:0:0:
224,224,74835,1,0,0:0:0:0:
224,160,75062,1,8,0:0:0:0:
224,160,75290,1,8,0:0:0:0:
224,224,75517,1,0,0:0:0:0:
224,160,75744,1,8,0:0:0:0:
224,160,76199,5,8,0:0:0:0:
224,160,76426,1,8,0:0:0:0:
224,160,76653,1,8,0:0:0:0:
288,160,78017,5,12,0:0:0:0:
224,160,78471,5,8,0:0:0:0:
224,224,78926,1,0,0:0:0:0:
224,160,79153,1,8,0:0:0:0:
224,160,79607,1,8,0:0:0:0:
224,160,79835,1,8,0:0:0:0:
224,224,80062,1,0,0:0:0:0:
224,224,80289,1,0,0:0:0:0:
224,160,80744,1,8,0:0:0:0:
224,224,80971,1,0,0:0:0:0:
224,160,81426,1,8,0:0:0:0:
224,160,81653,1,8,0:0:0:0:
224,224,81880,5,0,0:0:0:0:
224,224,82107,1,0,0:0:0:0:
224,160,82562,1,8,0:0:0:0:
224,160,82789,1,8,0:0:0:0:
224,160,83244,1,8,0:0:0:0:
224,160,83471,1,8,0:0:0:0:
224,224,83698,1,0,0:0:0:0:
224,224,83925,1,0,0:0:0:0:
224,160,84380,1,8,0:0:0:0:
224,224,84607,1,0,0:0:0:0:
224,160,85062,1,8,0:0:0:0:
224,160,85289,1,8,0:0:0:0:
224,224,85516,5,0,0:0:0:0:
224,224,85743,1,0,0:0:0:0:
224,224,86199,1,0,0:0:0:0:
224,160,86426,1,8,0:0:0:0:
224,160,86880,1,8,0:0:0:0:
224,160,87108,1,8,0:0:0:0:
224,224,87335,1,0,0:0:0:0:
224,224,87562,1,0,0:0:0:0:
224,160,88016,1,8,0:0:0:0:
224,224,88244,1,0,0:0:0:0:
224,160,88698,1,8,0:0:0:0:
224,160,88926,1,8,0:0:0:0:
224,224,89153,5,0,0:0:0:0:
224,224,89380,1,0,0:0:0:0:
224,160,89835,1,8,0:0:0:0:
224,224,90062,1,0,0:0:0:0:
224,160,90516,1,8,0:0:0:0:
224,160,90744,1,8,0:0:0:0:
224,224,90971,1,0,0:0:0:0:
288,224,91198,1,4,0:0:0:0:
256,192,91653,8,0,93016,0:0:0:0:
288,160,94380,5,12,0:0:0:0:
288,224,94835,1,4,0:0:0:0:
224,160,95289,1,8,0:0:0:0:
224,224,95516,1,0,0:0:0:0:
224,224,95744,1,0,0:0:0:0:
224,160,96198,1,8,0:0:0:0:
224,224,96426,1,0,0:0:0:0:
224,224,96653,1,0,0:0:0:0:
224,224,97107,1,0,0:0:0:0:
224,160,97562,1,8,0:0:0:0:
224,224,97789,1,0,0:0:0:0:
224,160,98016,1,8,0:0:0:0:
224,160,98244,1,8,0:0:0:0:
224,224,98471,1,0,0:0:0:0:
224,160,98926,5,8,0:0:0:0:
224,224,99153,1,0,0:0:0:0:
224,224,99380,1,0,0:0:0:0:
224,160,99835,1,8,0:0:0:0:
224,224,100062,1,0,0:0:0:0:
224,224,100290,1,0,0:0:0:0:
224,160,100744,1,8,0:0:0:0:
224,160,101199,1,8,0:0:0:0:
224,224,101426,1,0,0:0:0:0:
224,160,101653,1,8,0:0:0:0:
224,160,101880,1,8,0:0:0:0:
224,224,102107,1,0,0:0:0:0:
224,160,102562,5,8,0:0:0:0:
224,224,102789,1,0,0:0:0:0:
224,224,103017,1,0,0:0:0:0:
224,160,103244,1,8,0:0:0:0:
224,160,103471,1,8,0:0:0:0:
224,224,103926,1,0,0:0:0:0:
224,160,104380,1,8,0:0:0:0:
224,224,104608,1,0,0:0:0:0:
224,160,104835,1,8,0:0:0:0:
224,160,105289,1,8,0:0:0:0:
224,160,105516,1,8,0:0:0:0:
224,224,105744,1,0,0:0:0:0:
224,160,106198,1,8,0:0:0:0:
224,160,106653,5,8,0:0:0:0:
224,224,106880,1,0,0:0:0:0:
224,160,107107,1,8,0:0:0:0:
288,224,107562,1,4,0:0:0:0:
224,160,108016,1,8,0:0:0:0:
224,224,108244,1,0,0:0:0:0:
288,224,108471,1,4,0:0:0:0:
224,160,108926,1,8,0:0:0:0:
224,160,109153,1,8,0:0:0:0:
224,224,109380,1,0,0:0:0:0:
288,160,110744,1,12,0:0:0:0:
288,224,111198,5,4,0:0:0:0:
224,224,111653,1,0,0:0:0:0:
224,160,111880,1,8,0:0:0:0:
224,224,112335,1,0,0:0:0:0:
224,160,112562,1,8,0:0:0:0:
224,224,112789,1,0,0:0:0:0:
224,224,113016,1,0,0:0:0:0:
224,224,113471,1,0,0:0:0:0:
224,160,113698,1,8,0:0:0:0:
224,160,114153,1,8,0:0:0:0:
224,160,114380,1,8,0:0:0:0:
224,224,114607,5,0,0:0:0:0:
224,224,114834,1,0,0:0:0:0:
224,160,115289,1,8,0:0:0:0:
224,160,115516,1,8,0:0:0:0:
224,160,115971,1,8,0:0:0:0:
224,160,116198,1,8,0:0:0:0:
224,224,116425,1,0,0:0:0:0:
224,224,116652,1,0,0:0:0:0:
224,160,117107,1,8,0:0:0:0:
224,224,117334,1,0,0:0:0:0:
224,160,117562,1,8,0:0:0:0:
224,160,118016,1,8,0:0:0:0:
224,160,118244,1,8,0:0:0:0:
224,224,118471,1,0,0:0:0:0:
224,160,118698,1,8,0:0:0:0:
224,224,118926,1,0,0:0:0:0:
224,160,119153,1,8,0:0:0:0:
224,160,119607,1,8,0:0:0:0:
224,160,119835,1,8,0:0:0:0:
224,224,120062,1,0,0:0:0:0:
224,224,120289,1,0,0:0:0:0:
224,160,120743,1,8,0:0:0:0:
224,224,120971,1,0,0:0:0:0:
224,160,121425,1,8,0:0:0:0:
224,160,121653,1,8,0:0:0:0:
224,224,121880,5,0,0:0:0:0:
224,224,122107,1,0,0:0:0:0:
224,160,122562,1,8,0:0:0:0:
224,160,122789,1,8,0:0:0:0:
224,224,123244,1,0,0:0:0:0:
224,160,123471,1,8,0:0:0:0:
224,160,123698,1,8,0:0:0:0:
288,224,123925,1,4,0:0:0:0:
256,192,124380,8,0,125289,0:0:0:0:
256,192,125744,6,0,L|256:160,6,23.3333333333333
288,160,127107,1,12,0:0:0:0:
224,224,127562,1,0,0:0:0:0:
224,160,127789,1,8,0:0:0:0:
224,160,128016,1,8,0:0:0:0:
224,224,128244,1,0,0:0:0:0:
224,160,128471,1,8,0:0:0:0:
224,224,128926,5,0,0:0:0:0:
224,160,129153,1,8,0:0:0:0:
224,160,129380,1,8,0:0:0:0:
224,160,129607,1,8,0:0:0:0:
224,224,129835,1,0,0:0:0:0:
224,224,130062,1,0,0:0:0:0:
224,160,130289,1,8,0:0:0:0:
224,224,130744,5,0,0:0:0:0:
224,224,131198,1,0,0:0:0:0:
224,160,131425,1,8,0:0:0:0:
224,160,131653,1,8,0:0:0:0:
224,224,131880,1,0,0:0:0:0:
224,160,132107,1,8,0:0:0:0:
224,224,132562,5,0,0:0:0:0:
224,160,132789,1,8,0:0:0:0:
224,160,133016,1,8,0:0:0:0:
224,160,133244,1,8,0:0:0:0:
224,224,133471,1,0,0:0:0:0:
224,224,133698,1,0,0:0:0:0:
224,160,133925,1,8,0:0:0:0:
224,224,134380,5,0,0:0:0:0:
224,224,134835,1,0,0:0:0:0:
224,160,135062,1,8,0:0:0:0:
224,160,135289,1,8,0:0:0:0:
224,224,135516,1,0,0:0:0:0:
224,160,135744,1,8,0:0:0:0:
224,224,136199,5,0,0:0:0:0:
224,160,136426,1,8,0:0:0:0:
224,160,136653,1,8,0:0:0:0:
224,224,136880,1,0,0:0:0:0:
224,160,137107,1,8,0:0:0:0:
224,224,137335,1,0,0:0:0:0:
256,224,137562,1,0,0:0:0:0:
224,224,138016,1,0,0:0:0:0:
224,160,138244,1,8,0:0:0:0:
224,224,138471,1,0,0:0:0:0:
224,160,138698,1,8,0:0:0:0:
224,160,138926,1,8,0:0:0:0:
224,224,139153,1,0,0:0:0:0:
224,160,139380,1,8,0:0:0:0:
224,160,139835,5,8,0:0:0:0:
224,160,140062,1,8,0:0:0:0:
224,160,140289,1,8,0:0:0:0:
224,160,140744,5,8,0:0:0:0:
224,160,141199,1,8,0:0:0:0:
224,160,141426,1,8,0:0:0:0:
224,160,141653,1,8,0:0:0:0:
288,224,142108,5,4,0:0:0:0:
