osu file format v14

[General]
AudioFilename: audio.mp3
AudioLeadIn: 0
PreviewTime: 28471
Countdown: 1
SampleSet: None
StackLeniency: 0.7
Mode: 1
LetterboxInBreaks: 0
WidescreenStoryboard: 1

[Editor]
DistanceSpacing: 1.3
BeatDivisor: 2
GridSize: 32
TimelineZoom: 0.7781628

[Metadata]
Title:Eu Sou a Diva que Voce Quer Copiar
TitleUnicode:Eu Sou a Diva que VocĂȘ Quer Copiar
Artist:Valesca Popozuda
ArtistUnicode:Valesca Popozuda
Creator:ARGENTINE DREAM
Version:Facil
Source:
Tags:brazil brasil brazilian pop portuguese portugues gaiola das popozudas 2014 latin south america
BeatmapID:1839097
BeatmapSetID:879423

[Difficulty]
HPDrainRate:7
CircleSize:5
OverallDifficulty:3
ApproachRate:5
SliderMultiplier:1.4
SliderTickRate:3

[Events]
//Background and Video events
0,0,"Valesca-Popozuda5.jpg",0,0
//Break Periods
//Storyboard Layer 0 (Background)
//Storyboard Layer 1 (Fail)
//Storyboard Layer 2 (Pass)
//Storyboard Layer 3 (Foreground)
//Storyboard Sound Samples

[TimingPoints]
290,454.545454545455,4,1,0,50,1,0
5290,-100,4,1,0,5,0,0
6199,-100,4,1,0,50,0,0
13244,-100,4,1,0,5,0,0
14835,-100,4,1,0,50,0,0
28017,-100,4,1,0,5,0,0
29835,-100,4,1,0,50,0,0
30744,-100,4,1,0,50,0,0
31199,-100,4,1,0,50,0,1
45744,-100,4,1,0,50,0,0
47108,-100,4,1,0,50,0,0
47562,-100,4,1,0,50,0,0
60744,-100,4,1,0,5,0,0
62108,-100,4,1,0,50,0,0
63471,-100,4,1,0,50,0,0
63926,-100,4,1,0,50,0,1
76653,-100,4,1,0,50,0,0
78017,-100,4,1,0,50,0,0
78471,-100,4,1,0,50,0,0
91653,-100,4,1,0,5,0,0
93471,-100,4,1,0,50,0,0
94380,-100,4,1,0,50,0,0
94835,-100,4,1,0,50,0,1
109380,-100,4,1,0,50,0,0
124380,-100,4,1,0,5,0,0
125744,-100,4,1,0,50,0,0
127108,-100,4,1,0,50,0,0
127562,-100,4,1,0,50,0,1
140744,-100,4,1,0,50,0,1
141199,-100,4,1,0,50,0,1
142108,-100,4,1,0,50,0,0

[HitObjects]
256,192,5290,8,0,5744,0:0:0:0:
224,224,7108,5,0,0:0:0:0:
224,160,7562,1,8,0:0:0:0:
224,224,8017,1,0,0:0:0:0:
224,160,8926,1,8,0:0:0:0:
224,224,9380,1,0,0:0:0:0:
224,224,10745,1,0,0:0:0:0:
224,160,11199,1,8,0:0:0:0:
224,224,11654,1,0,0:0:0:0:
224,160,12563,1,8,0:0:0:0:
224,224,13017,1,0,0:0:0:0:
256,192,13471,8,0,14380,0:0:0:0:
224,160,14835,5,8,0:0:0:0:
224,160,15517,1,8,0:0:0:0:
224,160,16199,1,8,0:0:0:0:
224,224,16653,1,0,0:0:0:0:
224,224,17335,1,0,0:0:0:0:
224,160,18017,1,8,0:0:0:0:
224,224,18471,1,0,0:0:0:0:
224,224,19153,1,0,0:0:0:0:
224,160,19835,1,8,0:0:0:0:
224,160,20289,1,8,0:0:0:0:
224,224,20971,1,0,0:0:0:0:
224,160,21653,1,8,0:0:0:0:
224,160,22107,1,8,0:0:0:0:
224,224,22790,1,0,0:0:0:0:
224,160,23472,1,8,0:0:0:0:
224,224,23926,1,0,0:0:0:0:
224,160,24380,1,8,0:0:0:0:
224,160,24835,1,8,0:0:0:0:
224,224,25744,1,0,0:0:0:0:
224,160,26199,1,8,0:0:0:0:
224,160,26653,1,8,0:0:0:0:
224,224,27108,1,0,0:0:0:0:
288,224,27562,1,4,0:0:0:0:
256,192,28017,8,0,29380,0:0:0:0:
288,160,30744,5,12,0:0:0:0:
288,224,31199,1,4,0:0:0:0:
224,224,32108,1,0,0:0:0:0:
224,160,32562,1,8,0:0:0:0:
224,224,33017,1,0,0:0:0:0:
224,224,33471,1,0,0:0:0:0:
224,160,33926,1,8,0:0:0:0:
224,160,34380,1,8,0:0:0:0:
224,224,34835,1,0,0:0:0:0:
224,224,35744,1,0,0:0:0:0:
224,160,36199,1,8,0:0:0:0:
224,224,36654,1,0,0:0:0:0:
224,160,37108,1,8,0:0:0:0:
224,160,37563,1,8,0:0:0:0:
224,160,38017,1,8,0:0:0:0:
224,224,38471,1,0,0:0:0:0:
224,224,39381,1,0,0:0:0:0:
224,160,39835,1,8,0:0:0:0:
224,224,40290,1,0,0:0:0:0:
224,160,40744,1,8,0:0:0:0:
224,160,41199,1,8,0:0:0:0:
224,160,41653,1,8,0:0:0:0:
224,224,42108,1,0,0:0:0:0:
224,160,43017,5,8,0:0:0:0:
224,160,43471,1,8,0:0:0:0:
288,224,43926,1,4,0:0:0:0:
224,160,44380,1,8,0:0:0:0:
288,224,44835,1,4,0:0:0:0:
224,160,45290,1,8,0:0:0:0:
224,224,45744,1,0,0:0:0:0:
288,160,47108,1,12,0:0:0:0:
288,224,47562,5,4,0:0:0:0:
224,160,48244,1,8,0:0:0:0:
224,160,48926,1,8,0:0:0:0:
224,224,49380,1,0,0:0:0:0:
224,160,49835,1,8,0:0:0:0:
224,160,50290,1,8,0:0:0:0:
224,224,51198,1,0,0:0:0:0:
224,160,51880,1,8,0:0:0:0:
224,160,52562,1,8,0:0:0:0:
224,224,53016,1,0,0:0:0:0:
224,160,53926,1,8,0:0:0:0:
224,160,54380,1,8,0:0:0:0:
224,224,54835,1,0,0:0:0:0:
224,160,55517,1,8,0:0:0:0:
224,160,56199,1,8,0:0:0:0:
224,224,56653,1,0,0:0:0:0:
224,160,57107,1,8,0:0:0:0:
224,160,57562,1,8,0:0:0:0:
224,224,58471,1,0,0:0:0:0:
224,160,59153,1,8,0:0:0:0:
224,160,59835,1,8,0:0:0:0:
288,224,60289,1,4,0:0:0:0:
256,192,60744,8,0,61653,0:0:0:0:
256,192,62108,6,0,L|256:160,6,23.3333333333333
288,160,63471,1,12,0:0:0:0:
224,224,63926,1,0,0:0:0:0:
224,160,64380,1,8,0:0:0:0:
224,160,64835,1,8,0:0:0:0:
224,160,65744,1,8,0:0:0:0:
224,224,66199,1,0,0:0:0:0:
224,160,66653,1,8,0:0:0:0:
224,224,67562,1,0,0:0:0:0:
224,160,68017,1,8,0:0:0:0:
224,160,68471,1,8,0:0:0:0:
224,160,69380,1,8,0:0:0:0:
224,224,69835,1,0,0:0:0:0:
224,160,70289,1,8,0:0:0:0:
224,224,71199,1,0,0:0:0:0:
224,160,71653,1,8,0:0:0:0:
224,160,72108,1,8,0:0:0:0:
224,160,73017,1,8,0:0:0:0:
224,160,73471,1,8,0:0:0:0:
256,224,73926,1,0,0:0:0:0:
224,224,74835,1,0,0:0:0:0:
224,160,75290,1,8,0:0:0:0:
224,160,75744,1,8,0:0:0:0:
224,224,76199,5,0,0:0:0:0:
224,160,76653,1,8,0:0:0:0:
288,160,78017,5,12,0:0:0:0:
224,160,78471,5,8,0:0:0:0:
224,224,79153,1,0,0:0:0:0:
224,160,79835,1,8,0:0:0:0:
224,224,80289,1,0,0:0:0:0:
224,224,80971,1,0,0:0:0:0:
224,160,81653,1,8,0:0:0:0:
224,224,82107,1,0,0:0:0:0:
224,224,82789,1,0,0:0:0:0:
224,160,83471,1,8,0:0:0:0:
224,160,83925,1,8,0:0:0:0:
224,224,84607,1,0,0:0:0:0:
224,160,85289,1,8,0:0:0:0:
224,160,85743,1,8,0:0:0:0:
224,224,86426,1,0,0:0:0:0:
224,160,87108,1,8,0:0:0:0:
224,224,87562,1,0,0:0:0:0:
224,160,88016,1,8,0:0:0:0:
224,160,88471,1,8,0:0:0:0:
224,224,89380,1,0,0:0:0:0:
224,160,89835,1,8,0:0:0:0:
224,160,90289,1,8,0:0:0:0:
224,224,90744,1,0,0:0:0:0:
288,224,91198,1,4,0:0:0:0:
256,192,91653,8,0,93016,0:0:0:0:
288,160,94380,5,12,0:0:0:0:
288,224,94835,1,4,0:0:0:0:
224,224,95744,1,0,0:0:0:0:
224,160,96198,1,8,0:0:0:0:
224,224,96653,1,0,0:0:0:0:
224,224,97107,1,0,0:0:0:0:
224,160,97562,1,8,0:0:0:0:
224,160,98016,1,8,0:0:0:0:
224,224,98471,1,0,0:0:0:0:
224,224,99380,1,0,0:0:0:0:
224,160,99835,1,8,0:0:0:0:
224,224,100290,1,0,0:0:0:0:
224,160,100744,1,8,0:0:0:0:
224,160,101199,1,8,0:0:0:0:
224,160,101653,1,8,0:0:0:0:
224,224,102107,1,0,0:0:0:0:
224,224,103017,1,0,0:0:0:0:
224,160,103471,1,8,0:0:0:0:
224,224,103926,1,0,0:0:0:0:
224,160,104380,1,8,0:0:0:0:
224,160,104835,1,8,0:0:0:0:
224,160,105289,1,8,0:0:0:0:
224,224,105744,1,0,0:0:0:0:
224,160,106653,5,8,0:0:0:0:
224,160,107107,1,8,0:0:0:0:
288,224,107562,1,4,0:0:0:0:
224,160,108016,1,8,0:0:0:0:
288,224,108471,1,4,0:0:0:0:
224,160,108926,1,8,0:0:0:0:
224,224,109380,1,0,0:0:0:0:
288,160,110744,1,12,0:0:0:0:
288,224,111198,5,4,0:0:0:0:
224,160,111880,1,8,0:0:0:0:
224,160,112562,1,8,0:0:0:0:
224,224,113016,1,0,0:0:0:0:
224,160,113471,1,8,0:0:0:0:
224,160,113926,1,8,0:0:0:0:
224,224,114834,1,0,0:0:0:0:
224,160,115516,1,8,0:0:0:0:
224,160,116198,1,8,0:0:0:0:
224,224,116652,1,0,0:0:0:0:
224,160,117562,1,8,0:0:0:0:
224,160,118016,1,8,0:0:0:0:
224,224,118471,1,0,0:0:0:0:
224,160,119153,1,8,0:0:0:0:
224,160,119835,1,8,0:0:0:0:
224,224,120289,1,0,0:0:0:0:
224,160,120743,1,8,0:0:0:0:
224,160,121198,1,8,0:0:0:0:
224,224,122107,1,0,0:0:0:0:
224,160,122789,1,8,0:0:0:0:
224,160,123471,1,8,0:0:0:0:
288,224,123925,1,4,0:0:0:0:
256,192,124380,8,0,125289,0:0:0:0:
256,192,125744,6,0,L|256:160,6,23.3333333333333
288,160,127107,1,12,0:0:0:0:
224,224,127562,1,0,0:0:0:0:
224,160,128016,1,8,0:0:0:0:
224,160,128471,1,8,0:0:0:0:
224,160,129380,1,8,0:0:0:0:
224,224,129835,1,0,0:0:0:0:
224,160,130289,1,8,0:0:0:0:
224,224,131198,1,0,0:0:0:0:
224,160,131653,1,8,0:0:0:0:
224,160,132107,1,8,0:0:0:0:
224,160,133016,1,8,0:0:0:0:
224,224,133471,1,0,0:0:0:0:
224,160,133925,1,8,0:0:0:0:
224,224,134835,1,0,0:0:0:0:
224,160,135289,1,8,0:0:0:0:
224,160,135744,1,8,0:0:0:0:
224,160,136653,1,8,0:0:0:0:
224,160,137107,1,8,0:0:0:0:
256,224,137562,1,0,0:0:0:0:
224,224,138471,1,0,0:0:0:0:
224,160,138926,1,8,0:0:0:0:
224,160,139380,1,8,0:0:0:0:
224,224,139835,5,0,0:0:0:0:
224,160,140289,5,8,0:0:0:0:
224,160,141199,5,8,0:0:0:0:
224,160,141653,1,8,0:0:0:0:
288,224,142108,5,4,0:0:0:0:
