osu file format v14

[General]
AudioFilename: audio.mp3
AudioLeadIn: 0
PreviewTime: 28471
Countdown: 1
SampleSet: None
StackLeniency: 0.7
Mode: 1
LetterboxInBreaks: 0
WidescreenStoryboard: 0

[Editor]
DistanceSpacing: 1.3
BeatDivisor: 1
GridSize: 32
TimelineZoom: 1.178163

[Metadata]
Title:Eu Sou a Diva que Voce Quer Copiar
TitleUnicode:Eu Sou a Diva que VocĂȘ Quer Copiar
Artist:Valesca Popozuda
ArtistUnicode:Valesca Popozuda
Creator:ARGENTINE DREAM
Version:Extra Extrema
Source:
Tags:brazil brasil brazilian pop portuguese portugues gaiola das popozudas 2014 latin south america
BeatmapID:1839095
BeatmapSetID:879423

[Difficulty]
HPDrainRate:6
CircleSize:5
OverallDifficulty:6.5
ApproachRate:5
SliderMultiplier:1.4
SliderTickRate:3

[Events]
//Background and Video events
0,0,"Valesca-Popozuda5.jpg",0,0
//Break Periods
//Storyboard Layer 0 (Background)
//Storyboard Layer 1 (Fail)
//Storyboard Layer 2 (Pass)
//Storyboard Layer 3 (Foreground)
//Storyboard Sound Samples

[TimingPoints]
290,454.545454545455,4,1,0,50,1,0
5290,-100,4,1,0,5,0,0
6199,-100,4,1,0,50,0,0
13244,-100,4,1,0,5,0,0
14835,-100,4,1,0,50,0,0
28017,-100,4,1,0,5,0,0
29835,-100,4,1,0,50,0,0
30744,-50,4,1,0,50,0,0
31199,-100,4,1,0,50,0,1
45744,-100,4,1,0,50,0,0
47108,-50,4,1,0,50,0,0
47562,-100,4,1,0,50,0,0
60744,-100,4,1,0,5,0,0
62108,-100,4,1,0,50,0,0
63471,-50,4,1,0,50,0,0
63926,-125,4,1,0,50,0,1
64040,-128.205128205128,4,1,0,50,0,1
64153,-131.578947368421,4,1,0,50,0,1
64267,-135.135135135135,4,1,0,50,0,1
64380,-125,4,1,0,50,0,1
64494,-128.205128205128,4,1,0,50,0,1
64607,-131.578947368421,4,1,0,50,0,1
64721,-135.135135135135,4,1,0,50,0,1
64835,-125,4,1,0,50,0,1
64949,-128.205128205128,4,1,0,50,0,1
65062,-131.578947368421,4,1,0,50,0,1
65176,-135.135135135135,4,1,0,50,0,1
65290,-125,4,1,0,50,0,1
65403,-128.205128205128,4,1,0,50,0,1
65517,-131.578947368421,4,1,0,50,0,1
65631,-135.135135135135,4,1,0,50,0,1
65744,-125,4,1,0,50,0,1
65858,-128.205128205128,4,1,0,50,0,1
65971,-131.578947368421,4,1,0,50,0,1
66085,-135.135135135135,4,1,0,50,0,1
66199,-125,4,1,0,50,0,1
66312,-128.205128205128,4,1,0,50,0,1
66426,-131.578947368421,4,1,0,50,0,1
66540,-135.135135135135,4,1,0,50,0,1
66653,-125,4,1,0,50,0,1
66767,-128.205128205128,4,1,0,50,0,1
66880,-131.578947368421,4,1,0,50,0,1
66994,-135.135135135135,4,1,0,50,0,1
67108,-125,4,1,0,50,0,1
67221,-128.205128205128,4,1,0,50,0,1
67335,-131.578947368421,4,1,0,50,0,1
67449,-135.135135135135,4,1,0,50,0,1
67562,-125,4,1,0,50,0,1
67676,-128.205128205128,4,1,0,50,0,1
67789,-131.578947368421,4,1,0,50,0,1
67903,-135.135135135135,4,1,0,50,0,1
68016,-125,4,1,0,50,0,1
68130,-128.205128205128,4,1,0,50,0,1
68243,-131.578947368421,4,1,0,50,0,1
68357,-135.135135135135,4,1,0,50,0,1
68471,-125,4,1,0,50,0,1
68585,-128.205128205128,4,1,0,50,0,1
68699,-131.578947368421,4,1,0,50,0,1
68812,-135.135135135135,4,1,0,50,0,1
68926,-125,4,1,0,50,0,1
69040,-128.205128205128,4,1,0,50,0,1
69153,-131.578947368421,4,1,0,50,0,1
69267,-135.135135135135,4,1,0,50,0,1
69380,-125,4,1,0,50,0,1
69494,-128.205128205128,4,1,0,50,0,1
69607,-131.578947368421,4,1,0,50,0,1
69721,-135.135135135135,4,1,0,50,0,1
69835,-125,4,1,0,50,0,1
69948,-128.205128205128,4,1,0,50,0,1
70062,-131.578947368421,4,1,0,50,0,1
70176,-135.135135135135,4,1,0,50,0,1
70289,-125,4,1,0,50,0,1
70403,-128.205128205128,4,1,0,50,0,1
70516,-131.578947368421,4,1,0,50,0,1
70630,-135.135135135135,4,1,0,50,0,1
70744,-125,4,1,0,50,0,1
70857,-128.205128205128,4,1,0,50,0,1
70971,-131.578947368421,4,1,0,50,0,1
71085,-135.135135135135,4,1,0,50,0,1
71199,-125,4,1,0,50,0,1
71313,-128.205128205128,4,1,0,50,0,1
71426,-131.578947368421,4,1,0,50,0,1
71540,-135.135135135135,4,1,0,50,0,1
71653,-125,4,1,0,50,0,1
71767,-128.205128205128,4,1,0,50,0,1
71880,-131.578947368421,4,1,0,50,0,1
71994,-135.135135135135,4,1,0,50,0,1
72108,-125,4,1,0,50,0,1
72222,-128.205128205128,4,1,0,50,0,1
72335,-131.578947368421,4,1,0,50,0,1
72449,-135.135135135135,4,1,0,50,0,1
72562,-125,4,1,0,50,0,1
72676,-128.205128205128,4,1,0,50,0,1
72789,-131.578947368421,4,1,0,50,0,1
72903,-135.135135135135,4,1,0,50,0,1
73017,-125,4,1,0,50,0,1
73131,-128.205128205128,4,1,0,50,0,1
73244,-131.578947368421,4,1,0,50,0,1
73358,-135.135135135135,4,1,0,50,0,1
73471,-125,4,1,0,50,0,1
73585,-128.205128205128,4,1,0,50,0,1
73698,-131.578947368421,4,1,0,50,0,1
73812,-135.135135135135,4,1,0,50,0,1
73926,-138.888888888889,4,1,0,50,0,1
74040,-142.857142857143,4,1,0,50,0,1
74153,-119.047619047619,4,1,0,50,0,1
74267,-121.951219512195,4,1,0,50,0,1
74380,-125,4,1,0,50,0,1
74494,-128.205128205128,4,1,0,50,0,1
74607,-131.578947368421,4,1,0,50,0,1
74721,-135.135135135135,4,1,0,50,0,1
74835,-125,4,1,0,50,0,1
74949,-128.205128205128,4,1,0,50,0,1
75062,-131.578947368421,4,1,0,50,0,1
75176,-135.135135135135,4,1,0,50,0,1
75290,-125,4,1,0,50,0,1
75403,-128.205128205128,4,1,0,50,0,1
75517,-131.578947368421,4,1,0,50,0,1
75630,-135.135135135135,4,1,0,50,0,1
75744,-125,4,1,0,50,0,1
75858,-128.205128205128,4,1,0,50,0,1
75971,-131.578947368421,4,1,0,50,0,1
76085,-135.135135135135,4,1,0,50,0,1
76199,-125,4,1,0,50,0,1
76312,-128.205128205128,4,1,0,50,0,1
76426,-131.578947368421,4,1,0,50,0,1
76540,-135.135135135135,4,1,0,50,0,1
76653,-100,4,1,0,50,0,0
78017,-50,4,1,0,50,0,0
78471,-100,4,1,0,50,0,0
91653,-100,4,1,0,5,0,0
93471,-100,4,1,0,50,0,0
94380,-50,4,1,0,50,0,0
94835,-100,4,1,0,50,0,1
109380,-100,4,1,0,50,0,0
124380,-100,4,1,0,5,0,0
125744,-100,4,1,0,50,0,0
127108,-50,4,1,0,50,0,0
127562,-125,4,1,0,50,0,1
127676,-128.205128205128,4,1,0,50,0,1
127789,-131.578947368421,4,1,0,50,0,1
127903,-135.135135135135,4,1,0,50,0,1
128016,-125,4,1,0,50,0,1
128130,-128.205128205128,4,1,0,50,0,1
128243,-131.578947368421,4,1,0,50,0,1
128357,-135.135135135135,4,1,0,50,0,1
128471,-125,4,1,0,50,0,1
128585,-128.205128205128,4,1,0,50,0,1
128698,-131.578947368421,4,1,0,50,0,1
128812,-135.135135135135,4,1,0,50,0,1
128926,-125,4,1,0,50,0,1
129039,-128.205128205128,4,1,0,50,0,1
129153,-131.578947368421,4,1,0,50,0,1
129267,-135.135135135135,4,1,0,50,0,1
129380,-125,4,1,0,50,0,1
129494,-128.205128205128,4,1,0,50,0,1
129607,-131.578947368421,4,1,0,50,0,1
129721,-135.135135135135,4,1,0,50,0,1
129835,-125,4,1,0,50,0,1
129948,-128.205128205128,4,1,0,50,0,1
130062,-131.578947368421,4,1,0,50,0,1
130176,-135.135135135135,4,1,0,50,0,1
130289,-125,4,1,0,50,0,1
130403,-128.205128205128,4,1,0,50,0,1
130516,-131.578947368421,4,1,0,50,0,1
130630,-135.135135135135,4,1,0,50,0,1
130744,-125,4,1,0,50,0,1
130857,-128.205128205128,4,1,0,50,0,1
130971,-131.578947368421,4,1,0,50,0,1
131085,-135.135135135135,4,1,0,50,0,1
131198,-125,4,1,0,50,0,1
131312,-128.205128205128,4,1,0,50,0,1
131425,-131.578947368421,4,1,0,50,0,1
131539,-135.135135135135,4,1,0,50,0,1
131652,-125,4,1,0,50,0,1
131766,-128.205128205128,4,1,0,50,0,1
131879,-131.578947368421,4,1,0,50,0,1
131993,-135.135135135135,4,1,0,50,0,1
132107,-125,4,1,0,50,0,1
132221,-128.205128205128,4,1,0,50,0,1
132335,-131.578947368421,4,1,0,50,0,1
132448,-135.135135135135,4,1,0,50,0,1
132562,-125,4,1,0,50,0,1
132676,-128.205128205128,4,1,0,50,0,1
132789,-131.578947368421,4,1,0,50,0,1
132903,-135.135135135135,4,1,0,50,0,1
133016,-125,4,1,0,50,0,1
133130,-128.205128205128,4,1,0,50,0,1
133243,-131.578947368421,4,1,0,50,0,1
133357,-135.135135135135,4,1,0,50,0,1
133471,-125,4,1,0,50,0,1
133584,-128.205128205128,4,1,0,50,0,1
133698,-131.578947368421,4,1,0,50,0,1
133812,-135.135135135135,4,1,0,50,0,1
133925,-125,4,1,0,50,0,1
134039,-128.205128205128,4,1,0,50,0,1
134152,-131.578947368421,4,1,0,50,0,1
134266,-135.135135135135,4,1,0,50,0,1
134380,-125,4,1,0,50,0,1
134493,-128.205128205128,4,1,0,50,0,1
134607,-131.578947368421,4,1,0,50,0,1
134721,-135.135135135135,4,1,0,50,0,1
134835,-125,4,1,0,50,0,1
134949,-128.205128205128,4,1,0,50,0,1
135062,-131.578947368421,4,1,0,50,0,1
135176,-135.135135135135,4,1,0,50,0,1
135289,-125,4,1,0,50,0,1
135403,-128.205128205128,4,1,0,50,0,1
135516,-131.578947368421,4,1,0,50,0,1
135630,-135.135135135135,4,1,0,50,0,1
135744,-125,4,1,0,50,0,1
135858,-128.205128205128,4,1,0,50,0,1
135971,-131.578947368421,4,1,0,50,0,1
136085,-135.135135135135,4,1,0,50,0,1
136198,-125,4,1,0,50,0,1
136312,-128.205128205128,4,1,0,50,0,1
136425,-131.578947368421,4,1,0,50,0,1
136539,-135.135135135135,4,1,0,50,0,1
136653,-125,4,1,0,50,0,1
136767,-128.205128205128,4,1,0,50,0,1
136880,-131.578947368421,4,1,0,50,0,1
136994,-135.135135135135,4,1,0,50,0,1
137107,-125,4,1,0,50,0,1
137221,-128.205128205128,4,1,0,50,0,1
137334,-131.578947368421,4,1,0,50,0,1
137448,-135.135135135135,4,1,0,50,0,1
137562,-138.888888888889,4,1,0,50,0,1
137676,-142.857142857143,4,1,0,50,0,1
137789,-119.047619047619,4,1,0,50,0,1
137903,-121.951219512195,4,1,0,50,0,1
138016,-125,4,1,0,50,0,1
138130,-128.205128205128,4,1,0,50,0,1
138243,-131.578947368421,4,1,0,50,0,1
138357,-135.135135135135,4,1,0,50,0,1
138471,-125,4,1,0,50,0,1
138585,-128.205128205128,4,1,0,50,0,1
138698,-131.578947368421,4,1,0,50,0,1
138812,-135.135135135135,4,1,0,50,0,1
138926,-125,4,1,0,50,0,1
139039,-128.205128205128,4,1,0,50,0,1
139153,-131.578947368421,4,1,0,50,0,1
139266,-135.135135135135,4,1,0,50,0,1
139380,-125,4,1,0,50,0,1
139494,-128.205128205128,4,1,0,50,0,1
139607,-131.578947368421,4,1,0,50,0,1
139721,-135.135135135135,4,1,0,50,0,1
139835,-125,4,1,0,50,0,1
139948,-128.205128205128,4,1,0,50,0,1
140062,-131.578947368421,4,1,0,50,0,1
140176,-135.135135135135,4,1,0,50,0,1
140290,-138.888888888889,4,1,0,50,0,0
140403,-142.857142857143,4,1,0,50,0,0
140517,-147.058823529412,4,1,0,50,0,0
140630,-151.515151515152,4,1,0,50,0,0
140744,-156.25,4,1,0,50,0,0
140858,-161.290322580645,4,1,0,50,0,0
140971,-166.666666666667,4,1,0,50,0,0
141085,-172.413793103448,4,1,0,50,0,0
141199,-178.571428571429,4,1,0,50,0,0
141312,-185.185185185185,4,1,0,50,0,0
141426,-192.307692307692,4,1,0,50,0,0
141540,-200,4,1,0,50,0,0
141653,-208.333333333333,4,1,0,50,0,0
141767,-217.391304347826,4,1,0,50,0,0
141880,-227.272727272727,4,1,0,50,0,0
141994,-238.095238095238,4,1,0,50,0,0
142108,-50,4,1,0,50,0,0

[HitObjects]
256,192,5290,8,0,5744,0:0:0:0:
224,224,6956,5,0,0:0:0:0:
224,160,7108,1,8,0:0:0:0:
224,224,7259,1,0,0:0:0:0:
224,224,7411,1,0,0:0:0:0:
224,160,7562,1,8,0:0:0:0:
224,224,8017,1,0,0:0:0:0:
224,224,8774,1,0,0:0:0:0:
224,160,8926,1,8,0:0:0:0:
224,224,9229,1,0,0:0:0:0:
224,224,9380,1,0,0:0:0:0:
224,224,10593,5,0,0:0:0:0:
224,160,10745,1,8,0:0:0:0:
224,224,10896,1,0,0:0:0:0:
224,224,11048,1,0,0:0:0:0:
224,160,11199,1,8,0:0:0:0:
224,224,11654,1,0,0:0:0:0:
224,224,12411,1,0,0:0:0:0:
224,160,12563,1,8,0:0:0:0:
224,224,12866,1,0,0:0:0:0:
224,224,13017,1,0,0:0:0:0:
256,192,13244,8,0,14380,0:0:0:0:
224,160,14835,5,8,0:0:0:0:
224,224,15176,1,0,0:0:0:0:
224,224,15290,1,0,0:0:0:0:
224,160,15517,1,8,0:0:0:0:
224,224,15744,1,0,0:0:0:0:
224,160,15971,1,8,0:0:0:0:
224,160,16199,1,8,0:0:0:0:
224,224,16426,1,0,0:0:0:0:
224,224,16501,1,0,0:0:0:0:
224,224,16577,1,0,0:0:0:0:
224,160,16653,1,8,0:0:0:0:
224,224,16994,1,0,0:0:0:0:
224,160,17108,1,8,0:0:0:0:
224,224,17335,1,0,0:0:0:0:
224,224,17562,1,0,0:0:0:0:
224,160,17790,1,8,0:0:0:0:
224,160,18017,1,8,0:0:0:0:
224,224,18244,5,0,0:0:0:0:
224,224,18319,1,0,0:0:0:0:
224,224,18395,1,0,0:0:0:0:
224,160,18471,1,8,0:0:0:0:
224,224,18812,1,0,0:0:0:0:
224,160,18926,1,8,0:0:0:0:
224,160,19153,1,8,0:0:0:0:
224,224,19380,1,0,0:0:0:0:
224,160,19608,1,8,0:0:0:0:
224,160,19835,1,8,0:0:0:0:
224,224,20062,1,0,0:0:0:0:
224,224,20137,1,0,0:0:0:0:
224,224,20213,1,0,0:0:0:0:
224,160,20289,1,8,0:0:0:0:
224,224,20630,1,0,0:0:0:0:
224,160,20744,1,8,0:0:0:0:
224,224,20971,1,0,0:0:0:0:
224,224,21198,1,0,0:0:0:0:
224,160,21426,1,8,0:0:0:0:
224,160,21653,1,8,0:0:0:0:
224,224,21880,5,0,0:0:0:0:
224,224,21955,1,0,0:0:0:0:
224,224,22031,1,0,0:0:0:0:
224,160,22107,1,8,0:0:0:0:
224,224,22449,1,0,0:0:0:0:
224,224,22563,1,0,0:0:0:0:
224,160,22790,1,8,0:0:0:0:
224,224,23017,1,0,0:0:0:0:
224,160,23244,1,8,0:0:0:0:
224,160,23472,1,8,0:0:0:0:
224,224,23699,1,0,0:0:0:0:
224,224,23774,1,0,0:0:0:0:
224,224,23850,1,0,0:0:0:0:
224,160,23926,1,8,0:0:0:0:
224,224,24267,1,0,0:0:0:0:
224,160,24380,1,8,0:0:0:0:
224,224,24608,1,0,0:0:0:0:
224,160,24835,1,8,0:0:0:0:
224,160,25062,1,8,0:0:0:0:
224,160,25290,1,8,0:0:0:0:
224,224,25517,5,0,0:0:0:0:
224,224,25592,1,0,0:0:0:0:
224,224,25668,1,0,0:0:0:0:
224,160,25744,1,8,0:0:0:0:
224,224,26085,1,0,0:0:0:0:
224,160,26199,1,8,0:0:0:0:
224,224,26426,1,0,0:0:0:0:
224,224,26653,1,0,0:0:0:0:
224,160,26880,1,8,0:0:0:0:
224,160,27108,1,8,0:0:0:0:
224,160,27335,1,8,0:0:0:0:
224,160,27410,1,8,0:0:0:0:
224,160,27486,1,8,0:0:0:0:
288,224,27562,1,4,0:0:0:0:
256,192,28017,8,0,29380,0:0:0:0:
288,160,30744,5,12,0:0:0:0:
288,224,31199,1,4,0:0:0:0:
224,160,31653,1,8,0:0:0:0:
224,224,31805,1,0,0:0:0:0:
224,224,31880,1,0,0:0:0:0:
224,224,31956,1,0,0:0:0:0:
224,160,32108,1,8,0:0:0:0:
224,224,32259,1,0,0:0:0:0:
224,160,32411,1,8,0:0:0:0:
224,160,32562,1,8,0:0:0:0:
224,224,32714,1,0,0:0:0:0:
224,224,32865,1,0,0:0:0:0:
224,160,33017,1,8,0:0:0:0:
224,224,33320,1,0,0:0:0:0:
224,160,33471,1,8,0:0:0:0:
224,224,33623,1,0,0:0:0:0:
224,224,33699,1,0,0:0:0:0:
224,224,33774,1,0,0:0:0:0:
224,160,33926,1,8,0:0:0:0:
224,224,34077,1,0,0:0:0:0:
224,224,34229,1,0,0:0:0:0:
224,160,34380,1,8,0:0:0:0:
224,160,34532,1,8,0:0:0:0:
224,224,34683,1,0,0:0:0:0:
224,224,34835,1,0,0:0:0:0:
224,160,35062,1,8,0:0:0:0:
224,160,35290,5,8,0:0:0:0:
224,224,35442,1,0,0:0:0:0:
224,224,35517,1,0,0:0:0:0:
224,224,35593,1,0,0:0:0:0:
224,160,35745,1,8,0:0:0:0:
224,224,35896,1,0,0:0:0:0:
224,224,36048,1,0,0:0:0:0:
224,160,36199,1,8,0:0:0:0:
224,224,36351,1,0,0:0:0:0:
224,224,36502,1,0,0:0:0:0:
224,160,36654,1,8,0:0:0:0:
224,160,36880,1,8,0:0:0:0:
224,224,36994,1,0,0:0:0:0:
224,160,37108,1,8,0:0:0:0:
224,224,37336,1,0,0:0:0:0:
224,224,37563,1,0,0:0:0:0:
224,224,37866,1,0,0:0:0:0:
224,160,38017,1,8,0:0:0:0:
224,160,38169,1,8,0:0:0:0:
224,160,38320,1,8,0:0:0:0:
224,224,38472,1,0,0:0:0:0:
224,160,38699,1,8,0:0:0:0:
224,160,38926,5,8,0:0:0:0:
224,224,39078,1,0,0:0:0:0:
224,224,39153,1,0,0:0:0:0:
224,224,39229,1,0,0:0:0:0:
224,160,39381,1,8,0:0:0:0:
224,224,39532,1,0,0:0:0:0:
224,160,39684,1,8,0:0:0:0:
224,160,39835,1,8,0:0:0:0:
224,224,39987,1,0,0:0:0:0:
224,224,40138,1,0,0:0:0:0:
224,160,40290,1,8,0:0:0:0:
224,160,40517,1,8,0:0:0:0:
224,224,40630,1,0,0:0:0:0:
224,160,40744,1,8,0:0:0:0:
224,224,40972,1,0,0:0:0:0:
224,160,41199,1,8,0:0:0:0:
224,224,41426,1,0,0:0:0:0:
224,160,41653,1,8,0:0:0:0:
224,160,41880,1,8,0:0:0:0:
224,224,42108,1,0,0:0:0:0:
224,160,42335,1,8,0:0:0:0:
224,160,42562,1,8,0:0:0:0:
224,224,42790,1,0,0:0:0:0:
224,160,43017,5,8,0:0:0:0:
224,224,43168,1,0,0:0:0:0:
224,224,43320,1,0,0:0:0:0:
224,160,43471,1,8,0:0:0:0:
224,224,43623,1,0,0:0:0:0:
224,224,43774,1,0,0:0:0:0:
288,224,43926,1,4,0:0:0:0:
224,160,44153,1,8,0:0:0:0:
224,224,44267,1,0,0:0:0:0:
224,160,44380,1,8,0:0:0:0:
224,224,44608,1,0,0:0:0:0:
288,224,44835,1,4,0:0:0:0:
224,160,45062,1,8,0:0:0:0:
224,160,45290,1,8,0:0:0:0:
224,160,45517,1,8,0:0:0:0:
224,224,45744,1,0,0:0:0:0:
288,160,47108,1,12,0:0:0:0:
288,224,47562,5,4,0:0:0:0:
224,160,47903,1,8,0:0:0:0:
224,224,48017,1,0,0:0:0:0:
224,160,48244,1,8,0:0:0:0:
224,160,48472,1,8,0:0:0:0:
224,224,48699,1,0,0:0:0:0:
224,160,48926,1,8,0:0:0:0:
224,224,49153,1,0,0:0:0:0:
224,224,49228,1,0,0:0:0:0:
224,224,49304,1,0,0:0:0:0:
224,160,49380,1,8,0:0:0:0:
224,160,49721,1,8,0:0:0:0:
224,224,49835,1,0,0:0:0:0:
224,160,50062,1,8,0:0:0:0:
224,224,50289,1,0,0:0:0:0:
224,160,50517,1,8,0:0:0:0:
224,160,50744,1,8,0:0:0:0:
224,224,50971,5,0,0:0:0:0:
224,224,51046,1,0,0:0:0:0:
224,224,51122,1,0,0:0:0:0:
224,160,51198,1,8,0:0:0:0:
224,224,51539,1,0,0:0:0:0:
224,160,51653,1,8,0:0:0:0:
224,160,51880,1,8,0:0:0:0:
224,224,52107,1,0,0:0:0:0:
224,160,52335,1,8,0:0:0:0:
224,160,52562,1,8,0:0:0:0:
224,224,52789,1,0,0:0:0:0:
224,224,52864,1,0,0:0:0:0:
224,224,52940,1,0,0:0:0:0:
224,160,53016,1,8,0:0:0:0:
224,224,53357,1,0,0:0:0:0:
224,160,53471,1,8,0:0:0:0:
224,224,53698,1,0,0:0:0:0:
224,160,53925,1,8,0:0:0:0:
224,224,54153,1,0,0:0:0:0:
224,160,54380,1,8,0:0:0:0:
224,224,54607,5,0,0:0:0:0:
224,224,54682,1,0,0:0:0:0:
224,224,54758,1,0,0:0:0:0:
224,160,54834,1,8,0:0:0:0:
224,224,55062,1,0,0:0:0:0:
224,224,55138,1,0,0:0:0:0:
224,224,55214,1,0,0:0:0:0:
224,160,55290,1,8,0:0:0:0:
224,160,55517,1,8,0:0:0:0:
224,224,55744,1,0,0:0:0:0:
224,160,55971,1,8,0:0:0:0:
224,160,56199,1,8,0:0:0:0:
224,224,56426,1,0,0:0:0:0:
224,224,56501,1,0,0:0:0:0:
224,224,56577,1,0,0:0:0:0:
224,160,56653,1,8,0:0:0:0:
224,224,56994,1,0,0:0:0:0:
224,160,57107,1,8,0:0:0:0:
224,224,57335,1,0,0:0:0:0:
224,224,57562,1,0,0:0:0:0:
224,160,57789,1,8,0:0:0:0:
224,160,58017,1,8,0:0:0:0:
224,224,58244,5,0,0:0:0:0:
224,224,58319,1,0,0:0:0:0:
224,224,58395,1,0,0:0:0:0:
224,160,58471,1,8,0:0:0:0:
224,224,58812,1,0,0:0:0:0:
224,160,58926,1,8,0:0:0:0:
224,160,59153,1,8,0:0:0:0:
224,224,59380,1,0,0:0:0:0:
224,160,59607,1,8,0:0:0:0:
224,160,59835,1,8,0:0:0:0:
224,160,60062,1,8,0:0:0:0:
224,160,60137,1,8,0:0:0:0:
224,160,60213,1,8,0:0:0:0:
288,224,60289,1,4,0:0:0:0:
256,192,60744,8,0,61653,0:0:0:0:
256,192,62108,6,0,L|256:160,6,23.3333333333333
288,160,63471,1,12,0:0:0:0:
224,224,63926,1,0,0:0:0:0:
224,160,64040,1,8,0:0:0:0:
224,160,64153,1,8,0:0:0:0:
224,160,64267,1,8,0:0:0:0:
224,224,64380,1,0,0:0:0:0:
224,160,64494,1,8,0:0:0:0:
224,160,64608,1,8,0:0:0:0:
224,224,64721,1,0,0:0:0:0:
224,160,64835,1,8,0:0:0:0:
224,160,64949,1,8,0:0:0:0:
224,224,65290,5,0,0:0:0:0:
224,160,65403,1,8,0:0:0:0:
224,160,65517,1,8,0:0:0:0:
224,160,65630,1,8,0:0:0:0:
224,224,65744,1,0,0:0:0:0:
224,160,65858,1,8,0:0:0:0:
224,160,65971,1,8,0:0:0:0:
224,160,66085,1,8,0:0:0:0:
224,224,66199,1,0,0:0:0:0:
224,160,66312,1,8,0:0:0:0:
224,160,66426,1,8,0:0:0:0:
224,224,66540,1,0,0:0:0:0:
224,160,66653,1,8,0:0:0:0:
224,160,66767,1,8,0:0:0:0:
224,224,67108,5,0,0:0:0:0:
224,160,67221,1,8,0:0:0:0:
224,224,67335,1,0,0:0:0:0:
224,160,67449,1,8,0:0:0:0:
224,224,67562,1,0,0:0:0:0:
224,224,67676,1,0,0:0:0:0:
224,160,67789,1,8,0:0:0:0:
224,160,67903,1,8,0:0:0:0:
224,224,68016,1,0,0:0:0:0:
224,160,68130,1,8,0:0:0:0:
224,160,68244,1,8,0:0:0:0:
224,224,68357,1,0,0:0:0:0:
224,160,68471,1,8,0:0:0:0:
224,160,68585,1,8,0:0:0:0:
224,224,68926,5,0,0:0:0:0:
224,160,69040,1,8,0:0:0:0:
224,224,69153,1,0,0:0:0:0:
224,160,69266,1,8,0:0:0:0:
224,224,69380,1,0,0:0:0:0:
224,224,69494,1,0,0:0:0:0:
224,160,69607,1,8,0:0:0:0:
224,160,69721,1,8,0:0:0:0:
224,224,69835,1,0,0:0:0:0:
224,160,69948,1,8,0:0:0:0:
224,160,70062,1,8,0:0:0:0:
224,224,70176,1,0,0:0:0:0:
224,160,70289,1,8,0:0:0:0:
224,160,70403,1,8,0:0:0:0:
224,224,70744,5,0,0:0:0:0:
224,160,70857,1,8,0:0:0:0:
224,160,70971,1,8,0:0:0:0:
224,160,71085,1,8,0:0:0:0:
224,224,71199,1,0,0:0:0:0:
224,160,71313,1,8,0:0:0:0:
224,160,71426,1,8,0:0:0:0:
224,160,71540,1,8,0:0:0:0:
224,224,71653,1,0,0:0:0:0:
224,160,71767,1,8,0:0:0:0:
224,160,71881,1,8,0:0:0:0:
224,224,71994,1,0,0:0:0:0:
224,160,72108,1,8,0:0:0:0:
224,160,72222,1,8,0:0:0:0:
224,224,72563,5,0,0:0:0:0:
224,160,72676,1,8,0:0:0:0:
224,160,72790,1,8,0:0:0:0:
224,160,72903,1,8,0:0:0:0:
224,224,73017,1,0,0:0:0:0:
224,160,73131,1,8,0:0:0:0:
224,160,73244,1,8,0:0:0:0:
224,160,73358,1,8,0:0:0:0:
224,224,73472,1,0,0:0:0:0:
224,160,73585,1,8,0:0:0:0:
224,160,73699,1,8,0:0:0:0:
224,224,73812,1,0,0:0:0:0:
224,160,73926,1,8,0:0:0:0:
224,224,74153,5,0,0:0:0:0:
224,160,74267,1,8,0:0:0:0:
224,224,74380,1,0,0:0:0:0:
224,224,74494,1,0,0:0:0:0:
224,160,74608,1,8,0:0:0:0:
224,160,74721,1,8,0:0:0:0:
224,224,74835,1,0,0:0:0:0:
224,224,74949,1,0,0:0:0:0:
224,160,75062,1,8,0:0:0:0:
224,160,75176,1,8,0:0:0:0:
224,224,75290,1,0,0:0:0:0:
224,160,75403,1,8,0:0:0:0:
224,160,75517,1,8,0:0:0:0:
224,224,75630,1,0,0:0:0:0:
224,160,75744,1,8,0:0:0:0:
224,160,75858,1,8,0:0:0:0:
224,224,76199,5,0,0:0:0:0:
224,160,76312,1,8,0:0:0:0:
224,160,76426,1,8,0:0:0:0:
224,160,76540,1,8,0:0:0:0:
288,224,76653,1,4,0:0:0:0:
288,160,78017,5,12,0:0:0:0:
224,160,78471,1,8,0:0:0:0:
224,224,78812,1,0,0:0:0:0:
224,224,78926,1,0,0:0:0:0:
224,160,79153,1,8,0:0:0:0:
224,224,79380,1,0,0:0:0:0:
224,160,79607,1,8,0:0:0:0:
224,160,79835,1,8,0:0:0:0:
224,224,80062,1,0,0:0:0:0:
224,224,80137,1,0,0:0:0:0:
224,224,80213,1,0,0:0:0:0:
224,160,80289,1,8,0:0:0:0:
224,224,80630,1,0,0:0:0:0:
224,160,80744,1,8,0:0:0:0:
224,224,80971,1,0,0:0:0:0:
224,224,81198,1,0,0:0:0:0:
224,160,81426,1,8,0:0:0:0:
224,160,81653,1,8,0:0:0:0:
224,224,81880,5,0,0:0:0:0:
224,224,81955,1,0,0:0:0:0:
224,224,82031,1,0,0:0:0:0:
224,160,82107,1,8,0:0:0:0:
224,224,82448,1,0,0:0:0:0:
224,160,82562,1,8,0:0:0:0:
224,160,82789,1,8,0:0:0:0:
224,224,83016,1,0,0:0:0:0:
224,160,83244,1,8,0:0:0:0:
224,160,83471,1,8,0:0:0:0:
224,224,83698,1,0,0:0:0:0:
224,224,83773,1,0,0:0:0:0:
224,224,83849,1,0,0:0:0:0:
224,160,83925,1,8,0:0:0:0:
224,224,84266,1,0,0:0:0:0:
224,160,84380,1,8,0:0:0:0:
224,224,84607,1,0,0:0:0:0:
224,224,84834,1,0,0:0:0:0:
224,160,85062,1,8,0:0:0:0:
224,160,85289,1,8,0:0:0:0:
224,224,85516,5,0,0:0:0:0:
224,224,85593,1,0,0:0:0:0:
224,224,85667,1,0,0:0:0:0:
224,160,85743,1,8,0:0:0:0:
224,224,86085,1,0,0:0:0:0:
224,224,86199,1,0,0:0:0:0:
224,160,86426,1,8,0:0:0:0:
224,224,86653,1,0,0:0:0:0:
224,160,86880,1,8,0:0:0:0:
224,160,87108,1,8,0:0:0:0:
224,224,87335,1,0,0:0:0:0:
224,224,87410,1,0,0:0:0:0:
224,224,87486,1,0,0:0:0:0:
224,160,87562,1,8,0:0:0:0:
224,224,87903,1,0,0:0:0:0:
224,160,88016,1,8,0:0:0:0:
224,224,88244,1,0,0:0:0:0:
224,160,88471,1,8,0:0:0:0:
224,160,88698,1,8,0:0:0:0:
224,160,88926,1,8,0:0:0:0:
224,224,89153,5,0,0:0:0:0:
224,224,89228,1,0,0:0:0:0:
224,224,89304,1,0,0:0:0:0:
224,160,89380,1,8,0:0:0:0:
224,224,89721,1,0,0:0:0:0:
224,160,89835,1,8,0:0:0:0:
224,224,90062,1,0,0:0:0:0:
224,224,90289,1,0,0:0:0:0:
224,160,90516,1,8,0:0:0:0:
224,160,90744,1,8,0:0:0:0:
224,160,90971,1,8,0:0:0:0:
224,160,91046,1,8,0:0:0:0:
224,160,91122,1,8,0:0:0:0:
288,224,91198,1,4,0:0:0:0:
256,192,91653,8,0,93016,0:0:0:0:
288,160,94380,5,12,0:0:0:0:
288,224,94835,1,4,0:0:0:0:
224,160,95289,1,8,0:0:0:0:
224,224,95441,1,0,0:0:0:0:
224,224,95516,1,0,0:0:0:0:
224,224,95592,1,0,0:0:0:0:
224,160,95744,1,8,0:0:0:0:
224,224,95895,1,0,0:0:0:0:
224,160,96047,1,8,0:0:0:0:
224,160,96198,1,8,0:0:0:0:
224,224,96350,1,0,0:0:0:0:
224,224,96501,1,0,0:0:0:0:
224,160,96653,1,8,0:0:0:0:
224,224,96956,1,0,0:0:0:0:
224,160,97107,1,8,0:0:0:0:
224,224,97259,1,0,0:0:0:0:
224,224,97335,1,0,0:0:0:0:
224,224,97410,1,0,0:0:0:0:
224,160,97562,1,8,0:0:0:0:
224,224,97714,1,0,0:0:0:0:
224,224,97866,1,0,0:0:0:0:
224,160,98017,1,8,0:0:0:0:
224,160,98169,1,8,0:0:0:0:
224,224,98320,1,0,0:0:0:0:
224,224,98471,1,0,0:0:0:0:
224,160,98698,1,8,0:0:0:0:
224,160,98926,5,8,0:0:0:0:
224,224,99078,1,0,0:0:0:0:
224,224,99153,1,0,0:0:0:0:
224,224,99229,1,0,0:0:0:0:
224,160,99381,1,8,0:0:0:0:
224,224,99532,1,0,0:0:0:0:
224,224,99684,1,0,0:0:0:0:
224,160,99835,1,8,0:0:0:0:
224,224,99987,1,0,0:0:0:0:
224,224,100138,1,0,0:0:0:0:
224,160,100290,1,8,0:0:0:0:
224,160,100516,1,8,0:0:0:0:
224,224,100630,1,0,0:0:0:0:
224,160,100744,1,8,0:0:0:0:
224,224,100972,1,0,0:0:0:0:
224,224,101199,1,0,0:0:0:0:
224,224,101502,1,0,0:0:0:0:
224,160,101653,1,8,0:0:0:0:
224,160,101805,1,8,0:0:0:0:
224,160,101956,1,8,0:0:0:0:
224,224,102108,1,0,0:0:0:0:
224,160,102335,1,8,0:0:0:0:
224,160,102562,5,8,0:0:0:0:
224,224,102714,1,0,0:0:0:0:
224,224,102789,1,0,0:0:0:0:
224,224,102865,1,0,0:0:0:0:
224,160,103017,1,8,0:0:0:0:
224,224,103168,1,0,0:0:0:0:
224,160,103320,1,8,0:0:0:0:
224,160,103471,1,8,0:0:0:0:
224,224,103623,1,0,0:0:0:0:
224,224,103774,1,0,0:0:0:0:
224,160,103926,1,8,0:0:0:0:
224,160,104153,1,8,0:0:0:0:
224,224,104266,1,0,0:0:0:0:
224,160,104380,1,8,0:0:0:0:
224,224,104608,1,0,0:0:0:0:
224,160,104835,1,8,0:0:0:0:
224,224,105062,1,0,0:0:0:0:
224,160,105289,1,8,0:0:0:0:
224,160,105516,1,8,0:0:0:0:
224,224,105744,1,0,0:0:0:0:
224,160,105971,1,8,0:0:0:0:
224,160,106198,5,8,0:0:0:0:
224,224,106426,1,0,0:0:0:0:
224,160,106653,1,8,0:0:0:0:
224,224,106804,1,0,0:0:0:0:
224,224,106956,1,0,0:0:0:0:
224,160,107107,1,8,0:0:0:0:
224,224,107259,1,0,0:0:0:0:
224,224,107410,1,0,0:0:0:0:
288,224,107562,1,4,0:0:0:0:
224,160,107789,1,8,0:0:0:0:
224,224,107903,1,0,0:0:0:0:
224,160,108016,1,8,0:0:0:0:
224,224,108244,1,0,0:0:0:0:
288,224,108471,1,4,0:0:0:0:
224,160,108698,1,8,0:0:0:0:
224,160,108926,1,8,0:0:0:0:
224,160,109153,1,8,0:0:0:0:
224,224,109380,1,0,0:0:0:0:
288,160,110744,5,12,0:0:0:0:
288,224,111198,1,4,0:0:0:0:
224,160,111539,1,8,0:0:0:0:
224,224,111653,1,0,0:0:0:0:
224,160,111880,1,8,0:0:0:0:
224,160,112108,1,8,0:0:0:0:
224,224,112335,1,0,0:0:0:0:
224,160,112562,1,8,0:0:0:0:
224,224,112789,1,0,0:0:0:0:
224,224,112864,1,0,0:0:0:0:
224,224,112940,1,0,0:0:0:0:
224,160,113016,1,8,0:0:0:0:
224,160,113357,1,8,0:0:0:0:
224,224,113471,1,0,0:0:0:0:
224,160,113698,1,8,0:0:0:0:
224,224,113925,1,0,0:0:0:0:
224,160,114153,1,8,0:0:0:0:
224,160,114380,1,8,0:0:0:0:
224,224,114607,5,0,0:0:0:0:
224,224,114682,1,0,0:0:0:0:
224,224,114758,1,0,0:0:0:0:
224,160,114834,1,8,0:0:0:0:
224,224,115175,1,0,0:0:0:0:
224,160,115289,1,8,0:0:0:0:
224,160,115516,1,8,0:0:0:0:
224,224,115743,1,0,0:0:0:0:
224,160,115971,1,8,0:0:0:0:
224,160,116198,1,8,0:0:0:0:
224,224,116425,1,0,0:0:0:0:
224,224,116502,1,0,0:0:0:0:
224,224,116576,1,0,0:0:0:0:
224,160,116652,1,8,0:0:0:0:
224,224,116993,1,0,0:0:0:0:
224,160,117107,1,8,0:0:0:0:
224,224,117334,1,0,0:0:0:0:
224,160,117561,1,8,0:0:0:0:
224,224,117789,1,0,0:0:0:0:
224,160,118016,1,8,0:0:0:0:
224,224,118243,5,0,0:0:0:0:
224,224,118320,1,0,0:0:0:0:
224,224,118396,1,0,0:0:0:0:
224,160,118470,1,8,0:0:0:0:
224,224,118698,1,0,0:0:0:0:
224,224,118774,1,0,0:0:0:0:
224,224,118850,1,0,0:0:0:0:
224,160,118926,1,8,0:0:0:0:
224,160,119153,1,8,0:0:0:0:
224,224,119380,1,0,0:0:0:0:
224,160,119607,1,8,0:0:0:0:
224,160,119835,1,8,0:0:0:0:
224,224,120062,1,0,0:0:0:0:
224,224,120137,1,0,0:0:0:0:
224,224,120213,1,0,0:0:0:0:
224,160,120289,1,8,0:0:0:0:
224,224,120630,1,0,0:0:0:0:
224,160,120743,1,8,0:0:0:0:
224,224,120971,1,0,0:0:0:0:
224,224,121198,1,0,0:0:0:0:
224,160,121425,1,8,0:0:0:0:
224,160,121653,1,8,0:0:0:0:
224,224,121880,5,0,0:0:0:0:
224,224,121955,1,0,0:0:0:0:
224,224,122031,1,0,0:0:0:0:
224,160,122107,1,8,0:0:0:0:
224,224,122448,1,0,0:0:0:0:
224,160,122562,1,8,0:0:0:0:
224,160,122789,1,8,0:0:0:0:
224,224,123016,1,0,0:0:0:0:
224,160,123243,1,8,0:0:0:0:
224,160,123471,1,8,0:0:0:0:
224,160,123698,1,8,0:0:0:0:
224,160,123773,1,8,0:0:0:0:
224,160,123849,1,8,0:0:0:0:
288,224,123925,1,4,0:0:0:0:
256,192,124380,8,0,125289,0:0:0:0:
256,192,125744,6,0,L|256:160,6,23.3333333333333
288,160,127108,1,12,0:0:0:0:
224,224,127562,5,0,0:0:0:0:
224,160,127676,1,8,0:0:0:0:
224,160,127789,1,8,0:0:0:0:
224,160,127903,1,8,0:0:0:0:
224,224,128016,1,0,0:0:0:0:
224,160,128130,1,8,0:0:0:0:
224,160,128244,1,8,0:0:0:0:
224,224,128357,1,0,0:0:0:0:
224,160,128471,1,8,0:0:0:0:
224,160,128585,1,8,0:0:0:0:
224,224,128926,5,0,0:0:0:0:
224,160,129039,1,8,0:0:0:0:
224,160,129153,1,8,0:0:0:0:
224,160,129266,1,8,0:0:0:0:
224,224,129380,1,0,0:0:0:0:
224,160,129494,1,8,0:0:0:0:
224,160,129607,1,8,0:0:0:0:
224,160,129721,1,8,0:0:0:0:
224,224,129835,1,0,0:0:0:0:
224,160,129948,1,8,0:0:0:0:
224,160,130062,1,8,0:0:0:0:
224,224,130176,1,0,0:0:0:0:
224,160,130289,1,8,0:0:0:0:
224,160,130403,1,8,0:0:0:0:
224,224,130744,5,0,0:0:0:0:
224,160,130857,1,8,0:0:0:0:
224,224,130971,1,0,0:0:0:0:
224,160,131085,1,8,0:0:0:0:
224,224,131198,1,0,0:0:0:0:
224,224,131312,1,0,0:0:0:0:
224,160,131425,1,8,0:0:0:0:
224,160,131539,1,8,0:0:0:0:
224,224,131652,1,0,0:0:0:0:
224,160,131766,1,8,0:0:0:0:
224,160,131880,1,8,0:0:0:0:
224,224,131993,1,0,0:0:0:0:
224,160,132107,1,8,0:0:0:0:
224,160,132221,1,8,0:0:0:0:
224,224,132562,5,0,0:0:0:0:
224,160,132676,1,8,0:0:0:0:
224,224,132789,1,0,0:0:0:0:
224,160,132902,1,8,0:0:0:0:
224,224,133016,1,0,0:0:0:0:
224,224,133130,1,0,0:0:0:0:
224,160,133243,1,8,0:0:0:0:
224,160,133357,1,8,0:0:0:0:
224,224,133471,1,0,0:0:0:0:
224,160,133584,1,8,0:0:0:0:
224,160,133698,1,8,0:0:0:0:
224,224,133812,1,0,0:0:0:0:
224,160,133925,1,8,0:0:0:0:
224,160,134039,1,8,0:0:0:0:
224,224,134380,5,0,0:0:0:0:
224,160,134493,1,8,0:0:0:0:
224,160,134607,1,8,0:0:0:0:
224,160,134721,1,8,0:0:0:0:
224,224,134835,1,0,0:0:0:0:
224,160,134949,1,8,0:0:0:0:
224,160,135062,1,8,0:0:0:0:
224,160,135176,1,8,0:0:0:0:
224,224,135289,1,0,0:0:0:0:
224,160,135403,1,8,0:0:0:0:
224,160,135517,1,8,0:0:0:0:
224,224,135630,1,0,0:0:0:0:
224,160,135744,1,8,0:0:0:0:
224,160,135858,1,8,0:0:0:0:
224,224,136199,5,0,0:0:0:0:
224,160,136312,1,8,0:0:0:0:
224,160,136426,1,8,0:0:0:0:
224,160,136539,1,8,0:0:0:0:
224,224,136653,1,0,0:0:0:0:
224,160,136767,1,8,0:0:0:0:
224,160,136880,1,8,0:0:0:0:
224,160,136994,1,8,0:0:0:0:
224,224,137108,1,0,0:0:0:0:
224,160,137221,1,8,0:0:0:0:
224,160,137335,1,8,0:0:0:0:
224,224,137448,1,0,0:0:0:0:
224,160,137562,1,8,0:0:0:0:
224,224,137789,5,0,0:0:0:0:
224,160,137903,1,8,0:0:0:0:
224,224,138016,1,0,0:0:0:0:
224,224,138130,1,0,0:0:0:0:
224,160,138244,1,8,0:0:0:0:
224,160,138357,1,8,0:0:0:0:
224,224,138471,1,0,0:0:0:0:
224,224,138585,1,0,0:0:0:0:
224,160,138698,1,8,0:0:0:0:
224,160,138812,1,8,0:0:0:0:
224,224,138926,1,0,0:0:0:0:
224,160,139039,1,8,0:0:0:0:
224,160,139153,1,8,0:0:0:0:
224,224,139266,1,0,0:0:0:0:
224,160,139380,1,8,0:0:0:0:
224,160,139494,1,8,0:0:0:0:
224,224,139835,5,0,0:0:0:0:
224,160,139948,1,8,0:0:0:0:
224,160,140062,1,8,0:0:0:0:
224,160,140176,1,8,0:0:0:0:
224,160,140290,1,8,0:0:0:0:
224,160,140744,5,8,0:0:0:0:
224,160,140858,1,8,0:0:0:0:
224,160,141199,1,8,0:0:0:0:
224,160,141312,1,8,0:0:0:0:
224,160,141426,1,8,0:0:0:0:
224,160,141540,1,8,0:0:0:0:
224,160,141653,1,8,0:0:0:0:
288,224,142108,5,4,0:0:0:0:
