osu file format v14

[General]
AudioFilename: audio.mp3
AudioLeadIn: 0
PreviewTime: -1
Countdown: 1
SampleSet: None
StackLeniency: 0.1
Mode: 0
LetterboxInBreaks: 0
WidescreenStoryboard: 0

[Editor]
DistanceSpacing: 0.4
BeatDivisor: 8
GridSize: 32
TimelineZoom: 1.7

[Metadata]
Title:Pump (Ringtone Size)
TitleUnicode:Pump (Ringtone Size)
Artist:Valentino Khan
ArtistUnicode:Valentino Khan
Creator:semaphore
Version:thats how mafia works
Source:
Tags:
BeatmapID:1948072
BeatmapSetID:933099

[Difficulty]
HPDrainRate:6
CircleSize:4
OverallDifficulty:8
ApproachRate:9.4
SliderMultiplier:1.4
SliderTickRate:1

[Events]
//Background and Video events
//Break Periods
//Storyboard Layer 0 (Background)
//Storyboard Layer 1 (Fail)
//Storyboard Layer 2 (Pass)
//Storyboard Layer 3 (Foreground)
//Storyboard Sound Samples

[TimingPoints]
155,468.75,4,1,0,70,1,0
623,-25,4,1,0,70,0,0
858,-50,4,1,0,70,0,0
2030,-100,4,1,0,70,0,0
2498,-25,4,1,0,70,0,0
2733,-50,4,1,0,70,0,0
3905,-100,4,1,0,70,0,0
4373,-25,4,1,0,70,0,0
4608,-50,4,1,0,70,0,0
5780,-100,4,1,0,70,0,0
6248,-25,4,1,0,70,0,0
6483,-50,4,1,0,70,0,0
7655,-100,4,1,0,70,0,0
8123,-50,4,1,0,70,0,0
9061,-25,4,1,0,70,0,0
9295,-50,4,1,0,70,0,0
9530,-100,4,1,0,70,0,0
9998,-50,4,1,0,70,0,0
10936,-25,4,1,0,70,0,0
11170,-50,4,1,0,70,0,0
11405,-100,4,1,0,70,0,0
12342,-50,4,1,0,70,0,0
13045,-25,4,1,0,70,0,0
13748,-100,4,1,0,70,0,0
14217,-100,4,1,0,70,0,0

[HitObjects]
82,274,155,6,0,P|87:226|84:163,1,105
87,141,623,2,0,B|202:98|146:228|332:202,1,210
333,153,858,2,0,P|379:151|411:154,1,70
241,0,1092,5,0,0:0:0:0:
231,71,1326,1,0,0:0:0:0:
240,143,1561,2,0,P|242:186|238:229,1,70
241,354,1795,1,0,0:0:0:0:
496,350,2030,6,0,P|491:302|494:239,1,105
491,217,2498,2,0,B|376:174|432:304|252:259,1,210
287,292,2733,2,0,P|329:290|367:294,1,70
502,83,2967,5,0,0:0:0:0:
433,57,3201,2,0,L|333:69,1,70
163,75,3436,5,0,0:0:0:0:
94,49,3670,2,0,L|-6:61,1,70
259,20,3905,6,0,P|257:62|259:130,1,105
253,152,4373,2,0,B|358:114|347:216|452:205,1,210
293,240,4608,2,0,P|251:247|217:272,1,70
360,349,4842,5,0,0:0:0:0:
433,340,5076,1,0,0:0:0:0:
506,348,5311,2,0,P|509:311|506:272,1,70
512,132,5545,1,0,0:0:0:0:
113,43,5780,6,0,P|109:92|113:161,1,105
110,175,6248,2,0,B|234:136|187:247|331:227,1,210
396,156,6483,2,0,L|389:67,1,70
225,353,6717,5,0,0:0:0:0:
214,282,6951,1,0,0:0:0:0:
229,212,7186,2,0,P|226:173|231:136,1,70
225,33,7420,1,0,0:0:0:0:
512,325,7655,6,0,P|466:320|434:323,1,70
385,268,8006,1,0,0:0:0:0:
310,328,8123,2,0,P|308:279|314:186,1,140
303,114,8592,5,0,0:0:0:0:
321,42,8709,1,0,0:0:0:0:
303,41,8826,1,0,0:0:0:0:
321,113,8943,1,0,0:0:0:0:
387,153,9061,6,0,B|280:116|307:217|179:198,1,210
131,148,9295,2,0,P|93:144|53:149,1,70
303,41,9530,6,0,P|341:39|376:42,1,70
434,82,9881,1,0,0:0:0:0:
500,23,9998,6,0,P|507:85|501:163,1,140
512,236,10467,5,0,0:0:0:0:
512,236,10584,1,0,0:0:0:0:
502,306,10701,1,0,0:0:0:0:
502,306,10818,1,0,0:0:0:0:
512,378,10936,6,0,B|418:379|437:274|318:302,1,210
305,272,11170,2,0,P|347:274|385:271,1,70
118,348,11405,5,0,0:0:0:0:
141,247,11522,1,0,0:0:0:0:
181,309,11639,5,0,0:0:0:0:
80,286,11756,1,0,0:0:0:0:
7,268,11873,6,0,P|9:216|8:182,1,70
297,33,12342,5,0,0:0:0:0:
215,43,12459,1,0,0:0:0:0:
214,33,12576,5,0,0:0:0:0:
296,43,12693,1,0,0:0:0:0:
377,56,12811,6,0,P|416:65|448:107,1,70
305,1,13045,2,0,P|225:14|169:139,1,210
176,146,13280,5,0,0:0:0:0:
164,218,13397,1,0,0:0:0:0:
25,136,13514,5,0,0:0:0:0:
93,110,13631,1,0,0:0:0:0:
25,161,13748,6,0,P|23:190|24:243,1,70
16,303,14217,5,0,0:0:0:0:
88,297,14451,1,0,0:0:0:0:
159,306,14686,1,0,0:0:0:0:
