osu file format v14

[General]
AudioFilename: audio.mp3
AudioLeadIn: 0
PreviewTime: -1
Countdown: 0
SampleSet: Soft
StackLeniency: 0.2
Mode: 0
LetterboxInBreaks: 0
WidescreenStoryboard: 0

[Editor]
DistanceSpacing: 0.4
BeatDivisor: 8
GridSize: 32
TimelineZoom: 2.5

[Metadata]
Title:Pump (Ringtone Size)
TitleUnicode:Pump (Ringtone Size)
Artist:Valentino Khan
ArtistUnicode:Valentino Khan
Creator:semaphore
Version:Frakturehawkens' Flex
Source:
Tags:frakturehawkens
BeatmapID:1955599
BeatmapSetID:933099

[Difficulty]
HPDrainRate:4.4
CircleSize:4.4
OverallDifficulty:8.6
ApproachRate:9.6
SliderMultiplier:2.8
SliderTickRate:1

[Events]
//Background and Video events
//Break Periods
//Storyboard Layer 0 (Background)
//Storyboard Layer 1 (Fail)
//Storyboard Layer 2 (Pass)
//Storyboard Layer 3 (Foreground)
//Storyboard Sound Samples

[TimingPoints]
155,468.75,4,2,0,70,1,0
155,-50,4,2,0,70,0,0
565,-50,4,2,0,5,0,0
623,-133.333333333333,4,2,0,70,0,0
858,-66.6666666666667,4,2,0,70,0,0
1033,-66.6666666666667,4,2,0,5,0,0
1092,-133.333333333333,4,2,0,70,0,0
1326,-66.6666666666667,4,2,0,70,0,0
1502,-66.6666666666667,4,2,0,5,0,0
1561,-333.333333333333,4,2,0,70,0,0
2030,-50,4,2,0,70,0,0
2440,-50,4,2,0,5,0,0
2498,-133.333333333333,4,2,0,70,0,0
2733,-66.6666666666667,4,2,0,70,0,0
2908,-66.6666666666667,4,2,0,5,0,0
2967,-181.818181818181,4,2,0,70,0,0
3143,-181.818181818181,4,2,0,5,0,0
3201,-50,4,2,0,70,0,0
3436,-181.818181818181,4,2,0,70,0,0
3612,-181.818181818181,4,2,0,5,0,0
3670,-28.5714285714286,4,2,0,70,0,0
3905,-50,4,2,0,70,0,0
4315,-50,4,2,0,5,0,0
4373,-133.333333333333,4,2,0,70,0,0
4608,-66.6666666666667,4,2,0,70,0,0
4783,-66.6666666666667,4,2,0,5,0,0
4842,-133.333333333333,4,2,0,70,0,0
5076,-50,4,2,0,70,0,0
5252,-50,4,2,0,5,0,0
5311,-181.818181818181,4,2,0,70,0,0
5780,-50,4,2,0,70,0,0
6190,-50,4,2,0,5,0,0
6248,-133.333333333333,4,2,0,70,0,0
6483,-66.6666666666667,4,2,0,70,0,0
6658,-66.6666666666667,4,2,0,5,0,0
6717,-100,4,2,0,70,0,0
7420,-28.5714285714286,4,2,0,70,0,0
7596,-28.5714285714286,4,2,0,5,0,0
7655,-50,4,2,0,70,0,0
7947,-50,4,2,0,5,0,0
8123,-133.333333333333,4,2,0,70,0,0
8358,-66.6666666666667,4,2,0,70,0,0
8533,-66.6666666666667,4,2,0,5,0,0
8592,-66.6666666666667,4,2,0,70,0,0
9061,-181.818181818181,4,2,0,70,0,0
9530,-41.6666666666667,4,2,0,70,0,0
9822,-41.6666666666667,4,2,0,5,0,0
9881,-41.6666666666667,4,2,0,70,0,0
9998,-133.333333333333,4,2,0,70,0,0
10233,-66.6666666666667,4,2,0,70,0,0
10408,-66.6666666666667,4,2,0,5,0,0
10467,-66.6666666666667,4,2,0,70,0,0
10936,-181.818181818181,4,2,0,70,0,0
11112,-181.818181818181,4,2,0,5,0,0
11170,-28.5714285714286,4,2,0,70,0,0
11346,-28.5714285714286,4,2,0,5,0,0
11405,-28.5714285714286,4,2,0,70,0,0
11990,-399.999999999997,4,2,0,70,0,0
12576,-399.999999999997,4,2,0,70,0,0
13280,-100,4,2,0,70,0,0
13748,-222.222222222221,4,2,0,70,0,0
13924,-222.222222222221,4,2,0,5,0,0
13983,-41.6666666666667,4,2,0,70,0,0
14158,-41.6666666666667,4,2,0,5,0,0
14217,-100,4,2,0,70,0,0

[Colours]
Combo1 : 241,63,37
Combo2 : 250,39,160
Combo3 : 20,205,252
Combo4 : 115,238,108

[HitObjects]
125,39,155,6,0,B|53:25|10:53|10:53|209:58|378:156,1,490,6|0,1:0|0:0,0:0:0:0:
366,160,623,2,0,P|329:205|321:245,1,52.5000020027162,8|0,1:0|0:0,0:0:0:0:
177,181,858,2,0,P|243:196|213:257,1,157.500006008148,2|0,1:0|0:0,0:0:0:0:
122,304,1092,2,0,L|129:252,1,52.5000020027162,0|0,1:0|0:0,0:0:0:0:
353,354,1326,6,0,P|341:310|332:192,1,157.500006008148,2|0,1:0|0:0,0:0:0:0:
76,176,1561,2,0,L|112:182,1,20.9999993591309,8|0,1:0|0:0,0:0:0:0:
88,104,1795,2,0,L|124:110,1,20.9999993591309
122,304,2030,6,0,B|230:311|273:224|246:218|284:27|528:40,1,490,2|0,1:0|0:0,0:0:0:0:
501,46,2498,2,0,P|494:75|494:100,1,52.5000020027162,8|0,1:0|0:0,0:0:0:0:
297,202,2733,2,0,P|373:182|451:169,1,157.500006008148,2|0,1:0|0:0,0:0:0:0:
276,311,2967,6,0,B|264:299|271:282|271:282|270:299|282:314,1,57.7500017623902,0|0,1:0|0:0,0:0:0:0:
353,340,3201,2,0,L|159:375,1,140,2|0,1:0|0:0,0:0:0:0:
433,364,3436,6,0,B|428:347|443:336|443:336|433:350|436:369,1,57.7500017623902,8|0,1:0|0:0,0:0:0:0:
397,267,3670,2,2,L|-19:218,1,367.500003504753,2|0,0:0|0:0,0:0:0:0:
132,269,3905,6,0,B|93:293|129:325|72:368|72:368|201:307|94:194|160:101|160:101|203:97|224:55,1,490,6|0,1:0|0:0,0:0:0:0:
99,6,4373,2,0,L|151:17,1,52.5000020027162,8|0,1:0|0:0,0:0:0:0:
219,171,4608,2,0,P|316:131|405:117,1,157.500006008148,2|0,1:0|0:0,0:0:0:0:
387,40,4842,2,0,B|416:30|416:30|390:47,1,52.5000020027162,0|0,1:0|0:0,0:0:0:0:
216,257,5076,6,0,P|381:233|467:238,1,210,2|0,1:0|0:0,0:0:0:0:
309,10,5311,2,0,B|299:27|299:27|303:45,1,38.5000011749268,8|0,1:0|0:0,0:0:0:0:
466,72,5545,2,0,B|476:55|476:55|472:37,1,38.5000011749268
23,32,5780,6,0,B|123:24|266:51|366:122|366:122|371:117|371:117|434:122|434:122|468:70,1,490,2|0,1:0|0:0,0:0:0:0:
387,40,6248,2,0,B|390:13|390:13|396:40,1,52.5000020027161,8|0,1:0|0:0,0:0:0:0:
423,234,6483,2,0,B|466:230|482:184|482:184|456:220|410:224,1,157.500006008148,2|0,1:0|0:0,0:0:0:0:
456,380,6717,6,0,P|456:345|453:310,1,70,0|0,1:0|0:0,0:0:0:0:
348,200,6951,2,0,B|334:191|312:193|312:193|336:199|345:211,1,70,2|0,1:0|0:0,0:0:0:0:
379,356,7186,2,0,P|370:322|358:289,1,70,8|0,1:0|0:0,0:0:0:0:
57,164,7420,2,2,B|422:218|56:168|421:222,1,367.500003504753,2|0,0:0|0:0,0:0:0:0:
482,185,7655,6,0,B|291:192|382:338|139:340,1,350,6|0,1:0|0:0,0:0:0:0:
106,263,8006,1,0,1:0:0:0:
101,253,8123,2,0,L|197:267,1,52.5000020027161,8|0,1:0|0:0,0:0:0:0:
73,330,8358,2,0,L|47:152,1,157.500006008148,2|0,1:0|0:0,0:0:0:0:
103,37,8592,5,0,1:0:0:0:
36,90,8709,1,0,1:0:0:0:
182,65,8826,1,2,1:0:0:0:
176,60,8944,1,0,1:0:0:0:
261,117,9061,2,0,P|264:78|271:40,1,77.0000023498536,8|0,1:0|0:0,0:0:0:0:
50,174,9530,6,0,B|39:147|8:140|8:140|-21:157|-12:28|257:109|121:238|281:257|359:151,1,419.999987182618,6|0,1:0|0:0,0:0:0:0:
321,196,9881,1,0,1:0:0:0:
329,203,9998,2,0,P|332:231|307:216,1,52.5000020027161,8|0,1:0|0:0,0:0:0:0:
371,308,10233,2,0,P|386:223|408:110,1,157.500006008148,2|0,1:0|0:0,0:0:0:0:
432,363,10467,5,0,1:0:0:0:
438,358,10584,1,0,1:0:0:0:
290,322,10701,1,2,1:0:0:0:
288,312,10818,1,0,1:0:0:0:
371,308,10936,6,0,B|387:278|387:278|376:308,1,57.7500017623902,8|0,1:0|0:0,0:0:0:0:
377,315,11170,2,2,L|-11:369,1,367.500003504753,2|0,0:0|0:0,0:0:0:0:
2,359,11405,5,6,1:0:0:0:
14,284,11522,1,0,0:0:0:0:
39,251,11639,1,0,0:0:0:0:
55,246,11756,1,0,0:0:0:0:
63,251,11873,5,8,1:0:0:0:
112,184,11990,2,0,L|94:175,1,17.5,0|2,0:0|1:0,0:0:0:0:
128,93,12225,1,0,0:0:0:0:
119,93,12343,5,0,1:0:0:0:
212,123,12459,1,0,0:0:0:0:
305,153,12576,2,0,L|317:133,1,17.5,2|0,1:0|0:0,0:0:0:0:
307,162,12811,5,8,1:0:0:0:
400,132,12927,1,0,0:0:0:0:
493,102,13044,1,0,0:0:0:0:
501,109,13162,1,0,0:0:0:0:
491,115,13280,6,0,P|483:158|475:242,1,70,6|0,1:0|0:0,0:0:0:0:
393,62,13514,2,0,P|396:105|410:188,1,70
270,312,13748,6,0,L|258:261,1,47.2499985580445,8|0,1:0|0:0,0:0:0:0:
262,254,13983,2,0,B|475:224|475:224|492:173,1,251.999992309571,2|0,1:0|0:0,0:0:0:0:
383,270,14217,2,0,L|405:87,2,140,2|2|2,0:0|0:0|0:0,0:0:0:0:
