osu file format v14

[General]
AudioFilename: audio.mp3
AudioLeadIn: 0
PreviewTime: -1
Countdown: 1
SampleSet: None
StackLeniency: 0.2
Mode: 0
LetterboxInBreaks: 0
WidescreenStoryboard: 1

[Editor]
DistanceSpacing: 0.6
BeatDivisor: 8
GridSize: 32
TimelineZoom: 1.7

[Metadata]
Title:Pump (Ringtone Size)
TitleUnicode:Pump (Ringtone Size)
Artist:Valentino Khan
ArtistUnicode:Valentino Khan
Creator:semaphore
Version:Fixxis' Lvl.1 N*****
Source:
Tags:
BeatmapID:1948675
BeatmapSetID:933099

[Difficulty]
HPDrainRate:6
CircleSize:4
OverallDifficulty:8
ApproachRate:9.4
SliderMultiplier:1.9
SliderTickRate:1

[Events]
//Background and Video events
//Break Periods
//Storyboard Layer 0 (Background)
//Storyboard Layer 1 (Fail)
//Storyboard Layer 2 (Pass)
//Storyboard Layer 3 (Foreground)
//Storyboard Sound Samples

[TimingPoints]
155,468.75,4,1,0,70,1,0
623,-66.6666666666667,4,1,0,70,0,0
858,-50,4,1,0,70,0,0
2030,-100,4,1,0,70,0,0
2498,-50,4,1,0,70,0,0
2733,-50,4,1,0,70,0,0
3905,-100,4,1,0,70,0,0
4373,-66.6666666666667,4,1,0,70,0,0
4608,-50,4,1,0,70,0,0
5780,-100,4,1,0,70,0,0
6248,-50,4,1,0,70,0,0
6483,-50,4,1,0,70,0,0
7655,-100,4,1,0,70,0,0
8123,-50,4,1,0,70,0,0
9061,-50,4,1,0,70,0,0
9295,-50,4,1,0,70,0,0
9530,-100,4,1,0,70,0,0
9998,-50,4,1,0,70,0,0
10936,-50,4,1,0,70,0,0
11170,-50,4,1,0,70,0,0
11405,-55.5555555555556,4,1,0,70,0,0
11873,-50,4,1,0,70,0,0
12342,-50,4,1,0,70,0,0
13045,-33.3333333333333,4,1,0,70,0,0
13748,-50,4,1,0,70,0,0
14217,-100,4,1,0,70,0,0

[HitObjects]
38,47,155,6,0,P|109:78|159:131,1,142.5
150,217,623,2,0,P|162:175|157:127,1,71.2500027179719
296,162,858,2,0,P|285:119|252:71,1,95
320,4,1092,2,0,P|362:16|420:11,1,95
456,104,1326,2,0,P|424:134|399:187,1,95
341,235,1561,5,0,0:0:0:0:
362,314,1795,1,0,0:0:0:0:
311,379,2030,2,0,L|155:350,1,142.5
11,334,2498,2,0,L|139:299,1,95
260,272,2733,2,0,L|165:253,1,95
48,119,2967,6,0,P|116:93|252:126,1,190
212,8,3319,1,0,0:0:0:0:
12,311,3436,6,0,P|41:244|153:175,1,190
235,191,3729,2,0,L|295:168,2,47.5
192,115,3905,6,0,L|73:29,1,142.5
274,92,4373,2,0,L|345:60,1,71.2500027179719
488,55,4608,2,0,L|382:4,1,95
317,172,4842,2,0,L|422:115,1,95
227,168,5076,2,0,P|235:222|289:259,1,95
341,283,5311,1,0,0:0:0:0:
372,358,5545,1,0,0:0:0:0:
405,168,5780,6,0,P|438:105|507:82,1,142.5
315,115,6248,2,0,P|279:71|223:48,1,95
78,114,6483,2,0,P|114:70|170:47,1,95
192,159,6717,2,0,L|163:349,1,190
33,371,7069,1,0,0:0:0:0:
315,115,7186,6,0,L|286:305,1,190
342,363,7479,2,0,L|412:375,2,47.5
369,282,7655,6,0,L|514:221,1,142.5
315,214,8123,2,0,L|226:178,1,95
354,135,8358,2,0,L|442:99,1,95
301,65,8592,1,0,0:0:0:0:
215,60,8709,1,0,0:0:0:0:
151,116,8826,1,0,0:0:0:0:
155,201,8944,1,0,0:0:0:0:
211,263,9061,6,0,P|236:295|225:395,1,95
62,346,9295,2,0,P|68:299|95:261,1,95
155,201,9530,2,0,P|132:147|53:97,1,142.5
152,41,9998,2,0,L|268:19,1,95
300,104,10233,2,0,L|206:121,1,95
155,201,10467,1,0,0:0:0:0:
155,201,10584,1,0,0:0:0:0:
213,271,10701,1,0,0:0:0:0:
213,271,10819,1,0,0:0:0:0:
154,342,10936,6,0,L|85:252,1,95
303,261,11170,2,0,P|326:306|311:358,1,95
358,185,11405,6,0,L|370:93,3,85.4999973907472
452,194,11873,2,0,P|433:240|377:275,1,95
339,341,12108,2,0,P|289:347|231:316,1,95
180,283,12342,1,0,0:0:0:0:
108,309,12459,1,0,0:0:0:0:
31,269,12576,6,0,L|15:159,1,95
71,7,12811,2,0,L|57:101,1,95
105,176,13045,2,0,P|194:179|234:143,1,142.500005435944
309,86,13280,5,0,0:0:0:0:
324,169,13397,1,0,0:0:0:0:
342,252,13514,1,0,0:0:0:0:
358,335,13631,1,0,0:0:0:0:
266,365,13748,6,0,P|243:313|251:271,1,95
435,249,13983,2,0,P|456:290|452:337,1,95
324,169,14217,5,0,0:0:0:0:
383,115,14451,1,0,0:0:0:0:
460,145,14686,1,0,0:0:0:0:
