osu file format v14

[General]
AudioFilename: audio.mp3
AudioLeadIn: 0
PreviewTime: 30386
Countdown: 0
SampleSet: Normal
StackLeniency: 0.7
Mode: 1
LetterboxInBreaks: 0
WidescreenStoryboard: 1

[Editor]
Bookmarks: 662,2863,12772,25983,31487,40019,40295,49102
DistanceSpacing: 0.3
BeatDivisor: 4
GridSize: 32
TimelineZoom: 0.8000002

[Metadata]
Title:Ya b'yu zhenshchin i detey (Cut Ver.)
TitleUnicode:Я бью женщин и детей (Cut Ver.)
Artist:Valentin Strykalo
ArtistUnicode:Валентин Стрыкало
Creator:CrayZeei
Version:Kantan
Source:
Tags:JarHed russian rock comedy punk alternative alt Studio Soyuz LLC Смирись и расслабься Smiris' i rasslab'sya русский рок ООО Студия Союз
BeatmapID:2729525
BeatmapSetID:1316612

[Difficulty]
HPDrainRate:8
CircleSize:5
OverallDifficulty:3
ApproachRate:5
SliderMultiplier:1.4
SliderTickRate:1

[Events]
//Background and Video events
0,0,"bg.jpg",0,60
//Break Periods
//Storyboard Layer 0 (Background)
//Storyboard Layer 1 (Fail)
//Storyboard Layer 2 (Pass)
//Storyboard Layer 3 (Foreground)
//Storyboard Layer 4 (Overlay)
//Storyboard Sound Samples

[TimingPoints]
662,275.229357798165,4,1,0,60,1,0
662,-125,4,1,0,60,0,0
3964,275.229357798165,4,1,0,60,1,0
3964,-125,4,1,0,60,0,0
31486,-125,4,1,0,60,0,1
40019,-125,4,1,0,60,0,0
40294,-125,4,1,0,60,0,1
49101,-125,4,1,0,60,0,0

[HitObjects]
256,192,2863,5,2,0:0:0:0:
256,192,3689,1,2,0:0:0:0:
256,192,3964,1,4,0:0:0:0:
256,192,4514,1,0,0:0:0:0:
256,192,4789,1,2,0:0:0:0:
256,192,5064,1,0,0:0:0:0:
256,192,5477,1,0,0:0:0:0:
256,192,6165,1,0,0:0:0:0:
256,192,6716,1,0,0:0:0:0:
256,192,6991,1,2,0:0:0:0:
256,192,7266,1,0,0:0:0:0:
256,192,7679,1,0,0:0:0:0:
256,192,8367,1,0,0:0:0:0:
256,192,8918,1,0,0:0:0:0:
256,192,9193,1,2,0:0:0:0:
256,192,9468,1,0,0:0:0:0:
256,192,9881,1,0,0:0:0:0:
256,192,10569,1,0,0:0:0:0:
256,192,11119,1,0,0:0:0:0:
256,192,11395,1,2,0:0:0:0:
256,192,11670,1,0,0:0:0:0:
256,192,11945,1,2,0:0:0:0:
256,192,12771,1,6,0:0:0:0:
256,192,13321,1,0,0:0:0:0:
256,192,13872,1,0,0:0:0:0:
256,192,14422,1,2,0:0:0:0:
256,192,14973,1,2,0:0:0:0:
256,192,15248,1,0,0:0:0:0:
256,192,15523,1,0,0:0:0:0:
256,192,16074,1,2,0:0:0:0:
256,192,17175,1,6,0:0:0:0:
256,192,17725,1,0,0:0:0:0:
256,192,18275,1,2,0:0:0:0:
256,192,18551,1,2,0:0:0:0:
256,192,18826,1,0,0:0:0:0:
256,192,19376,1,4,0:0:0:0:
256,192,19927,1,2,0:0:0:0:
256,192,20202,1,0,0:0:0:0:
256,192,20477,1,6,0:0:0:0:
256,192,21578,1,6,0:0:0:0:
256,192,22129,1,0,0:0:0:0:
256,192,22404,1,0,0:0:0:0:
256,192,22679,1,0,0:0:0:0:
256,192,23230,1,0,0:0:0:0:
256,192,23780,1,6,0:0:0:0:
256,192,24881,1,0,0:0:0:0:
256,192,25431,1,0,0:0:0:0:
256,192,25707,1,2,0:0:0:0:
256,192,25982,1,6,0:0:0:0:
256,192,26532,1,0,0:0:0:0:
256,192,27083,1,2,0:0:0:0:
256,192,27633,1,2,0:0:0:0:
256,192,28184,1,0,0:0:0:0:
256,192,28459,1,2,0:0:0:0:
256,192,28734,1,0,0:0:0:0:
256,192,29285,1,0,0:0:0:0:
256,192,29560,1,2,0:0:0:0:
256,192,30110,1,2,0:0:0:0:
256,192,30386,1,0,0:0:0:0:
256,192,31486,1,4,0:0:0:0:
256,192,32037,1,0,0:0:0:0:
256,192,32312,1,2,0:0:0:0:
256,192,32863,1,2,0:0:0:0:
256,192,33413,1,0,0:0:0:0:
256,192,33688,1,2,0:0:0:0:
256,192,33963,1,0,0:0:0:0:
256,192,34514,1,2,0:0:0:0:
256,192,35064,1,0,0:0:0:0:
256,192,35615,1,2,0:0:0:0:
256,192,35890,1,0,0:0:0:0:
256,192,36165,1,2,0:0:0:0:
256,192,36716,1,2,0:0:0:0:
256,192,36991,1,0,0:0:0:0:
256,192,38092,1,2,0:0:0:0:
256,192,38367,1,0,0:0:0:0:
256,192,38918,1,0,0:0:0:0:
256,192,39193,1,2,0:0:0:0:
256,192,40294,1,4,0:0:0:0:
256,192,40844,1,0,0:0:0:0:
256,192,41119,1,2,0:0:0:0:
256,192,41670,1,2,0:0:0:0:
256,192,42220,1,0,0:0:0:0:
256,192,42496,1,2,0:0:0:0:
256,192,42771,1,0,0:0:0:0:
256,192,43321,1,2,0:0:0:0:
256,192,43872,1,0,0:0:0:0:
256,192,44422,1,2,0:0:0:0:
256,192,44697,1,0,0:0:0:0:
256,192,44973,1,2,0:0:0:0:
256,192,45523,1,2,0:0:0:0:
256,192,45798,1,0,0:0:0:0:
256,192,46899,1,2,0:0:0:0:
256,192,47175,1,0,0:0:0:0:
256,192,47725,1,0,0:0:0:0:
256,192,48000,1,2,0:0:0:0:
256,192,49101,1,4,0:0:0:0:
256,192,49652,1,0,0:0:0:0:
256,192,49927,1,2,0:0:0:0:
256,192,50202,1,0,0:0:0:0:
256,192,50615,1,0,0:0:0:0:
256,192,51303,1,0,0:0:0:0:
256,192,51853,1,0,0:0:0:0:
256,192,52129,1,2,0:0:0:0:
256,192,52404,1,0,0:0:0:0:
256,192,52817,1,0,0:0:0:0:
256,192,53505,1,0,0:0:0:0:
256,192,54055,1,0,0:0:0:0:
256,192,54330,1,2,0:0:0:0:
256,192,54606,1,0,0:0:0:0:
256,192,55019,1,0,0:0:0:0:
256,192,55707,1,0,0:0:0:0:
256,192,56257,1,0,0:0:0:0:
256,192,56808,1,0,0:0:0:0:
256,192,57220,1,4,0:0:0:0:
256,192,57496,1,6,0:0:0:0:
