osu file format v14

[General]
AudioFilename: audio.mp3
AudioLeadIn: 0
PreviewTime: 30386
Countdown: 0
SampleSet: Normal
StackLeniency: 0.7
Mode: 1
LetterboxInBreaks: 0
WidescreenStoryboard: 1

[Editor]
Bookmarks: 662,57496
DistanceSpacing: 0.3
BeatDivisor: 4
GridSize: 32
TimelineZoom: 1.4

[Metadata]
Title:Ya b'yu zhenshchin i detey (Cut Ver.)
TitleUnicode:Я бью женщин и детей (Cut Ver.)
Artist:Valentin Strykalo
ArtistUnicode:Валентин Стрыкало
Creator:CrayZeei
Version:JarHed's Muzukashii
Source:
Tags:JarHed russian rock comedy punk alternative alt Studio Soyuz LLC Смирись и расслабься Smiris' i rasslab'sya русский рок ООО Студия Союз
BeatmapID:2735343
BeatmapSetID:1316612

[Difficulty]
HPDrainRate:6
CircleSize:5
OverallDifficulty:5
ApproachRate:5
SliderMultiplier:1.4
SliderTickRate:1

[Events]
//Background and Video events
0,0,"bg.jpg",0,60
//Break Periods
//Storyboard Layer 0 (Background)
//Storyboard Layer 1 (Fail)
//Storyboard Layer 2 (Pass)
//Storyboard Layer 3 (Foreground)
//Storyboard Layer 4 (Overlay)
//Storyboard Sound Samples

[TimingPoints]
662,275.229357798165,4,1,0,60,1,0
3964,275.229357798165,4,1,0,60,1,0
31486,-100,4,1,0,60,0,1
40019,-100,4,1,0,60,0,0
40294,-100,4,1,0,60,0,1
49101,-100,4,1,0,60,0,0

[HitObjects]
256,192,2863,5,8,0:0:0:0:
256,192,2932,1,8,0:0:0:0:
256,192,3001,1,8,0:0:0:0:
256,192,3139,1,0,0:0:0:0:
256,192,3276,1,8,0:0:0:0:
256,192,3414,1,0,0:0:0:0:
256,192,3551,1,0,0:0:0:0:
256,192,3689,1,8,0:0:0:0:
256,192,3758,1,8,0:0:0:0:
256,192,3827,1,8,0:0:0:0:
320,160,3964,1,4,0:0:0:0:
256,192,4239,1,8,0:0:0:0:
256,192,4376,1,0,0:0:0:0:
256,192,4514,1,0,0:0:0:0:
256,192,4789,1,8,0:0:0:0:
256,192,4927,1,0,0:0:0:0:
256,192,5064,1,0,0:0:0:0:
256,192,5340,1,8,0:0:0:0:
256,192,5477,1,8,0:0:0:0:
256,192,5890,1,8,0:0:0:0:
256,192,6028,1,0,0:0:0:0:
256,192,6165,1,0,0:0:0:0:
256,192,6441,1,8,0:0:0:0:
256,192,6578,1,0,0:0:0:0:
256,192,6716,1,0,0:0:0:0:
256,192,6991,1,8,0:0:0:0:
256,192,7129,1,0,0:0:0:0:
256,192,7266,1,0,0:0:0:0:
256,192,7541,1,8,0:0:0:0:
256,192,7679,1,8,0:0:0:0:
256,192,8092,1,8,0:0:0:0:
256,192,8230,1,0,0:0:0:0:
256,192,8367,1,0,0:0:0:0:
256,192,8642,1,8,0:0:0:0:
256,192,8780,1,0,0:0:0:0:
256,192,8918,1,0,0:0:0:0:
256,192,9193,1,8,0:0:0:0:
256,192,9330,1,0,0:0:0:0:
256,192,9468,1,0,0:0:0:0:
256,192,9743,1,8,0:0:0:0:
256,192,9881,1,8,0:0:0:0:
256,192,10156,1,8,0:0:0:0:
256,192,10294,1,8,0:0:0:0:
256,192,10431,1,0,0:0:0:0:
256,192,10569,1,0,0:0:0:0:
256,192,10844,1,8,0:0:0:0:
256,192,10982,1,0,0:0:0:0:
256,192,11119,1,0,0:0:0:0:
256,192,11395,1,8,0:0:0:0:
256,192,11532,1,0,0:0:0:0:
256,192,11670,1,0,0:0:0:0:
256,192,11808,1,8,0:0:0:0:
256,192,11876,1,8,0:0:0:0:
256,192,11945,1,8,0:0:0:0:
256,192,12083,1,8,0:0:0:0:
256,192,12220,1,8,0:0:0:0:
256,192,12358,1,8,0:0:0:0:
256,192,12496,1,8,0:0:0:0:
256,192,12633,1,0,0:0:0:0:
256,192,12771,1,4,0:0:0:0:
256,192,13321,1,0,0:0:0:0:
256,192,13597,1,2,0:0:0:0:
256,192,13872,1,0,0:0:0:0:
256,192,14147,1,2,0:0:0:0:
256,192,14422,1,0,0:0:0:0:
256,192,14560,1,8,0:0:0:0:
256,192,14697,1,0,0:0:0:0:
256,192,14973,1,12,0:0:0:0:
256,192,15248,1,2,0:0:0:0:
256,192,15523,1,0,0:0:0:0:
256,192,15798,1,2,0:0:0:0:
256,192,16074,1,0,0:0:0:0:
256,192,16624,1,0,0:0:0:0:
256,192,16762,1,8,0:0:0:0:
256,192,16899,1,8,0:0:0:0:
256,192,17175,1,12,0:0:0:0:
256,192,17725,1,0,0:0:0:0:
256,192,18275,1,0,0:0:0:0:
256,192,18551,1,2,0:0:0:0:
256,192,18826,1,0,0:0:0:0:
256,192,18963,1,8,0:0:0:0:
256,192,19101,1,0,0:0:0:0:
256,128,19376,1,4,0:0:0:0:
256,192,19652,1,2,0:0:0:0:
256,192,19927,1,0,0:0:0:0:
256,192,20064,1,0,0:0:0:0:
256,192,20202,1,0,0:0:0:0:
256,128,20477,1,12,0:0:0:0:
256,192,21028,1,0,0:0:0:0:
256,192,21303,1,0,0:0:0:0:
225,63,21578,1,12,0:0:0:0:
256,192,22129,1,0,0:0:0:0:
256,192,22404,1,2,0:0:0:0:
256,192,22679,1,0,0:0:0:0:
256,192,22954,1,2,0:0:0:0:
256,192,23230,1,0,0:0:0:0:
256,192,23367,1,8,0:0:0:0:
256,192,23505,1,0,0:0:0:0:
256,128,23780,1,12,0:0:0:0:
224,192,24330,1,0,0:0:0:0:
256,192,24606,1,2,0:0:0:0:
224,192,24881,1,0,0:0:0:0:
224,192,25156,1,8,0:0:0:0:
224,192,25431,1,0,0:0:0:0:
224,192,25569,1,0,0:0:0:0:
256,192,25707,1,8,0:0:0:0:
256,128,25982,1,4,0:0:0:0:
256,192,26257,1,8,0:0:0:0:
256,192,26395,1,0,0:0:0:0:
256,192,26532,1,0,0:0:0:0:
256,192,26808,1,8,0:0:0:0:
256,192,26945,1,0,0:0:0:0:
256,192,27083,1,8,0:0:0:0:
256,192,27358,1,8,0:0:0:0:
256,192,27496,1,0,0:0:0:0:
256,192,27771,1,0,0:0:0:0:
256,192,27908,1,8,0:0:0:0:
256,192,28046,1,8,0:0:0:0:
256,192,28184,1,0,0:0:0:0:
256,192,28459,1,8,0:0:0:0:
256,192,28597,1,0,0:0:0:0:
256,192,28734,1,8,0:0:0:0:
256,192,29009,1,8,0:0:0:0:
256,192,29147,1,0,0:0:0:0:
256,192,29285,1,0,0:0:0:0:
256,192,29560,1,8,0:0:0:0:
256,192,29697,1,0,0:0:0:0:
256,192,29973,1,0,0:0:0:0:
256,192,30110,1,8,0:0:0:0:
256,192,30386,1,0,0:0:0:0:
256,192,30454,1,0,0:0:0:0:
256,192,30523,1,0,0:0:0:0:
256,128,30661,1,0,0:0:0:0:
256,192,31211,1,8,0:0:0:0:
256,192,31280,1,8,0:0:0:0:
256,192,31349,1,8,0:0:0:0:
256,192,31486,1,0,0:0:0:0:
256,192,31762,1,8,0:0:0:0:
256,192,32037,1,8,0:0:0:0:
256,192,32175,1,8,0:0:0:0:
256,192,32312,1,0,0:0:0:0:
256,192,32725,1,0,0:0:0:0:
256,192,32863,1,8,0:0:0:0:
256,192,33138,1,0,0:0:0:0:
256,192,33413,1,8,0:0:0:0:
256,192,33551,1,8,0:0:0:0:
256,192,33688,1,0,0:0:0:0:
256,192,33963,1,8,0:0:0:0:
256,192,34239,1,0,0:0:0:0:
256,192,34376,1,0,0:0:0:0:
256,192,34514,1,8,0:0:0:0:
256,192,34652,1,0,0:0:0:0:
256,192,34789,1,8,0:0:0:0:
256,192,35064,1,8,0:0:0:0:
256,192,35340,1,8,0:0:0:0:
256,192,35615,1,8,0:0:0:0:
256,160,35752,1,0,0:0:0:0:
256,192,35890,1,0,0:0:0:0:
256,192,36165,1,8,0:0:0:0:
256,192,36303,1,0,0:0:0:0:
256,192,36441,1,8,0:0:0:0:
256,192,36578,1,8,0:0:0:0:
256,192,36716,1,0,0:0:0:0:
256,192,36991,1,8,0:0:0:0:
256,192,37541,1,0,0:0:0:0:
256,192,37817,1,8,0:0:0:0:
256,192,38092,1,0,0:0:0:0:
256,192,38367,1,8,0:0:0:0:
256,192,38505,1,0,0:0:0:0:
256,192,38642,1,0,0:0:0:0:
256,192,38918,1,8,0:0:0:0:
256,192,39055,1,0,0:0:0:0:
256,192,39193,1,8,0:0:0:0:
256,192,39330,1,0,0:0:0:0:
256,192,39468,1,8,0:0:0:0:
256,192,39743,1,8,0:0:0:0:
256,192,40019,1,8,0:0:0:0:
256,192,40156,1,0,0:0:0:0:
256,192,40294,1,0,0:0:0:0:
256,192,40569,1,8,0:0:0:0:
256,192,40707,1,0,0:0:0:0:
256,192,40844,1,0,0:0:0:0:
256,192,40982,1,0,0:0:0:0:
256,192,41119,1,8,0:0:0:0:
256,160,41670,1,8,0:0:0:0:
256,160,41808,1,0,0:0:0:0:
256,192,42083,1,0,0:0:0:0:
224,192,42220,1,8,0:0:0:0:
256,192,42358,1,8,0:0:0:0:
256,192,42496,1,0,0:0:0:0:
256,192,42771,1,8,0:0:0:0:
256,192,42908,1,0,0:0:0:0:
256,192,43046,1,0,0:0:0:0:
256,192,43184,1,0,0:0:0:0:
256,192,43321,1,8,0:0:0:0:
256,192,43597,1,8,0:0:0:0:
256,192,43734,1,0,0:0:0:0:
256,192,43872,1,8,0:0:0:0:
256,192,44147,1,8,0:0:0:0:
256,192,44422,1,0,0:0:0:0:
256,192,44560,1,0,0:0:0:0:
256,192,44697,1,8,0:0:0:0:
256,192,44973,1,8,0:0:0:0:
256,192,45110,1,0,0:0:0:0:
256,192,45386,1,0,0:0:0:0:
256,192,45523,1,8,0:0:0:0:
256,192,45661,1,0,0:0:0:0:
256,192,45798,1,0,0:0:0:0:
256,224,46349,1,0,0:0:0:0:
256,192,46486,1,0,0:0:0:0:
256,192,46624,1,8,0:0:0:0:
256,192,46899,1,0,0:0:0:0:
256,192,47175,1,8,0:0:0:0:
256,192,47312,1,0,0:0:0:0:
256,192,47725,1,0,0:0:0:0:
256,192,48000,1,12,0:0:0:0:
256,192,48275,1,8,0:0:0:0:
256,192,48344,1,8,0:0:0:0:
256,192,48413,1,8,0:0:0:0:
256,192,48551,1,0,0:0:0:0:
256,192,48688,1,0,0:0:0:0:
256,192,48826,1,8,0:0:0:0:
256,192,48963,1,8,0:0:0:0:
256,128,49101,1,4,0:0:0:0:
256,192,49376,1,8,0:0:0:0:
256,192,49514,1,0,0:0:0:0:
256,192,49652,1,0,0:0:0:0:
256,192,49927,1,8,0:0:0:0:
256,192,50064,1,0,0:0:0:0:
256,192,50202,1,0,0:0:0:0:
256,192,50477,1,8,0:0:0:0:
256,192,50615,1,8,0:0:0:0:
256,192,50890,1,8,0:0:0:0:
256,192,51165,1,0,0:0:0:0:
256,192,51303,1,0,0:0:0:0:
256,192,51578,1,8,0:0:0:0:
256,192,51716,1,0,0:0:0:0:
256,192,51853,1,0,0:0:0:0:
256,192,52129,1,8,0:0:0:0:
256,192,52266,1,0,0:0:0:0:
256,192,52404,1,0,0:0:0:0:
256,192,52679,1,8,0:0:0:0:
256,192,52817,1,8,0:0:0:0:
256,192,53230,1,8,0:0:0:0:
256,192,53367,1,0,0:0:0:0:
256,192,53505,1,0,0:0:0:0:
256,192,53780,1,8,0:0:0:0:
256,192,53918,1,0,0:0:0:0:
256,192,54055,1,0,0:0:0:0:
256,192,54330,1,8,0:0:0:0:
256,192,54468,1,0,0:0:0:0:
256,192,54606,1,0,0:0:0:0:
256,192,54881,1,8,0:0:0:0:
256,192,55019,1,8,0:0:0:0:
256,192,55294,1,8,0:0:0:0:
256,192,55569,1,0,0:0:0:0:
256,192,55707,1,0,0:0:0:0:
256,192,55982,1,8,0:0:0:0:
256,192,56119,1,0,0:0:0:0:
256,192,56257,1,0,0:0:0:0:
256,192,56532,1,8,0:0:0:0:
256,192,56670,1,0,0:0:0:0:
256,192,56808,1,0,0:0:0:0:
256,192,56945,1,8,0:0:0:0:
256,192,57014,1,8,0:0:0:0:
256,192,57083,1,8,0:0:0:0:
256,192,57220,1,0,0:0:0:0:
256,192,57496,1,8,0:0:0:0:
