osu file format v14

[General]
AudioFilename: audio.mp3
AudioLeadIn: 0
PreviewTime: 70773
Countdown: 0
SampleSet: Soft
StackLeniency: 0.2
Mode: 0
LetterboxInBreaks: 0
WidescreenStoryboard: 1

[Editor]
Bookmarks: 10142,30352,50563,73300,96036,113721,133931
DistanceSpacing: 1
BeatDivisor: 8
GridSize: 8
TimelineZoom: 1

[Metadata]
Title:Ways
TitleUnicode:Ways
Artist:Valentin Hansen
ArtistUnicode:Valentin Hansen
Creator:Sylvarus
Version:Normal
Source:
Tags:killing_a_friend killingafriend kaf006 english pop indie
BeatmapID:2740148
BeatmapSetID:1240198

[Difficulty]
HPDrainRate:3
CircleSize:3.5
OverallDifficulty:4
ApproachRate:5
SliderMultiplier:1.8
SliderTickRate:1

[Events]
//Background and Video events
0,0,"Valentin Hansen - Ways 0-0 screenshot.jpg",0,0
//Break Periods
//Storyboard Layer 0 (Background)
//Storyboard Layer 1 (Fail)
//Storyboard Layer 2 (Pass)
//Storyboard Layer 3 (Foreground)
//Storyboard Layer 4 (Overlay)
//Storyboard Sound Samples

[TimingPoints]
37,631.578947368421,4,2,3,35,1,0
10142,-125,4,2,3,35,0,0
29563,-100,4,2,3,45,0,0
30352,-100,4,2,2,60,0,0
50548,638.297872340426,4,2,3,15,1,0
50548,-111.111111111111,4,2,3,15,0,0
52303,759.493670886076,4,2,3,15,1,0
52303,-92.5925925925926,4,2,3,15,0,0
52872,740.740740740741,4,2,3,15,1,0
52872,-95.2380952380952,4,2,3,15,0,0
53612,689.655172413793,4,2,3,15,1,0
53612,-102.040816326531,4,2,3,15,0,0
54991,666.666666666667,4,2,3,15,1,0
54991,-105.263157894737,4,2,3,15,0,0
55657,625,4,2,3,15,1,0
55657,-112.359550561798,4,2,3,15,0,0
56907,631.578947368421,4,2,3,15,1,0
56907,-111.111111111111,4,2,3,15,0,0
62907,666.666666666667,4,2,3,15,1,0
62907,-105.263157894737,4,2,3,15,0,0
63407,740.740740740741,4,2,3,15,1,0
63407,-95.2380952380952,4,2,3,15,0,0
65073,666.666666666667,4,2,3,15,1,0
65073,-105.263157894737,4,2,3,15,0,0
66573,600,4,2,3,15,1,0
66573,-117.647058823529,4,2,3,15,0,0
67473,689.655172413793,4,2,3,15,1,0
67473,-102.040816326531,4,2,3,15,0,0
67990,695.974944901984,4,2,3,15,1,0
67990,-101.010101010101,4,2,3,15,0,0
70773,631.578947368421,4,2,3,15,1,0
73300,-100,4,2,3,80,0,0
113796,560.747663551402,4,2,3,30,1,0
113796,-140.845070422535,4,2,3,30,0,0
114356,774.193548387097,4,2,3,30,1,0
114356,-102.040816326531,4,2,3,30,0,0
114743,631.578947368421,4,2,3,30,1,0
114743,-125,4,2,3,30,0,0
115059,638.297872340426,4,2,3,30,1,0
115059,-123.456790123457,4,2,3,30,0,0
115537,689.655172413793,4,2,3,30,1,0
115537,-114.942528735632,4,2,3,30,0,0
116571,769.230769230769,4,2,3,30,1,0
116571,-103.092783505155,4,2,3,30,0,0
116763,705.882352941176,4,2,3,30,1,0
116763,-112.359550561798,4,2,3,30,0,0
118174,666.666666666667,4,2,3,30,1,0
118174,-117.647058823529,4,2,3,30,0,0
118840,612.244897959184,4,2,3,30,1,0
118840,-129.87012987013,4,2,3,30,0,0
120064,631.578947368421,4,2,3,30,1,0
120064,-125,4,2,3,30,0,0
120537,689.655172413793,4,2,3,30,1,0
120537,-114.942528735632,4,2,3,30,0,0
121226,666.666666666667,4,2,3,30,1,0
121226,-117.647058823529,4,2,3,30,0,0
123226,618.556701030928,4,2,3,30,1,0
123226,-128.205128205128,4,2,3,30,0,0
123844,631.578947368421,4,2,3,30,1,0
123844,-125,4,2,3,30,0,0
124633,689.655172413793,4,2,3,30,1,0
124633,-114.942528735632,4,2,3,30,0,0
125150,652.173913043478,4,2,3,30,1,0
125150,-121.951219512195,4,2,3,30,0,0
125639,697.674418604651,4,2,3,30,1,0
125639,-113.636363636364,4,2,3,30,0,0
126859,689.655172413793,4,2,3,30,1,0
126859,-114.942528735632,4,2,3,30,0,0
128238,666.666666666667,4,2,3,30,1,0
128238,-117.647058823529,4,2,3,30,0,0
129738,550.45871559633,4,2,3,30,1,0
129738,-142.857142857143,4,2,3,30,0,0
130150,681.818181818182,4,2,3,30,1,0
130150,-116.279069767442,4,2,3,30,0,0
130661,769.230769230769,4,2,3,30,1,0
130661,-103.092783505155,4,2,3,30,0,0

[Colours]
Combo1 : 255,193,227
Combo2 : 145,255,132

[HitObjects]
243,46,10142,6,0,P|284:77|235:147,1,144,4|0,0:2|0:0,0:0:0:0:
184,195,11089,1,0,0:0:0:0:
261,285,11563,2,0,P|297:275|376:266,2,108
83,373,13300,1,0,0:0:0:0:
16,274,13773,1,0,0:0:0:0:
33,156,14247,2,0,P|26:127|20:109,1,36
5,85,14563,1,0,0:0:0:0:
62,30,14879,1,0,0:0:0:0:
142,29,15194,5,2,0:0:0:0:
404,328,17721,5,2,0:0:0:0:
404,328,17879,2,0,B|438:286|413:276|455:233,1,108
433,157,18668,2,0,P|404:156|385:152,1,36
366,129,18984,1,0,0:0:0:0:
312,67,19300,1,0,0:0:0:0:
312,67,19458,2,0,P|261:47|199:38,1,108
129,45,20247,5,2,0:0:0:0:
25,164,20879,1,0,0:0:0:0:
88,211,21194,2,0,P|141:193|205:198,1,108
289,263,22142,2,0,P|343:255|393:233,1,108
482,0,24668,6,0,P|453:18|424:44,1,72
448,119,25300,2,0,P|468:155|496:261,1,144,2|0,0:0|0:0,0:0:0:0:
460,326,26247,1,0,0:0:0:0:
460,326,26405,2,0,B|393:315|421:297|359:286,1,108
285,311,27194,1,0,0:0:0:0:
218,353,27510,1,0,0:0:0:0:
138,349,27826,6,0,P|180:300|130:242,1,144,2|0,0:0|0:0,0:0:0:0:
61,232,28773,2,0,P|42:241|22:257,1,36
39,100,29563,2,0,P|58:112|78:123,1,45
147,78,30037,1,0,0:0:0:0:
221,114,30352,5,8,0:1:0:0:
239,202,30668,1,4,0:3:0:0:
213,288,30984,1,10,0:3:0:0:
249,370,31300,1,2,0:0:0:0:
369,309,31773,2,0,P|426:286|499:271,2,135,2|10|2,0:0|0:3|0:0,0:0:0:0:
155,369,33510,1,10,0:3:0:0:
155,369,33668,2,0,P|89:356|48:351,1,90,2|2,0:0|0:0,0:0:0:0:
101,222,34458,2,0,P|56:209|43:204,2,45,4|2|8,0:3|0:0|0:3,0:0:0:0:
191,224,35089,1,10,0:1:0:0:
262,279,35405,5,8,0:1:0:0:
314,205,35721,1,4,0:3:0:0:
290,118,36037,1,8,0:3:0:0:
290,118,36194,2,0,P|335:94|427:79,1,135,0|2,0:0|0:3,0:0:0:0:
496,211,37300,1,8,0:3:0:0:
440,334,37773,1,2,0:0:0:0:
440,334,37931,6,0,B|348:316|384:285|314:270,1,135,10|0,0:1|0:0,0:0:0:0:
193,310,38879,2,0,P|200:284|203:255,1,45,2|0,0:0|0:0,0:0:0:0:
191,222,39194,1,0,0:3:0:0:
121,164,39510,1,4,0:3:0:0:
121,164,39668,2,0,P|56:172|-14:197,1,135,2|8,0:0|0:1,0:0:0:0:
3,105,40458,5,8,0:1:0:0:
67,42,40773,1,4,0:3:0:0:
156,34,41089,1,10,0:3:0:0:
156,34,41247,2,0,P|205:28|291:2,1,135,2|2,0:0|0:3,0:0:0:0:
344,126,42194,2,0,P|393:131|479:157,1,135,2|8,0:0|0:1,0:0:0:0:
502,69,42984,5,8,0:1:0:0:
425,21,43300,1,4,0:3:0:0:
338,45,43615,1,8,0:3:0:0:
256,6,43931,1,2,0:0:0:0:
256,6,44089,1,2,0:0:0:0:
299,226,44879,2,0,P|303:284|301:332,1,90,8|8,0:3|0:1,0:0:0:0:
220,354,45510,5,8,0:1:0:0:
140,310,45826,1,4,0:3:0:0:
58,347,46142,1,10,0:3:0:0:
58,347,46300,2,0,P|42:260|40:210,1,135,2|2,0:0|0:3,0:0:0:0:
90,140,47089,1,6,0:3:0:0:
90,140,47247,2,0,P|143:120|185:132,1,90,2|0,0:0|0:0,0:0:0:0:
269,222,48037,5,8,0:1:0:0:
311,143,48352,1,4,0:3:0:0:
260,68,48668,1,8,0:3:0:0:
332,14,48984,1,2,0:0:0:0:
332,14,49142,1,2,0:0:0:0:
153,38,49773,1,0,3:0:0:0:
153,38,49931,2,0,P|144:96|146:136,1,90,8|0,3:3|0:0,0:0:0:0:
128,216,50548,5,4,0:0:0:0:
316,370,51824,5,2,0:0:0:0:
294,265,52303,1,2,0:0:0:0:
418,190,52872,2,0,P|430:120|452:45,1,141.749995674133,2|0,0:0|0:0,0:0:0:0:
489,26,53612,1,2,0:0:0:0:
248,94,54991,5,0,0:0:0:0:
344,235,55657,1,0,0:0:0:0:
145,370,56594,2,0,P|136:336|125:315,1,40.0500000305557,2|0,0:0|0:0,0:0:0:0:
115,295,56907,2,0,P|79:281|23:274,1,80.9999975280763,2|0,0:0|0:0,0:0:0:0:
69,199,57538,2,0,P|63:160|37:112,1,80.9999975280763,2|0,0:0|0:0,0:0:0:0:
39,41,58170,1,2,0:0:0:0:
194,0,60696,5,4,0:0:0:0:
233,322,61959,1,2,0:0:0:0:
120,367,62433,1,2,0:0:0:0:
60,260,62907,2,0,P|69:205|100:136,1,128.249996575356,2|0,0:0|0:0,0:0:0:0:
144,129,63592,1,2,0:0:0:0:
338,353,65073,5,0,0:0:0:0:
470,245,65739,2,0,P|456:207|451:156,1,85.4999977169037,2|0,0:0|0:0,0:0:0:0:
436,122,66239,2,0,P|461:90|506:58,1,85.4999977169037,2|2,0:0|0:0,0:0:0:0:
393,12,67023,5,2,0:0:0:0:
278,23,67473,2,0,P|254:67|176:61,1,132.299998788757,2|2,0:0|0:0,0:0:0:0:
256,192,69381,12,4,71878,0:0:0:0:
253,54,73299,5,8,0:1:0:0:
358,79,73615,1,0,0:0:0:0:
378,184,73930,2,0,P|380:214|379:233,1,45,10|0,0:2|0:0,0:0:0:0:
365,281,74246,1,2,0:0:0:0:
261,249,74562,6,0,B|193:272|219:295|139:321,1,135,10|0,0:1|0:0,0:0:0:0:
130,370,75194,1,8,0:2:0:0:
37,174,75825,5,8,0:1:0:0:
139,208,76141,1,0,0:0:0:0:
219,135,76457,2,0,P|238:121|262:109,1,45,10|0,0:2|0:0,0:0:0:0:
303,139,76773,2,0,P|324:148|347:163,1,45,2|0,0:0|0:0,0:0:0:0:
348,213,77088,1,10,0:1:0:0:
479,307,77562,1,2,0:0:0:0:
479,307,77720,2,0,P|486:254|501:203,1,90,10|0,0:2|0:0,0:0:0:0:
510,111,78351,5,8,0:1:0:0:
415,59,78667,1,0,0:0:0:0:
344,141,78983,1,8,0:2:0:0:
344,141,79141,2,0,P|303:128|241:117,1,90
207,142,79615,1,8,0:1:0:0:
144,229,79930,2,0,P|175:246|197:265,2,45,0|0|8,0:0|0:0|0:2,0:0:0:0:
11,65,80878,5,10,0:1:0:0:
11,65,81036,1,2,0:0:0:0:
166,11,81509,5,10,0:2:0:0:
166,11,81667,1,2,0:0:0:0:
314,87,82141,5,10,0:1:0:0:
314,87,82299,2,0,P|397:74|416:68,1,90,2|8,0:0|0:3,0:0:0:0:
435,29,82773,1,8,0:2:0:0:
506,109,83088,1,8,0:3:0:0:
451,202,83404,5,12,0:1:0:0:
345,177,83720,1,0,0:0:0:0:
267,252,84036,2,0,P|264:294|260:316,1,45,10|0,0:2|0:0,0:0:0:0:
275,349,84351,1,2,0:0:0:0:
378,380,84667,6,0,B|466:358|425:329|505:307,1,135,10|0,0:1|0:0,0:0:0:0:
504,258,85299,1,8,0:2:0:0:
302,179,85930,5,8,0:1:0:0:
296,71,86246,1,0,0:0:0:0:
200,20,86562,1,8,0:2:0:0:
9,121,87194,5,10,0:1:0:0:
9,121,87351,2,0,P|67:130|104:148,1,90,2|0,0:0|0:0,0:0:0:0:
137,176,87825,1,10,0:2:0:0:
102,278,88141,1,2,0:0:0:0:
15,342,88457,6,0,B|106:317|94:371|194:360,1,180,10|8,0:1|0:2,0:0:0:0:
300,383,89404,1,2,0:0:0:0:
300,383,89562,1,2,0:0:0:0:
356,233,90036,2,0,P|370:206|384:181,2,45,0|0|8,0:0|0:0|0:2,0:0:0:0:
461,355,90825,5,2,0:0:0:0:
461,355,90983,2,0,P|455:314|438:259,1,90,10|0,0:1|0:0,0:0:0:0:
444,159,91615,2,0,P|405:143|349:130,1,90,10|0,0:2|0:0,0:0:0:0:
273,65,92246,2,0,P|240:90|201:132,1,90,10|0,0:1|0:0,0:0:0:0:
197,179,92720,1,0,0:0:0:0:
197,179,92878,1,8,0:1:0:0:
265,274,93194,5,0,0:0:0:0:
265,274,93351,1,0,0:0:0:0:
265,274,93509,1,4,0:0:0:0:
15,373,95088,6,0,P|39:359|56:339,1,45,8|8,0:3|0:3,0:0:0:0:
78,300,95404,1,8,0:2:0:0:
9,95,96036,5,8,0:1:0:0:
100,37,96351,1,0,0:0:0:0:
200,77,96667,1,8,3:2:0:0:
200,77,96825,2,0,P|239:55|281:38,1,90,0|0,3:0|3:0,0:0:0:0:
331,58,97299,1,8,3:1:0:0:
413,127,97615,6,0,P|452:139|472:139,1,45,0|0,3:0|3:0,0:0:0:0:
484,185,97930,1,8,0:2:0:0:
423,274,98246,1,2,3:3:0:0:
321,237,98562,5,8,0:1:0:0:
293,132,98878,1,0,0:0:0:0:
189,125,99194,1,10,0:2:0:0:
189,125,99351,2,0,P|139:116|85:97,1,90,2|0,0:0|0:0,0:0:0:0:
65,63,99825,5,8,0:1:0:0:
34,166,100141,2,0,P|8:187|-12:201,2,45,0|0|10,0:0|0:0|0:2,0:0:0:0:
192,198,100930,2,0,P|153:220|138:313,1,135,2|0,0:0|0:0,0:0:0:0:
222,365,101720,1,10,0:2:0:0:
222,365,101878,2,0,B|275:353|263:333|317:324,1,90,2|0,0:0|0:0,0:0:0:0:
342,290,102351,5,10,0:1:0:0:
433,348,102667,2,0,P|462:359|484:362,2,45,2|0|10,0:0|0:0|0:2,0:0:0:0:
484,252,103299,1,2,0:0:0:0:
403,180,103615,5,8,0:1:0:0:
296,196,103930,1,0,0:0:0:0:
216,269,104246,2,0,P|192:250|170:238,1,45,10|0,0:2|0:0,0:0:0:0:
125,235,104562,1,2,0:0:0:0:
19,257,104878,2,0,P|40:212|47:124,1,135,10|0,0:1|0:0,0:0:0:0:
18,82,105509,1,8,0:2:0:0:
231,47,106141,6,0,P|217:11|209:-6,2,45,8|0|0,0:1|0:0|0:0,0:0:0:0:
211,153,106773,1,8,0:2:0:0:
254,251,107088,1,0,0:0:0:0:
358,224,107404,6,0,B|398:198|460:188,1,90,10|0,0:1|0:0,0:0:0:0:
492,210,107878,1,2,0:0:0:0:
492,210,108036,1,8,0:2:0:0:
506,103,108351,1,0,0:0:0:0:
434,21,108667,6,0,B|330:43|381:73|272:99,1,180,10|8,0:1|0:2,0:0:0:0:
171,64,109615,1,2,0:0:0:0:
171,64,109773,1,2,0:0:0:0:
28,139,110246,2,0,P|13:118|-4:98,2,45,0|0|8,0:0|0:0|0:2,0:0:0:0:
81,292,111036,1,0,0:0:0:0:
81,292,111194,6,0,P|126:273|176:260,1,90,10|0,0:1|0:0,0:0:0:0:
253,199,111825,2,0,P|291:228|328:265,1,90,8|0,0:2|0:0,0:0:0:0:
428,274,112457,2,0,P|421:322|408:372,1,90,2|0,0:0|0:0,0:0:0:0:
361,381,112930,1,0,0:0:0:0:
361,381,113088,1,0,0:0:0:0:
258,347,113404,1,0,0:0:0:0:
107,360,113796,5,4,0:0:0:0:
8,193,114743,1,2,0:0:0:0:
80,225,115059,2,0,P|123:224|202:211,1,109.350002669678,2|2,0:0|0:0,0:0:0:0:
316,229,116054,1,2,0:0:0:0:
414,144,116571,1,2,0:0:0:0:
414,144,116763,1,2,0:0:0:0:
240,15,118174,5,0,0:0:0:0:
263,179,118840,1,0,0:0:0:0:
77,162,119758,1,2,0:0:0:0:
133,110,120064,2,0,P|177:105|218:110,1,72,2|0,0:0|0:0,0:0:0:0:
280,77,120709,2,0,P|306:112|323:150,1,78.3000006571198,2|0,0:0|0:0,0:0:0:0:
361,158,121226,1,2,0:0:0:0:
497,19,123844,5,4,0:0:0:0:
383,182,124805,1,2,0:0:0:0:
447,238,125150,2,0,P|467:274|493:351,1,110.700001689148,2|0,0:0|0:0,0:0:0:0:
366,381,126162,1,2,0:0:0:0:
252,328,126685,1,2,0:0:0:0:
252,328,126859,1,2,0:0:0:0:
0,370,128238,5,0,0:0:0:0:
73,218,128904,1,2,0:0:0:0:
152,260,129238,1,2,0:0:0:0:
152,260,129404,2,0,P|148:313|144:349,1,76.5000014591217,2|0,0:0|0:0,0:0:0:0:
238,381,130150,5,2,0:0:0:0:
353,326,130661,2,0,P|358:272|424:249,1,130.950003097115,2|6,0:0|0:0,0:0:0:0:
