osu file format v14

[General]
AudioFilename: audio.mp3
AudioLeadIn: 0
PreviewTime: 70773
Countdown: 0
SampleSet: Soft
StackLeniency: 0.5
Mode: 0
LetterboxInBreaks: 0
WidescreenStoryboard: 1

[Editor]
Bookmarks: 10142,30352,50563,73300,96036,113721,133931
DistanceSpacing: 1.4
BeatDivisor: 8
GridSize: 32
TimelineZoom: 3.399999

[Metadata]
Title:Ways
TitleUnicode:Ways
Artist:Valentin Hansen
ArtistUnicode:Valentin Hansen
Creator:Sylvarus
Version:Hard
Source:
Tags:killing_a_friend killingafriend kaf006 english pop indie
BeatmapID:2867745
BeatmapSetID:1240198

[Difficulty]
HPDrainRate:4
CircleSize:4.5
OverallDifficulty:6
ApproachRate:7.5
SliderMultiplier:1.8
SliderTickRate:1

[Events]
//Background and Video events
0,0,"Valentin Hansen - Ways 0-0 screenshot.jpg",0,0
//Break Periods
//Storyboard Layer 0 (Background)
//Storyboard Layer 1 (Fail)
//Storyboard Layer 2 (Pass)
//Storyboard Layer 3 (Foreground)
//Storyboard Layer 4 (Overlay)
//Storyboard Sound Samples

[TimingPoints]
37,631.578947368421,4,2,3,25,1,0
10142,-125,4,2,3,35,0,0
29721,-125,4,2,3,45,0,0
30352,-100,4,2,2,60,0,0
50548,638.297872340426,4,2,3,15,1,0
50548,-166.666666666667,4,2,3,15,0,0
50563,-166.666666666667,4,2,3,15,0,0
52303,759.493670886076,4,2,3,15,1,0
52303,-166.666666666667,4,2,3,15,0,0
52872,740.740740740741,4,2,3,15,1,0
52872,-166.666666666667,4,2,3,15,0,0
53612,689.655172413793,4,2,3,15,1,0
53612,-166.666666666667,4,2,3,15,0,0
54991,666.666666666667,4,2,3,15,1,0
54991,-166.666666666667,4,2,3,15,0,0
55578,-166.666666666667,4,2,3,5,0,0
55657,625,4,2,3,15,1,0
55657,-166.666666666667,4,2,3,15,0,0
56907,631.578947368421,4,2,3,15,1,0
56907,-166.666666666667,4,2,3,15,0,0
62907,666.666666666667,4,2,3,15,1,0
62907,-166.666666666667,4,2,3,15,0,0
63407,740.740740740741,4,2,3,15,1,0
63407,-200,4,2,3,15,0,0
65073,666.666666666667,4,2,3,15,1,0
65656,-100,4,2,3,5,0,0
65739,-166.666666666667,4,2,3,15,0,0
66573,600,4,2,3,15,1,0
67023,-166.666666666667,4,2,3,15,0,0
67473,689.655172413793,4,2,3,15,1,0
67473,-166.666666666667,4,2,3,15,0,0
67990,695.974944901984,4,2,3,15,1,0
67990,-333.333333333333,4,2,3,15,0,0
70599,-333.333333333333,4,2,3,5,0,0
70773,631.578947368421,4,2,3,15,1,0
70773,-100,4,2,3,15,0,0
73299,-71.4285714285714,4,2,3,80,0,0
95878,-71.4285714285714,4,2,3,5,0,0
96036,-71.4285714285714,4,2,3,80,0,0
113796,560.747663551402,4,2,3,30,1,0
113796,-166.666666666667,4,2,3,30,0,0
114356,774.193548387097,4,2,3,30,1,0
114743,631.578947368421,4,2,3,30,1,0
114743,-166.666666666667,4,2,3,30,0,0
115059,638.297872340426,4,2,3,30,1,0
115059,-166.666666666667,4,2,3,30,0,0
115537,689.655172413793,4,2,3,30,1,0
116054,-166.666666666667,4,2,3,30,0,0
116571,769.230769230769,4,2,3,30,1,0
116763,705.882352941176,4,2,3,30,1,0
116763,-166.666666666667,4,2,3,30,0,0
118174,666.666666666667,4,2,3,30,1,0
118174,-166.666666666667,4,2,3,30,0,0
118840,612.244897959184,4,2,3,30,1,0
119758,-166.666666666667,4,2,3,30,0,0
120064,631.578947368421,4,2,3,30,1,0
120064,-166.666666666667,4,2,3,30,0,0
120537,689.655172413793,4,2,3,30,1,0
120709,-166.666666666667,4,2,3,30,0,0
121226,666.666666666667,4,2,3,30,1,0
121226,-166.666666666667,4,2,3,30,0,0
123226,618.556701030928,4,2,3,30,1,0
123226,-166.666666666667,4,2,3,30,0,0
123844,631.578947368421,4,2,3,30,1,0
123844,-166.666666666667,4,2,3,30,0,0
124633,689.655172413793,4,2,3,30,1,0
125150,652.173913043478,4,2,3,30,1,0
125150,-166.666666666667,4,2,3,30,0,0
125639,697.674418604651,4,2,3,30,1,0
126162,-166.666666666667,4,2,3,30,0,0
126859,689.655172413793,4,2,3,30,1,0
128238,666.666666666667,4,2,3,30,1,0
128238,-166.666666666667,4,2,3,30,0,0
129738,550.45871559633,4,2,3,30,1,0
130150,681.818181818182,4,2,3,30,1,0
130150,-166.666666666667,4,2,3,30,0,0
130661,769.230769230769,4,2,3,30,1,0
130661,-166.666666666667,4,2,3,30,0,0

[Colours]
Combo1 : 255,193,227
Combo2 : 145,255,132

[HitObjects]
101,88,10142,6,0,P|157:94|216:164,1,144,6|0,0:0|0:0,0:0:0:0:
215,206,10931,1,2,0:0:0:0:
143,276,11247,2,0,P|180:258|256:246,1,108
336,290,12036,2,0,P|329:320|288:330,1,72,0|0,3:0|0:0,0:0:0:0:
293,217,12668,6,0,B|374:188|361:241|443:209,1,144,2|0,0:0|0:0,0:0:0:0:
491,129,13615,2,0,P|490:158|498:179,1,36,0|2,0:0|0:0,0:0:0:0:
315,76,14405,1,0,0:0:0:0:
315,76,14563,2,0,P|340:62|380:21,1,72,0|0,3:0|0:0,0:0:0:0:
349,158,15194,6,0,P|293:116|208:90,1,144,2|0,0:0|0:0,0:0:0:0:
175,107,15984,1,2,0:0:0:0:
112,186,16300,2,0,P|122:121|139:73,1,108
62,11,17089,2,0,P|29:27|7:2,1,72,0|0,3:0|0:0,0:0:0:0:
8,106,17721,5,2,0:0:0:0:
8,106,17879,2,0,P|61:115|92:127,1,72
114,155,18352,1,0,0:0:0:0:
174,236,18668,2,0,P|197:230|219:224,1,36,0|2,0:0|0:0,0:0:0:0:
251,254,18984,2,0,P|284:265|320:264,1,72
365,241,19458,2,0,P|398:260|350:335,1,144
312,352,20247,6,0,P|368:350|464:369,1,144,2|0,0:0|0:0,0:0:0:0:
503,379,21037,1,2,0:0:0:0:
435,304,21352,2,0,P|429:253|418:193,1,108
486,121,22142,2,0,P|489:157|523:167,1,72,0|0,3:0|0:0,0:0:0:0:
484,37,22773,6,0,B|405:50|443:92|351:106,1,144,2|0,0:0|0:0,0:0:0:0:
273,64,23721,1,0,0:0:0:0:
273,64,23879,2,0,P|284:32|305:-6,1,72,2|0,0:0|0:0,0:0:0:0:
385,55,24510,1,0,0:0:0:0:
385,55,24668,2,0,P|384:100|379:139,1,72,0|0,3:0|0:0,0:0:0:0:
301,189,25300,6,0,P|242:152|161:169,1,144,2|0,0:0|0:0,0:0:0:0:
74,178,26247,1,2,0:0:0:0:
74,178,26405,2,0,P|100:103|111:27,1,144,2|0,0:0|0:0,0:0:0:0:
70,8,27194,2,0,P|46:8|-8:18,1,72,0|0,3:0|0:0,0:0:0:0:
38,109,27826,6,0,B|119:99|91:60|179:49,1,144
257,95,28773,2,0,P|248:68|246:59,1,36,0|2,0:0|0:0,0:0:0:0:
312,251,29563,1,0,3:0:0:0:
270,279,29721,2,0,P|261:328|258:359,1,72,0|0,3:0|0:0,0:0:0:0:
136,384,30352,5,8,0:1:0:0:
24,325,30668,1,4,0:3:0:0:
133,262,30984,1,8,0:3:0:0:
136,384,31300,1,2,0:0:0:0:
78,204,31773,2,0,P|105:157|132:122,1,90,2|0,0:0|0:0,0:0:0:0:
202,126,32247,1,10,0:3:0:0:
202,126,32405,2,0,P|207:159|152:194,1,90,2|0,0:0|0:0,0:0:0:0:
94,183,32879,5,8,0:1:0:0:
30,74,33194,1,4,0:3:0:0:
156,71,33510,1,10,0:3:0:0:
156,71,33668,2,0,P|220:69|260:63,1,90,2|0,0:0|0:0,0:0:0:0:
312,34,34142,5,0,0:0:0:0:
397,126,34458,2,0,P|367:118|343:120,1,45,4|0,0:3|0:0,0:0:0:0:
293,156,34773,1,8,0:3:0:0:
244,272,35089,1,8,0:1:0:0:
339,354,35405,5,8,0:1:0:0:
421,258,35721,1,4,0:3:0:0:
475,371,36037,1,8,0:3:0:0:
475,371,36194,2,0,P|480:313|488:274,1,90
510,213,36668,5,2,0:3:0:0:
456,125,36984,1,4,0:3:0:0:
350,97,37300,2,0,P|323:117|299:179,1,90,8|8,0:3|0:1,0:0:0:0:
325,236,37773,1,2,0:0:0:0:
325,236,37931,6,0,P|285:202|240:205,1,90,10|4,0:1|0:3,0:0:0:0:
197,255,38405,2,0,P|192:283|175:343,1,90,2|0,0:0|0:0,0:0:0:0:
106,362,38879,2,0,P|67:368|47:371,1,45,2|0,0:0|0:0,0:0:0:0:
10,315,39194,1,2,0:3:0:0:
85,213,39510,1,6,0:3:0:0:
85,213,39668,2,0,P|93:247|157:260,1,90,2|0,0:0|0:0,0:0:0:0:
199,225,40142,1,8,0:1:0:0:
182,100,40458,5,8,0:1:0:0:
295,46,40773,1,4,0:3:0:0:
294,172,41089,1,8,0:3:0:0:
294,172,41247,1,2,0:0:0:0:
482,192,41721,2,0,P|498:229|514:288,1,90,2|4,0:3|0:3,0:0:0:0:
471,336,42194,2,0,P|434:332|380:317,1,90,2|0,0:0|0:0,0:0:0:0:
345,256,42668,1,10,0:1:0:0:
407,146,42984,5,8,0:1:0:0:
356,30,43300,1,4,0:3:0:0:
480,44,43615,1,8,0:3:0:0:
407,146,43931,1,0,0:0:0:0:
407,146,44089,1,2,0:0:0:0:
245,248,44721,1,0,0:0:0:0:
245,248,44879,2,0,P|280:269|321:239,1,90,8|8,0:3|0:1,0:0:0:0:
298,121,45510,5,8,0:1:0:0:
176,87,45826,1,4,0:3:0:0:
203,210,46142,1,8,0:3:0:0:
203,210,46300,2,0,P|175:249|129:291,1,90,2|0,0:0|0:0,0:0:0:0:
75,273,46773,2,0,P|58:251|72:190,1,90,2|4,0:3|0:3,0:0:0:0:
138,181,47247,1,2,0:0:0:0:
186,297,47563,2,0,P|170:330|159:348,1,45,2|8,0:0|0:1,0:0:0:0:
289,363,48037,5,8,0:1:0:0:
247,244,48352,1,4,0:3:0:0:
372,259,48668,1,8,0:3:0:0:
327,140,48984,1,0,0:0:0:0:
327,140,49142,1,2,0:0:0:0:
95,41,49773,1,0,3:0:0:0:
157,76,49931,2,0,P|169:46|126:19,1,90,8|0,3:3|0:0,0:0:0:0:
72,66,50548,6,0,P|61:174|54:286,1,215.999993408203,6|2,0:0|0:0,0:0:0:0:
131,336,52303,1,2,0:0:0:0:
230,275,52872,6,0,P|199:236|128:222,1,107.999996704102,2|2,0:0|0:0,0:0:0:0:
427,353,54991,6,0,P|446:255|453:225,1,107.999996704102,2|2,0:0|0:0,0:0:0:0:
196,84,56907,2,0,P|265:105|289:102,2,80.9999975280763,2|2|2,0:0|0:0|0:0,0:0:0:0:
256,379,60064,1,0,3:0:0:0:
238,228,60696,6,0,P|246:140|272:0,1,215.999993408203,6|2,0:0|0:0,0:0:0:0:
380,30,62433,1,2,0:0:0:0:
485,50,62907,2,0,P|469:93|429:121,1,80.9999975280763,2|0,0:0|0:0,0:0:0:0:
433,115,63592,2,0,P|373:141|274:219,1,180,2|2,0:0|0:0,0:0:0:0:
141,265,65739,6,0,P|98:253|74:266,1,53.9999983520508,2|0,0:0|0:0,0:0:0:0:
87,266,66239,2,0,P|110:278|137:275,1,53.9999983520508,2|2,0:0|0:0,0:0:0:0:
67,186,67023,5,2,0:0:0:0:
61,87,67473,1,2,0:0:0:0:
152,21,67990,6,0,P|216:26|349:80,1,202.499993820191,2|0,0:0|0:0,0:0:0:0:
372,142,70773,6,0,B|377:153|377:153|363:146|363:146|367:156|367:156|354:149|354:149|357:162|357:162|344:153|344:153|347:166|347:166|333:158|333:158|337:172|337:172|322:163|322:163|328:176|328:176|309:168|309:168|313:182|313:182|306:175|306:175|261:196|261:196|298:200|321:220,1,315,0|4,0:0|0:0,0:0:0:0:
89,55,73299,5,8,0:1:0:0:
285,89,73615,1,0,0:0:0:0:
364,200,73930,1,10,0:2:0:0:
289,172,74088,1,2,0:0:0:0:
232,260,74404,5,2,0:0:0:0:
302,246,74562,2,0,P|347:259|438:305,1,125.999996154785,10|0,0:1|0:0,0:0:0:0:
437,205,75036,2,0,P|392:218|310:338,1,188.999994232178,2|0,0:0|0:0,0:0:0:0:
512,384,75825,2,0,L|501:251,2,125.999996154785,8|0|10,0:1|0:0|0:2,0:0:0:0:
437,370,76615,1,2,0:0:0:0:
437,370,76772,2,0,P|388:359|357:359,1,62.9999980773926,2|2,0:0|0:0,0:0:0:0:
281,357,77088,1,10,0:1:0:0:
234,34,77562,1,2,0:0:0:0:
254,119,77720,5,10,0:2:0:0:
214,282,78036,1,0,0:0:0:0:
372,357,78351,5,10,0:1:0:0:
153,344,78667,1,0,0:0:0:0:
27,197,78983,1,8,0:2:0:0:
46,276,79141,1,0,0:0:0:0:
167,201,79457,6,0,P|133:270|90:386,1,188.999994232178
8,364,80088,2,0,P|42:361|63:397,1,62.9999980773926,0|8,0:0|0:2,0:0:0:0:
398,275,80878,5,10,0:1:0:0:
335,247,81036,1,2,0:0:0:0:
322,60,81509,5,10,0:2:0:0:
271,110,81667,1,2,0:0:0:0:
61,60,82141,5,10,0:1:0:0:
101,132,82299,1,2,0:0:0:0:
67,202,82457,2,0,P|33:216|1:228,1,62.9999980773926,8|8,0:3|0:3,0:0:0:0:
130,291,82773,5,10,0:2:0:0:
175,359,82930,2,0,P|221:365|218:293,1,125.999996154785,2|0,0:0|0:0,0:0:0:0:
176,196,83404,5,12,0:1:0:0:
370,78,83720,1,0,0:0:0:0:
510,196,84036,1,10,0:2:0:0:
466,132,84194,1,2,0:0:0:0:
506,0,84509,5,2,0:0:0:0:
432,13,84667,2,0,P|368:43|297:69,1,125.999996154785,10|0,0:1|0:0,0:0:0:0:
233,31,85141,2,0,P|285:52|330:172,1,188.999994232178,2|0,0:0|0:0,0:0:0:0:
209,297,85930,2,0,L|84:326,1,125.999996154785,8|0,0:1|0:0,0:0:0:0:
256,370,86562,2,0,P|236:294|175:181,1,188.999994232178,8|0,0:2|0:0,0:0:0:0:
77,150,87194,5,10,0:1:0:0:
121,86,87351,1,2,0:0:0:0:
2,8,87667,5,0,0:0:0:0:
75,5,87825,2,0,P|119:23|209:48,1,125.999996154785,10|0,0:2|0:0,0:0:0:0:
391,192,88457,6,0,P|329:159|277:258,1,188.999994232178,10|0,0:1|0:0,0:0:0:0:
321,319,89088,1,10,0:2:0:0:
388,280,89246,1,2,0:0:0:0:
512,384,89562,6,0,P|490:310|468:188,1,188.999994232178,2|0,0:0|0:0,0:0:0:0:
391,159,90193,2,0,P|425:156|446:192,1,62.9999980773926,0|8,0:0|0:2,0:0:0:0:
182,125,90825,1,2,0:0:0:0:
259,139,90983,6,0,P|310:137|389:118,1,125.999996154785,10|0,0:1|0:0,0:0:0:0:
487,262,91615,2,0,P|407:239|339:235,1,125.999996154785,10|0,0:2|0:0,0:0:0:0:
249,379,92246,2,0,P|240:313|220:239,1,125.999996154785,10|0,0:1|0:0,0:0:0:0:
177,197,92720,1,0,0:0:0:0:
104,209,92878,1,8,0:1:0:0:
256,86,93194,1,0,0:0:0:0:
270,15,93351,1,0,0:0:0:0:
192,127,93509,6,0,P|262:113|417:230,2,251.999992309571,4|0|2,0:0|0:0|0:0,0:0:0:0:
19,93,95088,5,8,0:3:0:0:
87,125,95246,1,8,0:3:0:0:
102,212,95404,2,0,P|142:229|282:170,1,188.999994232178,8|0,0:2|0:0,0:0:0:0:
292,97,96036,5,8,0:1:0:0:
268,280,96351,1,0,0:0:0:0:
404,347,96667,1,8,3:2:0:0:
374,277,96825,2,0,P|374:241|379:212,2,62.9999980773926,0|0|0,3:0|3:0|3:0,0:0:0:0:
329,343,97299,6,0,P|281:362|262:380,1,62.9999980773926,8|0,3:1|3:0,0:0:0:0:
202,322,97615,2,0,P|154:303|135:285,1,62.9999980773926,0|0,3:0|3:0,0:0:0:0:
67,336,97930,1,8,0:2:0:0:
31,162,98246,1,2,3:3:0:0:
0,0,98562,5,8,0:1:0:0:
231,36,98878,1,0,0:0:0:0:
252,185,99194,1,10,0:2:0:0:
310,132,99351,1,2,0:0:0:0:
419,237,99667,6,0,P|410:182|349:54,1,188.999994232178,2|0,0:0|0:0,0:0:0:0:
289,22,100299,1,0,0:0:0:0:
367,39,100457,2,0,P|409:33|443:21,1,62.9999980773926,10|0,0:2|0:0,0:0:0:0:
512,237,100930,6,0,P|449:250|413:375,1,188.999994232178,2|0,0:0|0:0,0:0:0:0:
229,345,101720,1,10,0:2:0:0:
283,281,101878,1,2,0:0:0:0:
171,121,102194,6,0,P|112:82|25:-3,1,188.999994232178,2|0,0:0|0:0,0:0:0:0:
32,61,102825,1,0,0:0:0:0:
0,136,102983,1,10,0:2:0:0:
160,223,103299,1,2,0:0:0:0:
39,351,103615,5,8,0:1:0:0:
271,331,103930,1,0,0:0:0:0:
403,219,104246,1,10,0:2:0:0:
391,299,104404,1,2,0:0:0:0:
237,239,104720,5,2,0:0:0:0:
311,241,104878,2,0,P|350:223|411:153,1,125.999996154785,10|0,0:1|0:0,0:0:0:0:
490,136,105351,1,2,0:0:0:0:
426,56,105509,2,0,P|332:20|284:-3,1,125.999996154785,8|0,0:2|0:0,0:0:0:0:
160,128,106141,6,0,P|150:89|133:90,2,62.9999980773926,8|0|0,0:1|0:0|0:0,0:0:0:0:
19,236,106773,2,0,P|88:245|165:268,1,125.999996154785,8|0,0:2|0:0,0:0:0:0:
196,328,107246,1,0,0:0:0:0:
268,378,107404,6,0,P|287:335|363:309,1,125.999996154785,10|0,0:1|0:0,0:0:0:0:
417,241,107878,2,0,P|444:256|472:269,1,62.9999980773926,2|8,0:0|0:2,0:0:0:0:
492,353,108194,2,0,P|458:370|424:397,1,62.9999980773926,2|0,0:0|0:0,0:0:0:0:
321,350,108509,6,0,P|268:281|104:211,1,251.999992309571,2|0,0:0|0:0,0:0:0:0:
52,247,109299,2,0,P|37:214|13:185,1,62.9999980773926,8|0,0:2|0:0,0:0:0:0:
29,113,109615,1,2,0:0:0:0:
106,116,109773,2,0,P|193:81|311:49,1,188.999994232178,2|0,0:0|0:0,0:0:0:0:
351,7,110404,1,0,0:0:0:0:
264,22,110562,2,0,P|221:16|195:8,1,62.9999980773926,8|0,0:2|0:0,0:0:0:0:
347,111,111036,1,0,0:0:0:0:
394,177,111194,6,0,P|330:200|277:251,1,125.999996154785,10|0,0:1|0:0,0:0:0:0:
465,299,111825,1,8,0:2:0:0:
506,127,112141,2,0,P|505:90|510:57,1,62.9999980773926,0|2,0:0|0:0,0:0:0:0:
243,60,112773,2,0,L|317:49,1,62.9999980773926
382,94,113088,1,0,0:0:0:0:
303,194,113404,1,0,0:0:0:0:
368,276,113796,6,0,P|410:273|498:252,1,107.999996704102,4|0,0:0|0:0,0:0:0:0:
445,347,114743,1,2,0:0:0:0:
376,378,115059,2,0,P|352:352|296:335,1,80.9999975280763,2|2,0:0|0:0,0:0:0:0:
222,264,116054,6,0,P|217:308|213:357,1,80.9999975280763,2|0,0:0|0:0,0:0:0:0:
233,380,116763,1,2,0:0:0:0:
1,159,118174,6,0,P|37:144|96:99,1,107.999996704102,2|2,0:0|0:0,0:0:0:0:
306,28,119758,1,2,0:0:0:0:
249,74,120064,2,0,P|240:106|236:146,1,53.9999983520508,2|0,0:0|0:0,0:0:0:0:
177,167,120709,2,0,P|172:193|164:219,1,53.9999983520508,2|0,0:0|0:0,0:0:0:0:
140,249,121226,6,0,P|189:237|371:268,1,215.999993408203,2|0,0:0|0:0,0:0:0:0:
475,363,123226,1,0,3:0:0:0:
419,225,123844,6,0,P|428:152|437:109,1,107.999996704102,4|0,0:0|0:0,0:0:0:0:
480,82,124633,2,0,P|485:51|470:47,1,45,2|2,0:0|0:0,0:0:0:0:
398,45,125150,2,0,P|358:51|317:69,1,80.9999975280763,2|2,0:0|0:0,0:0:0:0:
249,155,126162,6,0,P|277:167|322:138,1,80.9999975280763,2|0,0:0|0:0,0:0:0:0:
343,86,126859,1,2,0:0:0:0:
35,29,128238,6,0,P|49:90|51:126,1,80.9999975280763
71,139,128904,2,0,P|86:167|120:177,1,53.9999983520508,2|0,0:0|0:0,0:0:0:0:
124,174,129404,2,0,P|109:146|75:136,1,53.9999983520508,2|0,0:0|0:0,0:0:0:0:
15,190,130150,5,2,0:0:0:0:
70,273,130661,2,0,P|63:316|58:360,1,80.9999975280763,2|4,0:0|0:0,0:0:0:0:
