osu file format v14

[General]
AudioFilename: audio.mp3
AudioLeadIn: 0
PreviewTime: -1
Countdown: 1
SampleSet: None
StackLeniency: 0.7
Mode: 0
LetterboxInBreaks: 0
WidescreenStoryboard: 0

[Editor]
DistanceSpacing: 0.8
BeatDivisor: 4
GridSize: 32
TimelineZoom: 1

[Metadata]
Title:ya polubil autista
TitleUnicode:я полюбил аутиста
Artist:Valentin Dyadka
ArtistUnicode:Валентин Дядька
Creator:Eldis Reverri
Version:odd love
Source:
Tags:слава кпсс детская танцевальная музыка гнойный птичий пепел бутер бродский соня мармеладова
BeatmapID:1874110
BeatmapSetID:897052

[Difficulty]
HPDrainRate:5
CircleSize:4
OverallDifficulty:8
ApproachRate:9.3
SliderMultiplier:1.4
SliderTickRate:1

[Events]
//Background and Video events
0,0,"aut.jpg",0,0
//Break Periods
//Storyboard Layer 0 (Background)
//Storyboard Layer 1 (Fail)
//Storyboard Layer 2 (Pass)
//Storyboard Layer 3 (Foreground)
//Storyboard Sound Samples

[TimingPoints]
16189,410.958904109589,4,1,0,100,1,0

[HitObjects]
32,32,16189,5,8,0:0:0:0:
32,160,16394,1,0,0:0:0:0:
160,160,16599,1,0,0:0:0:0:
160,32,16805,1,0,0:0:0:0:
64,64,17010,5,8,0:0:0:0:
64,192,17216,1,0,0:0:0:0:
192,192,17421,1,0,0:0:0:0:
192,64,17627,1,0,0:0:0:0:
96,96,17832,5,8,0:0:0:0:
96,224,18038,1,0,0:0:0:0:
224,224,18243,1,0,0:0:0:0:
224,96,18449,1,0,0:0:0:0:
128,128,18654,5,8,0:0:0:0:
128,256,18860,1,0,0:0:0:0:
256,256,19065,1,0,0:0:0:0:
256,128,19271,1,0,0:0:0:0:
160,160,19476,5,8,0:0:0:0:
160,288,19682,1,0,0:0:0:0:
288,288,19887,1,0,0:0:0:0:
288,160,20093,1,0,0:0:0:0:
204,181,20298,5,8,0:0:0:0:
204,309,20504,1,0,0:0:0:0:
332,309,20709,1,0,0:0:0:0:
332,181,20915,1,0,0:0:0:0:
236,213,21120,5,8,0:0:0:0:
236,341,21325,1,0,0:0:0:0:
364,341,21531,1,0,0:0:0:0:
364,213,21736,1,0,0:0:0:0:
268,245,21942,5,8,0:0:0:0:
268,373,22147,1,0,0:0:0:0:
396,373,22353,1,0,0:0:0:0:
396,245,22558,1,0,0:0:0:0:
320,233,22764,5,8,0:0:0:0:
215,233,22969,1,0,0:0:0:0:
215,128,23175,1,0,0:0:0:0:
320,128,23380,1,0,0:0:0:0:
204,244,23586,1,0,0:0:0:0:
204,117,23791,1,0,0:0:0:0:
331,117,23997,1,0,0:0:0:0:
341,254,24202,5,8,0:0:0:0:
194,254,24408,1,0,0:0:0:0:
194,107,24613,1,0,0:0:0:0:
341,107,24819,1,0,0:0:0:0:
352,265,25024,5,8,0:0:0:0:
183,265,25230,1,0,0:0:0:0:
183,96,25435,1,0,0:0:0:0:
352,96,25641,1,0,0:0:0:0:
362,275,25846,5,8,0:0:0:0:
173,275,26052,1,0,0:0:0:0:
173,86,26257,1,0,0:0:0:0:
362,86,26462,1,0,0:0:0:0:
373,286,26668,5,8,0:0:0:0:
162,286,26873,1,0,0:0:0:0:
162,75,27079,1,0,0:0:0:0:
373,75,27284,1,0,0:0:0:0:
384,297,27490,5,8,0:0:0:0:
151,297,27695,1,0,0:0:0:0:
151,64,27901,1,0,0:0:0:0:
384,64,28106,1,0,0:0:0:0:
394,307,28312,5,8,0:0:0:0:
141,307,28517,1,0,0:0:0:0:
141,54,28723,1,0,0:0:0:0:
394,54,28928,1,0,0:0:0:0:
204,181,29134,5,8,0:0:0:0:
332,181,29339,1,0,0:0:0:0:
204,149,29545,1,0,0:0:0:0:
332,149,29750,1,0,0:0:0:0:
204,213,29956,1,8,0:0:0:0:
332,213,30161,1,0,0:0:0:0:
204,117,30367,1,0,0:0:0:0:
332,117,30572,1,0,0:0:0:0:
204,245,30778,5,8,0:0:0:0:
332,245,30983,1,0,0:0:0:0:
204,85,31189,1,0,0:0:0:0:
332,85,31394,1,0,0:0:0:0:
204,277,31599,1,8,0:0:0:0:
332,277,31805,1,0,0:0:0:0:
204,53,32010,1,0,0:0:0:0:
332,53,32216,1,0,0:0:0:0:
380,181,32421,1,0,0:0:0:0:
156,213,32627,1,0,0:0:0:0:
380,213,32832,1,0,0:0:0:0:
156,149,33038,1,8,0:0:0:0:
380,149,33243,1,0,0:0:0:0:
156,245,33449,1,0,0:0:0:0:
380,245,33654,1,0,0:0:0:0:
156,117,33860,5,8,0:0:0:0:
380,117,34065,1,0,0:0:0:0:
156,277,34271,1,0,0:0:0:0:
380,277,34476,1,0,0:0:0:0:
156,85,34682,1,8,0:0:0:0:
380,85,34887,1,0,0:0:0:0:
156,309,35093,1,0,0:0:0:0:
380,309,35298,1,0,0:0:0:0:
172,181,35504,5,8,0:0:0:0:
268,277,35709,1,0,0:0:0:0:
364,181,35915,1,0,0:0:0:0:
268,85,36120,1,0,0:0:0:0:
168,217,36325,5,8,0:0:0:0:
304,280,36531,1,0,0:0:0:0:
367,144,36736,1,0,0:0:0:0:
231,81,36942,1,0,0:0:0:0:
179,255,37147,5,8,0:0:0:0:
342,269,37353,1,0,0:0:0:0:
356,106,37558,1,0,0:0:0:0:
193,92,37764,1,0,0:0:0:0:
205,288,37969,5,8,0:0:0:0:
375,243,38175,1,0,0:0:0:0:
330,73,38380,1,0,0:0:0:0:
160,118,38586,1,0,0:0:0:0:
244,313,38791,5,8,0:0:0:0:
400,204,38997,1,0,0:0:0:0:
291,48,39202,1,0,0:0:0:0:
135,157,39408,1,0,0:0:0:0:
293,322,39613,5,8,0:0:0:0:
409,155,39819,1,0,0:0:0:0:
242,39,40024,1,0,0:0:0:0:
126,206,40230,1,0,0:0:0:0:
344,314,40435,5,8,0:0:0:0:
401,104,40641,1,0,0:0:0:0:
191,47,40846,1,0,0:0:0:0:
134,257,41052,1,0,0:0:0:0:
393,285,41257,5,8,0:0:0:0:
372,55,41462,1,0,0:0:0:0:
142,76,41668,1,0,0:0:0:0:
163,306,41873,1,0,0:0:0:0:
197,121,42079,5,8,0:0:0:0:
327,110,42284,1,0,0:0:0:0:
338,240,42490,1,0,0:0:0:0:
208,251,42695,1,0,0:0:0:0:
222,101,42901,5,8,0:0:0:0:
347,135,43106,1,0,0:0:0:0:
313,260,43312,1,0,0:0:0:0:
188,226,43517,1,0,0:0:0:0:
248,72,43723,5,8,0:0:0:0:
376,161,43928,1,0,0:0:0:0:
287,289,44134,1,0,0:0:0:0:
287,72,45778,5,8,0:0:0:0:
376,200,45983,1,0,0:0:0:0:
248,289,46189,1,0,0:0:0:0:
159,161,46394,1,0,0:0:0:0:
332,69,46599,5,8,0:0:0:0:
379,245,46805,1,0,0:0:0:0:
203,292,47010,1,0,0:0:0:0:
156,116,47216,1,0,0:0:0:0:
366,98,47421,5,8,0:0:0:0:
350,279,47627,1,0,0:0:0:0:
169,263,47832,1,0,0:0:0:0:
185,82,48038,1,0,0:0:0:0:
406,130,48243,5,8,0:0:0:0:
318,319,48449,1,0,0:0:0:0:
129,231,48654,1,0,0:0:0:0:
217,42,48860,1,0,0:0:0:0:
415,180,49065,5,8,0:0:0:0:
267,328,49271,1,0,0:0:0:0:
120,181,49476,1,0,0:0:0:0:
268,33,49682,1,0,0:0:0:0:
396,181,49887,5,8,0:0:0:0:
396,309,50093,1,0,0:0:0:0:
268,309,50298,1,0,0:0:0:0:
268,181,50504,1,0,0:0:0:0:
268,309,50709,5,8,0:0:0:0:
140,309,50915,1,0,0:0:0:0:
140,181,51120,1,0,0:0:0:0:
268,181,51325,1,0,0:0:0:0:
140,181,51531,5,8,0:0:0:0:
140,53,51736,1,0,0:0:0:0:
268,53,51942,1,0,0:0:0:0:
268,181,52147,1,0,0:0:0:0:
268,53,52353,5,8,0:0:0:0:
396,53,52558,1,0,0:0:0:0:
396,181,52764,1,0,0:0:0:0:
268,181,52969,1,0,0:0:0:0:
396,181,53175,5,8,0:0:0:0:
396,309,53380,1,0,0:0:0:0:
268,309,53586,1,0,0:0:0:0:
140,309,53791,1,0,0:0:0:0:
140,181,53997,1,8,0:0:0:0:
140,53,54202,1,0,0:0:0:0:
268,53,54408,1,0,0:0:0:0:
396,53,54613,1,0,0:0:0:0:
428,181,54819,5,8,0:0:0:0:
428,341,55024,1,0,0:0:0:0:
268,341,55230,1,0,0:0:0:0:
108,341,55435,1,0,0:0:0:0:
108,181,55641,1,8,0:0:0:0:
108,21,55846,1,0,0:0:0:0:
268,21,56052,1,0,0:0:0:0:
428,21,56257,1,0,0:0:0:0:
140,181,56462,5,8,0:0:0:0:
268,53,56668,1,0,0:0:0:0:
396,181,56873,1,0,0:0:0:0:
268,309,57079,1,0,0:0:0:0:
177,90,57284,5,8,0:0:0:0:
358,90,57490,1,0,0:0:0:0:
358,271,57695,1,0,0:0:0:0:
177,271,57901,1,0,0:0:0:0:
268,53,58106,5,8,0:0:0:0:
396,181,58312,1,0,0:0:0:0:
268,309,58517,1,0,0:0:0:0:
140,181,58723,1,0,0:0:0:0:
358,90,58928,5,8,0:0:0:0:
358,271,59134,1,0,0:0:0:0:
177,271,59339,1,0,0:0:0:0:
177,90,59545,1,0,0:0:0:0:
396,181,59750,5,8,0:0:0:0:
268,309,59956,1,0,0:0:0:0:
140,181,60161,1,0,0:0:0:0:
268,53,60367,1,0,0:0:0:0:
358,271,60572,5,8,0:0:0:0:
177,271,60778,1,0,0:0:0:0:
177,90,60983,1,0,0:0:0:0:
358,90,61189,1,0,0:0:0:0:
268,309,61394,5,8,0:0:0:0:
140,181,61599,1,0,0:0:0:0:
268,53,61805,1,0,0:0:0:0:
396,181,62010,1,0,0:0:0:0:
177,271,62216,5,8,0:0:0:0:
177,90,62421,1,0,0:0:0:0:
358,90,62627,1,0,0:0:0:0:
358,271,62832,1,0,0:0:0:0:
140,181,63038,5,8,0:0:0:0:
268,309,63243,1,0,0:0:0:0:
396,181,63449,1,0,0:0:0:0:
268,53,63654,1,0,0:0:0:0:
177,271,63860,5,8,0:0:0:0:
358,271,64065,1,0,0:0:0:0:
358,90,64271,1,0,0:0:0:0:
177,90,64476,1,0,0:0:0:0:
268,309,64682,5,8,0:0:0:0:
396,181,64887,1,0,0:0:0:0:
268,53,65093,1,0,0:0:0:0:
140,181,65298,1,0,0:0:0:0:
358,271,65504,5,8,0:0:0:0:
358,90,65709,1,0,0:0:0:0:
177,90,65915,1,0,0:0:0:0:
177,271,66120,1,0,0:0:0:0:
396,181,66325,5,8,0:0:0:0:
268,53,66531,1,0,0:0:0:0:
140,181,66736,1,0,0:0:0:0:
268,309,66942,1,0,0:0:0:0:
358,90,67147,5,8,0:0:0:0:
177,90,67353,1,0,0:0:0:0:
177,271,67558,1,0,0:0:0:0:
358,271,67764,1,0,0:0:0:0:
268,53,67969,5,8,0:0:0:0:
140,181,68175,1,0,0:0:0:0:
268,309,68380,1,0,0:0:0:0:
396,181,68586,1,0,0:0:0:0:
177,90,68791,5,8,0:0:0:0:
177,271,68997,1,0,0:0:0:0:
358,271,69202,1,0,0:0:0:0:
358,90,69408,1,0,0:0:0:0:
196,21,69613,5,8,0:0:0:0:
196,165,69819,1,0,0:0:0:0:
340,165,70024,1,0,0:0:0:0:
340,21,70230,1,0,0:0:0:0:
196,69,70435,5,8,0:0:0:0:
196,213,70641,1,0,0:0:0:0:
340,213,70846,1,0,0:0:0:0:
340,69,71052,1,0,0:0:0:0:
196,117,71257,5,0,0:0:0:0:
196,261,71462,1,0,0:0:0:0:
340,261,71668,1,0,0:0:0:0:
340,117,71873,1,0,0:0:0:0:
196,165,72079,5,8,0:0:0:0:
196,309,72284,1,0,0:0:0:0:
340,309,72490,1,0,0:0:0:0:
338,164,72695,1,0,0:0:0:0:
320,233,72901,5,8,0:0:0:0:
215,233,73106,1,0,0:0:0:0:
215,128,73312,1,0,0:0:0:0:
320,128,73517,1,0,0:0:0:0:
204,244,73723,1,0,0:0:0:0:
204,117,73928,1,0,0:0:0:0:
331,117,74134,1,0,0:0:0:0:
341,254,74339,5,8,0:0:0:0:
194,254,74545,1,0,0:0:0:0:
194,107,74750,1,0,0:0:0:0:
341,107,74956,1,0,0:0:0:0:
352,265,75161,5,8,0:0:0:0:
183,265,75367,1,0,0:0:0:0:
183,96,75572,1,0,0:0:0:0:
352,96,75778,1,0,0:0:0:0:
362,275,75983,5,8,0:0:0:0:
173,275,76189,1,0,0:0:0:0:
173,86,76394,1,0,0:0:0:0:
362,86,76599,1,0,0:0:0:0:
373,286,76805,5,8,0:0:0:0:
162,286,77010,1,0,0:0:0:0:
162,75,77216,1,0,0:0:0:0:
373,75,77421,1,0,0:0:0:0:
384,297,77627,5,8,0:0:0:0:
151,297,77832,1,0,0:0:0:0:
151,64,78038,1,0,0:0:0:0:
384,64,78243,1,0,0:0:0:0:
394,307,78449,5,8,0:0:0:0:
141,307,78654,1,0,0:0:0:0:
141,54,78860,1,0,0:0:0:0:
394,54,79065,1,0,0:0:0:0:
394,54,79271,5,0,0:0:0:0:
141,54,79476,1,0,0:0:0:0:
141,307,79682,1,0,0:0:0:0:
394,307,79887,1,8,0:0:0:0:
384,64,80093,1,0,0:0:0:0:
151,64,80298,1,0,0:0:0:0:
151,297,80504,1,0,0:0:0:0:
384,297,80709,5,8,0:0:0:0:
373,75,80915,1,0,0:0:0:0:
162,75,81120,1,0,0:0:0:0:
162,286,81326,1,0,0:0:0:0:
373,286,81531,5,8,0:0:0:0:
362,86,81737,1,0,0:0:0:0:
173,86,81942,1,0,0:0:0:0:
173,275,82147,1,0,0:0:0:0:
362,275,82353,5,8,0:0:0:0:
352,96,82558,1,0,0:0:0:0:
183,96,82764,1,0,0:0:0:0:
183,265,82969,1,0,0:0:0:0:
352,265,83175,5,8,0:0:0:0:
341,107,83380,1,0,0:0:0:0:
194,107,83586,1,0,0:0:0:0:
194,254,83791,1,0,0:0:0:0:
341,254,83997,5,8,0:0:0:0:
331,117,84202,1,0,0:0:0:0:
204,117,84408,1,0,0:0:0:0:
204,244,84613,1,0,0:0:0:0:
320,128,84819,5,0,0:0:0:0:
215,128,85024,1,0,0:0:0:0:
215,233,85230,1,0,0:0:0:0:
320,233,85435,1,8,0:0:0:0:
348,259,85641,1,0,0:0:0:0:
381,281,86052,1,0,0:0:0:0:
425,299,86462,1,0,0:0:0:0:
301,246,86873,5,8,0:0:0:0:
201,214,87078,1,0,0:0:0:0:
233,114,87284,1,0,0:0:0:0:
333,146,87489,1,0,0:0:0:0:
187,221,87695,1,0,0:0:0:0:
226,100,87900,1,0,0:0:0:0:
347,139,88106,1,0,0:0:0:0:
314,272,88311,5,8,0:0:0:0:
175,227,88517,1,0,0:0:0:0:
220,87,88722,1,0,0:0:0:0:
360,133,88928,1,0,0:0:0:0:
321,286,89133,5,8,0:0:0:0:
161,234,89339,1,0,0:0:0:0:
213,73,89544,1,0,0:0:0:0:
374,126,89750,1,0,0:0:0:0:
328,299,89955,5,8,0:0:0:0:
148,241,90161,1,0,0:0:0:0:
207,61,90366,1,0,0:0:0:0:
386,119,90571,1,0,0:0:0:0:
335,313,90777,5,8,0:0:0:0:
134,248,90982,1,0,0:0:0:0:
199,47,91188,1,0,0:0:0:0:
400,112,91393,1,0,0:0:0:0:
342,327,91599,5,8,0:0:0:0:
120,255,91804,1,0,0:0:0:0:
192,33,92010,1,0,0:0:0:0:
414,105,92215,1,0,0:0:0:0:
348,339,92421,5,8,0:0:0:0:
108,261,92626,1,0,0:0:0:0:
186,20,92832,1,0,0:0:0:0:
427,99,93037,1,0,0:0:0:0:
434,247,93243,5,0,0:0:0:0:
335,14,93448,1,0,0:0:0:0:
102,113,93654,1,0,0:0:0:0:
201,346,93859,1,8,0:0:0:0:
421,242,94065,1,0,0:0:0:0:
329,27,94270,1,0,0:0:0:0:
115,118,94476,1,0,0:0:0:0:
206,333,94681,5,8,0:0:0:0:
406,236,94887,1,0,0:0:0:0:
324,42,95092,1,0,0:0:0:0:
129,124,95298,1,0,0:0:0:0:
212,318,95503,5,8,0:0:0:0:
392,230,95709,1,0,0:0:0:0:
318,56,95914,1,0,0:0:0:0:
144,130,96119,1,0,0:0:0:0:
218,304,96325,5,8,0:0:0:0:
379,225,96530,1,0,0:0:0:0:
313,69,96736,1,0,0:0:0:0:
157,135,96941,1,0,0:0:0:0:
223,291,97147,5,8,0:0:0:0:
364,219,97352,1,0,0:0:0:0:
307,83,97558,1,0,0:0:0:0:
171,141,97763,1,0,0:0:0:0:
229,276,97969,5,8,0:0:0:0:
351,213,98174,1,0,0:0:0:0:
301,97,98380,1,0,0:0:0:0:
185,146,98585,1,0,0:0:0:0:
337,208,98791,5,0,0:0:0:0:
296,111,98996,1,0,0:0:0:0:
199,152,99202,1,0,0:0:0:0:
240,249,99407,1,8,0:0:0:0:
204,181,99613,5,8,0:0:0:0:
332,181,99818,1,0,0:0:0:0:
204,149,100024,1,0,0:0:0:0:
332,149,100229,1,0,0:0:0:0:
204,213,100435,1,8,0:0:0:0:
332,213,100640,1,0,0:0:0:0:
204,117,100846,1,0,0:0:0:0:
332,117,101051,1,0,0:0:0:0:
204,245,101257,5,8,0:0:0:0:
332,245,101462,1,0,0:0:0:0:
204,85,101668,1,0,0:0:0:0:
332,85,101873,1,0,0:0:0:0:
204,277,102078,1,8,0:0:0:0:
332,277,102284,1,0,0:0:0:0:
204,53,102489,1,0,0:0:0:0:
332,53,102695,1,0,0:0:0:0:
380,181,102900,1,0,0:0:0:0:
156,213,103106,1,0,0:0:0:0:
380,213,103311,1,0,0:0:0:0:
156,149,103517,1,8,0:0:0:0:
380,149,103722,1,0,0:0:0:0:
156,245,103928,1,0,0:0:0:0:
380,245,104133,1,0,0:0:0:0:
156,117,104339,5,8,0:0:0:0:
380,117,104544,1,0,0:0:0:0:
156,277,104750,1,0,0:0:0:0:
380,277,104955,1,0,0:0:0:0:
156,85,105161,1,8,0:0:0:0:
380,85,105366,1,0,0:0:0:0:
156,309,105572,1,0,0:0:0:0:
380,309,105777,1,0,0:0:0:0:
268,245,105983,5,8,0:0:0:0:
268,117,106188,1,0,0:0:0:0:
236,245,106394,1,0,0:0:0:0:
236,117,106599,1,0,0:0:0:0:
300,245,106805,1,8,0:0:0:0:
300,117,107010,1,0,0:0:0:0:
204,245,107216,1,0,0:0:0:0:
204,117,107421,1,0,0:0:0:0:
332,245,107627,5,8,0:0:0:0:
332,117,107832,1,0,0:0:0:0:
172,245,108038,1,0,0:0:0:0:
172,117,108243,1,0,0:0:0:0:
364,245,108448,1,8,0:0:0:0:
364,117,108654,1,0,0:0:0:0:
140,245,108859,1,0,0:0:0:0:
140,117,109065,1,0,0:0:0:0:
268,69,109270,1,0,0:0:0:0:
300,293,109476,1,0,0:0:0:0:
300,69,109681,1,0,0:0:0:0:
236,293,109887,1,8,0:0:0:0:
236,69,110092,1,0,0:0:0:0:
332,293,110298,1,0,0:0:0:0:
332,69,110503,1,0,0:0:0:0:
204,293,110709,5,8,0:0:0:0:
204,69,110914,1,0,0:0:0:0:
364,293,111120,1,0,0:0:0:0:
364,69,111325,1,0,0:0:0:0:
172,293,111531,1,8,0:0:0:0:
172,69,111736,1,0,0:0:0:0:
396,293,111942,1,0,0:0:0:0:
396,69,112147,1,0,0:0:0:0:
172,69,112353,1,0,0:0:0:0:
172,293,112558,1,0,0:0:0:0:
396,293,112764,1,0,0:0:0:0:
396,69,112969,1,0,0:0:0:0:
172,69,113175,1,0,0:0:0:0:
492,21,116462,5,8,0:0:0:0:
492,149,116667,1,0,0:0:0:0:
364,149,116872,1,0,0:0:0:0:
364,21,117078,1,0,0:0:0:0:
460,53,117283,5,8,0:0:0:0:
460,181,117489,1,0,0:0:0:0:
332,181,117694,1,0,0:0:0:0:
332,53,117900,1,0,0:0:0:0:
428,85,118105,5,8,0:0:0:0:
428,213,118311,1,0,0:0:0:0:
300,213,118516,1,0,0:0:0:0:
300,85,118722,1,0,0:0:0:0:
396,117,118927,5,8,0:0:0:0:
396,245,119133,1,0,0:0:0:0:
268,245,119338,1,0,0:0:0:0:
268,117,119544,1,0,0:0:0:0:
364,149,119749,5,8,0:0:0:0:
364,277,119955,1,0,0:0:0:0:
236,277,120160,1,0,0:0:0:0:
236,149,120366,1,0,0:0:0:0:
332,181,120571,5,8,0:0:0:0:
332,309,120777,1,0,0:0:0:0:
204,309,120982,1,0,0:0:0:0:
204,181,121188,1,0,0:0:0:0:
300,213,121393,5,8,0:0:0:0:
300,341,121598,1,0,0:0:0:0:
172,341,121804,1,0,0:0:0:0:
172,213,122009,1,0,0:0:0:0:
268,245,122215,5,8,0:0:0:0:
268,373,122420,1,0,0:0:0:0:
140,373,122626,1,0,0:0:0:0:
140,245,122831,1,0,0:0:0:0:
216,233,123037,5,8,0:0:0:0:
321,233,123242,1,0,0:0:0:0:
321,128,123448,1,0,0:0:0:0:
216,128,123653,1,0,0:0:0:0:
332,244,123859,1,0,0:0:0:0:
332,117,124064,1,0,0:0:0:0:
205,117,124270,1,0,0:0:0:0:
195,254,124475,5,8,0:0:0:0:
342,254,124681,1,0,0:0:0:0:
342,107,124886,1,0,0:0:0:0:
195,107,125092,1,0,0:0:0:0:
184,265,125297,5,8,0:0:0:0:
353,265,125503,1,0,0:0:0:0:
353,96,125708,1,0,0:0:0:0:
184,96,125914,1,0,0:0:0:0:
174,275,126119,5,8,0:0:0:0:
363,275,126325,1,0,0:0:0:0:
363,86,126530,1,0,0:0:0:0:
174,86,126735,1,0,0:0:0:0:
163,286,126941,5,8,0:0:0:0:
374,286,127146,1,0,0:0:0:0:
374,75,127352,1,0,0:0:0:0:
163,75,127557,1,0,0:0:0:0:
152,297,127763,5,8,0:0:0:0:
385,297,127968,1,0,0:0:0:0:
385,64,128174,1,0,0:0:0:0:
152,64,128379,1,0,0:0:0:0:
142,307,128585,5,8,0:0:0:0:
395,307,128790,1,0,0:0:0:0:
395,54,128996,1,0,0:0:0:0:
142,54,129201,1,0,0:0:0:0:
332,181,129407,5,8,0:0:0:0:
204,181,129612,1,0,0:0:0:0:
332,149,129818,1,0,0:0:0:0:
204,149,130023,1,0,0:0:0:0:
332,213,130229,1,8,0:0:0:0:
204,213,130434,1,0,0:0:0:0:
332,117,130640,1,0,0:0:0:0:
204,117,130845,1,0,0:0:0:0:
332,245,131051,5,8,0:0:0:0:
204,245,131256,1,0,0:0:0:0:
332,85,131462,1,0,0:0:0:0:
204,85,131667,1,0,0:0:0:0:
332,277,131872,1,8,0:0:0:0:
204,277,132078,1,0,0:0:0:0:
332,53,132283,1,0,0:0:0:0:
204,53,132489,1,0,0:0:0:0:
156,181,132694,1,0,0:0:0:0:
380,213,132900,1,0,0:0:0:0:
156,213,133105,1,0,0:0:0:0:
380,149,133311,1,8,0:0:0:0:
156,149,133516,1,0,0:0:0:0:
380,245,133722,1,0,0:0:0:0:
156,245,133927,1,0,0:0:0:0:
380,117,134133,5,8,0:0:0:0:
156,117,134338,1,0,0:0:0:0:
380,277,134544,1,0,0:0:0:0:
156,277,134749,1,0,0:0:0:0:
380,85,134955,1,8,0:0:0:0:
156,85,135160,1,0,0:0:0:0:
380,309,135366,1,0,0:0:0:0:
156,309,135571,1,0,0:0:0:0:
364,181,135777,5,8,0:0:0:0:
268,277,135982,1,0,0:0:0:0:
172,181,136188,1,0,0:0:0:0:
268,85,136393,1,0,0:0:0:0:
368,217,136598,5,8,0:0:0:0:
232,280,136804,1,0,0:0:0:0:
169,144,137009,1,0,0:0:0:0:
305,81,137215,1,0,0:0:0:0:
357,255,137420,5,8,0:0:0:0:
194,269,137626,1,0,0:0:0:0:
180,106,137831,1,0,0:0:0:0:
343,92,138037,1,0,0:0:0:0:
331,288,138242,5,8,0:0:0:0:
161,243,138448,1,0,0:0:0:0:
206,73,138653,1,0,0:0:0:0:
376,118,138859,1,0,0:0:0:0:
292,313,139064,5,8,0:0:0:0:
136,204,139270,1,0,0:0:0:0:
245,48,139475,1,0,0:0:0:0:
401,157,139681,1,0,0:0:0:0:
243,322,139886,5,8,0:0:0:0:
127,155,140092,1,0,0:0:0:0:
294,39,140297,1,0,0:0:0:0:
410,206,140503,1,0,0:0:0:0:
192,314,140708,5,8,0:0:0:0:
135,104,140914,1,0,0:0:0:0:
345,47,141119,1,0,0:0:0:0:
402,257,141325,1,0,0:0:0:0:
143,285,141530,5,8,0:0:0:0:
164,55,141735,1,0,0:0:0:0:
394,76,141941,1,0,0:0:0:0:
373,306,142146,1,0,0:0:0:0:
339,121,142352,5,8,0:0:0:0:
209,110,142557,1,0,0:0:0:0:
198,240,142763,1,0,0:0:0:0:
328,251,142968,1,0,0:0:0:0:
314,101,143174,5,8,0:0:0:0:
189,135,143387,1,0,0:0:0:0:
189,135,143483,1,0,0:0:0:0:
256,246,143790,1,0,0:0:0:0:
369,177,143996,5,8,0:0:0:0:
296,70,144201,1,0,0:0:0:0:
296,70,144305,1,0,0:0:0:0:
249,72,145846,5,8,0:0:0:0:
160,200,146051,1,0,0:0:0:0:
288,289,146257,1,0,0:0:0:0:
377,161,146462,1,0,0:0:0:0:
204,69,146667,5,8,0:0:0:0:
157,245,146873,1,0,0:0:0:0:
333,292,147078,1,0,0:0:0:0:
380,116,147284,1,0,0:0:0:0:
170,98,147489,5,8,0:0:0:0:
186,279,147695,1,0,0:0:0:0:
367,263,147900,1,0,0:0:0:0:
351,82,148106,1,0,0:0:0:0:
130,130,148311,5,8,0:0:0:0:
218,319,148517,1,0,0:0:0:0:
407,231,148722,1,0,0:0:0:0:
319,42,148928,1,0,0:0:0:0:
121,180,149133,5,8,0:0:0:0:
269,328,149339,1,0,0:0:0:0:
416,181,149544,1,0,0:0:0:0:
268,33,149750,1,0,0:0:0:0:
140,181,149955,5,8,0:0:0:0:
140,309,150161,1,0,0:0:0:0:
268,309,150366,1,0,0:0:0:0:
268,181,150572,1,0,0:0:0:0:
268,309,150777,5,8,0:0:0:0:
396,309,150983,1,0,0:0:0:0:
396,181,151188,1,0,0:0:0:0:
268,181,151393,1,0,0:0:0:0:
396,181,151599,5,8,0:0:0:0:
396,53,151804,1,0,0:0:0:0:
268,53,152010,1,0,0:0:0:0:
268,181,152215,1,0,0:0:0:0:
268,53,152421,5,8,0:0:0:0:
140,53,152626,1,0,0:0:0:0:
140,181,152832,1,0,0:0:0:0:
268,181,153037,1,0,0:0:0:0:
140,181,153243,5,8,0:0:0:0:
140,309,153448,1,0,0:0:0:0:
268,309,153654,1,0,0:0:0:0:
396,309,153859,1,0,0:0:0:0:
396,181,154065,1,8,0:0:0:0:
396,53,154270,1,0,0:0:0:0:
268,53,154476,1,0,0:0:0:0:
140,53,154681,1,0,0:0:0:0:
108,181,154887,5,8,0:0:0:0:
108,341,155092,1,0,0:0:0:0:
268,341,155298,1,0,0:0:0:0:
428,341,155503,1,0,0:0:0:0:
428,181,155709,1,8,0:0:0:0:
428,21,155914,1,0,0:0:0:0:
268,21,156120,1,0,0:0:0:0:
108,21,156325,1,0,0:0:0:0:
396,181,156530,5,8,0:0:0:0:
268,53,156736,1,0,0:0:0:0:
140,181,156941,1,0,0:0:0:0:
268,309,157147,1,0,0:0:0:0:
359,90,157352,5,8,0:0:0:0:
178,90,157558,1,0,0:0:0:0:
178,271,157763,1,0,0:0:0:0:
359,271,157969,1,0,0:0:0:0:
268,53,158174,5,8,0:0:0:0:
140,181,158380,1,0,0:0:0:0:
268,309,158585,1,0,0:0:0:0:
396,181,158791,1,0,0:0:0:0:
178,90,158996,5,8,0:0:0:0:
178,271,159202,1,0,0:0:0:0:
359,271,159407,1,0,0:0:0:0:
359,90,159613,1,0,0:0:0:0:
140,181,159818,5,8,0:0:0:0:
268,309,160024,1,0,0:0:0:0:
396,181,160229,1,0,0:0:0:0:
268,53,160435,1,0,0:0:0:0:
178,271,160640,5,8,0:0:0:0:
359,271,160846,1,0,0:0:0:0:
359,90,161051,1,0,0:0:0:0:
178,90,161257,1,0,0:0:0:0:
268,309,161462,5,8,0:0:0:0:
396,181,161667,1,0,0:0:0:0:
268,53,161873,1,0,0:0:0:0:
140,181,162078,1,0,0:0:0:0:
359,271,162284,5,8,0:0:0:0:
359,90,162489,1,0,0:0:0:0:
178,90,162695,1,0,0:0:0:0:
178,271,162900,1,0,0:0:0:0:
396,181,163106,5,8,0:0:0:0:
268,309,163311,1,0,0:0:0:0:
140,181,163517,1,0,0:0:0:0:
268,53,163722,1,0,0:0:0:0:
359,271,163928,5,8,0:0:0:0:
178,271,164133,1,0,0:0:0:0:
178,90,164339,1,0,0:0:0:0:
359,90,164544,1,0,0:0:0:0:
268,309,164750,5,8,0:0:0:0:
140,181,164955,1,0,0:0:0:0:
268,53,165161,1,0,0:0:0:0:
396,181,165366,1,0,0:0:0:0:
178,271,165572,5,8,0:0:0:0:
178,90,165777,1,0,0:0:0:0:
359,90,165983,1,0,0:0:0:0:
359,271,166188,1,0,0:0:0:0:
140,181,166393,5,8,0:0:0:0:
268,53,166599,1,0,0:0:0:0:
396,181,166804,1,0,0:0:0:0:
268,309,167010,1,0,0:0:0:0:
178,90,167215,5,8,0:0:0:0:
359,90,167421,1,0,0:0:0:0:
359,271,167626,1,0,0:0:0:0:
178,271,167832,1,0,0:0:0:0:
268,53,168037,5,8,0:0:0:0:
396,181,168243,1,0,0:0:0:0:
268,309,168448,1,0,0:0:0:0:
140,181,168654,1,0,0:0:0:0:
359,90,168859,5,8,0:0:0:0:
359,271,169065,1,0,0:0:0:0:
178,271,169270,1,0,0:0:0:0:
178,90,169476,1,0,0:0:0:0:
340,21,169681,5,8,0:0:0:0:
340,165,169887,1,0,0:0:0:0:
196,165,170092,1,0,0:0:0:0:
196,21,170298,1,0,0:0:0:0:
340,69,170503,5,8,0:0:0:0:
340,213,170709,1,0,0:0:0:0:
196,213,170914,1,0,0:0:0:0:
196,69,171120,1,0,0:0:0:0:
340,117,171325,5,0,0:0:0:0:
340,261,171530,1,0,0:0:0:0:
196,261,171736,1,0,0:0:0:0:
196,117,171941,1,0,0:0:0:0:
340,165,172147,5,8,0:0:0:0:
340,309,172352,1,0,0:0:0:0:
196,309,172558,1,0,0:0:0:0:
198,164,172763,1,0,0:0:0:0:
216,233,172969,5,8,0:0:0:0:
321,233,173174,1,0,0:0:0:0:
321,128,173380,1,0,0:0:0:0:
216,128,173585,1,0,0:0:0:0:
332,244,173791,1,0,0:0:0:0:
332,117,173996,1,0,0:0:0:0:
205,117,174202,1,0,0:0:0:0:
195,254,174407,5,8,0:0:0:0:
342,254,174613,1,0,0:0:0:0:
342,107,174818,1,0,0:0:0:0:
195,107,175024,1,0,0:0:0:0:
184,265,175229,5,8,0:0:0:0:
353,265,175435,1,0,0:0:0:0:
353,96,175640,1,0,0:0:0:0:
184,96,175846,1,0,0:0:0:0:
174,275,176051,5,8,0:0:0:0:
363,275,176257,1,0,0:0:0:0:
363,86,176462,1,0,0:0:0:0:
174,86,176667,1,0,0:0:0:0:
163,286,176873,5,8,0:0:0:0:
374,286,177078,1,0,0:0:0:0:
374,75,177284,1,0,0:0:0:0:
163,75,177489,1,0,0:0:0:0:
152,297,177695,5,8,0:0:0:0:
385,297,177900,1,0,0:0:0:0:
385,64,178106,1,0,0:0:0:0:
152,64,178311,1,0,0:0:0:0:
142,307,178517,5,8,0:0:0:0:
395,307,178722,1,0,0:0:0:0:
395,54,178928,1,0,0:0:0:0:
142,54,179133,1,0,0:0:0:0:
142,54,179339,5,0,0:0:0:0:
395,54,179544,1,0,0:0:0:0:
395,307,179750,1,0,0:0:0:0:
142,307,179955,1,8,0:0:0:0:
152,64,180161,1,0,0:0:0:0:
385,64,180366,1,0,0:0:0:0:
385,297,180572,1,0,0:0:0:0:
152,297,180777,5,8,0:0:0:0:
163,75,180983,1,0,0:0:0:0:
374,75,181188,1,0,0:0:0:0:
374,286,181394,1,0,0:0:0:0:
163,286,181599,5,8,0:0:0:0:
174,86,181805,1,0,0:0:0:0:
363,86,182010,1,0,0:0:0:0:
363,275,182215,1,0,0:0:0:0:
174,275,182421,5,8,0:0:0:0:
184,96,182626,1,0,0:0:0:0:
353,96,182832,1,0,0:0:0:0:
353,265,183037,1,0,0:0:0:0:
184,265,183243,5,8,0:0:0:0:
195,107,183448,1,0,0:0:0:0:
342,107,183654,1,0,0:0:0:0:
342,254,183859,1,0,0:0:0:0:
195,254,184065,5,8,0:0:0:0:
205,117,184270,1,0,0:0:0:0:
332,117,184476,1,0,0:0:0:0:
332,244,184681,1,0,0:0:0:0:
216,128,184887,5,0,0:0:0:0:
321,128,185092,1,0,0:0:0:0:
321,233,185298,1,0,0:0:0:0:
216,233,185503,1,8,0:0:0:0:
222,257,185709,5,8,0:0:0:0:
322,225,185914,1,0,0:0:0:0:
290,125,186120,1,0,0:0:0:0:
190,157,186325,1,0,0:0:0:0:
336,232,186531,1,0,0:0:0:0:
297,111,186736,1,0,0:0:0:0:
176,150,186942,1,0,0:0:0:0:
209,283,187147,5,8,0:0:0:0:
348,238,187353,1,0,0:0:0:0:
303,98,187558,1,0,0:0:0:0:
163,144,187764,1,0,0:0:0:0:
202,297,187969,5,8,0:0:0:0:
362,245,188175,1,0,0:0:0:0:
310,84,188380,1,0,0:0:0:0:
149,137,188586,1,0,0:0:0:0:
195,310,188791,5,8,0:0:0:0:
375,252,188997,1,0,0:0:0:0:
316,72,189202,1,0,0:0:0:0:
137,130,189407,1,0,0:0:0:0:
188,324,189613,5,8,0:0:0:0:
389,259,189818,1,0,0:0:0:0:
324,58,190024,1,0,0:0:0:0:
123,123,190229,1,0,0:0:0:0:
181,338,190435,5,8,0:0:0:0:
403,266,190640,1,0,0:0:0:0:
331,44,190846,1,0,0:0:0:0:
109,116,191051,1,0,0:0:0:0:
175,350,191257,5,8,0:0:0:0:
415,272,191462,1,0,0:0:0:0:
337,31,191668,1,0,0:0:0:0:
96,110,191873,1,0,0:0:0:0:
89,258,192079,5,0,0:0:0:0:
188,25,192284,1,0,0:0:0:0:
421,124,192490,1,0,0:0:0:0:
322,357,192695,1,8,0:0:0:0:
102,253,192901,1,0,0:0:0:0:
194,38,193106,1,0,0:0:0:0:
408,129,193312,1,0,0:0:0:0:
317,344,193517,5,8,0:0:0:0:
117,247,193723,1,0,0:0:0:0:
199,53,193928,1,0,0:0:0:0:
189,357,194134,1,8,0:0:0:0:
409,253,194340,1,0,0:0:0:0:
317,38,194545,1,0,0:0:0:0:
103,129,194751,1,0,0:0:0:0:
194,344,194956,5,8,0:0:0:0:
394,247,195162,1,0,0:0:0:0:
312,53,195367,1,0,0:0:0:0:
