osu file format v14

[General]
AudioFilename: audio.mp3
AudioLeadIn: 0
PreviewTime: 121891
Countdown: 0
SampleSet: Drum
StackLeniency: 0.7
Mode: 0
LetterboxInBreaks: 0
WidescreenStoryboard: 0

[Editor]
Bookmarks: 27698,40085,46279,57118,63310,71827,78794,91181,103568,122149,137633,150020,156214,170149,187181,199568,249962,252689,261416,263598
DistanceSpacing: 0.5
BeatDivisor: 4
GridSize: 4
TimelineZoom: 2.6

[Metadata]
Title:Klendathu
TitleUnicode:Klendathu
Artist:Vale Of Pnath
ArtistUnicode:Vale Of Pnath
Creator:ITZReddYUWU
Version:The Archaid Extraterrestrial Life
Source:
Tags:Spiders metal roupus ValeOfPnath cool thing 230
BeatmapID:4460170
BeatmapSetID:2122546

[Difficulty]
HPDrainRate:3
CircleSize:4.2
OverallDifficulty:9.8
ApproachRate:10
SliderMultiplier:2
SliderTickRate:1

[Events]
//Background and Video events
0,0,"pavucia cikulka.jpg",0,0
//Break Periods
//Storyboard Layer 0 (Background)
//Storyboard Layer 1 (Fail)
//Storyboard Layer 2 (Pass)
//Storyboard Layer 3 (Foreground)
//Storyboard Layer 4 (Overlay)
//Storyboard Sound Samples

[TimingPoints]
1,-100,4,3,1,70,0,0
27698,258.064516129032,3,3,1,70,1,0
28472,-66.6666666666667,3,3,1,70,0,0
28730,-100,3,3,1,70,0,0
31310,-133.333333333333,3,3,1,70,0,0
31504,-100,3,3,1,5,0,0
31568,-100,3,3,1,70,0,0
33117,-166.666666666667,3,3,1,70,0,0
33375,-166.666666666667,3,3,8,70,0,0
33633,-166.666666666667,3,3,9,70,0,0
33891,-100,3,3,1,70,0,0
36730,-200,3,3,1,70,0,0
36988,-66.6666666666667,3,3,1,70,0,0
37181,-66.6666666666667,3,3,1,5,0,0
37246,-133.333333333333,3,3,1,70,0,0
39052,-133.333333333333,3,3,8,70,0,0
39310,-133.333333333333,3,3,1,70,0,0
39568,-133.333333333333,3,3,1,70,0,0
39633,-133.333333333333,3,3,8,70,0,0
39827,-133.333333333333,3,3,1,70,0,0
40085,-133.333333333333,3,3,1,70,0,1
46278,-100,3,3,1,70,0,1
46472,-100,3,3,1,5,0,1
46536,-100,3,3,1,70,0,1
52472,-100,3,3,1,70,0,0
52988,-66.6666666666667,3,3,1,70,0,0
53246,-100,3,3,1,70,0,0
54020,-66.6666666666667,3,3,1,70,0,0
54278,-100,3,3,7,70,0,0
54536,-100,3,3,1,70,0,0
54794,-100,3,3,7,70,0,0
55117,-100,3,3,1,70,0,0
55310,-100,3,3,7,70,0,0
55568,-100,3,3,1,70,0,0
56343,-100,3,3,8,70,0,0
56601,-66.6666666666667,3,3,1,70,0,0
56730,-100,3,3,9,70,0,0
56988,-100,3,3,1,70,0,0
57117,-100,3,3,1,70,0,0
57891,-133.333333333333,3,3,1,70,0,0
58214,-133.333333333333,3,3,1,5,0,0
58278,-133.333333333333,3,3,1,70,0,0
58730,-133.333333333333,3,3,1,5,0,0
59052,-133.333333333333,3,3,1,70,0,0
59117,-133.333333333333,3,3,1,5,0,0
59827,-133.333333333333,3,3,1,70,0,0
60214,-181.818181818181,3,3,1,70,0,0
61762,-181.818181818181,3,3,7,70,0,0
62149,-181.818181818181,3,3,8,70,0,0
62536,-181.818181818181,3,3,1,70,0,0
62536,-222.222222222222,3,3,1,70,0,0
62923,-133.333333333333,3,3,1,70,0,0
63310,-66.6666666666667,3,3,1,70,0,0
63762,-66.6666666666667,3,3,1,5,0,0
63827,-66.6666666666667,3,3,1,70,0,0
64859,-100,3,3,1,70,0,0
65117,-66.6666666666667,3,3,1,70,0,0
68343,-66.6666666666667,3,3,7,70,0,0
68730,-66.6666666666667,3,3,1,70,0,0
69117,-66.6666666666667,3,3,8,70,0,0
69504,-66.6666666666667,3,3,1,70,0,0
69762,-100,3,3,1,70,0,0
71117,-100,3,3,1,5,0,0
71827,-100,3,3,8,70,0,0
72085,-133.333333333333,3,3,1,70,0,0
72214,-100,3,3,1,70,0,0
72278,-100,3,3,8,70,0,0
72601,-100,3,3,1,70,0,0
73762,-66.6666666666667,3,3,1,70,0,0
74020,-100,3,3,1,70,0,0
74536,-66.6666666666667,3,3,1,70,0,0
74923,-100,3,3,1,70,0,0
77117,-133.333333333333,3,3,1,70,0,0
77246,-100,3,3,1,70,0,0
77633,-100,3,3,7,70,0,0
78020,-100,3,3,1,70,0,0
78085,-100,3,3,8,70,0,0
78407,-100,3,3,1,70,0,0
78794,-100,3,3,1,70,0,1
80343,-66.6666666666667,3,3,1,70,0,1
83698,-133.333333333333,3,3,7,70,0,1
83827,-133.333333333333,3,3,8,70,0,1
84601,-133.333333333333,3,3,9,70,0,1
84988,-133.333333333333,3,3,8,70,0,1
85246,-100,3,3,8,5,0,1
85375,-100,3,3,1,70,0,1
88085,-66.6666666666667,3,3,1,70,0,1
90407,-66.6666666666667,3,3,8,70,0,1
90794,-66.6666666666667,3,3,1,70,0,1
91181,-100,3,3,1,70,0,0
92730,-100,3,3,1,70,0,0
93504,-100,3,3,7,70,0,0
93891,-100,3,3,8,70,0,0
94278,-100,3,3,1,70,0,0
95956,-100,3,3,7,70,0,0
96214,-100,3,3,8,70,0,0
96988,-100,3,3,9,70,0,0
97375,-100,3,3,1,70,0,0
100472,-133.333333333333,3,3,1,70,0,0
101181,-133.333333333333,3,3,1,5,0,0
101246,-66.6666666666667,3,3,1,70,0,0
101310,-66.6666666666667,3,3,1,5,0,0
102020,-100,3,3,7,70,0,0
102407,-100,3,3,8,70,0,0
102794,-100,3,3,1,70,0,0
102859,-100,3,3,9,70,0,0
103181,-100,3,3,1,70,0,0
103568,-66.6666666666667,3,3,1,70,0,0
108149,-66.6666666666667,3,3,1,5,0,0
108214,-66.6666666666667,3,3,1,70,0,0
108472,-66.6666666666667,3,3,1,70,0,0
108923,-66.6666666666667,3,3,1,5,0,0
108988,-66.6666666666667,3,3,1,70,0,0
109117,-66.6666666666667,3,3,7,70,0,0
109375,-66.6666666666667,3,3,1,70,0,0
109504,-66.6666666666667,3,3,8,70,0,0
109762,-66.6666666666667,3,3,1,70,0,0
112601,-100,3,3,1,70,0,0
112794,-100,3,3,1,5,0,0
112859,-100,3,3,1,70,0,0
114665,-100,3,3,7,70,0,0
114794,-100,3,3,8,70,0,0
115310,-100,3,3,9,70,0,0
115568,-66.6666666666667,3,3,1,70,0,0
122149,-66.6666666666667,3,3,1,70,0,1
127827,-66.6666666666667,3,3,7,70,0,1
128085,-100,3,3,8,70,0,1
128343,-66.6666666666667,3,3,1,70,0,1
134536,-66.6666666666667,3,3,1,70,0,0
136859,-133.333333333333,3,3,1,70,0,0
137633,-133.333333333333,3,3,1,70,0,1
137697,-66.6666666666667,3,3,1,70,0,1
139052,-100,3,3,1,70,0,1
139181,-66.6666666666667,3,3,1,70,0,1
142665,-66.6666666666667,3,3,7,70,0,1
143052,-100,3,3,8,70,0,1
143439,-66.6666666666667,3,3,1,70,0,1
143827,-100,3,3,1,70,0,1
144020,-66.6666666666667,3,3,1,70,0,1
144085,-66.6666666666667,3,3,1,70,0,1
144988,-133.333333333333,3,3,1,70,0,1
145375,-66.6666666666667,3,3,1,70,0,1
148859,-66.6666666666667,3,3,7,70,0,1
149246,-100,3,3,8,70,0,1
149762,-100,3,3,9,70,0,1
150020,-100,3,3,1,70,0,0
151181,-133.333333333333,3,3,1,70,0,0
151504,-100,3,3,1,5,0,0
151568,-100,3,3,1,70,0,0
152730,-100,3,3,8,70,0,0
153117,-100,3,3,1,70,0,0
154794,-100,3,3,7,70,0,0
155052,-100,3,3,8,70,0,0
155439,-100,3,3,1,70,0,0
155827,-100,3,3,7,70,0,0
155956,-100,3,3,8,70,0,0
156214,-100,3,3,9,70,0,0
157246,-100,3,3,1,70,0,0
160085,-66.6666666666667,3,3,1,70,0,0
160472,-100,3,3,1,70,0,0
163181,-133.333333333333,3,3,8,70,0,0
163568,-133.333333333333,3,3,9,70,0,0
163956,-100,3,3,1,70,0,0
166278,-66.6666666666667,3,3,1,70,0,0
167052,-100,3,3,1,70,0,0
169375,-100,3,3,9,70,0,0
169762,-100,3,3,8,70,0,0
170149,-100,3,3,1,70,0,0
170923,-133.333333333333,3,3,1,70,0,0
171439,-100,3,3,1,70,0,0
175568,-100,3,3,7,70,0,0
175956,-100,3,3,8,70,0,0
176343,-100,3,3,1,70,0,0
181762,-100,3,3,7,70,0,0
182149,-100,3,3,1,70,0,0
182214,-100,3,3,1,5,0,0
182536,-100,3,3,1,70,0,0
184149,-100,3,3,1,5,0,0
184859,-100,3,3,1,70,0,0
184923,-100,3,3,1,5,0,0
185633,-100,3,3,7,70,0,0
186020,-100,3,3,8,70,0,0
186407,-133.333333333333,3,3,9,70,0,0
186665,-100,3,3,1,70,0,0
187568,-66.6666666666667,3,3,1,70,0,0
187956,-100,3,3,1,70,0,0
190278,-66.6666666666667,3,3,1,70,0,0
192601,-66.6666666666667,3,3,8,70,0,0
192988,-100,3,3,1,70,0,0
193375,-66.6666666666667,3,3,1,70,0,0
194730,-66.6666666666667,3,3,1,5,0,0
194794,-66.6666666666667,3,3,1,70,0,0
194859,-66.6666666666667,3,3,1,5,0,0
194923,-66.6666666666667,3,3,1,70,0,0
198407,-66.6666666666667,3,3,7,70,0,0
198794,-66.6666666666667,3,3,8,70,0,0
199181,-66.6666666666667,3,3,9,70,0,0
199568,-133.333333333333,3,3,1,70,0,0
199568,-133.333333333333,3,3,1,70,0,1
200343,-66.6666666666667,3,3,1,70,0,1
200859,-133.333333333333,3,3,1,70,0,1
201375,-66.6666666666667,3,3,1,70,0,1
201891,-133.333333333333,3,3,1,70,0,1
203181,-100,3,3,1,70,0,1
203439,-66.6666666666667,3,3,1,70,0,1
203697,-100,3,3,1,70,0,1
205246,-100,3,3,7,70,0,1
205633,-100,3,3,8,70,0,1
205762,-100,3,3,1,70,0,1
207246,-100,3,3,1,5,0,1
207310,-100,3,3,1,70,0,1
211181,-100,3,3,7,70,0,1
211439,-100,3,3,8,70,0,1
211697,-100,3,3,1,70,0,1
211956,-66.6666666666667,3,3,1,70,0,1
217891,-100,3,3,1,70,0,1
218085,-100,3,3,1,5,0,1
218149,-66.6666666666667,3,3,1,70,0,1
221246,-100,3,3,1,70,0,1
222794,-66.6666666666667,3,3,1,70,0,1
224343,-200,3,3,1,70,0,0
226984,-200,3,3,1,5,0,0
227053,272.727272727272,4,3,1,70,1,0
227053,-133.333333333333,4,3,7,70,0,0
227189,-133.333333333333,4,3,1,5,0,0
227325,-200,4,3,8,70,0,0
227462,-133.333333333333,4,3,1,5,0,0
227598,-212.765957446809,4,3,1,70,0,0
229712,-212.765957446809,4,3,1,5,0,0
229780,-333.333333333333,4,3,1,70,0,0
230803,-333.333333333333,4,3,1,5,0,0
230871,-200,4,3,1,70,0,0
232166,-200,4,3,1,5,0,0
232234,-200,4,3,1,70,0,0
234143,-66.6666666666667,4,3,1,70,0,0
234212,-66.6666666666667,4,3,1,5,0,0
235234,-133.333333333333,4,3,7,70,0,0
235780,-133.333333333333,4,3,8,70,0,0
236325,-133.333333333333,4,3,1,70,0,0
242052,-100,4,3,1,70,0,0
242598,-133.333333333333,4,3,1,70,0,0
242871,-100,4,3,1,70,0,0
244234,-100,4,3,7,70,0,0
244507,-100,4,3,8,70,0,0
244780,-100,4,3,1,70,0,0
245052,-100,4,3,8,70,0,0
245325,-100,4,3,1,70,0,0
245871,-100,4,3,1,70,0,0
245938,-100,4,3,1,5,0,0
246143,-100,4,3,1,70,0,1
249962,-100,4,3,1,70,0,1
250234,-100,4,3,8,70,0,1
250507,-100,4,3,1,70,0,1
252689,-100,4,3,7,70,0,0
253234,-100,4,3,8,70,0,0
253780,-100,4,3,1,70,0,0
254325,-133.333333333333,4,3,1,70,0,0
257052,-200,4,3,1,70,0,0
258075,-200,4,3,1,5,0,0
258143,-200,4,3,1,70,0,0
259439,-200,4,3,1,5,0,0
259507,-217.391304347826,4,3,1,70,0,0
261348,-217.391304347826,4,3,1,5,0,0
261416,-66.6666666666667,4,3,1,70,0,0
261484,-66.6666666666667,4,3,1,5,0,0
262507,-66.6666666666667,4,3,1,70,0,0
262575,-66.6666666666667,4,3,1,5,0,0
262916,-66.6666666666667,4,3,1,70,0,0
263189,-100,4,3,1,70,0,0
263598,-200,4,3,1,70,0,0
266871,-200,4,3,1,5,0,0

[Colours]
Combo1 : 128,128,0
Combo2 : 192,192,192
Combo3 : 204,255,255
Combo4 : 73,73,73

[HitObjects]
96,115,27698,6,0,B|124:102|124:102|204:148,1,100,6|0,0:0|0:0,0:0:0:0:
189,318,27956,1,2,0:0:0:0:
189,318,28085,1,0,0:0:0:0:
125,247,28214,2,0,P|177:217|227:204,1,100,2|0,0:0|0:0,0:0:0:0:
318,310,28472,6,0,B|327:319|335:345|335:345|358:215,1,150,10|0,0:0|0:0,0:0:0:0:
243,81,28730,2,0,B|214:120|214:120|216:124|216:124|175:177,1,100,2|0,0:0|0:0,0:0:0:0:
54,82,28988,5,2,0:0:0:0:
87,284,29117,1,0,0:0:0:0:
129,173,29246,6,0,P|177:182|240:207,1,100,6|0,0:0|0:0,0:0:0:0:
303,308,29504,2,0,B|342:272|342:272|340:205,1,100,2|0,0:0|0:0,0:0:0:0:
221,47,29762,5,2,0:0:0:0:
286,293,29891,1,0,0:0:0:0:
313,127,30020,2,0,B|280:117|280:117|189:148,1,100,10|0,0:0|0:0,0:0:0:0:
125,280,30278,2,0,P|69:236|84:194,1,100,2|0,0:0|0:0,0:0:0:0:
135,82,30536,6,0,B|150:70|161:39|161:39|170:67|158:101,1,100,2|0,0:0|0:0,0:0:0:0:
159,197,30794,6,0,P|206:210|274:234,1,100,6|0,0:0|0:0,0:0:0:0:
321,350,31052,1,2,0:0:0:0:
388,74,31181,1,0,0:0:0:0:
244,202,31310,2,0,B|291:214|291:214|296:212|296:212|359:228|359:228,1,112.500004291535,2|0,0:0|0:0,0:0:0:0:
382,249,31568,2,0,P|409:200|393:148,1,100,10|0,0:0|0:0,0:0:0:0:
282,38,31827,2,0,P|245:85|259:131,1,100,2|0,0:0|0:0,0:0:0:0:
301,242,32085,2,0,L|194:283,1,100,2|0,0:0|0:0,0:0:0:0:
71,44,32343,5,10,0:0:0:0:
25,239,32472,1,0,0:0:0:0:
152,47,32601,5,2,0:0:0:0:
146,274,32730,1,0,0:0:0:0:
252,67,32859,5,2,0:0:0:0:
208,315,32988,1,0,0:0:0:0:
79,170,33117,6,0,B|102:152|102:152|150:155,1,59.9999981689454,10|0,0:0|0:0,0:0:0:0:
236,192,33375,5,0,0:0:0:0:
238,200,33439,1,0,0:0:0:0:
239,208,33504,1,0,0:0:0:0:
241,216,33568,1,0,0:0:0:0:
244,224,33633,2,0,B|260:222|260:222|284:231,1,29.9999990844727
176,329,33762,2,0,B|156:322|156:322|139:301,1,29.9999990844727
74,246,33891,6,0,P|82:192|100:131,1,100,6|0,0:0|0:0,0:0:0:0:
252,37,34149,2,0,P|272:91|286:153,1,100,2|0,0:0|0:0,0:0:0:0:
169,281,34407,5,2,0:0:0:0:
192,106,34536,1,0,0:0:0:0:
285,171,34665,2,0,B|265:185|256:205|256:205|222:210|190:194,1,100,10|0,0:0|0:0,0:0:0:0:
113,66,34923,2,0,B|89:70|63:97|63:97|70:123|63:155|64:155,1,100,2|0,0:0|0:0,0:0:0:0:
147,296,35181,1,2,0:0:0:0:
289,76,35310,1,0,0:0:0:0:
165,149,35439,6,0,P|221:164|285:187,1,100,6|0,0:0|0:0,0:0:0:0:
239,36,35698,2,0,P|185:18|139:0,1,100,2|0,0:0|0:0,0:0:0:0:
20,58,35956,6,0,B|13:79|24:94|24:94|55:81|90:91,1,100,2|0,0:0|0:0,0:0:0:0:
176,7,36214,2,0,P|210:50|217:110,1,100,10|0,0:0|0:0,0:0:0:0:
127,202,36472,2,0,B|157:246|157:246|228:244,1,100,2|0,0:0|0:0,0:0:0:0:
260,124,36730,6,2,B|266:118|274:126|276:131|276:131|285:132|285:132|292:141|300:142|313:137,1,50
395,37,36988,6,0,P|428:147|454:287,1,225.000008583069,10|0,0:0|0:0,0:0:0:0:
362,329,37246,2,0,B|342:297|342:297|361:261,1,75.0000028610231,2|0,0:0|0:0,0:0:0:0:
478,321,37504,6,0,B|478:350|478:350|444:334|444:334|463:321|463:321,1,75.0000028610231,2|0,0:0|0:0,0:0:0:0:
321,236,37762,5,10,0:0:0:0:
272,39,37891,1,0,0:0:0:0:
254,188,38020,5,10,0:0:0:0:
348,10,38149,1,0,0:0:0:0:
418,109,38278,6,8,B|395:137|395:137|352:131,1,75.0000028610231,10|8,0:0|0:0,0:0:0:0:
208,106,38536,6,8,B|214:64|214:64|243:27,2,75.0000028610231,14|0|8,0:0|0:0|0:0,0:0:0:0:
299,181,38923,5,8,0:0:0:0:
322,233,38988,1,8,0:0:0:0:
303,276,39052,5,0,0:0:0:0:
276,302,39117,1,0,0:0:0:0:
238,301,39181,1,0,0:0:0:0:
213,272,39246,1,0,0:0:0:0:
179,232,39310,5,8,0:0:0:0:
131,194,39375,1,8,0:0:0:0:
71,200,39439,1,8,0:0:0:0:
42,242,39504,1,8,0:0:0:0:
38,277,39568,2,0,L|87:295,3,37.5000014305115,8|0|0|0,0:0|0:0|0:0|0:0,0:0:0:0:
177,206,39827,5,4,0:1:0:0:
241,120,40085,5,14,0:0:0:0:
277,206,40214,1,8,0:0:0:0:
418,244,40343,5,10,0:0:0:0:
434,65,40472,1,8,0:0:0:0:
337,145,40601,5,10,0:0:0:0:
343,14,40730,1,8,0:0:0:0:
166,21,40859,6,8,B|151:58|151:58|165:110,1,75.0000028610231,10|8,0:0|0:0,0:0:0:0:
203,228,41117,6,8,P|143:276|143:277,1,75.0000028610231,10|8,0:0|0:0,0:0:0:0:
72,322,41375,6,8,P|102:358|155:338,1,75.0000028610231,10|8,0:0|0:0,0:0:0:0:
237,351,41633,5,14,0:0:0:0:
282,273,41762,1,8,0:0:0:0:
272,183,41891,5,10,0:0:0:0:
203,124,42020,1,8,0:0:0:0:
211,34,42149,5,10,0:0:0:0:
296,6,42278,1,8,0:0:0:0:
386,42,42407,5,10,0:0:0:0:
365,264,42536,1,8,0:0:0:0:
291,82,42665,5,10,0:0:0:0:
336,328,42794,1,8,0:0:0:0:
222,148,42923,5,10,0:0:0:0:
198,365,43052,1,8,0:0:0:0:
89,245,43181,6,10,B|70:227|70:227|84:162,1,75.0000028610231,14|8,0:0|0:0,0:0:0:0:
217,50,43439,5,10,0:0:0:0:
227,97,43568,1,8,0:0:0:0:
383,54,43698,5,10,0:0:0:0:
370,234,43827,1,8,0:0:0:0:
257,154,43956,5,10,0:0:0:0:
278,332,44085,1,8,0:0:0:0:
439,106,44214,5,10,0:0:0:0:
413,298,44343,1,8,0:0:0:0:
310,214,44472,5,10,0:0:0:0:
315,247,44601,1,8,0:0:0:0:
426,123,44730,6,8,B|383:132|383:132|379:136|379:136|321:150|322:149,1,75.0000028610231,14|8,0:0|0:0,0:0:0:0:
320,119,44988,2,8,P|311:98|328:118,1,75.0000028610231,10|8,0:0|0:0,0:0:0:0:
280,251,45246,6,8,P|241:261|209:225,1,75.0000028610231,10|8,0:0|0:0,0:0:0:0:
106,169,45504,5,6,0:0:0:0:
112,155,45568,1,0,0:0:0:0:
118,141,45633,1,0,0:0:0:0:
124,127,45698,1,0,0:0:0:0:
147,151,45762,5,8,0:0:0:0:
177,191,45827,1,0,0:0:0:0:
226,195,45891,1,8,0:0:0:0:
268,168,45956,1,0,0:0:0:0:
264,148,46020,5,2,0:0:0:0:
258,128,46085,1,0,0:0:0:0:
252,109,46149,1,0,0:0:0:0:
246,89,46214,1,0,0:0:0:0:
240,69,46278,6,0,P|301:60|393:48,1,150.000005722046,4|0,0:0|0:0,0:0:0:0:
410,195,46536,5,10,0:0:0:0:
413,245,46601,1,0,0:0:0:0:
380,282,46665,1,8,0:0:0:0:
329,288,46730,1,0,0:0:0:0:
287,260,46794,1,10,0:0:0:0:
277,209,46859,1,0,0:0:0:0:
251,166,46923,1,8,0:0:0:0:
202,152,46988,1,0,0:0:0:0:
167,182,47052,5,10,0:0:0:0:
213,221,47117,1,0,0:0:0:0:
272,216,47181,1,8,0:0:0:0:
320,179,47246,1,0,0:0:0:0:
323,119,47310,1,10,0:0:0:0:
295,64,47375,1,0,0:0:0:0:
241,38,47439,1,8,0:0:0:0:
182,52,47504,1,0,0:0:0:0:
165,87,47568,2,0,P|188:108|223:152,3,50,10|0|8|0,0:0|0:0|0:0|0:0,0:0:0:0:
230,271,47827,5,14,0:0:0:0:
224,279,47891,1,0,0:0:0:0:
214,282,47956,1,8,0:0:0:0:
204,279,48020,1,0,0:0:0:0:
198,270,48085,1,10,0:0:0:0:
199,260,48149,1,0,0:0:0:0:
205,252,48214,1,8,0:0:0:0:
213,247,48278,1,0,0:0:0:0:
257,223,48343,5,10,0:0:0:0:
289,185,48407,1,0,0:0:0:0:
287,134,48472,1,8,0:0:0:0:
253,97,48536,1,0,0:0:0:0:
202,92,48601,1,10,0:0:0:0:
165,125,48665,1,0,0:0:0:0:
161,175,48730,1,8,0:0:0:0:
186,217,48794,1,0,0:0:0:0:
234,231,48859,1,10,0:0:0:0:
281,216,48923,1,0,0:0:0:0:
312,176,48988,1,8,0:0:0:0:
359,161,49052,1,0,0:0:0:0:
407,176,49117,2,0,P|403:214|368:247,1,50,10|0,0:0|0:0,0:0:0:0:
307,82,49246,2,0,P|321:54|359:29,1,50,10|0,0:0|0:0,0:0:0:0:
448,69,49375,5,14,0:0:0:0:
449,73,49439,1,0,0:0:0:0:
450,77,49504,1,8,0:0:0:0:
451,81,49568,1,0,0:0:0:0:
452,85,49633,1,10,0:0:0:0:
453,89,49698,1,0,0:0:0:0:
454,93,49762,1,8,0:0:0:0:
455,97,49827,1,0,0:0:0:0:
449,140,49891,5,10,0:0:0:0:
407,176,49956,1,0,0:0:0:0:
348,163,50020,1,8,0:0:0:0:
333,104,50085,1,0,0:0:0:0:
370,58,50149,2,0,L|421:112,3,50,10|0|8|0,0:0|0:0|0:0|0:0,0:0:0:0:
251,63,50407,2,0,L|240:4,3,50,10|0|8|0,0:0|0:0|0:0|0:0,0:0:0:0:
312,179,50665,5,10,0:0:0:0:
309,188,50730,1,0,0:0:0:0:
307,197,50794,1,8,0:0:0:0:
306,207,50859,1,0,0:0:0:0:
285,241,50923,5,14,0:0:0:0:
247,275,50988,1,0,0:0:0:0:
198,264,51052,1,8,0:0:0:0:
179,217,51117,1,0,0:0:0:0:
204,174,51181,1,8,0:0:0:0:
253,165,51246,1,0,0:0:0:0:
282,125,51310,1,8,0:0:0:0:
275,74,51375,1,0,0:0:0:0:
243,51,51439,2,0,P|237:87|263:127,3,50,8|0|8|0,0:0|0:0|0:0|0:0,0:0:0:0:
374,180,51698,5,12,0:0:0:0:
384,238,51762,1,0,0:0:0:0:
346,285,51827,1,8,0:0:0:0:
286,280,51891,1,0,0:0:0:0:
254,228,51956,1,8,0:0:0:0:
276,172,52020,1,0,0:0:0:0:
238,124,52085,1,8,0:0:0:0:
178,124,52149,1,0,0:0:0:0:
142,172,52214,2,0,L|167:236,3,50,8|0|8|0,0:0|0:0|0:0|0:0,0:0:0:0:
126,323,52472,5,14,0:0:0:0:
129,325,52536,1,0,0:0:0:0:
133,328,52601,1,0,0:0:0:0:
136,330,52665,1,0,0:0:0:0:
140,332,52730,1,10,0:0:0:0:
143,334,52794,1,0,0:0:0:0:
146,337,52859,1,0,0:0:0:0:
149,340,52923,1,0,0:0:0:0:
153,344,52988,2,0,P|174:321|210:288,3,75.0000028610231,10|0|0|0,0:0|0:0|0:0|0:0,0:0:0:0:
329,276,53246,5,10,0:0:0:0:
323,226,53310,1,0,0:0:0:0:
278,202,53375,1,0,0:0:0:0:
232,220,53439,1,0,0:0:0:0:
227,257,53504,5,10,0:0:0:0:
266,226,53568,1,0,0:0:0:0:
260,175,53633,1,0,0:0:0:0:
220,143,53698,1,0,0:0:0:0:
215,93,53762,1,10,0:0:0:0:
246,53,53827,1,0,0:0:0:0:
295,55,53891,1,0,0:0:0:0:
333,87,53956,1,0,0:0:0:0:
337,131,54020,6,8,L|266:153,3,75.0000028610231
414,214,54278,2,0,L|470:237,3,50
321,278,54536,5,8,0:0:0:0:
311,282,54601,1,8,0:0:0:0:
302,286,54665,1,8,0:0:0:0:
293,290,54730,1,8,0:0:0:0:
284,294,54794,2,0,P|269:269|247:245,3,50
122,233,55052,5,0,0:0:0:0:
126,224,55117,1,8,0:0:0:0:
140,203,55181,5,8,0:0:0:0:
147,178,55246,1,8,0:0:0:0:
164,160,55310,2,0,P|173:185|194:211,3,50
136,68,55568,5,4,0:1:0:0:
179,42,55633,1,0,0:0:0:0:
228,53,55698,1,0,0:0:0:0:
252,96,55762,1,0,0:0:0:0:
251,116,55827,5,0,0:0:0:0:
244,129,55891,1,0,0:0:0:0:
232,139,55956,1,2,0:0:0:0:
217,141,56020,1,0,0:0:0:0:
203,133,56085,1,0,0:0:0:0:
193,121,56149,1,0,0:0:0:0:
193,105,56214,1,0,0:0:0:0:
201,93,56278,1,0,0:0:0:0:
223,77,56343,5,0,0:0:0:0:
247,120,56407,1,0,0:0:0:0:
271,163,56472,1,0,0:0:0:0:
295,205,56536,1,0,0:0:0:0:
322,247,56601,2,0,P|293:290|271:331,1,75.0000028610231
123,343,56730,5,0,0:0:0:0:
97,312,56794,1,0,0:0:0:0:
109,273,56859,1,0,0:0:0:0:
146,259,56923,1,0,0:0:0:0:
174,275,56988,2,0,P|151:307|137:348,1,50
221,370,57117,5,6,0:1:0:0:
345,298,57891,6,0,B|363:205|363:205|361:197|361:197|377:114,1,187.500007152558,8|0,0:0|0:0,0:0:0:0:
230,52,58278,5,0,0:0:0:0:
232,59,58343,1,0,0:0:0:0:
234,66,58407,1,0,0:0:0:0:
236,73,58472,1,0,0:0:0:0:
238,80,58536,1,0,0:0:0:0:
240,87,58601,1,0,0:0:0:0:
241,94,58665,6,0,B|230:117|230:117|197:124,1,37.5000014305115,4|0,0:0|0:0,0:0:0:0:
78,160,59052,6,0,B|73:167|74:179|74:179|82:180|88:186|88:186|93:195|87:212,1,37.5000014305115,4|4,0:0|0:0,0:0:0:0:
209,80,59827,5,8,0:0:0:0:
155,312,59956,1,0,0:0:0:0:
276,163,60085,5,8,0:0:0:0:
269,313,60214,2,0,B|315:319|340:273|320:261|355:228|408:242,1,165.000005035401,4|2,0:0|0:0,0:0:0:0:
447,171,60988,2,0,P|376:151|351:224,1,165.000005035401,8|2,0:0|0:0,0:0:0:0:
294,353,61762,5,4,0:0:0:0:
253,156,61891,1,0,0:0:0:0:
253,156,61956,1,0,0:0:0:0:
253,156,62020,1,0,0:0:0:0:
139,286,62149,5,0,0:0:0:0:
190,68,62278,1,0,0:0:0:0:
190,68,62343,1,0,0:0:0:0:
190,68,62407,1,0,0:0:0:0:
66,154,62536,2,0,B|111:176|111:176|119:174|119:174|186:209,1,110.000003356934,2|0,0:0|0:0,0:0:0:0:
323,86,62859,1,0,0:0:0:0:
333,95,62923,2,0,P|352:164|309:239,1,150.000005722046,8|8,0:0|0:0,0:0:0:0:
179,261,63310,6,0,B|186:308|186:308|303:343,1,150.000005722046,0|8,0:0|0:0,0:0:0:0:
382,117,63568,1,0,0:0:0:0:
382,117,63633,1,0,0:0:0:0:
382,117,63698,1,8,0:0:0:0:
198,18,63827,6,0,B|181:87|181:87|183:92|183:92|156:182,1,150.000005722046,0|8,0:0|0:0,0:0:0:0:
361,272,64085,1,0,0:0:0:0:
280,38,64214,1,8,0:0:0:0:
201,311,64343,1,0,0:0:0:0:
327,151,64472,2,0,B|255:121|255:121|195:164,1,150.000005722046,8|2,0:0|0:2,0:0:0:0:
206,323,64730,1,8,0:0:0:0:
290,222,64859,6,0,P|339:251|347:303,1,100,4|8,0:0|0:0,0:0:0:0:
447,183,65117,1,0,0:0:0:0:
447,183,65181,1,0,0:0:0:0:
447,183,65246,1,8,0:0:0:0:
320,27,65375,5,0,0:0:0:0:
306,288,65504,1,8,0:0:0:0:
395,77,65633,5,0,0:0:0:0:
165,103,65762,1,8,0:0:0:0:
186,289,65891,5,0,0:0:0:0:
248,20,66020,1,8,0:0:0:0:
327,223,66149,1,2,0:0:0:0:
133,77,66278,1,8,0:0:0:0:
98,224,66407,6,0,P|154:203|250:176,1,150.000005722046,4|8,0:0|0:0,0:0:0:0:
326,50,66665,1,0,0:0:0:0:
326,50,66730,1,0,0:0:0:0:
326,50,66794,1,8,0:0:0:0:
335,301,66923,1,0,0:0:0:0:
183,115,67052,1,8,0:0:0:0:
414,141,67181,1,0,0:0:0:0:
212,272,67310,1,8,0:0:0:0:
297,34,67439,1,0,0:0:0:0:
365,142,67568,6,0,P|309:207|233:139,1,150.000005722046,8|2,0:0|0:2,0:0:0:0:
235,172,67827,1,8,0:0:0:0:
146,32,67956,6,0,B|108:47|108:47|112:175|112:176,1,150.000005722046,4|8,0:0|0:0,0:0:0:0:
132,301,68214,2,0,B|164:279|164:279|171:280|171:280|206:251,1,75.0000028610231
219,118,68343,5,0,0:0:0:0:
232,111,68407,1,0,0:0:0:0:
246,108,68472,1,0,0:0:0:0:
260,112,68536,1,0,0:0:0:0:
268,124,68601,1,0,0:0:0:0:
270,138,68665,1,0,0:0:0:0:
280,183,68730,5,8,0:0:0:0:
335,232,68794,1,8,0:0:0:0:
409,216,68859,1,8,0:0:0:0:
445,151,68923,1,8,0:0:0:0:
417,80,68988,1,8,0:0:0:0:
346,56,69052,1,8,0:0:0:0:
336,76,69117,5,0,0:0:0:0:
339,90,69181,1,0,0:0:0:0:
342,104,69246,1,0,0:0:0:0:
345,118,69310,1,0,0:0:0:0:
348,132,69375,1,0,0:0:0:0:
351,146,69439,1,0,0:0:0:0:
354,160,69504,6,0,L|282:142,3,75.0000028610231,4|0|0|0,0:0|0:0|0:0|0:0,0:0:0:0:
397,276,69762,5,0,0:0:0:0:
394,285,69827,1,0,0:0:0:0:
385,290,69891,1,2,0:0:0:0:
374,290,69956,1,0,0:0:0:0:
364,286,70020,1,0,0:0:0:0:
357,278,70085,1,0,0:0:0:0:
353,268,70149,1,0,0:0:0:0:
354,258,70214,1,0,0:0:0:0:
356,208,70278,5,8,0:0:0:0:
337,161,70343,1,0,0:0:0:0:
293,137,70407,1,8,0:0:0:0:
243,148,70472,1,0,0:0:0:0:
215,189,70536,1,8,0:0:0:0:
222,238,70601,1,0,0:0:0:0:
252,277,70665,1,8,0:0:0:0:
301,283,70730,1,0,0:0:0:0:
335,241,70794,5,8,0:0:0:0:
372,199,70859,1,0,0:0:0:0:
426,200,70923,1,8,0:0:0:0:
464,239,70988,1,0,0:0:0:0:
464,293,71052,6,0,L|412:298,1,50,4|0,0:0|0:0,0:0:0:0:
226,279,71827,5,0,0:0:0:0:
232,260,71891,1,0,0:0:0:0:
238,240,71956,1,0,0:0:0:0:
244,221,72020,1,0,0:0:0:0:
250,202,72085,2,0,L|286:230,1,37.5000014305115
330,318,72214,5,8,0:0:0:0:
370,337,72278,1,0,0:0:0:0:
411,319,72343,1,0,0:0:0:0:
427,277,72407,1,0,0:0:0:0:
413,242,72472,2,0,P|390:260|378:290,1,50
331,357,72601,6,0,P|273:316|153:240,1,200,6|0,0:0|0:0,0:0:0:0:
90,138,72988,6,0,P|127:99|177:97,1,100,2|0,0:0|0:0,0:0:0:0:
192,305,73246,1,0,0:0:0:0:
202,204,73375,6,8,B|294:169|294:169|300:163|300:163|391:126,1,200,10|0,0:0|0:0,0:0:0:0:
372,179,73762,2,0,B|373:216|373:216|309:115,1,150.000005722046,2|0,0:0|0:0,0:0:0:0:
261,16,74020,1,0,0:0:0:0:
158,95,74149,6,0,B|127:96|105:67|105:67|111:101|183:140|238:134,1,200,6|0,0:3|0:0,0:0:0:0:
368,109,74536,2,0,B|362:65|362:65|378:107|378:107|341:172,1,150,2|0,0:0|0:0,0:0:0:0:
260,317,74794,1,0,0:0:0:0:
171,224,74923,6,0,B|176:198|203:184|203:184|248:206|302:213|372:183,1,200,10|0,0:0|0:0,0:0:0:0:
308,110,75310,6,0,P|272:135|291:200,1,100,2|2,0:2|0:0,0:0:0:0:
370,316,75568,1,2,0:0:0:0:
413,167,75698,6,0,B|362:153|330:192|343:208|282:284|221:234,1,200,4|0,0:0|0:0,0:0:0:0:
229,232,76020,1,0,0:0:0:0:
237,221,76085,1,10,0:0:0:0:
330,41,76214,1,0,0:0:0:0:
372,277,76343,1,8,0:0:0:0:
214,124,76472,6,0,B|247:102|247:102|322:131,1,100,0|8,0:0|0:0,0:0:0:0:
214,313,76730,1,0,0:0:0:0:
150,66,76859,1,8,0:0:0:0:
312,203,76988,1,0,0:0:0:0:
98,191,77117,5,8,0:0:0:0:
101,207,77181,1,0,0:0:0:0:
100,223,77246,2,0,P|190:159|280:109,1,200,4|0,0:0|0:0,0:0:0:0:
371,99,77633,5,0,0:0:0:0:
376,107,77698,1,0,0:0:0:0:
376,116,77762,1,0,0:0:0:0:
373,125,77827,1,0,0:0:0:0:
366,132,77891,1,0,0:0:0:0:
356,134,77956,1,0,0:0:0:0:
318,147,78020,5,8,0:0:0:0:
289,182,78085,1,0,0:0:0:0:
289,206,78149,1,0,0:0:0:0:
307,223,78214,1,0,0:0:0:0:
331,229,78278,1,0,0:0:0:0:
355,223,78343,1,0,0:0:0:0:
394,218,78407,6,8,P|385:247|376:298,5,50
471,142,78794,5,12,0:0:0:0:
449,74,78859,1,0,0:0:0:0:
384,48,78923,1,8,0:0:0:0:
328,90,78988,1,0,0:0:0:0:
321,158,79052,1,8,0:0:0:0:
372,206,79117,1,0,0:0:0:0:
358,274,79181,1,8,0:0:0:0:
295,304,79246,1,0,0:0:0:0:
238,263,79310,1,8,0:0:0:0:
242,192,79375,1,0,0:0:0:0:
298,149,79439,2,0,L|310:219,1,50,8|0,0:0|0:0,0:0:0:0:
239,323,79568,5,8,0:0:0:0:
188,372,79633,1,0,0:0:0:0:
119,355,79698,1,8,0:0:0:0:
91,291,79762,1,0,0:0:0:0:
128,231,79827,1,8,0:0:0:0:
196,222,79891,1,0,0:0:0:0:
246,271,79956,1,8,0:0:0:0:
294,320,80020,1,0,0:0:0:0:
364,312,80085,1,8,0:0:0:0:
405,256,80149,1,0,0:0:0:0:
396,185,80214,1,8,0:0:0:0:
340,143,80278,1,0,0:0:0:0:
272,153,80343,2,0,L|254:246,5,75.0000028610231,12|0|8|0|8|0,0:0|0:0|0:0|0:0|0:0|0:0,0:0:0:0:
186,333,80730,5,8,0:0:0:0:
114,353,80794,1,0,0:0:0:0:
61,299,80859,1,8,0:0:0:0:
76,226,80923,1,0,0:0:0:0:
146,199,80988,1,8,0:0:0:0:
209,238,81052,1,0,0:0:0:0:
210,278,81117,5,8,0:0:0:0:
177,211,81181,1,0,0:0:0:0:
218,147,81246,1,8,0:0:0:0:
292,140,81310,1,0,0:0:0:0:
338,199,81375,1,8,0:0:0:0:
328,272,81439,1,0,0:0:0:0:
298,310,81504,2,0,L|255:229,5,75.0000028610231,8|0|8|0|8|0,0:0|0:0|0:0|0:0|0:0|0:0,0:0:0:0:
178,345,81891,5,12,0:0:0:0:
123,371,81956,1,0,0:0:0:0:
72,339,82020,1,8,0:0:0:0:
68,278,82085,1,0,0:0:0:0:
114,240,82149,1,8,0:0:0:0:
172,256,82214,1,0,0:0:0:0:
231,248,82278,1,12,0:2:0:0:
263,197,82343,1,0,0:0:0:0:
251,138,82407,1,8,0:0:0:0:
196,110,82472,1,0,0:0:0:0:
142,135,82536,1,8,0:0:0:0:
121,191,82601,1,0,0:0:0:0:
135,223,82665,5,12,0:2:0:0:
187,168,82730,1,0,0:0:0:0:
169,95,82794,1,8,0:0:0:0:
99,64,82859,1,0,0:0:0:0:
37,105,82923,1,8,0:0:0:0:
31,180,82988,1,0,0:0:0:0:
55,217,83052,2,0,L|117:176,5,75.0000028610231,12|0|8|0|8|0,0:2|0:0|0:0|0:0|0:0|0:0,0:0:0:0:
215,49,83439,5,8,0:0:0:0:
277,37,83504,1,8,0:0:0:0:
314,60,83568,1,8,0:0:0:0:
324,88,83633,1,8,0:0:0:0:
322,103,83698,2,0,P|307:118|284:125,1,37.5000014305115
179,180,83827,5,0,0:0:0:0:
177,191,83891,1,0,0:0:0:0:
180,201,83956,1,0,0:0:0:0:
184,211,84020,1,0,0:0:0:0:
190,220,84085,1,0,0:0:0:0:
197,227,84149,1,0,0:0:0:0:
227,230,84214,5,8,0:0:0:0:
256,232,84278,1,8,0:0:0:0:
278,252,84343,1,0,0:0:0:0:
282,281,84407,1,0,0:0:0:0:
270,309,84472,1,0,0:0:0:0:
243,321,84536,1,0,0:0:0:0:
236,297,84601,5,0,0:0:0:0:
281,258,84665,1,0,0:0:0:0:
332,226,84730,1,0,0:0:0:0:
378,189,84794,1,0,0:0:0:0:
426,153,84859,1,0,0:0:0:0:
471,114,84923,1,0,0:0:0:0:
502,81,84988,6,0,P|428:50|331:4,1,150,4|0,0:0|0:0,0:0:0:0:
220,28,85375,5,10,0:0:0:0:
187,100,85439,1,0,0:0:0:0:
231,167,85504,1,8,0:0:0:0:
309,175,85568,1,0,0:0:0:0:
346,152,85633,2,0,P|341:126|330:99,1,50,8|0,0:0|0:0,0:0:0:0:
218,17,85762,5,10,0:0:0:0:
182,66,85827,1,0,0:0:0:0:
194,124,85891,1,8,0:0:0:0:
250,144,85956,1,0,0:0:0:0:
267,200,86020,1,8,0:0:0:0:
244,256,86085,1,0,0:0:0:0:
186,270,86149,1,10,0:0:0:0:
132,241,86214,1,0,0:0:0:0:
120,182,86278,1,8,0:0:0:0:
154,132,86343,1,0,0:0:0:0:
212,122,86407,1,8,0:0:0:0:
259,159,86472,1,0,0:0:0:0:
292,208,86536,1,14,0:0:0:0:
351,218,86601,1,0,0:0:0:0:
405,193,86665,1,8,0:0:0:0:
415,133,86730,1,0,0:0:0:0:
391,78,86794,1,8,0:0:0:0:
334,56,86859,1,0,0:0:0:0:
300,71,86923,5,10,0:0:0:0:
296,80,86988,1,0,0:0:0:0:
300,88,87052,1,8,0:0:0:0:
307,94,87117,1,0,0:0:0:0:
316,96,87181,1,8,0:0:0:0:
326,96,87246,1,0,0:0:0:0:
356,121,87310,5,10,0:0:0:0:
378,166,87375,1,0,0:0:0:0:
351,218,87439,1,8,0:0:0:0:
301,226,87504,1,0,0:0:0:0:
261,195,87568,1,8,0:0:0:0:
253,145,87633,1,0,0:0:0:0:
216,111,87697,1,10,0:0:0:0:
165,111,87762,1,0,0:0:0:0:
127,144,87827,1,8,0:0:0:0:
122,193,87891,1,0,0:0:0:0:
148,235,87956,1,8,0:0:0:0:
194,250,88020,1,0,0:0:0:0:
239,238,88085,2,0,P|230:198|213:166,5,75.0000028610231,14|0|8|0|8|0,0:0|0:0|0:0|0:0|0:0|0:0,0:0:0:0:
108,152,88472,5,10,0:0:0:0:
141,85,88536,1,0,0:0:0:0:
215,70,88601,1,8,0:0:0:0:
274,114,88665,1,0,0:0:0:0:
275,189,88730,1,8,0:0:0:0:
219,238,88794,1,0,0:0:0:0:
224,313,88859,1,10,0:3:0:0:
291,344,88923,1,0,0:0:0:0:
359,312,88988,1,8,0:0:0:0:
367,238,89052,1,0,0:0:0:0:
314,183,89117,1,8,0:0:0:0:
240,192,89181,1,0,0:0:0:0:
176,150,89246,1,10,0:0:0:0:
176,75,89310,1,0,0:0:0:0:
233,26,89375,2,0,L|310:89,3,75.0000028610231,8|0|8|0,0:0|0:0|0:0|0:0,0:0:0:0:
409,101,89633,5,14,0:0:0:0:
402,175,89697,1,0,0:0:0:0:
336,212,89762,1,8,0:0:0:0:
264,188,89827,1,0,0:0:0:0:
244,116,89891,1,8,0:0:0:0:
278,48,89956,1,0,0:0:0:0:
352,41,90020,2,0,L|379:135,5,75.0000028610231,10|0|8|0|8|0,0:0|0:0|0:0|0:0|0:0|0:0,0:0:0:0:
280,149,90407,5,0,0:0:0:0:
276,155,90472,1,0,0:0:0:0:
277,162,90536,1,0,0:0:0:0:
281,168,90601,1,0,0:0:0:0:
287,172,90665,1,0,0:0:0:0:
294,172,90730,1,0,0:0:0:0:
337,181,90794,5,8,0:0:0:0:
367,214,90859,1,8,0:0:0:0:
367,258,90923,1,8,0:0:0:0:
338,293,90988,1,8,0:0:0:0:
293,296,91052,1,8,0:0:0:0:
257,267,91117,1,8,0:0:0:0:
255,222,91181,6,0,L|332:189,5,50,4|0|0|0|0|0,0:0|0:0|0:0|0:0|0:0|0:0,0:0:0:0:
387,120,91568,5,4,0:2:0:0:
378,91,91633,1,0,0:0:0:0:
351,76,91697,1,0,0:2:0:0:
320,74,91762,1,0,0:0:0:0:
296,92,91827,1,0,0:0:0:0:
286,120,91891,1,0,0:0:0:0:
254,162,91956,5,8,0:0:0:0:
217,196,92020,1,0,0:0:0:0:
166,200,92085,1,0,0:0:0:0:
133,162,92149,1,0,0:0:0:0:
137,111,92214,1,0,0:0:0:0:
175,79,92278,1,0,0:0:0:0:
215,83,92343,6,0,B|250:106|250:106|273:128|283:210|255:286,1,200,2|2,0:0|0:0,0:0:0:0:
175,338,92730,5,4,0:0:0:0:
144,312,92794,1,0,0:0:0:0:
139,271,92859,1,0,0:0:0:0:
157,235,92923,1,0,0:0:0:0:
194,219,92988,1,0,0:0:0:0:
216,186,93052,1,0,0:0:0:0:
197,174,93117,5,4,0:2:0:0:
187,191,93181,1,0,0:0:0:0:
188,211,93246,1,0,0:0:0:0:
202,224,93310,1,0,0:0:0:0:
221,228,93375,1,0,0:0:0:0:
240,222,93439,1,0,0:0:0:0:
253,206,93504,2,0,P|266:185|265:139,5,50,8|0|0|0|0|0,0:0|0:0|0:0|0:0|0:0|0:0,0:0:0:0:
176,114,93891,5,0,0:0:0:0:
180,105,93955,1,0,0:0:0:0:
189,100,94020,1,0,0:0:0:0:
198,99,94084,1,0,0:0:0:0:
207,100,94149,1,0,0:0:0:0:
214,106,94214,1,0,0:0:0:0:
224,133,94278,5,4,0:2:0:0:
244,154,94343,1,0,0:0:0:0:
273,157,94407,1,0,0:0:0:0:
300,144,94472,1,0,0:0:0:0:
311,116,94536,1,0,0:0:0:0:
305,86,94601,1,0,0:0:0:0:
282,60,94665,5,4,0:2:0:0:
277,100,94730,1,0,0:0:0:0:
272,139,94794,1,0,0:0:0:0:
267,179,94859,1,0,0:0:0:0:
264,218,94923,1,0,0:0:0:0:
261,258,94988,1,0,0:0:0:0:
258,297,95052,2,0,L|194:343,1,50,8|0,0:0|0:0,0:0:0:0:
95,218,95181,5,0,0:0:0:0:
104,178,95246,1,0,0:0:0:0:
138,157,95310,1,0,0:0:0:0:
178,161,95375,1,0,0:0:0:0:
191,183,95439,2,0,P|170:203|143:200,5,50
96,41,95827,5,8,0:0:0:0:
319,27,95956,5,0,0:0:0:0:
346,55,96020,1,0,0:0:0:0:
353,94,96085,2,0,P|344:128|322:169,1,50
197,176,96214,5,0,0:0:0:0:
195,185,96278,1,0,0:0:0:0:
191,194,96343,2,0,P|216:207|250:236,3,50
371,185,96601,5,8,0:0:0:0:
372,189,96665,1,8,0:0:0:0:
373,193,96730,1,8,0:0:0:0:
374,197,96794,1,8,0:0:0:0:
376,201,96859,1,8,0:0:0:0:
377,205,96923,1,8,0:0:0:0:
378,209,96988,2,0,B|354:234|354:234|323:244,5,50
232,327,97375,5,4,0:0:0:0:
224,319,97439,1,0,0:0:0:0:
219,309,97504,1,0,0:0:0:0:
218,299,97568,1,0,0:0:0:0:
218,288,97633,1,0,0:0:0:0:
221,278,97697,1,0,0:0:0:0:
227,270,97762,1,6,0:2:0:0:
235,264,97827,1,0,0:0:0:0:
244,259,97891,1,0,0:0:0:0:
254,257,97956,1,0,0:0:0:0:
263,260,98020,1,0,0:0:0:0:
271,265,98085,1,0,0:0:0:0:
284,291,98149,5,8,0:0:0:0:
304,313,98214,1,0,0:0:0:0:
333,317,98278,1,0,0:0:0:0:
361,307,98343,1,0,0:0:0:0:
376,281,98407,1,0,0:0:0:0:
372,251,98472,1,0,0:0:0:0:
352,228,98536,2,0,P|330:251|316:294,5,50,2|0|0|0|0|0,0:0|0:0|0:0|0:0|0:0|0:0,0:0:0:0:
432,153,98923,5,2,0:2:0:0:
430,148,98988,1,0,0:0:0:0:
428,143,99052,1,0,0:0:0:0:
426,138,99117,1,0,0:0:0:0:
424,133,99181,1,0,0:0:0:0:
422,128,99246,1,0,0:0:0:0:
417,113,99310,5,4,0:0:0:0:
406,102,99375,1,0,0:0:0:0:
391,99,99439,1,0,0:0:0:0:
376,103,99504,1,0,0:0:0:0:
364,112,99568,1,0,0:0:0:0:
358,126,99633,1,0,0:0:0:0:
351,155,99697,5,10,0:0:0:0:
336,181,99762,1,0,0:0:0:0:
309,195,99827,1,0,0:0:0:0:
279,190,99891,1,0,0:0:0:0:
255,157,99956,5,10,0:0:0:0:
220,137,100020,1,0,0:0:0:0:
179,140,100085,1,0,0:0:0:0:
149,166,100149,1,0,0:0:0:0:
140,205,100214,6,8,B|141:215|152:226|152:226|193:222|255:265,1,100,10|8,0:0|0:0,0:0:0:0:
345,100,100472,6,0,B|323:85|327:63|338:46|364:40|397:47|408:64|386:117|386:117|308:213|354:292|354:292|349:248|375:219,1,412.500015735627,4|0,0:0|0:0,0:0:0:0:
372,219,101246,2,0,L|303:192,1,75.0000028610231,8|0,0:0|0:0,0:0:0:0:
87,141,102020,5,4,0:0:0:0:
91,132,102085,1,0,0:0:0:0:
99,127,102149,1,0,0:0:0:0:
109,127,102214,1,0,0:0:0:0:
118,127,102278,2,0,P|101:152|101:183,1,50
160,269,102407,5,0,0:0:0:0:
181,234,102472,1,0,0:0:0:0:
200,229,102536,1,0,0:0:0:0:
214,234,102601,1,0,0:0:0:0:
224,244,102665,2,0,P|198:267|196:310,1,50
278,346,102794,5,2,0:0:0:0:
310,370,102859,1,0,0:0:0:0:
349,365,102923,1,0,0:0:0:0:
373,333,102988,1,0,0:0:0:0:
367,293,103052,1,0,0:0:0:0:
340,262,103117,1,0,0:0:0:0:
294,256,103181,6,0,B|276:292|276:292|269:294|269:294|233:357,2,100,12|0|8,0:2|0:0|0:0,0:0:0:0:
445,207,103568,6,0,B|412:132|412:132|321:106,1,150.000005722046,4|8,0:0|0:0,0:0:0:0:
235,312,103827,1,0,0:0:0:0:
235,312,103891,1,0,0:0:0:0:
235,312,103956,1,8,0:0:0:0:
193,26,104085,1,0,0:0:0:0:
341,249,104214,1,8,0:0:0:0:
117,148,104343,5,0,0:0:0:0:
333,28,104472,1,8,0:0:0:0:
175,285,104601,5,0,0:0:0:0:
189,46,104730,1,8,0:0:0:0:
294,182,104859,5,2,0:0:0:0:
273,84,104988,1,8,0:0:0:0:
168,207,105117,6,0,P|106:172|128:94,1,150.000005722046,4|8,0:0|0:0,0:0:0:0:
261,7,105375,1,0,0:0:0:0:
270,18,105439,1,0,0:0:0:0:
254,19,105504,1,8,0:0:0:0:
210,129,105633,6,0,P|275:142|363:164,1,150.000005722046,0|8,0:0|0:0,0:0:0:0:
468,37,105891,1,0,0:0:0:0:
304,72,106020,1,8,0:0:0:0:
376,239,106149,1,0,0:0:0:0:
434,122,106278,1,8,0:0:0:0:
269,198,106407,2,0,B|258:269|258:269|306:333,1,150.000005722046,0|8,0:0|0:0,0:0:0:0:
385,126,106665,6,0,B|337:71|291:83|291:83|267:91|234:75,1,150.000005722046,4|8,0:0|0:0,0:0:0:0:
154,19,106923,1,0,0:0:0:0:
154,19,106988,1,0,0:0:0:0:
154,19,107052,1,8,0:0:0:0:
100,241,107181,1,0,0:0:0:0:
230,73,107310,1,8,0:0:0:0:
212,321,107439,5,0,0:0:0:0:
143,109,107568,1,8,0:0:0:0:
251,227,107697,5,2,0:0:0:0:
282,13,107827,1,8,0:0:0:0:
425,97,107956,6,0,P|327:114|202:148,1,225.000008583069,4|0,0:0|0:0,0:0:0:0:
185,146,108214,2,0,B|146:156|146:156|136:123|136:123|175:109|175:109|187:149,1,150.000005722046,4|8,0:2|0:0,0:0:0:0:
170,320,108472,1,0,0:0:0:0:
170,320,108536,1,0,0:0:0:0:
170,320,108600,1,8,0:0:0:0:
101,223,108730,6,0,B|141:190|141:190|197:208|197:208|199:213|199:213|251:231|251:231|332:181,1,225.000008583069,2|0,0:2|0:0,0:0:0:0:
330,67,108988,5,8,0:0:0:0:
397,97,109052,1,8,0:0:0:0:
413,155,109117,1,0,0:0:0:0:
394,211,109181,1,0,0:0:0:0:
342,243,109246,1,0,0:0:0:0:
284,227,109310,1,0,0:0:0:0:
253,180,109375,5,8,0:0:0:0:
311,173,109439,1,8,0:0:0:0:
359,210,109504,1,0,0:0:0:0:
376,266,109568,1,0,0:0:0:0:
356,322,109633,1,0,0:0:0:0:
304,352,109697,1,0,0:0:0:0:
278,348,109762,6,0,B|248:327|248:327|264:272|262:214,1,150.000005722046,4|8,0:0|0:0,0:0:0:0:
405,87,110020,1,0,0:0:0:0:
405,87,110085,1,0,0:0:0:0:
405,87,110149,1,12,0:2:0:0:
422,234,110278,2,0,P|347:203|256:170,1,150.000005722046,0|8,0:0|0:0,0:0:0:0:
177,19,110536,5,0,0:0:0:0:
125,252,110665,1,8,0:0:0:0:
263,30,110794,5,0,0:0:0:0:
79,173,110923,1,8,0:0:0:0:
225,107,111052,1,2,0:2:0:0:
279,323,111181,1,8,0:0:0:0:
353,209,111310,6,0,B|275:198|275:198|211:235,1,150.000005722046,4|8,0:0|0:0,0:0:0:0:
155,352,111568,1,0,0:0:0:0:
155,352,111633,1,0,0:0:0:0:
155,352,111697,1,8,0:0:0:0:
63,223,111827,2,0,B|111:159|111:159|110:153|110:153|162:81,1,150.000005722046,0|8,0:0|0:0,0:0:0:0:
334,26,112085,5,0,0:0:0:0:
336,260,112214,1,8,0:0:0:0:
180,96,112343,1,2,0:2:0:0:
200,321,112472,1,8,0:0:0:0:
306,153,112601,2,0,P|223:173|135:205,1,150,2|0,0:0|0:0,0:0:0:0:
132,179,112859,6,0,P|142:137|209:132,1,100,4|8,0:0|0:0,0:0:0:0:
271,313,113117,1,0,0:0:0:0:
271,313,113181,1,0,0:0:0:0:
271,313,113246,1,8,0:0:0:0:
290,30,113375,5,0,0:0:0:0:
196,217,113504,1,8,0:0:0:0:
404,155,113633,1,0,0:0:0:0:
392,293,113762,1,8,0:0:0:0:
230,101,113891,1,0,0:0:0:0:
227,355,114020,1,8,0:0:0:0:
317,223,114149,2,0,B|270:212|270:212|185:233,1,100,0|8,0:0|0:0,0:0:0:0:
91,316,114407,5,12,0:2:0:0:
89,311,114472,1,8,0:0:0:0:
88,306,114536,1,8,0:0:0:0:
87,300,114601,1,8,0:0:0:0:
87,295,114665,1,0,0:0:0:0:
87,290,114730,1,0,0:0:0:0:
103,265,114794,5,0,0:0:0:0:
114,236,114859,1,0,0:0:0:0:
113,206,114923,1,0,0:0:0:0:
97,180,114988,1,0,0:0:0:0:
87,151,115052,1,0,0:0:0:0:
94,121,115117,1,0,0:0:0:0:
116,101,115181,2,0,P|125:136|153:174,5,50,8|8|0|0|0|0,0:0|0:0|0:0|0:0|0:0|0:0,0:0:0:0:
244,111,115568,5,8,0:0:0:0:
270,48,115633,1,8,0:0:0:0:
336,38,115697,1,8,0:0:0:0:
395,70,115762,1,8,0:0:0:0:
404,137,115827,1,8,0:0:0:0:
365,191,115891,1,8,0:0:0:0:
298,207,115956,6,0,B|281:127|281:127|282:122|282:122|268:36,1,150.000005722046,4|8,0:0|0:0,0:0:0:0:
438,9,116214,1,0,0:0:0:0:
438,9,116278,1,0,0:0:0:0:
438,9,116343,1,8,0:0:0:0:
392,258,116472,1,0,0:0:0:0:
312,36,116601,1,8,0:0:0:0:
419,144,116730,6,0,P|339:165|259:210,1,150.000005722046,0|8,0:0|0:0,0:0:0:0:
158,315,116988,1,0,0:0:0:0:
207,60,117117,1,8,0:0:0:0:
302,296,117246,5,4,0:2:0:0:
238,35,117375,1,8,0:0:0:0:
122,137,117504,6,0,B|133:182|133:182|179:195|179:195|185:193|185:193|241:209,1,150.000005722046,4|8,0:0|0:0,0:0:0:0:
327,40,117762,1,0,0:0:0:0:
327,40,117827,1,0,0:0:0:0:
327,40,117891,1,8,0:0:0:0:
335,289,118020,1,0,0:0:0:0:
198,55,118149,5,8,0:0:0:0:
156,326,118278,1,0,0:0:0:0:
385,154,118407,1,8,0:0:0:0:
104,122,118536,1,0,0:0:0:0:
261,322,118665,5,8,0:0:0:0:
283,43,118794,1,0,0:0:0:0:
153,219,118923,1,12,0:2:0:0:
260,140,119052,6,0,P|215:82|133:70,1,150.000005722046,4|8,0:0|0:0,0:0:0:0:
93,234,119310,1,0,0:0:0:0:
96,240,119375,1,0,0:0:0:0:
99,246,119439,1,8,0:0:0:0:
235,169,119568,2,0,B|261:89|261:89|265:82|265:82|286:11,1,150.000005722046,0|8,0:0|0:0,0:0:0:0:
412,136,119827,2,0,P|362:212|339:189,1,150.000005722046,0|8,0:0|0:0,0:0:0:0:
348,31,120085,5,0,0:0:0:0:
282,289,120214,1,8,0:0:0:0:
211,97,120343,1,0,0:0:0:0:
251,314,120472,1,8,0:0:0:0:
336,162,120601,6,0,B|270:158|270:158|173:198,1,150.000005722046,4|8,0:0|0:0,0:0:0:0:
89,337,120859,5,0,0:0:0:0:
122,43,120988,1,12,0:2:0:0:
206,273,121117,5,0,0:2:0:0:
39,107,121246,1,8,0:0:0:0:
254,66,121375,5,12,0:2:0:0:
149,117,121504,1,8,0:0:0:0:
149,124,121568,1,8,0:0:0:0:
149,131,121633,1,8,0:0:0:0:
109,212,121762,1,8,0:0:0:0:
158,287,121891,1,8,0:0:0:0:
247,291,122020,1,8,0:0:0:0:
310,162,122149,5,14,0:0:0:0:
355,159,122214,1,0,0:0:0:0:
388,188,122278,1,8,0:0:0:0:
387,233,122343,1,0,0:0:0:0:
356,265,122407,1,10,0:0:0:0:
310,261,122472,1,0,0:0:0:0:
281,226,122536,1,8,0:0:0:0:
244,218,122601,1,0,0:0:0:0:
209,232,122665,1,10,0:0:0:0:
194,267,122730,1,0,0:0:0:0:
203,302,122794,1,8,0:0:0:0:
233,324,122859,1,0,0:0:0:0:
255,311,122923,5,10,0:0:0:0:
263,251,122988,1,0,0:0:0:0:
229,201,123052,1,8,0:0:0:0:
170,186,123117,1,0,0:0:0:0:
115,209,123181,1,10,0:0:0:0:
95,267,123246,1,0,0:0:0:0:
110,324,123310,1,8,0:0:0:0:
161,355,123375,1,0,0:0:0:0:
220,355,123439,2,0,P|233:315|233:269,1,75.0000028610231,10|0,0:0|0:0,0:0:0:0:
114,112,123568,2,0,P|85:151|75:193,1,75.0000028610231,10|0,0:0|0:0,0:0:0:0:
152,262,123697,5,14,0:0:0:0:
174,242,123762,1,0,0:0:0:0:
203,233,123827,1,8,0:0:0:0:
232,235,123891,1,0,0:0:0:0:
259,268,123956,1,10,0:0:0:0:
309,299,124020,1,0,0:0:0:0:
369,299,124085,1,8,0:0:0:0:
416,262,124149,1,0,0:0:0:0:
423,202,124214,1,10,0:0:0:0:
400,146,124278,1,0,0:0:0:0:
347,116,124343,1,8,0:0:0:0:
287,120,124407,1,0,0:0:0:0:
249,167,124472,2,0,L|301:226,3,75.0000028610231,10|0|8|0,0:0|0:0|0:0|0:0,0:0:0:0:
248,330,124730,5,10,0:0:0:0:
183,366,124794,1,0,0:0:0:0:
116,330,124859,1,8,0:0:0:0:
105,256,124923,1,0,0:0:0:0:
157,201,124988,1,10,0:0:0:0:
231,202,125052,1,0,0:0:0:0:
254,236,125117,2,0,P|214:261|185:297,1,75.0000028610231,8|0,0:0|0:0,0:0:0:0:
353,309,125246,5,14,0:0:0:0:
383,257,125310,1,0,0:0:0:0:
369,198,125375,1,8,0:0:0:0:
318,166,125439,1,0,0:0:0:0:
258,174,125504,1,10,0:0:0:0:
228,225,125568,1,0,0:0:0:0:
236,284,125633,1,8,0:0:0:0:
283,319,125697,1,0,0:0:0:0:
343,318,125762,2,0,L|349:222,3,75.0000028610231,10|0|8|0,0:0|0:0|0:0|0:0,0:0:0:0:
464,161,126020,5,10,0:0:0:0:
439,122,126085,1,0,0:0:0:0:
397,106,126149,1,8,0:0:0:0:
353,117,126214,1,0,0:0:0:0:
307,155,126278,1,10,0:0:0:0:
256,188,126343,1,0,0:0:0:0:
196,181,126407,1,8,0:0:0:0:
151,140,126472,1,0,0:0:0:0:
145,80,126536,2,0,L|197:19,1,75.0000028610231,10|0,0:0|0:0,0:0:0:0:
274,167,126665,2,0,L|251:268,1,75.0000028610231,10|0,0:0|0:0,0:0:0:0:
82,313,126794,5,14,0:0:0:0:
82,305,126859,1,0,0:0:0:0:
84,297,126923,1,8,0:0:0:0:
87,290,126988,1,0,0:0:0:0:
90,283,127052,1,12,0:2:0:0:
94,276,127117,1,0,0:0:0:0:
98,270,127181,1,8,0:0:0:0:
103,264,127246,1,0,0:0:0:0:
108,258,127310,1,12,0:2:0:0:
113,253,127375,1,0,0:0:0:0:
119,248,127439,1,8,0:0:0:0:
125,244,127504,1,0,0:0:0:0:
163,231,127568,5,8,0:0:0:0:
209,171,127633,1,8,0:0:0:0:
196,97,127697,1,8,0:0:0:0:
130,59,127762,1,8,0:0:0:0:
94,62,127827,6,0,P|102:102|137:135,3,75.0000028610231
240,166,128085,2,0,P|239:198|222:250,3,50
102,310,128343,6,0,P|198:297|339:283,1,225.000008583069,4|0,0:0|0:0,0:0:0:0:
450,220,128601,5,12,0:2:0:0:
434,147,128665,1,0,0:0:0:0:
368,108,128730,1,8,0:0:0:0:
298,133,128794,1,0,0:0:0:0:
275,205,128859,1,12,0:2:0:0:
312,269,128923,1,0,0:0:0:0:
280,337,128988,1,8,0:0:0:0:
205,343,129052,1,0,0:0:0:0:
158,283,129117,1,10,0:3:0:0:
189,215,129181,1,0,0:0:0:0:
263,202,129246,1,8,0:0:0:0:
316,253,129310,1,0,0:0:0:0:
304,327,129375,2,0,L|211:298,3,75.0000028610231,12|0|8|0,0:2|0:0|0:0|0:0,0:0:0:0:
422,285,129633,5,12,0:2:0:0:
423,277,129697,1,0,0:0:0:0:
420,269,129762,1,8,0:0:0:0:
416,262,129827,1,0,0:0:0:0:
376,217,129891,5,12,0:0:0:0:
349,162,129956,1,0,0:0:0:0:
351,102,130020,1,8,0:0:0:0:
375,46,130085,1,0,0:0:0:0:
406,20,130149,2,0,P|416:51|407:105,3,75.0000028610231,12|0|8|0,0:2|0:0|0:0|0:0,0:0:0:0:
250,113,130407,5,12,0:2:0:0:
212,160,130472,1,0,0:0:0:0:
226,217,130536,1,8,0:0:0:0:
280,242,130601,1,0,0:0:0:0:
335,219,130665,1,10,0:0:0:0:
388,246,130730,1,0,0:0:0:0:
403,303,130794,1,8,0:0:0:0:
373,355,130859,1,0,0:0:0:0:
315,369,130923,1,10,0:0:0:0:
259,344,130988,1,0,0:0:0:0:
238,288,131052,1,8,0:0:0:0:
257,230,131117,1,0,0:0:0:0:
314,213,131181,2,0,L|335:293,3,75.0000028610231,12|0|8|0,0:2|0:0|0:0|0:0,0:0:0:0:
412,127,131439,5,12,0:0:0:0:
407,121,131504,1,0,0:0:0:0:
400,116,131568,1,8,0:0:0:0:
393,111,131633,1,0,0:0:0:0:
386,107,131697,1,12,0:2:0:0:
379,103,131762,1,0,0:0:0:0:
372,99,131827,1,8,0:0:0:0:
365,96,131891,1,0,0:0:0:0:
357,93,131956,1,12,0:2:0:0:
349,91,132020,1,0,0:0:0:0:
341,90,132085,1,8,0:0:0:0:
341,90,132149,1,0,0:0:0:0:
303,125,132214,5,12,0:2:0:0:
267,172,132278,1,0,0:0:0:0:
206,176,132343,1,8,0:0:0:0:
162,135,132407,1,0,0:0:0:0:
171,75,132472,1,12,0:0:0:0:
219,40,132536,1,0,0:0:0:0:
278,52,132601,1,8,0:0:0:0:
311,101,132665,1,0,0:0:0:0:
294,159,132730,2,0,L|227:119,3,75.0000028610231,10|0|8|0,0:0|0:0|0:0|0:0,0:0:0:0:
386,243,132988,5,12,0:0:0:0:
368,283,133052,1,0,0:0:0:0:
324,295,133117,1,8,0:0:0:0:
284,273,133181,1,0,0:0:0:0:
270,229,133246,1,12,0:2:0:0:
255,186,133310,1,0,0:0:0:0:
214,165,133375,1,8,0:0:0:0:
170,172,133439,1,0,0:0:0:0:
141,207,133504,1,12,0:0:0:0:
134,251,133568,1,0,0:0:0:0:
154,291,133633,1,8,0:0:0:0:
192,313,133697,1,0,0:0:0:0:
221,312,133762,5,12,0:0:0:0:
215,251,133827,1,0,0:0:0:0:
174,207,133891,1,8,0:0:0:0:
113,200,133956,1,0,0:0:0:0:
64,230,134020,1,12,0:2:0:0:
50,288,134085,1,0,0:0:0:0:
63,345,134149,1,8,0:0:0:0:
112,379,134214,1,0,0:0:0:0:
171,378,134278,2,0,P|171:336|166:290,3,75.0000028610231,12|0|8|0,0:0|0:0|0:0|0:0,0:0:0:0:
78,189,134536,5,12,0:0:0:0:
89,179,134601,1,0,0:0:0:0:
103,174,134665,1,0,0:0:0:0:
118,173,134730,1,0,0:0:0:0:
132,175,134794,1,0,0:0:0:0:
146,179,134859,1,0,0:0:0:0:
161,204,134923,5,8,0:0:0:0:
183,224,134988,1,0,0:0:0:0:
211,231,135052,1,0,0:0:0:0:
241,229,135117,1,0,0:0:0:0:
267,215,135181,1,0,0:0:0:0:
282,189,135246,1,0,0:0:0:0:
306,151,135310,5,8,0:0:0:0:
334,186,135375,1,0,0:0:0:0:
339,230,135439,1,0,0:0:0:0:
318,270,135504,1,0,0:0:0:0:
280,293,135568,1,0,0:0:0:0:
234,290,135633,1,0,0:0:0:0:
199,261,135697,2,0,P|193:223|205:182,4,75.0000028610231,8|0|0|0|8,0:0|0:0|0:0|0:0|0:0,0:0:0:0:
296,71,136085,5,4,0:3:0:0:
304,84,136472,5,4,0:2:0:0:
313,101,136859,6,0,P|223:133|123:176,1,187.500007152558
125,198,137246,1,8,0:0:0:0:
210,315,137633,5,12,0:0:0:0:
268,360,137697,1,0,0:0:0:0:
342,346,137762,1,8,0:0:0:0:
385,284,137827,1,0,0:0:0:0:
364,212,137891,1,8,0:2:0:0:
303,166,137956,1,0,0:0:0:0:
229,177,138020,1,10,0:2:0:0:
172,127,138085,1,0,0:0:0:0:
177,52,138149,1,8,0:0:0:0:
233,2,138214,1,0,0:0:0:0:
305,19,138278,1,8,0:0:0:0:
338,86,138343,1,0,0:0:0:0:
316,157,138407,1,8,0:0:0:0:
247,189,138472,1,0,0:0:0:0:
209,253,138536,1,8,0:0:0:0:
234,324,138601,1,0,0:0:0:0:
298,361,138665,2,0,L|331:280,1,75.0000028610231,8|0,0:0|0:0,0:0:0:0:
467,165,138794,5,10,0:2:0:0:
450,122,138859,1,0,0:0:0:0:
425,104,138923,1,8,0:0:0:0:
403,98,138988,1,0,0:0:0:0:
388,100,139052,2,0,P|396:125|414:151,1,50,8|0,0:0|0:0,0:0:0:0:
434,296,139181,5,12,0:0:0:0:
388,346,139246,1,0,0:0:0:0:
321,340,139310,1,8,0:0:0:0:
288,280,139375,1,0,0:0:0:0:
315,218,139439,1,8,0:0:0:0:
303,151,139504,1,0,0:0:0:0:
248,111,139568,1,8,0:0:0:0:
182,129,139633,1,0,0:0:0:0:
157,191,139697,1,8,0:0:0:0:
173,256,139762,1,0,0:0:0:0:
232,288,139827,1,8,0:0:0:0:
298,277,139891,1,0,0:0:0:0:
318,249,139956,2,0,P|306:214|278:182,5,75.0000028610231,8|0|8|0|8|0,0:0|0:0|0:0|0:0|0:0|0:0,0:0:0:0:
174,313,140343,2,0,P|176:360|211:409,5,75.0000028610231,8|0|8|0|8|0,0:0|0:0|0:0|0:0|0:0|0:0,0:0:0:0:
49,224,140730,5,12,0:0:0:0:
65,182,140794,1,0,0:0:0:0:
106,164,140859,1,8,0:0:0:0:
150,166,140923,1,0,0:0:0:0:
182,197,140988,1,8,0:0:0:0:
190,240,141052,1,0,0:0:0:0:
168,261,141117,1,12,0:2:0:0:
168,253,141181,1,0,0:0:0:0:
170,245,141246,1,8,0:0:0:0:
173,238,141310,1,0,0:0:0:0:
176,231,141375,1,8,0:0:0:0:
180,225,141439,1,0,0:0:0:0:
203,186,141504,1,12,0:0:0:0:
241,164,141568,1,0,0:0:0:0:
286,168,141633,1,8,0:0:0:0:
318,198,141697,1,0,0:0:0:0:
327,242,141762,1,8,0:0:0:0:
313,285,141827,1,0,0:0:0:0:
280,295,141891,1,12,0:2:0:0:
283,288,141956,1,0,0:0:0:0:
287,282,142020,1,8,0:0:0:0:
291,276,142085,1,0,0:0:0:0:
296,270,142149,1,8,0:0:0:0:
301,264,142214,1,0,0:0:0:0:
317,227,142278,5,8,0:0:0:0:
296,170,142343,1,8,0:0:0:0:
257,124,142407,1,8,0:0:0:0:
207,88,142472,1,8,0:0:0:0:
152,63,142536,1,8,0:0:0:0:
94,45,142601,1,8,0:0:0:0:
64,63,142665,5,0,0:0:0:0:
61,77,142730,1,0,0:0:0:0:
68,89,142794,1,0,0:0:0:0:
80,97,142859,1,0,0:0:0:0:
94,97,142923,1,0,0:0:0:0:
108,93,142988,1,0,0:0:0:0:
121,87,143052,6,0,P|114:125|99:160,5,50,8|0|0|0|0|0,0:0|0:0|0:0|0:0|0:0|0:0,0:0:0:0:
39,228,143439,5,8,0:0:0:0:
59,284,143504,1,8,0:0:0:0:
116,300,143568,1,8,0:0:0:0:
173,279,143633,1,8,0:0:0:0:
191,222,143697,1,8,0:0:0:0:
225,172,143762,1,8,0:0:0:0:
263,167,143827,6,0,B|252:235|252:235|256:239|256:239|243:323,1,150,4|0,0:0|0:0,0:0:0:0:
119,205,144085,5,8,0:0:0:0:
129,131,144149,1,0,0:0:0:0:
196,97,144214,1,10,0:2:0:0:
266,119,144278,1,0,0:0:0:0:
302,185,144343,1,8,0:0:0:0:
375,194,144407,1,0,0:0:0:0:
437,151,144472,1,8,0:0:0:0:
438,76,144536,1,0,0:0:0:0:
396,12,144601,1,10,0:3:0:0:
322,15,144665,1,0,0:0:0:0:
267,63,144730,1,8,0:0:0:0:
270,137,144794,1,0,0:0:0:0:
313,198,144859,2,0,L|379:136,1,75.0000028610231,8|0,0:0|0:0,0:0:0:0:
441,233,144988,5,10,0:2:0:0:
440,236,145052,1,0,0:0:0:0:
439,239,145117,1,8,0:0:0:0:
438,242,145181,1,0,0:0:0:0:
437,245,145246,1,8,0:0:0:0:
436,248,145310,1,0,0:0:0:0:
411,289,145375,5,12,0:0:0:0:
359,318,145439,1,0,0:0:0:0:
303,294,145504,1,8,0:0:0:0:
287,236,145568,1,0,0:0:0:0:
315,182,145633,1,8,0:0:0:0:
307,122,145697,1,0,0:0:0:0:
258,85,145762,1,10,0:2:0:0:
197,89,145827,1,0,0:0:0:0:
158,134,145891,2,0,L|212:202,3,75.0000028610231,8|0|8|0,0:0|0:0|0:0|0:0,0:0:0:0:
135,297,146149,5,10,0:2:0:0:
170,345,146214,1,0,0:0:0:0:
229,343,146278,1,8,0:0:0:0:
267,296,146343,1,0,0:0:0:0:
256,237,146407,1,8,0:0:0:0:
270,178,146472,1,0,0:0:0:0:
323,152,146536,1,10,0:0:0:0:
381,165,146601,1,0,0:0:0:0:
416,212,146665,1,8,0:0:0:0:
427,271,146730,1,0,0:0:0:0:
400,324,146794,1,0,0:0:0:0:
342,341,146859,1,0,0:0:0:0:
312,320,146923,5,12,0:0:0:0:
299,292,146988,1,0,0:0:0:0:
303,262,147052,1,8,0:0:0:0:
321,238,147117,1,0,0:0:0:0:
349,229,147181,1,8,0:0:0:0:
371,208,147246,1,0,0:0:0:0:
381,180,147310,1,10,0:2:0:0:
378,149,147375,1,0,0:0:0:0:
357,127,147439,2,0,L|304:193,3,75.0000028610231,8|0|8|0,0:0|0:0|0:0|0:0,0:0:0:0:
179,283,147697,5,10,0:3:0:0:
135,295,147762,1,0,0:0:0:0:
97,269,147827,1,8,0:0:0:0:
88,225,147891,1,0,0:0:0:0:
115,188,147956,1,8,0:0:0:0:
159,180,148020,1,0,0:0:0:0:
197,203,148085,1,10,0:2:0:0:
240,194,148149,1,0,0:0:0:0:
273,163,148214,1,8,0:0:0:0:
275,118,148278,1,0,0:0:0:0:
250,80,148343,1,8,0:0:0:0:
207,65,148407,1,0,0:0:0:0:
168,82,148472,5,12,0:0:0:0:
155,155,148536,1,8,0:0:0:0:
197,217,148601,1,8,0:0:0:0:
267,242,148665,1,8,0:0:0:0:
340,224,148730,1,8,0:0:0:0:
381,162,148794,1,8,0:0:0:0:
378,112,148859,2,0,P|335:120|286:160,5,75.0000028610231
424,204,149246,5,0,0:0:0:0:
426,210,149310,1,0,0:0:0:0:
426,217,149375,1,0,0:0:0:0:
422,223,149439,1,0,0:0:0:0:
416,228,149504,1,0,0:0:0:0:
409,231,149568,1,0,0:0:0:0:
402,234,149633,2,8,P|381:219|370:196,1,50
287,85,149762,6,0,B|266:103|266:103|261:138,3,50
297,222,150020,5,4,0:0:0:0:
297,227,150085,1,0,0:0:0:0:
294,231,150149,1,0,0:0:0:0:
289,233,150214,1,0,0:0:0:0:
284,234,150278,1,0,0:0:0:0:
279,232,150343,1,0,0:0:0:0:
265,225,150407,5,0,0:0:0:0:
250,222,150472,1,0,0:0:0:0:
235,226,150536,1,0,0:0:0:0:
224,236,150601,1,0,0:0:0:0:
221,250,150665,1,0,0:0:0:0:
226,264,150730,1,0,0:0:0:0:
255,283,150794,5,8,0:0:0:0:
286,267,150859,1,0,0:0:0:0:
299,235,150923,1,0,0:0:0:0:
299,199,150988,1,0,0:0:0:0:
289,165,151052,1,0,0:0:0:0:
261,142,151117,1,0,0:0:0:0:
240,125,151181,6,0,B|227:111|224:94|224:94|218:135|195:160|195:160|198:169|198:169|171:199|160:265,1,187.500007152558,2|0,0:2|0:0,0:0:0:0:
61,305,151568,5,4,0:0:0:0:
64,308,151633,1,0,0:0:0:0:
68,309,151697,1,0,0:0:0:0:
72,309,151762,1,0,0:0:0:0:
77,308,151827,1,0,0:0:0:0:
81,306,151891,1,0,0:0:0:0:
85,303,151956,1,2,0:0:0:0:
88,299,152020,1,0,0:0:0:0:
91,295,152085,1,0,0:0:0:0:
92,290,152149,1,0,0:0:0:0:
93,285,152214,1,0,0:0:0:0:
93,280,152278,1,0,0:0:0:0:
92,264,152343,5,10,0:0:0:0:
99,251,152407,1,0,0:0:0:0:
112,244,152472,1,0,0:0:0:0:
126,243,152536,1,0,0:0:0:0:
139,249,152601,1,0,0:0:0:0:
147,261,152665,1,0,0:0:0:0:
149,275,152730,2,0,P|123:292|101:282,5,50
199,156,153117,5,4,0:0:0:0:
208,152,153181,1,0,0:0:0:0:
218,152,153246,1,0,0:0:0:0:
227,154,153310,1,0,0:0:0:0:
235,159,153375,1,0,0:0:0:0:
240,167,153439,1,0,0:0:0:0:
244,186,153504,5,0,0:0:0:0:
253,203,153568,1,0,0:0:0:0:
270,212,153633,1,0,0:0:0:0:
289,214,153697,1,0,0:0:0:0:
308,208,153762,1,0,0:0:0:0:
321,193,153827,1,0,0:0:0:0:
335,167,153891,5,8,0:0:0:0:
358,185,153956,1,0,0:0:0:0:
364,213,154020,1,0,0:0:0:0:
356,242,154085,1,0,0:0:0:0:
331,258,154149,1,0,0:0:0:0:
300,256,154214,1,0,0:0:0:0:
273,241,154278,6,0,P|283:280|300:303,5,50,2|0|2|0|2|0,0:0|0:0|0:0|0:0|0:0|0:0,0:0:0:0:
356,132,154665,5,12,0:0:0:0:
291,64,154794,5,0,0:0:0:0:
267,45,154859,1,0,0:0:0:0:
237,44,154923,1,0,0:0:0:0:
213,62,154988,1,0,0:0:0:0:
208,91,155052,1,0,0:0:0:0:
220,118,155117,1,0,0:0:0:0:
224,147,155181,1,0,0:0:0:0:
211,174,155246,1,0,0:0:0:0:
185,189,155310,1,0,0:0:0:0:
154,188,155375,1,0,0:0:0:0:
127,158,155439,5,8,0:0:0:0:
157,131,155504,1,8,0:0:0:0:
196,132,155568,1,8,0:0:0:0:
230,152,155633,1,8,0:0:0:0:
241,190,155697,2,0,P|224:219|206:242,1,50
101,300,155827,5,0,0:0:0:0:
105,308,155891,1,0,0:0:0:0:
113,313,155956,1,0,0:0:0:0:
122,315,156020,1,0,0:0:0:0:
132,314,156085,1,0,0:0:0:0:
141,311,156149,1,0,0:0:0:0:
164,292,156214,5,0,0:0:0:0:
346,20,157246,5,0,0:0:0:0:
347,24,157310,1,0,0:0:0:0:
348,28,157375,1,10,0:0:0:0:
370,158,157762,6,0,B|312:199|312:199|160:147,1,200,4|0,0:0|0:0,0:0:0:0:
88,51,158149,2,0,B|67:142|67:142|69:145|69:145|41:268,1,200
164,268,158536,5,8,0:0:0:0:
165,284,158665,1,0,0:0:0:0:
305,213,158794,5,0,0:0:0:0:
275,63,158923,1,0,0:0:0:0:
158,37,159052,5,0,0:0:0:0:
141,144,159181,1,0,0:0:0:0:
237,239,159310,6,0,B|265:223|290:236|290:236|301:145|373:86,1,200,4|0,0:0|0:0,0:0:0:0:
406,182,159697,2,0,P|310:217|259:144,1,200
148,123,160085,6,0,B|129:104|123:71|123:71|104:127|127:182|127:182|112:193|112:193|136:240|99:302,1,300,8|0,0:0|0:0,0:0:0:0:
212,333,160472,5,0,0:0:0:0:
190,302,160601,1,0,0:0:0:0:
329,178,160730,1,0,0:0:0:0:
353,303,160859,6,0,B|295:283|295:283|270:251|270:251|272:245|272:245|248:211|248:211|189:192,1,200,4|0,0:0|0:0,0:0:0:0:
86,163,161246,2,0,B|66:106|101:73|101:73|135:66|176:73|216:91,1,200
174,226,161633,1,10,0:0:0:0:
248,348,161762,1,0,0:0:0:0:
332,106,161891,1,0,0:0:0:0:
353,232,162020,5,0,0:0:0:0:
270,196,162149,1,0,0:0:0:0:
191,152,162278,1,0,0:0:0:0:
108,116,162407,6,0,B|92:96|99:69|99:69|65:99|76:177|111:214,1,200,6|0,0:0|0:0,0:0:0:0:
266,49,162794,5,8,0:0:0:0:
292,135,162923,1,2,0:0:0:0:
322,219,163052,1,0,0:0:0:0:
288,313,163181,6,0,B|275:301|257:303|257:303|249:299|249:299|242:298|237:302|237:302|222:298|211:290,2,75.0000028610231
358,359,163568,2,0,P|367:381|356:363,2,75.0000028610231
377,106,163956,6,0,B|425:116|425:116|468:263,1,200,6|0,0:0|0:0,0:0:0:0:
349,251,164343,5,2,0:0:0:0:
273,202,164472,1,0,0:0:0:0:
196,153,164601,1,0,0:0:0:0:
76,119,164730,6,0,B|41:124|19:142|20:211|20:211|11:215|11:215|51:272|112:228|112:228|132:249|137:292,1,300,12|2,0:0|0:0,0:0:0:0:
137,311,165246,1,0,0:0:0:0:
221,268,165375,1,0,0:0:0:0:
313,282,165504,2,0,B|331:279|347:230|347:230|351:280|332:319|273:343,1,200,4|0,0:0|0:0,0:0:0:0:
172,186,165891,2,0,B|168:158|168:158|199:130|208:88,2,100,2|0|0,0:0|0:0|0:0,0:0:0:0:
125,282,166278,2,0,B|77:322|77:322|236:286|236:286|167:327,1,300.000011444092,14|10,0:0|0:0,0:0:0:0:
268,349,166665,5,8,0:0:0:0:
324,360,166794,5,8,0:0:0:0:
396,312,166923,5,8,0:0:0:0:
435,213,167052,6,0,B|388:180|383:127|383:127|370:117|370:117|371:69|335:42,1,200,4|0,0:0|0:0,0:0:0:0:
240,91,167439,2,0,B|172:87|151:140|169:143|128:200|67:183,1,200,2|0,0:0|0:0,0:0:0:0:
51,297,167827,2,0,B|133:350|133:350|199:271,1,200,8|0,0:0|0:0,0:0:0:0:
317,98,168214,5,2,0:0:0:0:
327,125,168343,1,0,0:0:0:0:
339,152,168472,1,0,0:0:0:0:
319,299,168601,6,0,B|264:325|264:325|205:236|110:261,1,200,4|0,0:0|0:0,0:0:0:0:
67,360,168988,5,8,0:0:0:0:
82,346,169117,1,0,0:0:0:0:
91,328,169246,1,0,0:0:0:0:
62,228,169375,5,0,0:0:0:0:
58,188,169504,1,0,0:0:0:0:
78,153,169633,1,0,0:0:0:0:
177,34,169762,5,0,0:0:0:0:
210,128,169891,1,0,0:0:0:0:
187,225,170020,1,0,0:0:0:0:
111,290,170149,5,4,0:0:0:0:
114,299,170214,1,0,0:0:0:0:
120,306,170278,1,0,0:0:0:0:
129,309,170343,1,0,0:0:0:0:
138,311,170407,1,0,0:0:0:0:
148,311,170472,1,0,0:0:0:0:
170,300,170536,5,0,0:0:0:0:
190,285,170601,1,0,0:0:0:0:
214,283,170665,1,0,0:0:0:0:
237,292,170730,1,0,0:0:0:0:
254,309,170794,1,0,0:0:0:0:
259,333,170859,1,0,0:0:0:0:
253,354,170923,6,0,B|222:330|183:334|183:334|139:232|152:112|152:112|100:128|57:105,1,375.000014305115,8|0,0:0|0:0,0:0:0:0:
42,208,171697,5,4,0:0:0:0:
48,215,171762,1,0,0:0:0:0:
57,218,171827,1,0,0:0:0:0:
66,219,171891,1,0,0:0:0:0:
76,219,171956,1,0,0:0:0:0:
85,215,172020,1,0,0:0:0:0:
107,194,172085,5,2,0:0:0:0:
132,178,172149,1,0,0:0:0:0:
162,177,172214,1,0,0:0:0:0:
189,187,172278,1,0,0:0:0:0:
208,210,172343,1,0,0:0:0:0:
212,239,172407,1,0,0:0:0:0:
195,264,172472,2,0,B|160:236|160:236|185:200|180:157|180:157|246:111|215:43|160:19|108:50,1,300,8|2,0:0|0:2,0:0:0:0:
66,151,173246,5,4,0:0:0:0:
69,160,173310,1,0,0:0:0:0:
72,169,173375,1,0,0:0:0:0:
75,178,173439,1,0,0:0:0:0:
77,187,173504,1,0,0:0:0:0:
79,196,173568,1,0,0:0:0:0:
80,205,173633,2,8,B|56:213|56:213|30:241,5,50
219,225,174020,5,4,0:0:0:0:
217,235,174085,1,0,0:0:0:0:
216,244,174149,1,0,0:0:0:0:
215,254,174214,1,0,0:0:0:0:
213,263,174278,1,0,0:0:0:0:
211,272,174343,1,0,0:0:0:0:
208,281,174407,2,8,B|233:294|233:294|249:326,5,50
57,310,174794,5,2,0:0:0:0:
39,285,174859,1,0,0:0:0:0:
35,255,174923,2,8,P|49:231|89:200,3,50
240,151,175181,5,2,0:0:0:0:
249,122,175246,1,0,0:0:0:0:
241,93,175310,2,8,P|215:69|187:57,3,50
146,226,175568,5,0,0:0:0:0:
183,273,175633,1,0,0:0:0:0:
242,279,175697,1,0,0:0:0:0:
293,247,175762,1,0,0:0:0:0:
307,188,175827,1,0,0:0:0:0:
275,137,175891,1,0,0:0:0:0:
240,116,175956,5,0,0:0:0:0:
236,155,176020,1,0,0:0:0:0:
255,190,176085,1,0,0:0:0:0:
293,200,176149,1,0,0:0:0:0:
332,193,176214,1,0,0:0:0:0:
355,160,176278,1,0,0:0:0:0:
350,145,176343,5,4,0:0:0:0:
346,130,176407,1,0,0:0:0:0:
341,115,176472,1,0,0:0:0:0:
338,100,176536,1,0,0:0:0:0:
334,85,176601,1,0,0:0:0:0:
330,70,176665,1,0,0:0:0:0:
325,55,176730,2,0,L|274:94,5,50,2|0|0|0|0|0,0:0|0:0|0:0|0:0|0:0|0:0,0:0:0:0:
443,115,177117,5,10,0:0:0:0:
443,124,177181,1,0,0:0:0:0:
441,133,177246,1,0,0:0:0:0:
435,141,177310,1,0,0:0:0:0:
427,147,177375,1,0,0:0:0:0:
417,148,177439,1,0,0:0:0:0:
396,146,177504,5,2,0:0:0:0:
377,152,177568,1,0,0:0:0:0:
361,164,177633,1,0,0:0:0:0:
352,181,177697,1,0,0:0:0:0:
350,201,177762,1,0,0:0:0:0:
358,219,177827,1,0,0:0:0:0:
370,227,177891,5,4,0:0:0:0:
384,253,177956,1,0,0:0:0:0:
383,282,178020,1,0,0:0:0:0:
366,307,178085,1,0,0:0:0:0:
336,313,178149,1,0,0:0:0:0:
308,300,178214,1,0,0:0:0:0:
291,275,178278,1,2,0:0:0:0:
262,264,178343,1,0,0:0:0:0:
232,265,178407,1,0,0:0:0:0:
207,282,178472,1,0,0:0:0:0:
195,309,178536,1,0,0:0:0:0:
198,338,178601,1,0,0:0:0:0:
224,324,178665,5,10,0:0:0:0:
230,284,178730,1,0,0:0:0:0:
213,247,178794,1,0,0:0:0:0:
179,224,178859,1,0,0:0:0:0:
139,224,178923,1,0,0:0:0:0:
109,251,178988,1,0,0:0:0:0:
104,265,179052,5,2,0:0:0:0:
104,275,179117,1,0,0:0:0:0:
104,284,179181,1,0,0:0:0:0:
105,294,179246,1,0,0:0:0:0:
106,303,179310,1,0,0:0:0:0:
107,313,179375,1,0,0:0:0:0:
121,350,179439,5,4,0:0:0:0:
158,365,179504,1,0,0:0:0:0:
197,358,179568,1,0,0:0:0:0:
219,324,179633,1,0,0:0:0:0:
215,284,179697,1,0,0:0:0:0:
188,253,179762,1,0,0:0:0:0:
148,246,179827,2,8,L|144:308,5,50
41,207,180214,5,4,0:0:0:0:
48,168,180278,1,0,0:0:0:0:
79,143,180343,1,0,0:0:0:0:
118,139,180407,1,0,0:0:0:0:
144,152,180472,1,0,0:0:0:0:
155,168,180536,1,0,0:0:0:0:
159,187,180601,2,8,P|127:192|105:184,5,50
46,64,180988,5,12,0:0:0:0:
69,32,181052,1,0,0:0:0:0:
108,26,181117,1,8,0:0:0:0:
142,45,181181,1,0,0:0:0:0:
150,84,181246,1,8,0:0:0:0:
145,123,181310,1,0,0:0:0:0:
168,155,181375,1,8,0:0:0:0:
205,166,181439,1,0,0:0:0:0:
243,153,181504,1,8,0:0:0:0:
258,116,181568,1,0,0:0:0:0:
259,75,181633,1,8,0:0:0:0:
233,44,181697,1,0,0:0:0:0:
215,54,181762,5,0,0:0:0:0:
216,74,181827,1,0,0:0:0:0:
228,89,181891,1,0,0:0:0:0:
245,98,181956,1,0,0:0:0:0:
264,100,182020,1,0,0:0:0:0:
283,97,182085,1,0,0:0:0:0:
301,90,182149,2,0,P|306:61|295:12,1,50,2|0,0:0|0:0,0:0:0:0:
411,146,182536,5,4,0:0:0:0:
413,166,182601,1,0,0:0:0:0:
414,185,182665,1,0,0:0:0:0:
415,205,182730,1,0,0:0:0:0:
416,224,182794,1,0,0:0:0:0:
417,244,182859,1,0,0:0:0:0:
391,228,182923,5,0,0:0:0:0:
363,216,182988,1,0,0:0:0:0:
333,219,183052,1,0,0:0:0:0:
306,233,183117,1,0,0:0:0:0:
292,259,183181,1,0,0:0:0:0:
293,289,183246,1,0,0:0:0:0:
317,320,183310,5,8,0:0:0:0:
342,288,183375,1,0,0:0:0:0:
341,248,183439,1,8,0:0:0:0:
320,213,183504,1,0,0:0:0:0:
285,193,183568,1,8,0:0:0:0:
265,157,183633,1,0,0:0:0:0:
263,117,183697,1,8,0:0:0:0:
283,82,183762,1,0,0:0:0:0:
319,64,183827,1,8,0:0:0:0:
358,67,183891,1,0,0:0:0:0:
388,92,183956,1,8,0:0:0:0:
404,128,184020,1,0,0:0:0:0:
401,168,184085,6,0,L|341:140,1,50,6|0,0:0|0:0,0:0:0:0:
196,24,184859,6,0,B|183:52|183:52|187:78,1,50,4|0,0:0|0:0,0:0:0:0:
316,147,185633,5,0,0:0:0:0:
330,183,185697,1,0,0:0:0:0:
329,223,185762,1,0,0:0:0:0:
308,257,185827,1,0,0:0:0:0:
272,273,185891,1,0,0:0:0:0:
231,271,185956,1,0,0:0:0:0:
209,250,186020,5,0,0:0:0:0:
231,229,186085,1,0,0:0:0:0:
260,228,186149,1,0,0:0:0:0:
286,242,186214,1,0,0:0:0:0:
299,268,186278,1,0,0:0:0:0:
296,298,186343,1,0,0:0:0:0:
284,317,186407,6,0,P|262:309|207:299,2,75.0000028610231
406,235,186794,1,12,0:0:0:0:
418,216,187181,6,0,P|418:122|343:188,1,200,6|0,0:0|0:0,0:0:0:0:
282,264,187568,2,0,B|264:296|265:334|265:334|203:92,1,300.000011444092,2|0,0:0|0:0,0:0:0:0:
116,149,187956,2,0,B|99:172|99:172|200:232|295:225,1,200,10|0,0:0|0:0,0:0:0:0:
386,139,188343,2,0,B|388:132|414:116|414:116|388:94|377:52|377:52|363:93|335:115|335:115|354:141,1,200,2|0,0:0|0:0,0:0:0:0:
320,279,188730,6,0,B|221:227|221:227|214:228|214:228|130:185,1,200,6|0,0:0|0:0,0:0:0:0:
231,117,189117,2,0,B|207:172|225:218|225:218|186:231|140:288|141:288,1,200,2|0,0:0|0:0,0:0:0:0:
88,55,189504,5,8,0:0:0:0:
56,197,189633,1,0,0:0:0:0:
57,201,189697,1,0,0:0:0:0:
58,205,189762,1,0,0:0:0:0:
59,209,189827,1,0,0:0:0:0:
60,213,189891,6,10,B|88:204|107:209|107:209|130:227|184:232,2,100
88,318,190278,6,4,P|159:327|259:351,1,150.000005722046,4|8,0:0|0:0,0:0:0:0:
335,135,190536,1,0,0:0:0:0:
332,287,190665,5,8,0:0:0:0:
256,76,190794,1,0,0:0:0:0:
155,257,190923,5,8,0:0:0:0:
202,21,191052,1,0,0:0:0:0:
126,264,191181,5,8,0:0:0:0:
46,53,191310,1,0,0:0:0:0:
278,79,191439,5,8,0:0:0:0:
232,296,191568,1,0,0:0:0:0:
259,95,191697,1,8,0:0:0:0:
175,150,191827,6,0,B|183:182|183:182|308:238,1,150.000005722046,4|8,0:0|0:0,0:0:0:0:
371,97,192085,1,8,0:0:0:0:
263,23,192214,5,8,0:0:0:0:
231,62,192278,1,8,0:0:0:0:
238,106,192343,1,8,0:0:0:0:
273,133,192407,1,8,0:0:0:0:
309,160,192472,1,8,0:0:0:0:
316,204,192536,1,8,0:0:0:0:
305,232,192601,5,0,0:0:0:0:
283,211,192665,1,0,0:0:0:0:
277,181,192730,1,0,0:0:0:0:
289,153,192794,1,0,0:0:0:0:
313,135,192859,1,0,0:0:0:0:
334,138,192923,1,0,0:0:0:0:
348,148,192988,2,8,P|332:176|296:191,5,50
227,300,193375,6,0,P|186:226|139:158,1,150.000005722046,4|8,0:0|0:0,0:0:0:0:
133,167,193633,1,0,0:0:0:0:
140,344,193762,5,10,0:0:0:0:
228,99,193891,1,0,0:0:0:0:
341,293,194020,1,8,0:0:0:0:
297,22,194149,1,0,0:0:0:0:
245,251,194278,1,8,0:0:0:0:
432,115,194407,1,0,0:0:0:0:
402,243,194536,6,0,B|306:201|306:201|304:196|304:196|178:135,1,225.000008583069,8|0,0:0|0:0,0:0:0:0:
169,142,194794,2,0,B|148:132|148:132|140:152|140:152|159:161|159:161|170:142,1,75.0000028610231,8|0,0:0|0:0,0:0:0:0:
282,40,194923,6,0,B|330:101|330:101|317:175,1,150.000005722046,4|8,0:0|0:0,0:0:0:0:
181,280,195181,1,0,0:0:0:0:
181,280,195246,1,0,0:0:0:0:
181,280,195310,1,10,0:0:0:0:
121,44,195439,1,0,0:0:0:0:
296,194,195568,1,8,0:0:0:0:
59,178,195697,5,0,0:0:0:0:
270,43,195827,1,8,0:0:0:0:
196,285,195956,1,0,0:0:0:0:
122,27,196085,1,8,0:0:0:0:
171,119,196214,2,0,B|135:137|135:137|73:110|15:115,1,150.000005722046,0|8,0:0|0:0,0:0:0:0:
30,260,196472,6,0,P|112:284|107:235,1,150.000005722046,4|8,0:0|0:0,0:0:0:0:
77,81,196730,1,0,0:0:0:0:
77,81,196794,1,0,0:0:0:0:
77,81,196859,1,10,0:0:0:0:
216,261,196988,1,0,0:0:0:0:
256,12,197117,1,8,0:0:0:0:
126,197,197246,5,0,0:0:0:0:
320,42,197375,1,8,0:0:0:0:
308,286,197504,1,0,0:0:0:0:
200,75,197633,1,8,0:0:0:0:
162,290,197762,1,0,0:0:0:0:
396,132,197891,1,8,0:0:0:0:
258,122,198020,5,12,0:0:0:0:
246,150,198085,1,8,0:0:0:0:
256,177,198149,1,8,0:0:0:0:
282,192,198214,1,8,0:0:0:0:
296,217,198278,1,8,0:0:0:0:
296,247,198343,1,8,0:0:0:0:
276,278,198407,5,4,0:2:0:0:
262,250,198472,1,0,0:0:0:0:
271,221,198536,1,0,0:0:0:0:
297,206,198601,1,0,0:0:0:0:
326,206,198665,1,0,0:0:0:0:
351,222,198730,1,0,0:0:0:0:
370,261,198794,5,2,0:0:0:0:
413,274,198859,1,0,0:0:0:0:
453,254,198923,1,0,0:0:0:0:
468,211,198988,1,0,0:0:0:0:
448,170,199052,1,0,0:0:0:0:
407,149,199117,1,0,0:0:0:0:
351,171,199181,5,2,0:0:0:0:
293,151,199246,1,0,0:0:0:0:
272,95,199310,1,0,0:0:0:0:
292,38,199375,1,0,0:0:0:0:
346,13,199439,1,0,0:0:0:0:
404,29,199504,1,0,0:0:0:0:
433,89,199568,6,0,B|362:101|362:101|356:105|356:105|257:124,1,150.000005722046,4|0,0:0|0:0,0:0:0:0:
212,294,199956,1,0,0:0:0:0:
296,223,200085,2,0,B|279:200|279:200|204:182,1,75.0000028610231
121,214,200343,6,0,B|199:171|211:106|211:106|227:101|227:101|242:36|277:3|277:3|291:50|368:54|368:133|344:185|277:157,1,450.000017166138,8|0,0:0|0:0,0:0:0:0:
264,209,200859,2,0,P|286:238|322:244,1,75.0000028610231
295,83,201117,6,0,P|264:61|227:56,1,75.0000028610231,4|0,0:0|0:0,0:0:0:0:
132,91,201375,2,0,B|167:135|150:200|150:200|169:217|169:217|114:292|156:371|247:390|311:245|196:226,1,450.000017166138
323,271,201891,2,0,L|359:198,1,75.0000028610231,8|0,0:0|0:0,0:0:0:0:
247,44,202149,5,0,0:0:0:0:
165,251,202278,1,0,0:0:0:0:
100,39,202407,1,0,0:0:0:0:
285,154,202536,1,0,0:0:0:0:
76,146,202665,5,4,0:0:0:0:
66,345,202794,1,0,0:0:0:0:
66,345,202859,1,0,0:0:0:0:
66,345,202923,2,0,L|165:314,1,75.0000028610231
270,354,203181,2,0,P|272:287|252:234,1,100
125,152,203439,2,0,P|158:99|255:82,1,150.000005722046,8|0,0:0|0:0,0:0:0:0:
342,138,203697,2,0,B|340:193|340:193|344:197|344:197|344:247,1,100
234,318,203956,2,0,B|206:333|195:355|195:355|193:323|215:312,1,100
130,158,204214,6,0,L|242:139,1,100,12|0,0:0|0:0,0:0:0:0:
321,28,204472,5,0,0:0:0:0:
363,245,204601,1,2,0:0:0:0:
235,128,204730,5,0,0:0:0:0:
236,308,204859,1,0,0:0:0:0:
152,209,204988,5,12,0:0:0:0:
218,164,205117,1,0,0:0:0:0:
274,183,205246,1,0,0:0:0:0:
297,215,205375,2,0,P|296:245|285:273,2,50
207,344,205633,5,0,0:0:0:0:
161,230,205762,6,0,B|144:251|121:269|82:234|50:254|50:254|39:203|43:108|98:67|171:36|235:54,1,400,4|0,0:0|0:0,0:0:0:0:
207,79,206407,1,0,0:0:0:0:
228,191,206536,6,0,B|249:206|249:206|333:166,1,100,8|0,0:0|0:0,0:0:0:0:
426,95,206794,2,0,B|406:67|406:67|365:69|334:50,1,100
223,13,207052,2,0,B|236:77|236:77|239:80|239:80|260:182,1,150
260,198,207310,6,0,B|218:243|81:292|36:191|36:191|60:116|177:147,1,400,4|0,0:0|0:0,0:0:0:0:
258,44,207956,1,0,0:0:0:0:
258,44,208020,1,0,0:0:0:0:
258,44,208085,2,0,L|293:151,1,100,8|0,0:0|0:0,0:0:0:0:
155,303,208343,2,0,L|156:187,1,100
326,51,208601,2,0,L|310:180,1,100
243,278,208859,5,12,0:0:0:0:
216,248,208988,1,0,0:0:0:0:
180,229,209117,1,0,0:0:0:0:
137,241,209246,5,0,0:0:0:0:
78,226,209375,1,0,0:0:0:0:
56,169,209504,1,0,0:0:0:0:
80,114,209633,2,0,B|129:115|129:115|187:142,2,100,8|0|0,0:0|0:0|0:0,0:0:0:0:
138,276,210020,2,0,B|163:298|163:298|243:251,1,100
238,242,210278,1,0,0:0:0:0:
333,56,210407,5,8,0:0:0:0:
362,307,210536,1,0,0:0:0:0:
261,26,210665,5,8,0:0:0:0:
217,326,210794,1,0,0:0:0:0:
132,47,210923,5,8,0:0:0:0:
200,301,211052,1,0,0:0:0:0:
290,188,211181,5,0,0:0:0:0:
266,169,211246,1,0,0:0:0:0:
237,160,211310,1,0,0:0:0:0:
207,166,211375,1,0,0:0:0:0:
192,181,211439,5,0,0:0:0:0:
176,194,211504,1,0,0:0:0:0:
156,199,211568,1,0,0:0:0:0:
136,194,211633,1,0,0:0:0:0:
119,182,211697,2,0,B|147:114|147:114|146:108|146:108|175:37,1,150,8|0,0:0|0:0,0:0:0:0:
338,24,211956,5,12,0:0:0:0:
370,46,212020,1,0,0:0:0:0:
378,85,212085,1,8,0:0:0:0:
362,121,212149,1,0,0:0:0:0:
325,138,212214,1,8,0:0:0:0:
286,129,212278,1,0,0:0:0:0:
259,98,212343,1,8,0:0:0:0:
235,65,212407,1,0,0:0:0:0:
194,60,212472,1,8,0:0:0:0:
159,79,212536,1,0,0:0:0:0:
145,117,212601,1,8,0:0:0:0:
155,155,212665,1,0,0:0:0:0:
184,181,212730,2,0,L|246:126,3,75.0000028610231,8|0|8|0,0:0|0:0|0:0|0:0,0:0:0:0:
347,227,212988,5,8,0:0:0:0:
365,283,213052,1,0,0:0:0:0:
333,334,213117,1,8,0:0:0:0:
273,338,213181,1,0,0:0:0:0:
235,290,213246,1,8,0:0:0:0:
247,231,213310,1,0,0:0:0:0:
304,211,213375,1,8,0:0:0:0:
361,227,213439,1,0,0:0:0:0:
376,285,213504,6,0,L|301:306,3,75.0000028610231,12|0|8|0,0:0|0:0|0:0|0:0,0:0:0:0:
166,237,213762,5,8,0:0:0:0:
190,198,213827,1,0,0:0:0:0:
233,188,213891,1,8,0:0:0:0:
271,211,213956,1,0,0:0:0:0:
299,245,214020,1,8,0:0:0:0:
344,245,214085,1,0,0:0:0:0:
378,216,214149,1,8,0:0:0:0:
384,171,214214,1,0,0:0:0:0:
359,133,214278,1,8,0:0:0:0:
315,118,214343,1,0,0:0:0:0:
276,140,214407,1,8,0:0:0:0:
256,181,214472,1,0,0:0:0:0:
261,225,214536,1,8,0:0:0:0:
244,267,214601,1,0,0:0:0:0:
202,283,214665,1,8,0:0:0:0:
157,272,214730,1,0,0:0:0:0:
134,233,214794,2,0,L|190:162,3,75.0000028610231,8|0|8|0,0:0|0:0|0:0|0:0,0:0:0:0:
86,76,215052,5,12,0:0:0:0:
126,30,215117,1,0,0:0:0:0:
185,26,215181,1,8,0:0:0:0:
230,65,215246,1,0,0:0:0:0:
234,124,215310,1,8,0:0:0:0:
200,174,215375,1,0,0:0:0:0:
210,232,215439,1,8,0:0:0:0:
263,260,215504,1,0,0:0:0:0:
320,245,215568,1,8,0:0:0:0:
344,189,215633,1,0,0:0:0:0:
338,129,215697,1,8,0:0:0:0:
283,103,215762,1,0,0:0:0:0:
238,112,215827,2,0,P|250:147|276:181,3,75.0000028610231,8|0|8|0,0:0|0:0|0:0|0:0,0:0:0:0:
159,227,216085,2,0,P|154:273|141:306,3,75.0000028610231,8|0|8|0,0:0|0:0|0:0|0:0,0:0:0:0:
43,157,216343,2,0,P|49:116|77:71,3,75.0000028610231,8|0|8|0,0:0|0:0|0:0|0:0,0:0:0:0:
17,274,216601,5,12,0:0:0:0:
36,296,216665,1,0,0:0:0:0:
65,303,216730,1,8,0:0:0:0:
94,296,216794,1,0,0:0:0:0:
113,273,216859,1,8,0:0:0:0:
125,245,216923,5,0,0:0:0:0:
152,232,216988,1,12,0:2:0:0:
181,234,217052,1,0,0:0:0:0:
206,250,217117,1,8,0:0:0:0:
217,277,217181,1,0,0:0:0:0:
212,306,217246,1,8,0:0:0:0:
192,328,217310,1,0,0:0:0:0:
166,344,217375,5,12,0:0:0:0:
179,301,217439,1,0,0:0:0:0:
217,277,217504,1,8,0:0:0:0:
261,283,217568,1,0,0:0:0:0:
292,315,217633,1,8,0:0:0:0:
336,321,217697,1,0,0:0:0:0:
376,300,217762,1,8,0:0:0:0:
393,258,217827,1,0,0:0:0:0:
386,213,217891,6,0,P|315:161|237:102,1,150,8|0,0:0|0:0,0:0:0:0:
91,90,218149,5,4,0:0:0:0:
73,147,218214,1,0,0:0:0:0:
107,195,218278,1,0,0:0:0:0:
166,206,218343,1,0,0:0:0:0:
211,167,218407,1,8,0:0:0:0:
223,107,218472,1,0,0:0:0:0:
275,79,218536,1,8,0:0:0:0:
333,94,218601,1,0,0:0:0:0:
366,142,218665,1,8,0:0:0:0:
360,202,218730,1,0,0:0:0:0:
320,246,218794,1,8,0:0:0:0:
259,240,218859,1,0,0:0:0:0:
214,200,218923,1,8,0:0:0:0:
190,144,218988,1,0,0:0:0:0:
143,107,219052,1,8,0:0:0:0:
91,103,219117,1,0,0:0:0:0:
45,141,219181,1,8,0:0:0:0:
39,201,219246,1,0,0:0:0:0:
69,252,219310,1,8,0:0:0:0:
126,271,219375,1,0,0:0:0:0:
183,254,219439,2,0,L|150:176,3,75.0000028610231,8|0|8|0,0:0|0:0|0:0|0:0,0:0:0:0:
190,59,219697,5,12,0:0:0:0:
262,39,219762,1,0,0:0:0:0:
326,79,219827,1,8,0:0:0:0:
338,152,219891,1,0,0:0:0:0:
300,217,219956,1,10,0:0:0:0:
227,235,220020,1,0,0:0:0:0:
166,189,220085,1,8,0:0:0:0:
146,117,220149,1,0,0:0:0:0:
165,70,220214,2,0,L|212:142,3,75.0000028610231,12|0|8|0,0:2|0:0|0:0|0:0,0:0:0:0:
43,108,220472,5,12,0:0:0:0:
30,188,220536,1,0,0:0:0:0:
74,258,220601,1,8,0:0:0:0:
152,281,220665,1,0,0:0:0:0:
229,252,220730,1,10,0:0:0:0:
254,174,220794,1,0,0:0:0:0:
318,121,220859,1,8,0:0:0:0:
399,129,220923,1,0,0:0:0:0:
459,185,220988,1,8,0:0:0:0:
467,266,221052,1,0,0:0:0:0:
427,339,221117,1,8,0:0:0:0:
347,358,221181,1,0,0:0:0:0:
314,344,221246,5,12,0:0:0:0:
300,317,221310,1,0,0:0:0:0:
300,286,221375,2,0,P|316:268|347:248,1,50,8|0,0:0|0:0,0:0:0:0:
422,186,221504,5,10,0:2:0:0:
415,146,221568,1,0,0:0:0:0:
392,112,221633,2,0,P|363:98|316:98,1,50,8|0,0:0|0:0,0:0:0:0:
210,22,221762,5,10,0:0:0:0:
177,60,221827,1,0,0:0:0:0:
175,109,221891,2,0,P|205:132|234:144,1,50,8|0,0:0|0:0,0:0:0:0:
334,136,222020,5,10,0:0:0:0:
340,165,222085,1,0,0:0:0:0:
350,193,222149,2,0,P|324:211|300:236,1,50,8|0,0:0|0:0,0:0:0:0:
182,209,222278,5,10,0:0:0:0:
174,238,222343,1,0,0:0:0:0:
167,266,222407,2,0,P|196:279|233:305,1,50,8|0,0:0|0:0,0:0:0:0:
323,317,222536,2,0,P|316:351|306:373,3,50,12|0|8|0,0:2|0:0|0:0|0:0,0:0:0:0:
417,157,222794,5,12,0:0:0:0:
396,135,222859,1,0,0:0:0:0:
366,128,222923,1,8,0:0:0:0:
338,141,222988,1,0,0:0:0:0:
314,178,223052,1,8,0:0:0:0:
274,200,223117,1,0,0:0:0:0:
229,194,223181,1,8,0:0:0:0:
199,159,223246,1,0,0:0:0:0:
214,124,223310,2,0,P|240:156|248:191,3,75.0000028610231,8|0|8|0,0:0|0:0|0:0|0:0,0:0:0:0:
69,149,223568,5,8,0:0:0:0:
93,93,223633,1,0,0:0:0:0:
150,79,223697,1,8,0:0:0:0:
198,114,223762,1,0,0:0:0:0:
202,174,223827,1,8,0:0:0:0:
169,224,223891,1,0,0:0:0:0:
181,283,223956,1,8,0:0:0:0:
233,311,224020,1,0,0:0:0:0:
268,297,224085,5,8,0:0:0:0:
283,271,224149,1,0,0:0:0:0:
291,250,224214,1,8,0:0:0:0:
296,236,224278,1,0,0:0:0:0:
300,221,224343,6,0,B|336:180|359:52|359:52|425:84|438:204|367:246|367:246|328:136|254:78|254:78|190:111|179:207|179:207|306:240|387:359,1,1025,12|0,0:0|0:0,0:0:0:0:
469,309,227053,6,0,B|472:267|472:267|436:230,1,75.0000028610231
453,162,227325,2,0,B|427:165|427:165|388:190,1,50
314,117,227598,6,0,B|221:194|241:319|241:319|212:260|178:248|178:248|100:208|69:240|41:303|87:344|166:341|186:316|160:144|160:144|156:112,1,728.499988883972,4|0,0:0|0:0,0:0:0:0:
168,63,229780,6,0,P|252:137|356:205,1,224.999993133545,4|0,0:0|0:0,0:0:0:0:
364,237,230871,6,0,B|296:257|296:257|291:263|291:263|210:291,1,150,4|0,0:0|0:0,0:0:0:0:
204,306,231348,1,0,0:0:0:0:
204,306,231416,1,8,0:0:0:0:
112,206,231689,5,0,0:0:0:0:
116,191,231757,1,0,0:0:0:0:
118,176,231825,1,0,0:0:0:0:
120,161,231893,1,0,0:0:0:0:
123,146,231962,6,0,P|158:138|216:140,1,75,4|0,0:0|0:0,0:0:0:0:
213,156,232234,2,0,B|298:195|381:53|381:53|387:209|305:322,1,500,4|2,0:0|0:2,0:0:0:0:
129,237,234143,6,0,L|156:156,1,75.0000028610231,4|0,0:0|0:0,0:0:0:0:
281,90,235234,5,4,0:2:0:0:
288,108,235302,1,0,0:0:0:0:
296,126,235371,1,0,0:0:0:0:
303,144,235439,1,0,0:0:0:0:
311,162,235507,2,0,P|273:179|240:206,1,75.0000028610231
128,222,235780,5,0,0:0:0:0:
128,225,235848,1,0,0:0:0:0:
128,228,235916,1,0,0:0:0:0:
173,322,236052,1,0,0:0:0:0:
258,230,236189,1,0,0:0:0:0:
260,219,236257,1,0,0:0:0:0:
260,207,236325,6,0,B|245:182|245:182|181:162,1,75.0000028610231,4|0,0:0|0:0,0:0:0:0:
63,289,236598,1,0,0:0:0:0:
63,289,236734,2,0,B|79:217|79:217|76:212|76:212|95:133,1,150.000005722046,0|0,0:0|0:2,0:0:0:0:
164,60,237143,6,0,P|196:104|184:126,1,75.0000028610231
136,198,237416,5,8,0:0:0:0:
173,262,237552,1,0,0:0:0:0:
246,277,237689,1,0,0:0:0:0:
306,232,237825,1,0,0:0:0:0:
317,157,237962,6,0,P|285:123|227:98,1,75.0000028610231,2|0,0:2|0:0,0:0:0:0:
165,29,238234,2,0,P|141:93|153:122,1,75.0000028610231
56,215,238507,6,0,B|74:217|74:217|133:268,1,75.0000028610231,4|0,0:0|0:0,0:0:0:0:
174,379,238780,2,0,B|188:372|188:372|216:295,1,75.0000028610231
298,172,239052,1,8,0:0:0:0:
306,202,239189,1,0,0:0:0:0:
435,194,239325,1,0,0:0:0:0:
393,331,239462,1,8,0:0:0:0:
302,278,239598,6,0,L|216:299,1,75.0000028610231
135,133,239871,1,12,0:2:0:0:
87,325,240007,1,0,0:0:0:0:
207,213,240143,1,0,0:0:0:0:
209,204,240280,1,0,0:0:0:0:
41,145,240416,1,10,0:3:0:0:
29,248,240552,1,0,0:0:0:0:
126,168,240689,6,0,P|163:169|204:187,1,75.0000028610231,6|0,0:2|0:0,0:0:0:0:
222,319,240962,2,0,P|259:319|310:291,1,75.0000028610231
362,210,241234,1,10,0:2:0:0:
360,189,241371,1,0,0:0:0:0:
254,53,241507,1,0,0:0:0:0:
221,152,241643,1,0,0:0:0:0:
339,84,241780,5,4,0:0:0:0:
345,87,241848,1,0,0:0:0:0:
351,91,241916,1,0,0:0:0:0:
357,94,241984,1,0,0:0:0:0:
363,97,242052,2,0,B|387:122|387:122|375:160|402:202,1,100,8|0,0:0|0:0,0:0:0:0:
248,151,242325,1,8,0:0:0:0:
223,274,242462,1,0,0:0:0:0:
311,222,242598,2,0,B|341:232|341:232|372:278,1,75.0000028610231
288,355,242871,6,0,B|239:340|239:340|234:342|234:342|159:318,1,100,12|0,0:0|0:0,0:0:0:0:
82,186,243143,2,0,B|92:148|92:148|181:116,1,100,12|0,0:2|0:0,0:0:0:0:
290,52,243416,5,0,0:0:0:0:
290,61,243484,1,0,0:0:0:0:
290,70,243552,1,0,0:0:0:0:
290,80,243621,1,0,0:0:0:0:
289,89,243689,6,8,L|181:62,1,100
51,94,243962,5,4,0:2:0:0:
53,143,244030,1,0,0:0:0:0:
89,176,244098,1,0,0:0:0:0:
138,176,244166,1,0,0:0:0:0:
162,158,244234,5,0,0:0:0:0:
190,148,244302,1,0,0:0:0:0:
219,152,244371,1,0,0:0:0:0:
243,169,244439,1,0,0:0:0:0:
251,190,244507,2,0,P|228:210|196:219,3,50
111,268,244780,5,8,0:0:0:0:
126,315,244848,1,8,0:0:0:0:
169,338,244916,1,8,0:0:0:0:
218,334,244984,1,8,0:0:0:0:
253,299,245052,1,0,0:0:0:0:
276,254,245121,1,0,0:0:0:0:
321,233,245189,1,0,0:0:0:0:
370,239,245257,1,0,0:0:0:0:
399,279,245325,1,0,0:0:0:0:
398,328,245393,1,0,0:0:0:0:
369,369,245462,1,8,0:0:0:0:
319,375,245530,1,8,0:0:0:0:
272,355,245598,1,0,0:0:0:0:
249,310,245666,1,0,0:0:0:0:
259,261,245734,1,0,0:0:0:0:
297,229,245802,1,0,0:0:0:0:
347,221,245871,2,0,L|334:290,1,50,12|0,0:2|0:0,0:0:0:0:
198,337,246143,6,0,L|180:217,1,100,4|8,0:0|0:0,0:0:0:0:
392,56,246416,2,0,L|403:177,1,100,0|8,0:0|0:0,0:0:0:0:
269,333,246689,5,0,0:0:0:0:
200,46,246825,1,8,0:0:0:0:
448,163,246962,5,0,0:0:0:0:
179,258,247098,1,8,0:0:0:0:
335,34,247234,5,0,0:0:0:0:
401,295,247371,1,8,0:0:0:0:
235,54,247507,5,0,0:0:0:0:
221,331,247644,1,8,0:0:0:0:
72,114,247780,6,0,B|81:146|81:146|157:160,1,100,4|0,0:0|0:0,0:0:0:0:
316,270,248052,2,0,B|326:235|326:235|299:173,1,100,4|8,0:0|0:0,0:0:0:0:
181,37,248325,5,4,0:2:0:0:
130,315,248462,1,8,0:0:0:0:
389,106,248598,5,0,0:0:0:0:
114,139,248734,1,8,0:0:0:0:
330,304,248871,5,0,0:0:0:0:
273,24,249007,1,8,0:0:0:0:
193,249,249143,5,0,0:0:0:0:
276,16,249280,1,8,0:0:0:0:
305,280,249416,5,0,0:0:0:0:
202,85,249552,1,8,0:0:0:0:
419,108,249689,5,0,0:0:0:0:
171,167,249825,1,8,0:0:0:0:
317,59,249962,5,8,0:0:0:0:
353,113,250052,1,8,0:0:0:0:
342,178,250143,1,8,0:0:0:0:
286,214,250234,1,0,0:0:0:0:
244,266,250325,1,0,0:0:0:0:
252,332,250416,1,0,0:0:0:0:
295,363,250507,6,0,L|338:243,1,100,4|8,0:0|0:0,0:0:0:0:
126,42,250780,2,0,L|136:165,1,100,4|8,0:0|0:0,0:0:0:0:
346,291,251052,5,0,0:0:0:0:
257,28,251189,1,8,0:0:0:0:
95,271,251325,5,0,0:0:0:0:
388,165,251462,1,8,0:0:0:0:
167,24,251598,5,0,0:0:0:0:
169,346,251734,1,8,0:0:0:0:
296,190,251871,2,0,B|273:152|273:152|206:137,1,100,4|8,0:0|0:0,0:0:0:0:
124,40,252143,5,0,0:0:0:0:
50,279,252280,1,8,0:0:0:0:
49,102,252416,5,0,0:0:0:0:
204,312,252552,1,8,0:0:0:0:
308,127,252689,5,4,0:0:0:0:
243,79,252780,1,0,0:0:0:0:
171,114,252871,1,0,0:0:0:0:
153,192,252962,1,0,0:0:0:0:
201,254,253052,1,0,0:0:0:0:
281,255,253143,1,0,0:0:0:0:
317,216,253234,5,0,0:0:0:0:
370,188,253325,1,0,0:0:0:0:
427,206,253416,1,0,0:0:0:0:
459,256,253507,1,0,0:0:0:0:
450,315,253598,1,0,0:0:0:0:
403,353,253689,1,0,0:0:0:0:
349,357,253780,6,0,L|348:278,3,50,4|0|0|0,0:2|0:0|0:0|0:0,0:0:0:0:
202,283,254052,2,0,L|189:212,3,50
326,221,254325,6,0,B|336:196|336:196|320:142,1,75.0000028610231,4|0,0:0|0:0,0:0:0:0:
164,51,254598,2,0,B|139:77|139:77|141:134,1,75.0000028610231,2|0,0:0|0:0,0:0:0:0:
32,238,254871,6,0,B|147:244|225:329|225:329|167:258|206:189|206:189|235:95|347:210|273:244|278:309|278:309|306:333|355:316|355:316|356:252|387:179|387:179|379:231|410:253,1,900.000034332277,4|2,0:0|0:0,0:0:0:0:
438,201,257052,6,0,P|259:140|86:66,1,375,4|0,0:0|0:0,0:0:0:0:
51,69,258143,6,0,B|63:139|63:139|67:143|67:143|81:222,1,150,4|0,0:2|0:0,0:0:0:0:
102,229,258621,1,0,0:0:0:0:
106,232,258689,1,8,0:0:0:0:
208,54,258962,5,0,0:0:0:0:
206,73,259030,1,0,0:0:0:0:
204,92,259098,1,0,0:0:0:0:
203,111,259166,1,0,0:0:0:0:
200,130,259234,2,0,B|213:126|213:126|238:125|276:144,1,75,4|0,0:0|0:0,0:0:0:0:
304,118,259507,6,0,B|266:186|327:250|327:250|354:207|406:222|436:242|426:305|366:345|309:325|309:325|323:398|449:376|475:302|469:252,1,620.999979153443,4|0,0:2|0:0,0:0:0:0:
418,159,261416,6,0,L|384:236,1,75.0000028610231,4|0,0:0|0:0,0:0:0:0:
183,299,262507,2,0,L|208:205,1,75.0000028610231,4|0,0:0|0:0,0:0:0:0:
331,78,262916,5,0,0:0:0:0:
333,85,262984,1,0,0:0:0:0:
335,92,263052,1,8,0:0:0:0:
197,129,263189,2,0,L|216:189,1,50
115,344,263462,5,0,0:0:0:0:
100,340,263530,1,0,0:0:0:0:
92,330,263598,2,0,B|80:225|127:113|127:113|210:170|210:170|193:232|202:302|202:302|197:233|216:171|216:171|232:181|232:181|259:137|278:176|278:176|292:175|292:175|307:245|297:307|297:307|314:246|309:175|309:175|401:116|401:116|437:229|433:328,1,1275,4|0,0:0|0:0,0:0:0:0:
