osu file format v14

[General]
AudioFilename: audio.mp3
AudioLeadIn: 0
PreviewTime: 287052
Countdown: 0
SampleSet: Drum
StackLeniency: 0
Mode: 0
LetterboxInBreaks: 0
WidescreenStoryboard: 0

[Editor]
Bookmarks: 275535,285466
DistanceSpacing: 1.16
BeatDivisor: 4
GridSize: 32
TimelineZoom: 1.85

[Metadata]
Title:Blacker Than
TitleUnicode:Blacker Than
Artist:Vale Of Pnath
ArtistUnicode:Vale Of Pnath
Creator:Blood9
Version:Greeted with Purrs of Remorse and Endless Gloom
Source:
Tags:technical death metal willowtip II 2 english
BeatmapID:2962588
BeatmapSetID:1439905

[Difficulty]
HPDrainRate:4.7
CircleSize:4.4
OverallDifficulty:9.7
ApproachRate:9.7
SliderMultiplier:2.04
SliderTickRate:1

[Events]
//Background and Video events
0,0,"BG1.png",0,0
//Break Periods
2,184284,189797
2,249252,253936
2,316402,328120
//Storyboard Layer 0 (Background)
//Storyboard Layer 1 (Fail)
//Storyboard Layer 2 (Pass)
//Storyboard Layer 3 (Foreground)
//Storyboard Layer 4 (Overlay)
//Storyboard Sound Samples

[TimingPoints]
256,292.682926829268,3,2,10,60,1,0
256,-322.58064516129,3,2,10,60,0,0
1719,-322.58064516129,3,2,2,5,0,0
2012,-322.58064516129,3,2,11,60,0,0
3475,-322.58064516129,3,2,2,5,0,0
3768,-322.58064516129,3,2,12,60,0,0
5231,-322.58064516129,3,2,2,5,0,0
5426,-322.58064516129,3,2,2,45,0,0
5524,-666.666666666667,3,2,13,45,0,0
5816,-666.666666666667,3,2,14,45,0,0
6109,-666.666666666667,3,2,15,45,0,0
6402,-307.692307692308,3,2,16,45,0,0
6695,-307.692307692308,3,2,17,45,0,0
6987,-307.692307692308,3,2,18,45,0,0
7280,-105.263157894737,3,2,19,45,0,0
7426,-105.263157894737,3,2,20,45,0,0
7573,-105.263157894737,3,2,21,45,0,0
7719,-105.263157894737,3,2,22,45,0,0
7865,-105.263157894737,3,2,20,45,0,0
8012,-105.263157894737,3,2,22,45,0,0
8158,-105.263157894737,3,2,23,45,0,0
8304,-105.263157894737,3,2,21,45,0,0
8451,-105.263157894737,3,2,22,45,0,0
8597,-105.263157894737,3,2,20,45,0,0
8743,-105.263157894737,3,2,22,45,0,0
8890,-105.263157894737,3,2,21,45,0,0
9036,-212.765957446809,3,2,24,45,0,0
9182,-105.263157894737,3,2,23,45,0,0
9329,-105.263157894737,3,2,21,45,0,0
9475,-105.263157894737,3,2,23,45,0,0
9621,-212.765957446809,3,2,25,45,0,0
9768,-105.263157894737,3,2,23,45,0,0
9914,-105.263157894737,3,2,26,45,0,0
10060,-105.263157894737,3,2,27,45,0,0
10207,-105.263157894737,3,2,25,45,0,0
10353,-105.263157894737,3,2,28,45,0,0
10499,-105.263157894737,3,2,23,45,0,0
10646,-105.263157894737,3,2,29,45,0,0
10792,-240.963855421687,3,2,30,45,0,0
10938,-240.963855421687,3,2,23,45,0,0
11085,-240.963855421687,3,2,25,45,0,0
11231,-240.963855421687,3,2,23,45,0,0
11377,-666.666666666667,3,2,31,45,0,0
11524,-333.333333333333,3,2,25,45,0,0
11670,-333.333333333333,3,2,32,45,0,0
11816,-333.333333333333,3,2,33,45,0,0
11963,-333.333333333333,3,2,31,45,0,0
12109,-333.333333333333,3,2,26,45,0,0
12256,-333.333333333333,3,2,27,45,0,0
12402,-333.333333333333,3,2,25,45,0,0
12548,-500,3,2,34,45,0,0
12841,-500,3,2,35,45,0,0
13134,-500,3,2,36,45,0,0
13426,-263.157894736842,3,2,37,45,0,0
13719,-263.157894736842,3,2,38,45,0,0
14012,-263.157894736842,3,2,39,45,0,0
14304,-222.222222222222,3,2,40,40,0,0
14451,-222.222222222222,3,2,2,40,0,0
14597,-222.222222222222,3,2,41,40,0,0
14743,-222.222222222222,3,2,41,40,0,0
14890,-222.222222222222,3,2,41,40,0,0
15036,-222.222222222222,3,2,41,40,0,0
15182,-222.222222222222,3,2,42,40,0,0
15329,-222.222222222222,3,2,2,40,0,0
15475,-222.222222222222,3,2,41,40,0,0
15621,-222.222222222222,3,2,41,40,0,0
15768,-222.222222222222,3,2,41,40,0,0
15914,-222.222222222222,3,2,41,40,0,0
16060,-222.222222222222,3,2,43,40,0,0
16207,-222.222222222222,3,2,2,40,0,0
16353,-222.222222222222,3,2,44,40,0,0
16499,-222.222222222222,3,2,44,40,0,0
16646,-222.222222222222,3,2,44,40,0,0
16792,-222.222222222222,3,2,44,40,0,0
16938,-222.222222222222,3,2,45,40,0,0
17085,-222.222222222222,3,2,2,40,0,0
17231,-222.222222222222,3,2,44,40,0,0
17377,-222.222222222222,3,2,44,40,0,0
17524,-222.222222222222,3,2,44,40,0,0
17670,-222.222222222222,3,2,44,40,0,0
17816,-487.80487804878,3,2,46,40,0,0
19134,-487.80487804878,3,2,2,60,0,0
19573,-487.80487804878,3,2,47,60,0,0
20304,-487.80487804878,3,2,2,5,0,0
20451,-487.80487804878,3,2,4,100,0,0
21036,-487.80487804878,3,2,2,5,0,0
21329,-142.857142857143,3,2,2,80,0,0
22719,-142.857142857143,3,2,2,5,0,0
22792,-142.857142857143,3,2,3,80,0,0
23011,-142.857142857143,3,2,3,5,0,0
23085,-142.857142857143,3,2,2,80,0,0
24548,-142.857142857143,3,2,3,80,0,0
24694,-142.857142857143,3,2,2,80,0,0
25719,-142.857142857143,3,2,4,80,0,0
25865,-142.857142857143,3,2,2,80,0,0
26231,-142.857142857143,3,2,2,5,0,0
26304,-142.857142857143,3,2,3,80,0,0
26450,-142.857142857143,3,2,2,80,0,0
26816,-142.857142857143,3,2,2,5,0,0
26889,-142.857142857143,3,2,2,80,0,0
27182,-142.857142857143,3,2,3,80,0,0
27475,-142.857142857143,3,2,2,80,0,0
27768,-142.857142857143,3,2,2,80,0,0
28060,-142.857142857143,3,2,4,80,0,0
28207,-142.857142857143,3,2,2,80,0,0
28353,-136.986301369863,3,2,2,80,0,0
29231,-136.986301369863,3,2,4,80,0,0
29377,-136.986301369863,3,2,2,80,0,0
29743,-136.986301369863,3,2,2,5,0,0
29816,-136.986301369863,3,2,3,80,0,0
30036,-136.986301369863,3,2,2,5,0,0
30109,-136.986301369863,3,2,2,80,0,0
30987,-136.986301369863,3,2,3,80,0,0
31133,-136.986301369863,3,2,2,80,0,0
31572,-136.986301369863,3,2,3,80,0,0
31719,-136.986301369863,3,2,2,80,0,0
31865,-129.87012987013,3,3,2,80,0,0
32158,-149.253731343284,3,3,2,80,0,0
32450,-175.438596491228,3,3,2,80,0,0
32743,-142.857142857143,3,3,3,80,0,0
32889,-142.857142857143,3,3,2,80,0,0
33328,-142.857142857143,3,3,4,80,0,0
33475,-142.857142857143,3,3,2,80,0,0
33621,-142.857142857143,3,3,2,90,0,0
34207,-142.857142857143,3,3,3,90,0,0
34426,-142.857142857143,3,3,2,90,0,0
35085,-142.857142857143,3,3,4,90,0,0
35377,-142.857142857143,3,3,2,80,0,0
37133,-142.857142857143,3,3,3,80,0,0
37207,-142.857142857143,3,3,2,80,0,0
38889,-142.857142857143,3,3,3,80,0,0
38963,-142.857142857143,3,3,2,80,0,0
39768,-142.857142857143,3,3,5,80,0,0
39841,-142.857142857143,3,3,2,80,0,0
40646,-142.857142857143,3,3,3,80,0,0
40719,-142.857142857143,3,3,2,80,0,0
41524,-142.857142857143,3,3,4,80,0,0
42402,-133.333333333333,3,3,2,80,0,0
44158,-133.333333333333,3,3,3,80,0,0
44231,-133.333333333333,3,3,2,80,0,0
45914,-125,3,3,4,80,0,0
45987,-125,3,3,2,80,0,0
46499,-125,3,3,3,80,0,0
46572,-125,3,3,2,80,0,0
46792,-125,3,3,4,80,0,0
46865,-125,3,3,2,80,0,0
47670,-125,3,3,5,80,0,0
47743,-125,3,3,2,80,0,0
48548,-142.857142857143,3,3,2,80,0,0
48841,-142.857142857143,3,3,3,80,0,0
49133,-142.857142857143,3,3,3,80,0,0
49426,-95.2380952380952,3,3,2,100,0,0
49499,-95.2380952380952,3,3,3,100,0,0
50889,-95.2380952380952,3,3,3,100,0,0
51182,-95.2380952380952,3,3,2,100,0,0
51255,-95.2380952380952,3,3,3,100,0,0
52353,-108.695652173913,3,3,3,100,0,0
52646,-121.951219512195,3,3,2,100,0,0
52719,-121.951219512195,3,3,3,100,0,0
52938,-90.9090909090909,3,3,4,100,0,0
53011,-90.9090909090909,3,3,3,100,0,0
54402,-142.857142857143,3,3,3,100,0,0
54694,-111.111111111111,3,3,3,100,0,0
54987,-142.857142857143,3,3,2,100,0,0
55060,-142.857142857143,3,3,3,100,0,0
55280,-200,3,3,2,100,0,0
55353,-200,3,3,3,100,0,0
55572,-116.279069767442,3,3,2,100,0,0
55865,-116.279069767442,3,3,2,100,0,0
56011,-116.279069767442,3,3,3,100,0,0
56158,-116.279069767442,3,3,2,100,0,0
56450,-105.263157894737,3,3,2,90,0,0
56524,-105.263157894737,3,3,3,90,0,0
57914,-105.263157894737,3,3,2,90,0,0
57987,-105.263157894737,3,3,3,90,0,0
59085,-105.263157894737,3,3,2,90,0,0
59158,-105.263157894737,3,3,3,90,0,0
59963,-105.263157894737,3,3,2,90,0,0
60036,-105.263157894737,3,3,3,90,0,0
60841,-105.263157894737,3,3,4,90,0,0
60914,-105.263157894737,3,3,3,90,0,0
61719,-105.263157894737,3,3,2,90,0,0
62597,-105.263157894737,3,3,3,90,0,0
62889,-105.263157894737,3,3,2,90,0,0
63182,-105.263157894737,3,3,4,90,0,0
63255,-105.263157894737,3,3,2,5,0,0
63475,-133.333333333333,3,3,2,100,0,0
65231,-133.333333333333,3,3,3,100,0,0
65304,-133.333333333333,3,3,2,100,0,0
66694,-133.333333333333,3,3,3,100,0,0
66768,-133.333333333333,3,3,2,100,0,0
66987,-133.333333333333,3,3,3,100,0,0
67060,-133.333333333333,3,3,2,100,0,0
68743,-133.333333333333,3,3,3,100,0,0
68816,-133.333333333333,3,3,2,100,0,0
69621,-133.333333333333,3,3,4,100,0,0
69694,-133.333333333333,3,3,2,100,0,0
69914,-133.333333333333,3,3,4,100,0,0
69987,-133.333333333333,3,3,2,100,0,0
70207,-133.333333333333,3,3,4,100,0,0
70353,-133.333333333333,3,3,2,100,0,0
70499,-153.846153846153,3,3,2,100,0,0
72255,-153.846153846153,3,3,3,100,0,0
72328,-153.846153846153,3,3,2,100,0,0
74011,-153.846153846153,3,3,3,100,0,0
74085,-153.846153846153,3,3,2,100,0,0
75768,-153.846153846153,3,3,3,100,0,0
75841,-153.846153846153,3,3,2,100,0,0
76060,-119.047619047619,3,3,2,100,0,0
76426,-119.047619047619,3,3,3,100,0,0
76646,-119.047619047619,3,3,2,100,0,0
76938,-119.047619047619,3,3,3,100,0,0
77085,-119.047619047619,3,3,2,100,0,0
77231,-119.047619047619,3,3,3,100,0,0
77304,-119.047619047619,3,3,2,5,0,0
77524,-103.092783505155,3,3,2,80,0,0
77719,-103.092783505155,3,3,2,5,0,0
77816,-103.092783505155,3,3,2,80,0,0
78182,-103.092783505155,3,3,2,5,0,0
78402,-103.092783505155,3,3,2,80,0,0
78597,-103.092783505155,3,3,2,5,0,0
78694,-103.092783505155,3,3,2,80,0,0
79060,-103.092783505155,3,3,2,5,0,0
79280,-95.2380952380952,3,3,3,80,0,0
79475,-95.2380952380952,3,3,2,5,0,0
79572,-95.2380952380952,3,3,2,80,0,0
79938,-95.2380952380952,3,3,2,5,0,0
80158,-105.263157894737,3,3,2,80,0,0
80353,-105.263157894737,3,3,2,5,0,0
80450,-105.263157894737,3,3,2,80,0,0
80816,-105.263157894737,3,3,2,5,0,0
81036,-120.481927710843,3,3,3,80,0,0
81231,-120.481927710843,3,3,2,5,0,0
81328,-120.481927710843,3,3,2,80,0,0
81694,-120.481927710843,3,3,2,5,0,0
81914,-120.481927710843,3,3,2,80,0,0
82109,-120.481927710843,3,3,2,5,0,0
82207,-120.481927710843,3,3,2,80,0,0
82572,-120.481927710843,3,3,2,5,0,0
82792,-113.636363636364,3,3,3,80,0,0
82865,-113.636363636364,3,3,2,80,0,0
83377,-113.636363636364,3,3,3,80,0,0
83670,-113.636363636364,3,3,2,80,0,0
83963,-113.636363636364,3,3,3,80,0,0
84255,-113.636363636364,3,3,2,80,0,0
84548,-100,3,3,4,80,0,0
84743,-100,3,3,2,5,0,0
84841,-100,3,3,2,80,0,0
85207,-100,3,3,2,5,0,0
85426,-100,3,3,5,80,0,0
85621,-100,3,3,2,5,0,0
85719,-100,3,3,2,80,0,0
85816,-100,3,3,2,5,0,0
85914,-100,3,3,2,80,0,0
86207,-100,3,3,3,80,0,0
86304,-90.9090909090909,3,3,2,80,0,0
86402,-90.9090909090909,3,3,2,5,0,0
86499,-90.9090909090909,3,3,2,80,0,0
86987,-90.9090909090909,3,3,2,5,0,0
87085,-90.9090909090909,3,3,3,80,0,0
87182,-108.695652173913,3,3,3,80,0,0
87377,-108.695652173913,3,3,2,5,0,0
87475,-108.695652173913,3,3,2,80,0,0
87572,-108.695652173913,3,3,2,5,0,0
87670,-108.695652173913,3,3,2,80,0,0
87865,-108.695652173913,3,3,2,5,0,0
87963,-108.695652173913,3,3,2,80,0,0
88060,-100,3,3,4,80,0,0
88255,-100,3,3,2,5,0,0
88353,-100,3,3,2,80,0,0
88719,-100,3,3,2,5,0,0
88938,-100,3,3,2,80,0,0
89133,-100,3,3,2,5,0,0
89231,-100,3,3,2,80,0,0
89597,-100,3,3,2,5,0,0
89816,-112.359550561798,3,3,3,80,0,0
89889,-112.359550561798,3,3,2,80,0,0
90548,-112.359550561798,3,3,3,80,0,0
90841,-112.359550561798,3,3,2,80,0,0
91280,-333.333333333333,3,3,4,80,0,0
91499,-333.333333333333,3,3,2,5,0,0
91572,-100,3,3,2,80,0,0
91768,-100,3,3,2,5,0,0
91865,-100,3,3,2,80,0,0
92231,-100,3,3,2,5,0,0
92450,-100,3,3,2,80,0,0
92646,-100,3,3,2,5,0,0
92743,-100,3,3,2,80,0,0
93109,-100,3,3,2,5,0,0
93328,-90.9090909090909,3,3,3,80,0,0
93524,-90.9090909090909,3,3,2,5,0,0
93621,-90.9090909090909,3,3,2,80,0,0
93987,-90.9090909090909,3,3,2,5,0,0
94207,-90.9090909090909,3,3,2,80,0,0
94402,-90.9090909090909,3,3,2,5,0,0
94499,-90.9090909090909,3,3,2,80,0,0
94597,-90.9090909090909,3,3,2,5,0,0
94694,-90.9090909090909,3,3,2,80,0,0
95085,-83.3333333333333,3,3,3,80,0,0
95280,-83.3333333333333,3,3,2,5,0,0
95377,-83.3333333333333,3,3,2,80,0,0
95743,-83.3333333333333,3,3,2,5,0,0
95963,-83.3333333333333,3,3,2,80,0,0
96158,-83.3333333333333,3,3,2,5,0,0
96255,-83.3333333333333,3,3,2,80,0,0
96621,-83.3333333333333,3,3,2,5,0,0
96841,-111.111111111111,3,3,3,80,0,0
96914,-111.111111111111,3,3,2,80,0,0
97426,-111.111111111111,3,3,3,80,0,0
97719,-111.111111111111,3,3,2,80,0,0
97792,-111.111111111111,3,3,3,80,0,0
97865,-111.111111111111,3,3,2,80,0,0
97938,-111.111111111111,3,3,3,80,0,0
98011,-111.111111111111,3,3,3,80,0,0
98304,-111.111111111111,3,3,2,80,0,0
98597,-100,3,3,4,80,0,0
98792,-100,3,3,2,5,0,0
98889,-100,3,3,2,80,0,0
99255,-100,3,3,2,5,0,0
99475,-100,3,3,2,80,0,0
99670,-100,3,3,2,5,0,0
99768,-100,3,3,2,80,0,0
100133,-100,3,3,2,5,0,0
100353,-95.2380952380952,3,3,3,80,0,0
100548,-95.2380952380952,3,3,2,5,0,0
100646,-95.2380952380952,3,3,2,80,0,0
101011,-95.2380952380952,3,3,2,5,0,0
101231,-95.2380952380952,3,3,2,80,0,0
101426,-95.2380952380952,3,3,2,5,0,0
101524,-95.2380952380952,3,3,2,80,0,0
101621,-95.2380952380952,3,3,2,5,0,0
101719,-95.2380952380952,3,3,2,80,0,0
102109,290.697674418605,3,3,2,80,1,0
102109,-123.456790123457,3,3,2,80,0,0
102981,413.793103448276,6,3,2,80,1,0
102981,-129.87012987013,6,3,4,80,0,0
103118,-129.87012987013,6,3,2,80,0,0
103808,-129.87012987013,6,3,3,80,0,0
103946,-86.9565217391304,6,3,2,80,0,0
104636,-74.0740740740741,6,3,2,80,0,0
105049,-74.0740740740741,6,3,3,80,0,0
105463,413.793103448276,7,3,2,80,1,0
105463,-95.2380952380952,7,3,2,80,0,0
105877,-95.2380952380952,7,3,4,80,0,0
106015,-95.2380952380952,7,3,2,80,0,0
107532,-65.359477124183,7,3,2,80,0,0
108084,-65.359477124183,7,3,3,85,0,0
108222,-65.359477124183,7,3,2,85,0,0
108360,-63.4920634920635,7,3,2,85,0,0
108429,-63.4920634920635,7,3,3,85,0,0
111118,-63.4920634920635,7,3,2,85,0,0
111187,-63.4920634920635,7,3,3,85,0,0
111256,413.793103448276,4,3,3,85,1,0
111256,-63.4920634920635,4,3,3,85,0,0
112912,-63.4920634920635,4,3,4,85,0,0
112980,-63.4920634920635,4,3,3,85,0,0
113601,-86.9565217391304,4,3,3,85,0,0
113739,-74.0740740740741,4,3,3,85,0,0
114153,-125,4,3,4,85,0,0
114222,-83.3333333333333,4,3,3,85,0,0
114567,-151.515151515152,4,3,4,85,0,0
114636,-101.010101010101,4,3,3,85,0,0
115394,-63.6942675159236,4,3,3,85,0,0
116222,-63.6942675159236,4,3,2,85,0,0
117049,-103.092783505155,4,3,2,85,0,0
117325,-100,4,3,2,85,0,0
117532,-100,4,3,3,85,0,0
117601,-66.6666666666667,4,3,2,85,0,0
117808,-100,4,3,3,85,0,0
117877,-92.5925925925926,4,3,2,85,0,0
117946,-61.7283950617284,4,3,3,85,0,0
120774,-92.5925925925926,4,3,2,85,0,0
120843,-61.7283950617284,4,3,3,85,0,0
122843,-92.5925925925926,4,3,2,85,0,0
123256,-75.7575757575758,4,3,2,85,0,0
123670,-75.7575757575758,4,3,3,85,0,0
123946,-55.5555555555556,4,3,2,85,0,0
124084,-95.2380952380952,4,3,2,85,0,0
124498,-95.2380952380952,4,3,3,85,0,0
124567,-63.6942675159236,4,3,2,85,0,0
125187,-63.6942675159236,4,3,3,85,0,0
125877,-58.1395348837209,4,3,3,85,0,0
126015,-53.475935828877,4,3,3,85,0,0
126153,-95.2380952380952,4,3,3,85,0,0
126567,-95.2380952380952,4,3,2,85,0,0
126980,-95.2380952380952,4,3,3,85,0,0
127256,-63.6942675159236,4,3,2,85,0,0
127808,-95.2380952380952,4,3,4,100,0,0
127877,-95.2380952380952,4,3,2,100,0,0
129325,-53.475935828877,4,3,2,100,0,0
129463,413.793103448276,6,3,2,100,1,0
129463,-92.5925925925926,6,3,2,100,0,0
130291,-92.5925925925926,6,3,2,90,0,0
130705,-63.6942675159236,6,3,2,75,0,0
131532,-103.092783505155,6,3,2,75,0,0
131670,-75.187969924812,6,3,3,75,0,0
131946,413.793103448276,7,3,3,85,1,0
131946,-63.6942675159236,7,3,3,85,0,0
132705,-63.6942675159236,7,3,2,85,0,0
133049,-63.6942675159236,7,3,3,85,0,0
133187,-63.6942675159236,7,3,2,85,0,0
133463,-63.6942675159236,7,3,3,85,0,0
133946,-63.6942675159236,7,3,2,85,0,0
134084,-63.6942675159236,7,3,2,85,0,0
134291,-63.6942675159236,7,3,3,85,0,0
134429,-63.6942675159236,7,3,2,85,0,0
134567,-63.6942675159236,7,3,3,85,0,0
134912,-63.6942675159236,7,3,2,85,0,0
134980,-63.6942675159236,7,3,3,85,0,0
135946,-107.52688172043,7,3,2,85,0,0
136084,-63.6942675159236,7,3,2,85,0,0
136360,-63.6942675159236,7,3,3,85,0,0
136912,-63.6942675159236,7,3,2,85,0,0
137325,-63.6942675159236,7,3,4,85,0,0
137394,-63.6942675159236,7,3,2,85,0,0
137739,413.793103448276,4,3,3,85,1,0
137739,-72.463768115942,4,3,3,85,0,0
137808,-72.463768115942,4,3,2,85,0,0
138291,-111.111111111111,4,3,2,85,0,0
138429,-95.2380952380952,4,3,2,85,0,0
138567,-72.463768115942,4,3,2,85,0,0
139118,-95.2380952380952,4,3,2,85,0,0
139256,-83.3333333333333,4,3,2,85,0,0
139394,-72.463768115942,4,3,3,85,0,0
139463,-72.463768115942,4,3,2,85,0,0
139946,-95.2380952380952,4,3,2,85,0,0
140084,-83.3333333333333,4,3,2,85,0,0
140222,-72.463768115942,4,3,2,85,0,0
140774,-83.3333333333333,4,3,2,85,0,0
140912,-74.0740740740741,4,3,2,85,0,0
141049,-72.463768115942,4,3,3,85,0,0
141118,-72.463768115942,4,3,2,85,0,0
141601,-83.3333333333333,4,3,2,85,0,0
141739,-74.0740740740741,4,3,2,85,0,0
141877,-72.463768115942,4,3,2,85,0,0
142429,-74.0740740740741,4,3,2,85,0,0
142567,-83.3333333333333,4,3,2,85,0,0
142705,-121.951219512195,4,3,3,85,0,0
142774,-121.951219512195,4,3,2,85,0,0
143118,-121.951219512195,4,3,4,85,0,0
143256,-95.2380952380952,4,3,2,85,0,0
143394,-83.3333333333333,4,3,2,85,0,0
143532,-83.3333333333333,4,3,2,85,0,0
143670,-77.5193798449612,4,3,2,85,0,0
144084,-77.5193798449612,4,3,3,85,0,0
144360,-77.5193798449612,4,3,2,85,0,0
144429,-77.5193798449612,4,3,2,5,0,0
145187,-63.6942675159236,4,3,2,85,0,0
145256,-63.6942675159236,4,3,3,85,0,0
146015,413.793103448276,6,3,2,85,1,0
146015,-63.6942675159236,6,3,2,85,0,0
146429,-63.6942675159236,6,3,2,85,0,0
146567,-63.6942675159236,6,3,3,85,0,0
146705,-63.6942675159236,6,3,2,85,0,0
147256,-63.6942675159236,6,3,3,85,0,0
147946,-92.5925925925926,6,3,2,85,0,0
148222,-149.253731343284,6,3,2,85,0,0
148497,413.793103448276,7,3,4,85,1,0
148497,-75.7575757575758,7,3,4,85,0,0
148565,-75.7575757575758,7,3,2,85,0,0
148772,-131.578947368421,7,3,2,85,0,0
148910,-71.9424460431655,7,3,3,85,0,0
149047,-75.7575757575758,7,3,2,85,0,0
149323,-75.7575757575758,7,3,2,85,0,0
149599,-75.7575757575758,7,3,3,85,0,0
149737,-131.578947368421,7,3,2,85,0,0
149875,-75.7575757575758,7,3,2,85,0,0
150151,-87.719298245614,7,3,3,85,0,0
150289,-75.7575757575758,7,3,2,85,0,0
150565,-53.475935828877,7,3,2,85,0,0
150703,-58.1395348837209,7,3,2,85,0,0
150841,-63.6942675159236,7,3,2,85,0,0
150978,-68.0272108843537,7,3,2,85,0,0
151116,-72.992700729927,7,3,2,85,0,0
151254,-87.719298245614,7,3,2,85,0,0
151392,-75.7575757575758,7,3,2,85,0,0
151461,-75.7575757575758,7,3,2,85,0,0
151668,-131.578947368421,7,3,2,85,0,0
151806,-71.9424460431655,7,3,3,85,0,0
151875,-71.9424460431655,7,3,2,85,0,0
151944,-75.7575757575758,7,3,2,85,0,0
152496,-75.7575757575758,7,3,3,85,0,0
152634,-131.578947368421,7,3,2,85,0,0
152772,-75.7575757575758,7,3,2,85,0,0
153047,-87.719298245614,7,3,3,85,0,0
153116,-87.719298245614,7,3,2,85,0,0
153185,-75.7575757575758,7,3,2,85,0,0
153461,-62.5,7,3,2,85,0,0
153599,-62.5,7,3,3,85,0,0
153875,-62.5,7,3,2,85,0,0
154151,-62.5,7,3,3,85,0,0
154290,413.793103448276,4,3,2,85,1,0
154290,-66.2251655629139,4,3,2,85,0,0
154360,-90.0900900900901,4,3,3,85,0,0
154703,-63.6942675159236,4,3,3,85,0,0
157187,-63.6942675159236,4,3,4,85,0,0
157256,-63.6942675159236,4,3,3,85,0,0
157601,-63.6942675159236,4,3,2,85,0,0
157670,-63.6942675159236,4,3,3,85,0,0
158015,-63.6942675159236,4,3,4,85,0,0
158084,-63.6942675159236,4,3,3,85,0,0
158291,-63.6942675159236,4,3,4,85,0,0
158360,-63.6942675159236,4,3,3,85,0,0
158843,-63.6942675159236,4,3,4,85,0,0
158912,-63.6942675159236,4,3,3,85,0,0
159118,-63.6942675159236,4,3,4,85,0,0
159187,-63.6942675159236,4,3,3,85,0,0
159670,-63.6942675159236,4,3,2,85,0,0
160222,-63.6942675159236,4,3,2,85,0,0
160498,-63.6942675159236,4,3,4,85,0,0
160912,-63.6942675159236,4,3,2,85,0,0
161325,-63.6942675159236,4,3,5,100,0,0
161394,-63.6942675159236,4,3,2,100,0,0
162567,413.793103448276,6,3,2,100,1,0
162567,-61.7283950617284,6,3,2,100,0,0
163808,-63.6942675159236,6,3,2,75,0,0
164636,-69.9300699300699,6,3,2,75,0,0
164774,-103.092783505155,6,3,3,75,0,0
164911,-105.263157894737,6,3,3,75,0,0
165049,413.793103448276,7,3,2,75,1,0
165049,-63.6942675159236,7,3,2,75,0,0
165118,-63.6942675159236,7,3,3,85,0,0
165877,-63.6942675159236,7,3,2,85,0,0
166360,-63.6942675159236,7,3,3,85,0,0
167118,-63.6942675159236,7,3,4,85,0,0
167187,-63.6942675159236,7,3,3,85,0,0
167256,-63.6942675159236,7,3,2,85,0,0
167946,-63.6942675159236,7,3,4,85,0,0
168015,-63.6942675159236,7,3,3,85,0,0
168774,-63.6942675159236,7,3,2,85,0,0
169049,-107.52688172043,7,3,3,85,0,0
169187,-63.6942675159236,7,3,2,85,0,0
169256,-63.6942675159236,7,3,3,85,0,0
170015,-163.934426229508,7,3,2,85,0,0
170429,-163.934426229508,7,3,3,85,0,0
170843,413.793103448276,4,3,2,90,1,1
170843,-63.6942675159236,4,3,2,90,0,1
170980,-72.992700729927,4,3,2,90,0,1
171118,-78.7401574803149,4,3,2,90,0,1
171256,-99.009900990099,4,3,3,90,0,1
171325,-99.009900990099,4,3,2,90,0,1
171394,-78.7401574803149,4,3,2,90,0,1
171532,-72.992700729927,4,3,2,90,0,1
172498,-63.6942675159236,4,3,3,90,0,1
172567,-63.6942675159236,4,3,2,90,0,1
172636,-72.992700729927,4,3,2,90,0,1
172774,-66.6666666666667,4,3,2,90,0,1
172912,-74.0740740740741,4,3,2,90,0,1
173049,-54.6448087431694,4,3,2,90,0,1
174153,-66.6666666666667,4,3,3,90,0,1
174222,-66.6666666666667,4,3,2,90,0,1
174291,-74.0740740740741,4,3,2,90,0,1
174429,-72.992700729927,4,3,2,90,0,1
174567,-78.7401574803149,4,3,2,90,0,1
174705,-47.6190476190476,4,3,2,90,0,1
174980,-84.7457627118644,4,3,4,90,0,1
175118,-84.7457627118644,4,3,2,90,0,1
175808,-84.7457627118644,4,3,3,90,0,1
176084,-90.9090909090909,4,3,4,90,0,1
176153,-90.9090909090909,4,3,2,90,0,1
176360,-90.9090909090909,4,3,4,90,0,1
176429,-90.9090909090909,4,3,2,90,0,1
177187,-90.9090909090909,4,3,5,90,0,1
177256,-90.9090909090909,4,3,2,90,0,1
177463,-90.9090909090909,4,3,5,100,0,1
177601,-90.9090909090909,4,3,2,100,0,1
178567,-90.9090909090909,4,3,4,100,0,1
178705,-90.9090909090909,4,3,2,100,0,1
179118,-90.9090909090909,4,3,5,100,0,1
179256,-90.9090909090909,4,3,2,100,0,1
180222,-90.9090909090909,4,3,4,100,0,1
180360,-90.9090909090909,4,3,2,100,0,1
180774,-90.9090909090909,4,3,5,100,0,1
180912,-90.9090909090909,4,3,2,100,0,1
181877,-90.9090909090909,4,3,4,100,0,1
182015,-90.9090909090909,4,3,2,100,0,1
182429,-90.9090909090909,4,3,5,100,0,1
182705,-90.9090909090909,4,3,2,100,0,1
183256,-90.9090909090909,4,3,5,100,0,1
183532,-90.9090909090909,4,3,2,100,0,1
183808,-90.9090909090909,4,3,4,100,0,1
183877,-90.9090909090909,4,3,2,100,0,1
184084,-200,4,3,2,100,0,0
190291,-66.6666666666667,4,3,2,34,0,0
190360,-66.6666666666667,4,3,2,45,0,0
190429,-66.6666666666667,4,3,2,56,0,0
190498,-66.6666666666667,4,3,2,67,0,0
190567,-66.6666666666667,4,3,2,78,0,0
190636,-66.6666666666667,4,3,2,89,0,0
190705,-66.6666666666667,4,3,2,100,0,0
191946,-78.7401574803149,4,3,2,80,0,0
192360,-86.9565217391304,4,3,2,80,0,0
193325,-86.9565217391304,4,3,3,80,0,0
193739,-86.9565217391304,4,3,2,80,0,0
194015,413.793103448276,7,3,4,80,1,0
194015,-75.7575757575758,7,3,4,80,0,0
194083,-75.7575757575758,7,3,3,80,0,0
194842,-75.7575757575758,7,3,2,80,0,0
195118,-75.7575757575758,7,3,3,80,0,0
195256,-75.7575757575758,7,3,2,80,0,0
195669,-75.7575757575758,7,3,3,80,0,0
195738,-75.7575757575758,7,3,2,80,0,0
196083,-53.475935828877,7,3,2,80,0,0
196221,-56.4971751412429,7,3,2,80,0,0
196359,-59.8802395209581,7,3,2,80,0,0
196497,-63.6942675159236,7,3,2,80,0,0
196635,-68.0272108843537,7,3,2,80,0,0
196773,-72.992700729927,7,3,2,80,0,0
196911,-75.7575757575758,7,3,2,80,0,0
197324,-75.7575757575758,7,3,3,80,0,0
197393,-75.7575757575758,7,3,2,80,0,0
198014,-75.7575757575758,7,3,3,80,0,0
198152,-75.7575757575758,7,3,3,80,0,0
198220,-75.7575757575758,7,3,2,80,0,0
198979,-75.7575757575758,7,3,2,80,0,0
199117,-75.7575757575758,7,3,2,80,0,0
199393,-204.081632653061,7,3,4,100,0,0
199738,-204.081632653061,7,3,2,5,0,0
199807,-74.0740740740741,7,3,2,85,0,0
199945,-74.0740740740741,7,3,3,85,0,0
200634,-74.0740740740741,7,3,5,85,0,0
200910,-74.0740740740741,7,3,2,85,0,0
201048,-74.0740740740741,7,3,3,85,0,0
201875,-74.0740740740741,7,3,5,85,0,0
202151,-74.0740740740741,7,3,2,85,0,0
202289,-74.0740740740741,7,3,3,85,0,0
202427,-74.0740740740741,7,3,2,85,0,0
202703,-74.0740740740741,7,3,2,85,0,0
202841,-74.0740740740741,7,3,3,85,0,0
203530,-74.0740740740741,7,3,5,85,0,0
203668,-74.0740740740741,7,3,2,85,0,0
203944,-74.0740740740741,7,3,3,85,0,0
204771,-81.3008130081301,7,3,2,85,0,0
204909,-81.3008130081301,7,3,3,85,0,0
205185,-270.27027027027,7,3,4,100,0,0
205530,-270.27027027027,7,3,2,5,0,0
205599,-75.7575757575758,7,3,2,100,0,0
206842,-75.7575757575758,7,3,3,100,0,0
206910,-75.7575757575758,7,3,2,100,0,0
208083,-75.7575757575758,7,3,4,100,0,0
208152,-75.7575757575758,7,3,2,100,0,0
209738,-75.7575757575758,7,3,3,100,0,0
209806,-75.7575757575758,7,3,2,100,0,0
210703,-75.7575757575758,7,3,3,100,0,0
210979,-75.7575757575758,7,3,2,100,0,0
211048,-75.7575757575758,7,3,2,5,0,0
211393,413.793103448276,4,3,2,80,1,0
211393,-75.7575757575758,4,3,2,80,0,0
212082,-138.888888888889,4,3,2,80,0,0
213048,-75.7575757575758,4,3,3,80,0,0
213324,-138.888888888889,4,3,2,80,0,0
213875,-114.942528735632,4,3,2,80,0,0
214289,-114.942528735632,4,3,4,80,0,0
214427,-114.942528735632,4,3,2,80,0,0
214703,-81.9672131147541,4,3,2,80,0,0
215944,-81.9672131147541,4,3,3,80,0,0
216082,-81.9672131147541,4,3,2,80,0,0
217600,-81.9672131147541,4,3,3,80,0,0
217738,-81.9672131147541,4,3,2,80,0,0
218013,-81.9672131147541,4,3,4,80,0,0
218151,-81.9672131147541,4,3,2,80,0,0
219669,-81.9672131147541,4,3,3,80,0,0
220496,-81.9672131147541,4,3,2,80,0,0
220910,-81.9672131147541,4,3,3,80,0,0
221048,-81.9672131147541,4,3,2,80,0,0
221324,-81.9672131147541,4,3,4,80,0,0
221462,-81.9672131147541,4,3,2,80,0,0
222565,-81.9672131147541,4,3,3,80,0,0
222703,-81.9672131147541,4,3,2,80,0,0
223393,-81.9672131147541,4,3,4,80,0,0
223806,-81.9672131147541,4,3,2,80,0,0
224220,-81.9672131147541,4,3,3,80,0,0
224358,-81.9672131147541,4,3,2,80,0,0
224634,413.793103448276,6,3,4,80,1,0
224634,-81.9672131147541,6,3,4,80,0,0
224772,-81.9672131147541,6,3,2,80,0,0
225048,-81.9672131147541,6,3,3,80,0,0
225186,-81.9672131147541,6,3,2,80,0,0
226703,-81.9672131147541,6,3,4,90,0,0
226841,-81.9672131147541,6,3,2,90,0,0
227117,413.793103448276,7,3,2,100,1,0
227117,-66.6666666666667,7,3,2,100,0,0
229186,-74.0740740740741,7,3,2,100,0,0
229324,-74.0740740740741,7,3,3,100,0,0
229462,-74.0740740740741,7,3,2,100,0,0
229600,-44.4444444444445,7,3,2,100,0,0
229669,-44.4444444444445,7,3,2,5,0,0
230018,413.793103448276,6,3,2,100,1,0
230018,-82.6446280991736,6,3,2,100,0,0
231259,-82.6446280991736,6,3,3,100,0,0
231397,-82.6446280991736,6,3,2,100,0,0
232500,413.793103448276,4,3,3,100,1,0
232500,-82.6446280991736,4,3,3,100,0,0
232638,-82.6446280991736,4,3,2,100,0,0
233328,-70.4225352112676,4,3,4,100,0,0
233466,-70.4225352112676,4,3,2,100,0,0
233742,-72.992700729927,4,3,2,100,0,0
234155,-90.0900900900901,4,3,4,100,0,0
234224,-90.0900900900901,4,3,2,100,0,0
234569,-103.092783505155,4,3,2,100,0,0
234983,-103.092783505155,4,3,4,100,0,0
235121,-103.092783505155,4,3,2,100,0,0
235397,-103.092783505155,4,3,4,100,0,0
235535,-103.092783505155,4,3,2,100,0,0
235811,413.793103448276,6,3,2,80,1,0
235811,-163.934426229508,6,3,2,80,0,0
236362,-163.934426229508,6,3,3,80,0,0
236776,-163.934426229508,6,3,2,80,0,0
237052,-66.6666666666667,6,3,4,80,0,0
237190,-66.6666666666667,6,3,2,80,0,0
237466,-90.0900900900901,6,3,2,80,0,0
237742,-103.092783505155,6,3,2,80,0,0
238018,-103.092783505155,6,3,4,80,0,0
238293,-222.222222222222,6,3,2,85,0,0
240224,-89.2857142857143,6,3,3,85,0,0
240362,-89.2857142857143,6,3,2,85,0,0
240500,-89.2857142857143,6,3,3,85,0,0
240638,-89.2857142857143,6,3,2,85,0,0
240776,-89.2857142857143,6,3,4,85,0,0
240914,-89.2857142857143,6,3,2,85,0,0
242018,-89.2857142857143,6,3,3,85,0,0
242155,-89.2857142857143,6,3,2,85,0,0
243259,413.793103448276,4,3,5,90,1,0
243259,-44.4444444444445,4,3,5,90,0,0
243397,-44.4444444444445,4,3,2,90,0,0
243535,-78.7401574803149,4,3,2,90,0,0
244086,-66.6666666666667,4,3,2,90,0,0
244500,-74.0740740740741,4,3,4,90,0,0
244638,-74.0740740740741,4,3,2,90,0,0
244914,413.793103448276,6,3,2,90,1,0
244914,-83.3333333333333,6,3,2,90,0,0
245328,-95.2380952380952,6,3,2,90,0,0
245742,-111.111111111111,6,3,2,90,0,0
246155,-133.333333333333,6,3,2,90,0,0
246569,-166.666666666667,6,3,2,70,0,0
247121,-166.666666666667,6,3,3,70,0,0
247397,413.793103448276,4,3,2,70,1,0
247397,-434.782608695652,4,3,2,70,0,0
254431,-666.666666666658,4,3,5,100,0,0
254845,-78.7401574803149,4,3,2,70,0,0
255259,-78.7401574803149,4,3,3,70,0,0
255673,-66.6666666666667,4,3,2,90,0,0
258569,-66.6666666666667,4,3,4,90,0,0
258638,-66.6666666666667,4,3,2,90,0,0
259397,-70.4225352112676,4,3,2,90,0,0
261328,-86.9565217391304,4,3,3,90,0,0
261535,-86.9565217391304,4,3,3,90,0,0
261604,-131.578947368421,4,3,2,90,0,0
261742,-131.578947368421,4,3,2,90,0,0
261880,-86.9565217391304,4,3,3,90,0,0
262017,-131.578947368421,4,3,2,90,0,0
262086,-131.578947368421,4,3,3,90,0,0
262293,-66.6666666666667,4,3,2,90,0,0
262707,-66.6666666666667,4,3,5,90,0,0
262776,-66.6666666666667,4,3,2,90,0,0
264362,-66.6666666666667,4,3,5,90,0,0
264431,-66.6666666666667,4,3,2,90,0,0
265190,-66.6666666666667,4,3,5,90,0,0
265259,-66.6666666666667,4,3,2,90,0,0
267673,-66.6666666666667,4,3,2,90,0,0
268224,-66.6666666666667,4,3,3,90,0,0
268500,-66.6666666666667,4,3,2,90,0,0
269052,-151.515151515152,4,3,2,90,0,0
269328,-63.6942675159236,4,3,4,90,0,0
269397,-63.6942675159236,4,3,2,90,0,0
271811,-63.6942675159236,4,3,4,90,0,0
271880,-63.6942675159236,4,3,2,90,0,0
272638,-66.6666666666667,4,3,2,90,0,0
273880,-66.6666666666667,4,3,2,80,0,0
274431,-66.6666666666667,4,3,3,80,0,0
274707,-66.6666666666667,4,3,2,80,0,0
274776,-66.6666666666667,4,3,3,80,0,0
274845,-66.6666666666667,4,3,2,80,0,0
274914,-66.6666666666667,4,3,3,80,0,0
274983,-66.6666666666667,4,3,3,70,0,0
275259,-66.6666666666667,4,3,2,70,0,0
275535,-107.52688172043,4,2,2,60,0,0
281880,-107.52688172043,4,2,3,60,0,0
282017,-107.52688172043,4,2,2,60,0,0
285466,-107.52688172043,4,3,2,100,0,0
288155,-66.6666666666667,4,3,2,100,0,0
288224,-66.6666666666667,4,3,3,100,0,0
288500,-208.333333333333,4,3,2,100,0,0
288774,285.714285714286,3,3,2,100,1,1
288774,-104.166666666667,3,3,2,100,0,1
290488,-104.166666666667,3,3,3,100,0,1
290559,-104.166666666667,3,3,2,100,0,1
291059,-133.333333333333,3,3,2,100,0,1
291202,-117.647058823529,3,3,2,100,0,1
291345,-100,3,3,4,100,0,1
291416,-100,3,3,2,100,0,1
291631,-100,3,3,4,100,0,1
291702,-100,3,3,2,100,0,1
291916,-100,3,3,4,100,0,1
291988,-100,3,3,2,100,0,1
293059,-119.047619047619,3,3,4,100,0,1
293202,-119.047619047619,3,3,2,100,0,1
293916,-100,3,3,3,100,0,1
293988,-100,3,3,2,100,0,1
294488,-151.515151515152,3,3,2,100,0,1
294774,-151.515151515152,3,3,2,100,0,1
295059,-151.515151515152,3,3,3,100,0,1
295345,-200,3,3,2,100,0,1
295416,-200,3,3,3,100,0,1
295488,-200,3,3,2,100,0,1
295559,-200,3,3,3,100,0,1
295631,-83.3333333333333,3,3,2,100,0,1
295702,-83.3333333333333,3,3,3,100,0,1
297131,-83.3333333333333,3,3,2,100,0,1
297202,-83.3333333333333,3,3,3,100,0,1
297345,-83.3333333333333,3,3,3,100,0,1
298202,-95.2380952380952,3,3,3,100,0,1
298488,-105.263157894737,3,3,2,100,0,1
298559,-105.263157894737,3,3,3,100,0,1
298774,-117.647058823529,3,3,4,100,0,1
298845,-117.647058823529,3,3,3,100,0,1
299059,-117.647058823529,3,3,3,100,0,1
300774,-86.9565217391304,3,3,2,100,0,1
301059,-86.9565217391304,3,3,2,100,0,1
301345,-86.9565217391304,3,3,2,100,0,1
301416,-86.9565217391304,3,3,3,100,0,1
301488,-86.9565217391304,3,3,2,100,0,1
301559,-86.9565217391304,3,3,3,100,0,1
301631,-105.263157894737,3,3,2,100,0,1
301916,-105.263157894737,3,3,2,100,0,1
301988,-105.263157894737,3,3,3,100,0,1
302059,-105.263157894737,3,3,2,100,0,1
302131,-105.263157894737,3,3,3,100,0,1
302202,-153.846153846153,3,3,2,100,0,1
302488,-106.382978723404,3,3,2,100,0,1
302916,-106.382978723404,3,3,3,100,0,0
302988,-106.382978723404,3,3,2,100,0,0
303345,-142.857142857143,3,3,2,100,0,0
304202,-106.382978723404,3,3,2,100,0,0
305059,-142.857142857143,3,3,4,100,0,0
305202,-142.857142857143,3,3,2,100,0,0
305345,-142.857142857143,3,3,4,100,0,0
305488,-142.857142857143,3,3,2,100,0,0
305631,-142.857142857143,3,3,4,100,0,0
305774,-142.857142857143,3,3,2,100,0,0
305916,-103.092783505155,3,3,2,100,0,0
306774,-136.986301369863,3,3,2,100,0,0
307631,-121.951219512195,3,3,3,100,0,0
307702,-121.951219512195,3,3,2,100,0,0
308488,-121.951219512195,3,3,3,100,0,0
308559,-121.951219512195,3,3,2,100,0,0
309345,-181.818181818182,3,3,3,100,0,0
310774,-117.64705882353,3,3,3,100,0,0
311059,-153.846153846155,3,3,3,100,0,0
311916,-117.64705882353,3,3,3,100,0,0
312202,-117.64705882353,3,3,2,100,0,0
312274,-117.64705882353,3,3,3,100,0,0
312488,-117.64705882353,3,3,2,100,0,0
312559,-117.64705882353,3,3,3,100,0,0
312774,-117.64705882353,3,3,3,100,0,0
314488,-117.64705882353,3,3,3,100,0,0
314559,-117.64705882353,3,3,2,100,0,0
314631,-117.64705882353,3,3,3,100,0,0
314702,-117.64705882353,3,3,2,100,0,0
314774,-117.64705882353,3,3,2,100,0,0
315059,-117.64705882353,3,3,3,100,0,0
315202,-117.64705882353,3,3,2,100,0,0
315631,-117.64705882353,3,3,3,100,0,0
315702,-117.64705882353,3,3,2,100,0,0
316202,413.793103448276,4,3,2,100,1,0
316202,-100,4,3,4,100,0,0
328615,-100,4,3,4,100,0,0
329029,-100,4,3,4,100,0,0
329443,-100,4,3,4,100,0,1
329546,-100,4,3,2,100,0,1
332339,-100,4,3,3,100,0,1
332443,-100,4,3,2,100,0,1
334822,-100,4,3,4,100,0,1
334925,-100,4,3,3,40,0,1
335029,-100,4,3,2,70,0,1
335132,-100,4,3,3,70,0,1
335236,-100,4,3,2,100,0,1
335339,-100,4,3,2,100,0,1
335443,-100,4,3,2,100,0,1
335546,-100,4,3,2,100,0,1
335649,-100,4,3,3,100,0,1
335753,-100,4,3,2,100,0,1
335856,-100,4,3,3,70,0,1
335960,-100,4,3,3,70,0,1
336063,-95.2380952380952,4,3,2,100,0,1
338546,-95.2380952380952,4,3,4,100,0,1
338649,-95.2380952380952,4,3,2,100,0,1
338960,-95.2380952380952,4,3,4,100,0,1
339063,-95.2380952380952,4,3,2,100,0,1
339374,-95.2380952380952,4,3,4,100,0,1
339477,-95.2380952380952,4,3,2,100,0,1
341132,-100,4,3,2,40,0,1
341236,-100,4,3,3,40,0,1
341339,-100,4,3,2,70,0,1
341443,-100,4,3,3,70,0,1
341546,-100,4,3,2,100,0,1
341649,-100,4,3,2,100,0,1
342063,-100,4,3,3,100,0,1
342374,-100,4,3,2,100,0,1
342580,-200,4,3,2,100,0,1
342684,-100,4,3,2,30,0,0
342891,-100,4,3,2,30,0,0
343201,-100,4,3,2,40,0,0
343511,-100,4,3,2,50,0,0
343925,-100,4,3,2,60,0,0
344132,-100,4,3,2,70,0,0
344339,-100,4,3,2,80,0,0
344546,-100,4,3,2,70,0,0
344753,-100,4,3,2,60,0,0
345167,-100,4,3,2,40,0,0
345580,-100,4,3,2,20,0,0
345994,-100,4,3,2,5,0,0

[Colours]
Combo1 : 184,147,130
Combo2 : 81,81,68
Combo3 : 103,102,86
Combo4 : 125,123,104
Combo5 : 149,145,123
Combo6 : 213,185,166

[HitObjects]
492,31,256,69,2,0:0:0:0:
497,41,329,6,0,B|481:63|443:72|415:60|412:36|403:18|374:5|343:14|322:25|315:60|315:60|327:40|349:29|376:33|392:51,1,300.389988082673
447,248,2012,69,2,0:0:0:0:
448,261,2085,6,0,B|432:287|432:310|437:338|440:349|440:349|430:325|407:305|369:296|338:311|338:311|324:340|336:364|359:376|377:370,1,300.389988082673
313,190,3768,69,2,0:0:0:0:
307,203,3841,6,0,B|263:237|208:239|166:201|163:148|190:104|214:89|256:99|278:131|258:168|242:186,1,300.389988082673
452,366,5426,70,0,L|452:383,1,10.5399995818482
462,360,5524,6,0,P|454:347|435:340,2,30.5999990661621,2|2|2,0:0|0:0|0:0,0:0:0:0:
347,284,6402,70,0,P|359:260|395:248,2,66.299996965027,2|2|2,0:0|0:0|0:0,0:0:0:0:
274,144,7280,5,2,0:0:0:0:
289,148,7426,1,2,0:0:0:0:
174,217,7573,69,2,0:0:0:0:
103,190,7719,1,2,0:0:0:0:
104,120,7865,1,2,0:0:0:0:
110,109,8012,1,2,0:0:0:0:
114,265,8158,5,2,0:0:0:0:
55,318,8304,1,2,0:0:0:0:
58,352,8451,1,2,0:0:0:0:
68,361,8597,1,2,0:0:0:0:
171,318,8743,69,2,0:0:0:0:
118,251,8890,1,2,0:0:0:0:
163,353,9036,6,0,P|185:333|222:335,1,47.9399992684937,2|2,0:0|0:0,0:0:0:0:
429,345,9329,69,2,0:0:0:0:
339,369,9475,1,2,0:0:0:0:
447,350,9621,6,0,P|459:322|453:288,1,47.9399992684937,2|2,0:0|0:0,0:0:0:0:
332,227,9914,69,2,0:0:0:0:
302,149,10060,1,2,0:0:0:0:
333,95,10207,1,2,0:0:0:0:
384,87,10353,1,2,0:0:0:0:
402,101,10499,1,2,0:0:0:0:
397,112,10646,1,2,0:0:0:0:
286,244,10792,6,0,B|277:229|277:229|238:225,1,42.3300006136093,2|2,0:0|0:0,0:0:0:0:
180,157,11085,2,0,B|160:159|160:159|144:183,1,42.3300006136093,2|2,0:0|0:0,0:0:0:0:
293,125,11377,70,0,L|300:106,1,15.2999995330811,2|2,0:0|0:0,0:0:0:0:
154,47,11670,5,2,0:0:0:0:
55,84,11816,1,2,0:0:0:0:
126,124,11963,1,2,0:0:0:0:
82,152,12109,1,2,0:0:0:0:
100,167,12256,1,2,0:0:0:0:
92,178,12402,1,2,0:0:0:0:
289,66,12548,70,0,B|284:110,2,40.8,2|2|2,0:0|0:0|0:0,0:0:0:0:
180,127,13426,2,0,B|189:210,2,77.5199990537109,2|2|2,0:0|0:0|0:0,0:0:0:0:
107,302,14304,6,0,L|54:290,1,45.8999985992432,2|0,0:0|0:0,0:0:0:0:
152,364,14597,1,2,0:0:0:0:
161,359,14743,1,2,0:0:0:0:
198,290,14890,1,2,0:0:0:0:
207,295,15036,1,2,0:0:0:0:
315,371,15182,70,0,B|318:350|318:350|322:343|322:343|325:315,1,45.8999985992432,2|0,0:0|0:0,0:0:0:0:
409,267,15475,1,2,0:0:0:0:
411,280,15621,1,2,0:0:0:0:
335,220,15768,1,2,0:0:0:0:
333,233,15914,1,2,0:0:0:0:
451,160,16060,6,0,B|447:150|447:150|397:136,1,45.8999985992432,2|0,0:0|0:0,0:0:0:0:
330,77,16353,1,2,0:0:0:0:
328,67,16499,1,2,0:0:0:0:
406,17,16646,1,2,0:0:0:0:
404,27,16792,1,2,0:0:0:0:
266,24,16938,70,0,P|251:41|248:63,1,45.8999985992432,2|0,0:0|0:0,0:0:0:0:
163,150,17231,1,2,0:0:0:0:
166,165,17377,1,2,0:0:0:0:
242,208,17524,1,2,0:0:0:0:
239,223,17670,1,2,0:0:0:0:
28,280,17816,6,0,B|55:292|66:322|68:358|68:358|81:328|104:305|139:301,1,188.190002871552,2|0,0:0|0:0,0:0:0:0:
94,228,19207,1,0,0:0:0:0:
95,220,19280,2,0,P|89:217|103:213,1,31.3650004785919
39,80,19573,70,0,B|63:93|81:72|81:72|100:35|128:35,1,104.550001595306,2|0,0:0|0:0,0:0:0:0:
261,132,20451,22,0,L|181:102,1,83.6400012762451,4|0,0:2|0:0,0:0:0:0:
381,35,21329,5,4,3:2:0:0:
377,47,21475,1,0,0:0:0:0:
451,88,21621,6,0,B|469:108|469:108|453:166,1,71.399997821045
309,244,21914,5,0,0:0:0:0:
399,219,22060,1,0,0:0:0:0:
304,259,22207,38,0,P|262:256|228:239,1,71.399997821045,2|0,2:2|0:0,0:0:0:0:
404,204,22499,6,0,P|458:224|485:263,1,107.099996731567,8|0,0:3|0:0,0:0:0:0:
391,313,22792,6,0,P|390:276|402:312,1,107.099996731567,8|0,0:3|0:0,0:0:0:0:
217,239,23085,6,0,B|200:207|200:207|214:165,1,71.399997821045,4|0,3:2|0:0,0:0:0:0:
289,128,23377,1,0,0:0:0:0:
285,115,23524,1,0,0:0:0:0:
205,52,23670,54,0,L|129:73,1,71.399997821045
19,148,23963,5,2,0:3:0:0:
3,218,24109,1,0,0:0:0:0:
93,235,24255,5,8,0:3:0:0:
102,278,24401,1,0,0:0:0:0:
37,351,24548,37,8,0:3:0:0:
14,345,24694,1,8,0:3:0:0:
178,335,24841,6,0,P|213:311|247:305,1,71.399997821045,4|0,3:2|0:0,0:0:0:0:
243,237,25133,1,0,0:0:0:0:
321,251,25280,6,0,P|291:229|241:219,2,71.399997821045
120,238,25719,5,12,0:2:0:0:
156,163,25865,1,0,0:0:0:0:
114,251,26011,38,0,B|85:251|85:251|63:210|63:210|16:209,1,107.099996731567,4|0,3:2|0:0,0:0:0:0:
153,141,26304,5,4,3:2:0:0:
243,120,26450,1,0,0:0:0:0:
297,223,26597,6,0,B|316:241|316:241|338:144,1,107.099996731567,2|0,3:2|0:0,0:0:0:0:
189,311,26889,5,8,0:3:0:0:
224,317,26963,1,8,0:3:0:0:
259,323,27036,1,8,0:3:0:0:
294,329,27109,1,8,0:3:0:0:
312,359,27182,37,8,0:3:0:0:
337,354,27256,1,8,0:3:0:0:
363,350,27329,1,8,0:3:0:0:
388,345,27402,1,8,0:3:0:0:
411,308,27475,5,8,0:2:0:0:
451,320,27548,1,8,0:2:0:0:
489,300,27621,1,8,0:2:0:0:
499,258,27694,1,8,0:2:0:0:
465,231,27768,5,8,0:1:0:0:
464,245,27841,1,8,0:1:0:0:
463,259,27914,1,8,0:1:0:0:
462,273,27987,1,8,0:1:0:0:
461,287,28060,5,12,0:2:0:0:
477,104,28207,1,8,0:2:0:0:
311,216,28353,37,4,3:2:0:0:
298,223,28499,1,0,0:0:0:0:
235,116,28646,6,0,L|307:132,1,74.460002045105
32,213,28938,5,0,0:0:0:0:
55,92,29085,1,0,0:0:0:0:
51,216,29231,6,0,B|70:252|70:252|42:295,1,74.460002045105,12|0,0:2|0:0,0:0:0:0:
31,91,29524,38,0,B|60:61|60:61|160:75,1,111.690003067658,8|0,0:3|0:0,0:0:0:0:
78,166,29816,6,0,B|83:136|83:136|116:141|116:141|110:171|110:171|82:168,1,111.690003067658,8|0,0:3|0:0,0:0:0:0:
208,338,30109,6,0,P|189:310|145:294,1,74.460002045105,4|0,3:2|0:0,0:0:0:0:
61,348,30402,1,2,0:2:0:0:
64,360,30548,1,2,0:2:0:0:
137,285,30694,6,0,P|171:271|192:241,1,74.460002045105,2|2,0:2|0:2,0:0:0:0:
101,109,30987,37,4,0:2:0:0:
176,135,31133,1,0,0:0:0:0:
258,46,31280,5,8,0:3:0:0:
216,60,31426,1,0,0:0:0:0:
122,21,31572,5,8,0:3:0:0:
129,43,31718,1,8,0:1:0:0:
33,205,31865,6,0,P|63:190|108:192,1,78.5399984420472,4|0,0:2|0:0,0:0:0:0:
193,152,32158,2,0,P|217:179|208:228,1,68.3399967673647,0|2,0:0|0:2,0:0:0:0:
300,268,32450,2,0,P|273:290|246:282,1,58.1399992902832
346,153,32743,37,12,0:2:0:0:
372,226,32889,1,0,0:0:0:0:
476,99,33036,5,4,0:2:0:0:
461,140,33182,1,0,0:0:0:0:
344,53,33328,5,4,0:2:0:0:
369,62,33474,1,0,0:0:0:0:
221,196,33621,5,4,0:2:0:0:
173,212,33694,1,0,0:0:0:0:
126,192,33768,1,0,0:0:0:0:
109,144,33841,1,0,0:0:0:0:
147,96,33914,37,8,0:3:0:0:
161,93,33987,1,8,0:3:0:0:
174,96,34060,2,0,P|186:114|189:133,1,35.6999989105225,8|0,0:3|0:0,0:0:0:0:
54,290,34207,5,8,0:3:0:0:
49,285,34280,1,8,0:3:0:0:
46,278,34353,2,0,P|49:256|60:240,1,35.6999989105225,8|0,0:3|0:0,0:0:0:0:
203,351,34499,5,8,0:2:0:0:
254,335,34572,1,8,0:2:0:0:
305,319,34646,1,8,0:2:0:0:
356,303,34719,1,8,0:2:0:0:
391,266,34792,5,8,0:1:0:0:
389,277,34865,1,8,0:1:0:0:
387,288,34938,1,8,0:1:0:0:
385,299,35011,1,8,0:1:0:0:
383,310,35085,37,12,0:2:0:0:
496,191,35231,1,8,0:2:0:0:
234,241,35377,5,4,0:2:0:0:
217,218,35450,1,0,0:0:0:0:
215,189,35524,1,0,0:0:0:0:
226,163,35597,1,0,0:0:0:0:
247,144,35670,1,4,0:2:0:0:
273,134,35743,1,0,0:0:0:0:
301,133,35816,1,0,0:0:0:0:
326,119,35889,1,0,0:0:0:0:
342,95,35963,1,4,0:2:0:0:
345,66,36036,1,0,0:0:0:0:
330,41,36109,1,0,0:0:0:0:
304,28,36182,1,0,0:0:0:0:
275,30,36255,5,12,0:2:0:0:
283,49,36328,1,0,0:0:0:0:
300,61,36402,1,0,0:0:0:0:
320,67,36475,1,0,0:0:0:0:
341,68,36548,5,4,0:2:0:0:
354,73,36621,1,0,0:0:0:0:
365,81,36694,1,0,0:0:0:0:
372,93,36768,1,0,0:0:0:0:
375,106,36841,37,6,0:2:0:0:
375,113,36914,1,0,0:0:0:0:
373,120,36987,1,0,0:0:0:0:
370,126,37060,1,0,0:0:0:0:
366,131,37133,5,4,0:2:0:0:
354,165,37207,1,0,0:0:0:0:
327,188,37280,1,0,0:0:0:0:
291,194,37353,1,0,0:0:0:0:
257,181,37426,1,4,0:2:0:0:
235,152,37499,1,0,0:0:0:0:
228,116,37572,1,0,0:0:0:0:
203,89,37646,1,0,0:0:0:0:
169,77,37719,1,4,0:2:0:0:
133,76,37792,1,0,0:0:0:0:
99,88,37865,1,0,0:0:0:0:
76,115,37938,1,0,0:0:0:0:
68,149,38011,5,12,0:2:0:0:
96,143,38085,1,0,0:0:0:0:
123,151,38158,1,0,0:0:0:0:
140,173,38231,1,0,0:0:0:0:
143,201,38304,1,4,0:2:0:0:
138,221,38377,1,0,0:0:0:0:
122,235,38450,1,0,0:0:0:0:
100,239,38524,1,0,0:0:0:0:
80,246,38597,1,6,0:2:0:0:
69,255,38670,1,0,0:0:0:0:
62,267,38743,1,0,0:0:0:0:
58,280,38816,1,0,0:0:0:0:
59,294,38889,5,4,0:2:0:0:
73,327,38963,1,0,0:0:0:0:
107,335,39036,1,0,0:0:0:0:
141,327,39109,1,0,0:0:0:0:
165,300,39182,1,2,0:3:0:0:
170,264,39255,1,0,0:0:0:0:
161,229,39328,1,0,0:0:0:0:
137,201,39402,1,0,0:0:0:0:
102,193,39475,1,2,0:3:0:0:
70,175,39548,1,0,0:0:0:0:
51,144,39621,1,0,0:0:0:0:
48,108,39694,1,0,0:0:0:0:
64,75,39768,37,10,0:3:0:0:
79,99,39841,1,0,0:0:0:0:
105,110,39914,1,0,0:0:0:0:
133,109,39987,1,0,0:0:0:0:
159,97,40060,1,2,0:3:0:0:
179,92,40133,1,0,0:0:0:0:
199,100,40207,1,0,0:0:0:0:
215,113,40280,1,0,0:0:0:0:
225,131,40353,1,2,0:3:0:0:
225,146,40426,1,0,0:0:0:0:
219,159,40499,1,0,0:0:0:0:
207,169,40572,1,0,0:0:0:0:
193,175,40646,5,4,0:2:0:0:
157,169,40719,1,0,0:0:0:0:
138,138,40792,1,0,0:0:0:0:
141,102,40865,1,0,0:0:0:0:
161,72,40938,1,2,0:3:0:0:
193,56,41011,1,0,0:0:0:0:
228,52,41085,1,0,0:0:0:0:
260,67,41158,1,0,0:0:0:0:
282,94,41231,1,2,0:3:0:0:
311,106,41304,1,0,0:0:0:0:
343,106,41377,1,0,0:0:0:0:
373,95,41450,1,0,0:0:0:0:
386,65,41524,6,0,P|361:47|344:42,3,35.6999989105225,12|0|0|0,0:2|0:0|0:0|0:0,0:0:0:0:
459,156,41816,2,0,P|484:138|501:133,3,35.6999989105225,12|0|0|0,0:2|0:0|0:0|0:0,0:0:0:0:
352,241,42109,6,0,L|342:287,1,35.6999989105225,12|0,0:2|0:0,0:0:0:0:
221,185,42255,2,0,L|213:150,1,35.6999989105225,8|0,0:2|0:0,0:0:0:0:
388,359,42402,37,4,0:2:0:0:
414,344,42475,1,0,0:0:0:0:
428,316,42548,1,0,0:0:0:0:
423,285,42621,1,0,0:0:0:0:
401,263,42694,1,4,0:2:0:0:
372,249,42768,1,0,0:0:0:0:
353,224,42841,1,0,0:0:0:0:
344,194,42914,1,0,0:0:0:0:
349,163,42987,1,4,0:2:0:0:
370,140,43060,1,0,0:0:0:0:
397,127,43133,1,0,0:0:0:0:
427,127,43207,1,0,0:0:0:0:
452,143,43280,5,12,0:2:0:0:
438,124,43353,1,0,0:0:0:0:
436,101,43426,1,0,0:0:0:0:
445,80,43499,1,0,0:0:0:0:
463,66,43572,1,4,0:2:0:0:
475,56,43646,1,0,0:0:0:0:
479,41,43719,1,0,0:0:0:0:
476,25,43792,1,0,0:0:0:0:
463,15,43865,1,6,0:2:0:0:
455,14,43938,1,0,0:0:0:0:
447,15,44011,1,0,0:0:0:0:
439,18,44085,1,0,0:0:0:0:
433,22,44158,5,4,0:2:0:0:
398,38,44231,1,0,0:0:0:0:
377,70,44304,1,0,0:0:0:0:
371,107,44377,1,0,0:0:0:0:
380,144,44450,1,4,0:2:0:0:
401,176,44524,1,0,0:0:0:0:
408,213,44597,1,0,0:0:0:0:
402,250,44670,1,0,0:0:0:0:
380,281,44743,1,4,0:2:0:0:
346,298,44816,1,0,0:0:0:0:
307,299,44889,1,0,0:0:0:0:
270,286,44963,1,0,0:0:0:0:
256,250,45036,5,12,0:2:0:0:
286,244,45109,1,0,0:0:0:0:
305,220,45182,1,0,0:0:0:0:
303,189,45255,1,0,0:0:0:0:
285,163,45328,1,2,0:3:0:0:
262,157,45402,1,0,0:0:0:0:
239,163,45475,1,0,0:0:0:0:
222,178,45548,1,0,0:0:0:0:
209,196,45621,38,0,L|204:140,3,38.2500014591218,10|0|0|0,0:2|0:0|0:0|0:0,0:0:0:0:
135,361,45914,5,12,0:2:0:0:
100,382,45987,1,0,0:0:0:0:
60,374,46060,1,0,0:0:0:0:
35,341,46133,1,0,0:0:0:0:
33,299,46207,1,4,0:2:0:0:
51,262,46280,1,0,0:0:0:0:
87,244,46353,1,0,0:0:0:0:
127,247,46426,1,0,0:0:0:0:
164,262,46499,1,4,0:2:0:0:
187,295,46572,1,0,0:0:0:0:
223,314,46646,1,0,0:0:0:0:
263,319,46719,1,0,0:0:0:0:
300,302,46792,5,12,0:2:0:0:
273,283,46865,1,0,0:0:0:0:
266,251,46938,1,0,0:0:0:0:
278,221,47011,1,0,0:0:0:0:
307,205,47085,1,4,0:2:0:0:
326,190,47158,1,0,0:0:0:0:
338,169,47231,1,0,0:0:0:0:
342,145,47304,1,0,0:0:0:0:
339,120,47377,1,2,0:2:0:0:
327,108,47450,1,0,0:0:0:0:
311,101,47524,1,0,0:0:0:0:
294,103,47597,1,0,0:0:0:0:
280,112,47670,6,0,P|292:142|310:150,3,40.8,12|0|0|0,0:2|0:0|0:0|0:0,0:0:0:0:
301,220,47963,2,0,P|333:222|348:209,3,40.8,10|0|0|0,0:2|0:0|0:0|0:0,0:0:0:0:
407,248,48255,2,0,P|423:220|418:200,3,40.8,12|0|0|0,0:2|0:0|0:0|0:0,0:0:0:0:
167,175,48548,37,8,0:3:0:0:
166,196,48621,1,8,2:3:0:0:
165,217,48694,1,8,2:3:0:0:
164,238,48768,1,8,2:3:0:0:
137,259,48841,5,8,0:3:0:0:
140,272,48914,1,8,2:3:0:0:
143,285,48987,1,8,2:3:0:0:
146,298,49060,1,8,2:3:0:0:
179,310,49133,5,8,0:2:0:0:
174,315,49207,1,8,2:2:0:0:
170,321,49280,1,8,2:2:0:0:
166,327,49353,1,8,2:2:0:0:
161,335,49426,5,4,0:2:0:0:
116,304,49499,1,8,1:2:0:0:
107,251,49572,1,0,0:0:0:0:
131,202,49646,1,8,1:2:0:0:
179,180,49719,1,2,0:2:0:0:
232,182,49792,1,8,1:2:0:0:
275,212,49865,1,2,0:2:0:0:
294,261,49938,1,8,1:2:0:0:
336,292,50011,1,2,0:2:0:0:
389,299,50085,1,8,1:2:0:0:
440,283,50158,1,2,0:2:0:0:
472,240,50231,1,8,1:2:0:0:
480,187,50304,1,2,0:2:0:0:
459,137,50377,1,8,1:2:0:0:
410,113,50450,1,2,0:2:0:0:
356,117,50524,1,8,1:2:0:0:
318,154,50597,37,2,0:2:0:0:
310,168,50670,1,8,1:2:0:0:
295,175,50743,1,2,0:2:0:0:
279,179,50816,1,8,1:2:0:0:
263,175,50889,1,4,0:2:0:0:
249,165,50963,1,8,1:2:0:0:
241,150,51036,1,2,0:2:0:0:
241,133,51109,1,8,1:2:0:0:
247,118,51182,5,4,0:2:0:0:
298,133,51255,1,8,1:2:0:0:
325,178,51328,1,0,0:0:0:0:
322,232,51402,1,8,1:2:0:0:
288,273,51475,1,2,0:2:0:0:
237,289,51548,1,8,1:2:0:0:
185,274,51621,1,2,0:2:0:0:
152,231,51694,1,8,1:2:0:0:
146,177,51768,1,2,0:2:0:0:
170,129,51841,1,8,1:2:0:0:
217,104,51914,1,2,0:2:0:0:
270,101,51987,1,8,1:2:0:0:
317,125,52060,1,2,0:2:0:0:
359,157,52133,1,8,1:2:0:0:
413,161,52207,1,2,0:2:0:0:
458,133,52280,1,8,1:2:0:0:
472,81,52353,5,4,0:2:0:0:
466,73,52426,1,8,1:2:0:0:
457,68,52499,2,0,P|424:90|421:109,1,46.9199984249268,0|8,0:0|1:2,0:0:0:0:
455,263,52646,5,4,0:2:0:0:
462,266,52719,1,8,1:2:0:0:
470,265,52792,2,0,P|479:226|469:210,1,41.8200006381226,0|8,0:0|1:2,0:0:0:0:
305,30,52938,37,4,0:2:0:0:
335,75,53011,1,8,1:2:0:0:
336,131,53084,1,0,0:0:0:0:
307,178,53158,1,8,1:2:0:0:
255,198,53231,1,2,0:2:0:0:
200,183,53304,1,8,1:2:0:0:
168,139,53377,1,2,0:2:0:0:
129,100,53450,1,8,1:2:0:0:
74,91,53523,1,2,0:2:0:0:
25,116,53596,1,8,1:2:0:0:
0,165,53669,1,2,0:2:0:0:
8,220,53742,1,8,1:2:0:0:
44,263,53816,5,2,0:2:0:0:
88,255,53889,1,8,1:2:0:0:
116,219,53963,1,2,0:2:0:0:
112,174,54036,1,8,1:2:0:0:
75,147,54109,5,2,0:2:0:0:
69,180,54182,1,8,1:2:0:0:
84,210,54255,1,2,0:2:0:0:
117,214,54328,1,8,1:2:0:0:
149,203,54402,6,0,B|160:184|160:184|160:152,3,35.6999989105225,2|8|2|8,0:2|1:2|0:2|1:2,0:0:0:0:
256,112,54694,37,4,0:2:0:0:
292,117,54768,1,8,1:2:0:0:
315,145,54841,1,0,0:0:0:0:
317,181,54914,1,8,1:2:0:0:
303,214,54987,6,0,P|283:205|285:171,3,35.6999989105225,2|8|0|8,0:3|1:2|0:0|1:2,0:0:0:0:
385,281,55280,6,0,P|383:293|376:304,3,25.5,2|8|0|8,0:3|1:2|0:0|1:2,0:0:0:0:
211,292,55572,53,8,0:2:0:0:
168,278,55646,1,8,2:2:0:0:
131,292,55719,1,8,2:2:0:0:
116,323,55792,1,8,2:2:0:0:
121,353,55865,6,0,L|167:357,1,43.8600006692505,8|0,0:3|2:0,0:0:0:0:
290,331,56011,5,8,2:3:0:0:
299,334,56085,1,8,2:3:0:0:
308,337,56158,5,8,0:2:0:0:
340,295,56231,1,8,2:2:0:0:
393,290,56304,1,8,2:2:0:0:
440,315,56377,1,8,2:2:0:0:
450,367,56450,37,4,0:2:0:0:
421,368,56524,1,8,1:2:0:0:
396,352,56597,1,0,0:0:0:0:
381,327,56670,1,8,1:2:0:0:
374,298,56743,1,2,0:2:0:0:
378,269,56816,1,8,1:2:0:0:
394,245,56889,1,2,0:2:0:0:
417,227,56963,1,8,1:2:0:0:
437,206,57036,1,2,0:2:0:0:
448,179,57109,1,8,1:2:0:0:
447,150,57182,1,2,0:2:0:0:
436,122,57255,1,8,1:2:0:0:
413,103,57328,1,2,0:2:0:0:
384,95,57402,1,8,1:2:0:0:
355,99,57475,1,2,0:2:0:0:
334,119,57548,1,8,1:2:0:0:
324,146,57621,5,4,0:2:0:0:
339,157,57694,1,8,1:2:0:0:
343,176,57768,1,2,0:2:0:0:
341,195,57841,1,8,1:2:0:0:
328,210,57914,6,0,P|300:215|277:193,3,48.4499987062455,4|8|0|8,0:2|1:2|0:0|1:2,0:0:0:0:
73,152,58207,5,4,0:2:0:0:
82,108,58280,1,8,1:2:0:0:
118,82,58353,1,0,0:0:0:0:
165,82,58426,1,8,1:2:0:0:
199,109,58499,1,2,0:2:0:0:
220,147,58572,1,8,1:2:0:0:
256,173,58646,1,2,0:2:0:0:
300,177,58719,1,8,1:2:0:0:
341,161,58792,1,2,0:2:0:0:
364,123,58865,1,8,1:2:0:0:
368,79,58938,1,2,0:2:0:0:
349,40,59011,1,8,1:2:0:0:
310,20,59085,1,4,0:2:0:0:
267,20,59158,1,8,1:2:0:0:
235,48,59231,1,2,0:2:0:0:
221,89,59304,1,8,1:2:0:0:
229,131,59377,37,2,0:2:0:0:
258,148,59450,1,8,1:2:0:0:
274,178,59524,1,2,0:2:0:0:
274,211,59597,1,8,1:2:0:0:
263,242,59670,5,4,0:2:0:0:
244,255,59743,1,8,1:2:0:0:
221,258,59816,1,0,0:0:0:0:
198,253,59889,1,8,1:2:0:0:
181,235,59963,5,4,0:2:0:0:
214,199,60036,1,8,1:2:0:0:
263,201,60109,1,2,0:3:0:0:
300,232,60182,1,8,1:2:0:0:
309,279,60255,1,2,0:3:0:0:
297,325,60328,1,8,1:2:0:0:
257,353,60402,1,2,0:3:0:0:
210,358,60475,1,8,1:2:0:0:
167,336,60548,1,2,0:3:0:0:
136,299,60621,1,8,1:2:0:0:
90,286,60694,1,2,0:3:0:0:
42,291,60768,1,8,1:2:0:0:
5,321,60841,5,4,0:2:0:0:
47,343,60914,1,8,1:2:0:0:
94,336,60987,1,2,0:3:0:0:
121,295,61060,1,8,1:2:0:0:
126,246,61133,1,2,0:3:0:0:
98,218,61207,1,8,1:2:0:0:
85,181,61280,1,2,0:3:0:0:
88,142,61353,1,8,1:2:0:0:
112,112,61426,1,2,0:3:0:0:
140,106,61499,1,8,1:2:0:0:
167,115,61572,1,2,0:3:0:0:
188,135,61646,1,8,1:2:0:0:
191,163,61719,37,12,0:2:0:0:
139,189,61792,1,8,2:2:0:0:
81,181,61865,1,8,2:2:0:0:
48,132,61938,1,8,2:2:0:0:
49,74,62011,1,8,0:2:0:0:
83,32,62085,1,8,2:2:0:0:
135,26,62158,1,8,2:2:0:0:
185,42,62231,1,8,2:2:0:0:
212,87,62304,5,8,0:3:0:0:
245,106,62377,1,8,2:3:0:0:
283,109,62450,1,8,2:3:0:0:
319,95,62524,1,8,2:3:0:0:
336,60,62597,5,8,0:3:0:0:
326,32,62670,1,8,0:3:0:0:
297,24,62743,2,0,P|280:57|284:86,1,48.4499987062455,8|8,0:3|0:3,0:0:0:0:
313,219,62889,5,8,0:3:0:0:
294,222,62963,1,8,2:3:0:0:
280,229,63036,1,8,0:3:0:0:
271,227,63109,1,8,2:3:0:0:
256,223,63182,38,0,B|245:230|245:230|256:269,1,48.4499987062455,12|0,2:2|0:0,0:0:0:0:
71,264,63475,5,4,0:2:0:0:
77,259,63548,1,0,0:0:0:0:
83,255,63621,1,0,0:0:0:0:
90,252,63694,1,0,0:0:0:0:
97,250,63768,1,4,0:2:0:0:
104,249,63841,1,0,0:0:0:0:
111,249,63914,1,0,0:0:0:0:
118,250,63987,1,0,0:0:0:0:
125,252,64060,1,4,0:2:0:0:
131,255,64133,1,0,0:0:0:0:
137,259,64207,1,0,0:0:0:0:
142,263,64280,1,0,0:0:0:0:
147,268,64353,5,12,0:2:0:0:
160,274,64426,1,0,0:0:0:0:
174,277,64499,1,0,0:0:0:0:
189,276,64572,1,0,0:0:0:0:
203,270,64646,1,4,0:2:0:0:
213,259,64719,1,0,0:0:0:0:
217,244,64792,1,0,0:0:0:0:
217,228,64865,1,0,0:0:0:0:
210,214,64938,1,4,0:2:0:0:
199,202,65011,1,0,0:0:0:0:
184,195,65085,1,0,0:0:0:0:
168,195,65158,1,0,0:0:0:0:
153,199,65231,5,4,0:2:0:0:
176,218,65304,1,0,0:0:0:0:
206,219,65377,1,0,0:0:0:0:
234,207,65450,1,0,0:0:0:0:
252,182,65524,1,4,0:2:0:0:
255,151,65597,1,0,0:0:0:0:
242,123,65670,1,0,0:0:0:0:
218,103,65743,1,0,0:0:0:0:
187,97,65816,1,4,0:2:0:0:
156,97,65889,1,0,0:0:0:0:
127,109,65963,1,0,0:0:0:0:
97,114,66036,1,0,0:0:0:0:
68,102,66109,37,12,0:2:0:0:
63,95,66182,1,0,0:0:0:0:
61,87,66255,1,0,0:0:0:0:
61,79,66328,1,0,0:0:0:0:
63,71,66402,1,4,0:2:0:0:
68,65,66475,1,0,0:0:0:0:
74,60,66548,1,0,0:0:0:0:
80,55,66621,1,0,0:0:0:0:
87,52,66694,1,4,0:2:0:0:
94,49,66768,1,0,0:0:0:0:
101,47,66841,1,0,0:0:0:0:
108,47,66914,1,0,0:0:0:0:
115,48,66987,5,4,0:2:0:0:
139,77,67060,1,0,0:0:0:0:
148,113,67133,1,0,0:0:0:0:
145,151,67207,1,0,0:0:0:0:
124,183,67280,1,4,0:2:0:0:
94,207,67353,1,0,0:0:0:0:
74,239,67426,1,0,0:0:0:0:
71,277,67499,1,0,0:0:0:0:
80,313,67572,1,4,0:2:0:0:
108,339,67646,1,0,0:0:0:0:
144,350,67719,1,0,0:0:0:0:
181,346,67792,1,0,0:0:0:0:
212,323,67865,5,12,0:2:0:0:
216,312,67938,1,0,0:0:0:0:
215,300,68011,1,0,0:0:0:0:
210,289,68085,1,0,0:0:0:0:
200,282,68158,1,4,0:2:0:0:
189,277,68231,1,0,0:0:0:0:
177,277,68304,1,2,0:2:0:0:
166,280,68377,1,0,0:0:0:0:
156,286,68450,1,6,0:2:0:0:
147,294,68524,1,0,0:0:0:0:
141,303,68597,1,0,0:0:0:0:
138,314,68670,1,0,0:0:0:0:
138,325,68743,5,4,0:2:0:0:
179,343,68816,1,0,0:0:0:0:
224,340,68889,1,0,0:0:0:0:
261,311,68963,1,0,0:0:0:0:
272,266,69036,1,4,0:2:0:0:
265,220,69109,1,0,0:0:0:0:
231,189,69182,37,8,0:2:0:0:
239,230,69255,1,0,0:0:0:0:
272,255,69328,1,4,0:2:0:0:
314,259,69402,1,0,0:0:0:0:
353,245,69475,1,0,0:0:0:0:
377,210,69548,1,0,0:0:0:0:
380,168,69621,5,12,0:2:0:0:
375,161,69694,1,0,0:0:0:0:
368,156,69768,2,0,P|341:182|346:207,1,38.2500014591218,0|0,0:0|0:0,0:0:0:0:
407,329,69914,5,12,0:2:0:0:
415,331,69987,1,0,0:0:0:0:
423,330,70061,2,0,P|426:292|407:276,1,38.2500014591218,0|0,0:0|0:0,0:0:0:0:
256,77,70207,5,12,0:2:0:0:
196,267,70353,1,8,0:2:0:0:
466,197,70499,37,4,0:2:0:0:
469,191,70572,1,0,0:0:0:0:
473,185,70645,1,0,0:0:0:0:
475,179,70718,1,0,0:0:0:0:
477,173,70792,1,4,0:2:0:0:
478,166,70864,1,0,0:0:0:0:
478,160,70938,1,0,0:0:0:0:
478,153,71011,1,0,0:0:0:0:
476,147,71085,1,4,0:2:0:0:
474,140,71157,1,0,0:0:0:0:
471,135,71230,1,0,0:0:0:0:
467,129,71303,1,0,0:0:0:0:
463,124,71377,5,12,0:2:0:0:
452,116,71450,1,0,0:0:0:0:
439,112,71524,1,0,0:0:0:0:
425,111,71597,1,0,0:0:0:0:
412,114,71670,1,4,0:2:0:0:
400,120,71743,1,0,0:0:0:0:
389,128,71816,1,0,0:0:0:0:
381,139,71889,1,0,0:0:0:0:
377,151,71963,1,4,0:2:0:0:
376,164,72036,1,0,0:0:0:0:
378,177,72109,1,0,0:0:0:0:
382,189,72182,1,0,0:0:0:0:
391,198,72255,5,4,0:2:0:0:
383,197,72328,1,0,0:0:0:0:
375,200,72402,1,0,0:0:0:0:
367,199,72475,1,0,0:0:0:0:
359,195,72548,1,4,0:2:0:0:
354,188,72621,1,0,0:0:0:0:
349,181,72694,1,0,0:0:0:0:
345,173,72768,1,0,0:0:0:0:
345,165,72841,1,4,0:2:0:0:
345,157,72914,1,0,0:0:0:0:
345,149,72987,1,0,0:0:0:0:
347,141,73060,1,0,0:0:0:0:
353,132,73133,5,12,0:2:0:0:
348,128,73207,1,0,0:0:0:0:
342,128,73280,1,0,0:0:0:0:
336,129,73353,1,0,0:0:0:0:
331,132,73426,1,4,0:2:0:0:
327,136,73499,1,0,0:0:0:0:
323,141,73572,1,2,0:2:0:0:
322,147,73646,1,0,0:0:0:0:
323,153,73719,1,4,0:2:0:0:
326,158,73792,1,0,0:0:0:0:
331,163,73865,1,0,0:0:0:0:
338,165,73938,1,0,0:0:0:0:
345,165,74011,37,4,0:2:0:0:
364,173,74085,1,0,0:0:0:0:
380,185,74158,1,0,0:0:0:0:
390,202,74231,1,0,0:0:0:0:
396,221,74304,1,4,0:2:0:0:
397,240,74377,1,0,0:0:0:0:
393,259,74450,1,0,0:0:0:0:
384,276,74524,1,0,0:0:0:0:
370,289,74597,1,4,0:2:0:0:
353,298,74670,1,0,0:0:0:0:
334,301,74743,1,0,0:0:0:0:
315,300,74816,1,0,0:0:0:0:
297,293,74889,5,12,0:2:0:0:
291,291,74963,1,0,0:0:0:0:
285,290,75036,1,0,0:0:0:0:
279,291,75109,1,0,0:0:0:0:
273,293,75182,1,4,0:2:0:0:
268,296,75255,1,0,0:0:0:0:
263,299,75328,1,2,0:2:0:0:
259,303,75402,1,0,0:0:0:0:
255,308,75475,1,4,0:2:0:0:
252,313,75548,1,0,0:0:0:0:
250,319,75621,1,0,0:0:0:0:
249,325,75694,1,0,0:0:0:0:
250,331,75768,6,0,P|270:343|285:334,3,33.1499984825135,4|0|0|0,0:2|0:0|0:0|0:0,0:0:0:0:
71,221,76060,5,8,0:3:0:0:
105,215,76133,1,8,0:3:0:0:
139,208,76207,1,8,0:3:0:0:
173,201,76280,1,8,0:3:0:0:
199,170,76353,37,8,0:1:0:0:
218,174,76426,1,8,0:3:0:0:
237,178,76500,1,8,0:3:0:0:
255,181,76573,1,8,0:3:0:0:
271,221,76646,5,8,0:2:0:0:
309,180,76719,1,8,0:2:0:0:
310,124,76792,2,0,P|292:97|270:91,1,42.839998692627
208,259,76938,5,8,0:3:0:0:
205,271,77011,1,8,0:3:0:0:
203,283,77085,1,0,0:0:0:0:
201,295,77158,1,0,0:0:0:0:
179,312,77231,6,0,B|173:320|173:320|184:357,1,42.839998692627,12|0,2:2|0:0,0:0:0:0:
151,62,77524,38,4,B|177:50|192:36|192:36|172:85|160:149,1,131.920003120056,4|0,0:2|0:0,0:2:0:0:
31,254,77816,5,2,0:2:0:0:
74,233,77914,1,0,0:0:0:0:
114,244,78011,1,0,0:0:0:0:
121,279,78109,6,0,B|123:295|119:306|119:306|127:296|156:291,1,49.4700011700211,2|0,0:2|0:0,0:0:0:0:
281,185,78402,6,0,B|262:212|231:217|231:217|221:188|201:172|152:180,1,131.920003120056,10|0,0:2|0:0,0:0:0:0:
314,348,78694,37,2,0:2:0:0:
361,338,78792,1,0,0:0:0:0:
377,299,78889,1,0,0:0:0:0:
354,270,78987,6,0,B|337:262|326:276|326:276|343:273|350:280,1,49.4700011700211,2|0,0:2|0:0,0:0:0:0:
435,371,79280,6,0,B|442:330|442:330|490:292|490:292|506:221,1,142.79999564209,4|0,0:2|0:0,0:0:0:0:
335,143,79572,5,2,0:2:0:0:
318,93,79670,1,0,0:0:0:0:
341,53,79768,1,0,0:0:0:0:
379,47,79865,38,0,B|394:52|394:52|353:72,1,53.5499983657837,2|0,0:2|0:0,0:0:0:0:
236,180,80158,6,0,B|307:204|293:145|374:160,1,129.199996549988,12|0,0:2|0:0,0:0:0:0:
472,277,80450,5,2,0:2:0:0:
439,242,80548,1,0,0:0:0:0:
398,231,80646,1,0,0:0:0:0:
363,239,80743,6,0,B|355:258|355:258|368:253|385:236,1,48.4499987062455,2|0,0:2|0:0,0:0:0:0:
447,70,81036,38,0,B|474:74|478:104|473:120|473:120|448:189,1,112.880001636292,4|0,0:2|0:0,0:0:0:0:
402,311,81328,5,2,0:2:0:0:
365,331,81426,1,0,0:0:0:0:
328,329,81524,1,0,0:0:0:0:
303,310,81621,6,0,B|293:297|293:297|257:312,1,42.3300006136093,2|0,0:2|0:0,0:0:0:0:
151,367,81914,6,0,L|137:214,1,112.880001636292,12|0,0:2|0:0,0:0:0:0:
28,82,82207,37,2,0:2:0:0:
66,96,82304,1,0,0:0:0:0:
99,109,82402,1,0,0:0:0:0:
127,120,82499,6,0,B|137:133|137:133|109:175,1,42.3300006136093,2|0,0:2|0:0,0:0:0:0:
32,347,82792,5,4,0:2:0:0:
56,299,82865,1,0,0:0:0:0:
109,295,82938,1,0,0:0:0:0:
157,318,83011,1,0,0:0:0:0:
168,368,83085,5,8,2:3:0:0:
174,342,83158,1,8,2:3:0:0:
181,316,83231,1,8,2:3:0:0:
188,290,83304,1,8,2:3:0:0:
170,279,83377,37,8,0:3:0:0:
172,260,83450,1,8,2:3:0:0:
177,242,83523,1,8,2:3:0:0:
180,223,83596,1,8,2:3:0:0:
154,193,83670,5,8,2:2:0:0:
183,159,83743,1,8,2:2:0:0:
226,148,83816,1,8,2:2:0:0:
269,160,83889,1,8,2:2:0:0:
298,210,83963,5,8,0:3:0:0:
296,192,84036,1,8,2:3:0:0:
295,174,84109,1,8,2:3:0:0:
294,156,84182,1,8,2:3:0:0:
274,146,84255,5,8,0:1:0:0:
275,134,84328,1,8,2:1:0:0:
275,122,84401,1,8,2:1:0:0:
276,110,84474,1,8,2:1:0:0:
314,84,84548,38,0,B|277:78|277:78|232:135|232:135|183:130,1,136,4|0,0:2|0:0,0:0:0:0:
387,258,84841,5,2,0:2:0:0:
411,215,84938,1,0,0:0:0:0:
398,173,85036,1,0,0:0:0:0:
361,168,85133,6,0,B|353:180|353:180|388:203,1,51,2|0,0:2|0:0,0:0:0:0:
454,299,85426,6,0,B|477:313|480:341|480:341|461:320|429:295|373:296,1,136,12|0,0:2|0:0,0:0:0:0:
293,361,85719,2,0,P|348:362|363:336,1,68
262,213,85914,5,8,0:2:0:0:
185,233,86012,1,8,0:2:0:0:
109,254,86109,1,8,0:2:0:0:
131,278,86207,1,8,0:2:0:0:
156,301,86304,6,0,B|170:275|170:275|167:255|167:255|175:228,1,74.8000022827149,4|0,0:1|0:0,0:0:0:0:
44,161,86499,1,8,0:3:0:0:
66,94,86597,1,8,0:3:0:0:
115,73,86694,1,8,0:3:0:0:
116,50,86792,1,8,0:3:0:0:
139,143,86889,6,0,L|66:129,1,74.8000022827149,4|0,0:1|0:0,0:0:0:0:
118,238,87085,1,8,0:3:0:0:
110,256,87182,2,0,B|145:278|173:247|173:247|199:216|253:247,1,125.119995799805,8|0,0:3|0:0,0:0:0:0:
247,252,87475,6,0,B|256:268|256:268|229:334,1,62.5599978999024,4|0,0:2|0:0,0:0:0:0:
133,384,87670,1,8,0:1:0:0:
131,372,87768,2,0,B|146:360|146:360|195:367,1,62.5599978999024,8|0,0:1|0:0,0:0:0:0:
285,359,87963,1,8,0:1:0:0:
296,364,88060,38,0,B|309:334|333:324|366:342|366:342|373:369|392:380|424:369,1,136,4|0,0:2|0:0,0:0:0:0:
495,272,88353,5,2,0:2:0:0:
465,234,88450,1,0,0:0:0:0:
461,191,88548,1,0,0:0:0:0:
484,161,88646,6,0,B|495:165|499:180|499:180|488:174|473:172,1,51,2|0,0:2|0:0,0:0:0:0:
393,76,88938,6,0,P|430:29|510:61,1,136,10|0,0:2|0:0,0:0:0:0:
379,161,89231,37,2,0:2:0:0:
330,188,89328,1,0,0:0:0:0:
281,183,89426,1,0,0:0:0:0:
253,161,89524,6,0,B|239:169|239:169|241:203,1,51,2|0,0:2|0:0,0:0:0:0:
451,76,89816,5,4,0:2:0:0:
458,111,89889,1,0,0:0:0:0:
466,146,89963,1,0,0:0:0:0:
474,181,90036,1,0,0:0:0:0:
448,210,90109,6,0,B|486:218|486:218|497:246|497:246|535:254,1,90.7800000692596,8|8,0:3|0:3,0:0:0:0:
456,310,90328,1,8,0:3:0:0:
452,327,90402,38,0,L|390:340,1,45.3900000346298
310,252,90548,5,8,0:3:0:0:
323,239,90621,1,8,0:3:0:0:
340,234,90694,1,8,0:3:0:0:
358,233,90768,1,8,0:3:0:0:
375,237,90841,6,0,B|383:246|383:246|370:281,1,45.3900000346298
285,343,90987,5,8,0:1:0:0:
275,345,91060,1,8,0:1:0:0:
266,346,91133,38,0,B|254:342|254:342|246:306,1,45.3900000346298
206,150,91280,6,0,P|213:132|213:151,1,45.8999985992432,12|0,2:2|0:0,0:0:0:0:
222,169,91572,6,0,B|173:182|159:140|159:140|145:99|87:111,1,136,4|0,0:2|0:0,0:0:0:0:
305,46,91865,5,4,0:2:0:0:
353,33,91963,1,0,0:0:0:0:
392,50,92060,1,0,0:0:0:0:
399,86,92158,38,0,B|382:87|368:89|368:89|377:76|399:74,1,51,4|0,0:2|0:0,0:0:0:0:
501,212,92450,6,0,B|479:203|458:209|437:227|437:227|447:202|443:174|422:156,1,136,12|0,0:2|0:0,0:0:0:0:
277,114,92743,5,4,0:2:0:0:
230,95,92841,1,0,0:0:0:0:
221,52,92938,1,0,0:0:0:0:
239,19,93036,6,0,B|255:19|261:32|261:32|259:47|249:60,1,51,4|0,0:2|0:0,0:0:0:0:
127,85,93328,38,0,B|98:82|75:91|75:91|57:125|65:168|114:189,1,149.60000456543,4|0,0:2|0:0,0:0:0:0:
318,289,93621,5,4,0:2:0:0:
299,237,93719,1,0,0:0:0:0:
252,225,93816,1,0,0:0:0:0:
213,239,93914,6,0,P|229:258|251:223,1,56.1000017120362,4|0,0:2|0:0,0:0:0:0:
123,317,94207,6,0,B|112:357|68:379|30:355|30:355|65:345|80:314,1,149.60000456543,4|0,0:2|0:0,0:0:0:0:
89,226,94499,2,0,B|107:203|132:210|132:210|114:226|103:255,1,74.8000022827149,4|0,0:2|0:0,0:0:0:0:
16,121,94694,37,8,0:2:0:0:
55,58,94792,1,8,0:2:0:0:
122,30,94889,1,8,0:2:0:0:
195,33,94987,1,8,0:2:0:0:
176,109,95085,6,0,B|203:143|298:148|318:66|228:62|248:92|258:108,1,163.199995019531,4|0,0:2|0:0,0:0:0:0:
387,22,95377,5,4,0:2:0:0:
425,68,95475,1,0,0:0:0:0:
414,118,95572,1,0,0:0:0:0:
371,132,95670,6,0,B|361:114|361:114|407:131,1,61.1999981323243,4|0,0:2|0:0,0:0:0:0:
455,239,95963,38,0,B|482:246|495:233|494:210|494:210|363:246,1,163.199995019531,12|0,0:2|0:0,0:0:0:0:
231,311,96255,5,4,0:2:0:0:
267,358,96353,1,0,0:0:0:0:
318,360,96450,1,0,0:0:0:0:
353,331,96548,6,0,B|367:319|367:319|387:322|387:322|357:353,1,61.1999981323243,4|0,0:2|0:0,0:0:0:0:
237,234,96841,5,4,0:2:0:0:
204,217,96914,1,0,0:0:0:0:
168,224,96987,1,0,0:0:0:0:
142,250,97060,1,0,0:0:0:0:
138,315,97133,37,8,2:3:0:0:
112,326,97207,1,8,2:3:0:0:
84,321,97280,1,8,2:3:0:0:
69,297,97353,1,8,2:3:0:0:
30,284,97426,5,8,0:3:0:0:
29,265,97499,1,8,2:3:0:0:
34,247,97572,1,8,2:3:0:0:
46,232,97646,1,8,2:3:0:0:
39,187,97719,6,0,P|75:180|96:187,1,45.8999985992432,8|8,0:2|2:2,0:0:0:0:
147,111,97865,2,0,P|169:140|171:162,1,45.8999985992432,8|8,2:2|2:2,0:0:0:0:
288,289,98011,5,8,0:3:0:0:
302,278,98085,1,8,2:3:0:0:
310,262,98158,1,8,2:3:0:0:
312,244,98231,1,8,2:3:0:0:
276,211,98304,37,8,0:2:0:0:
325,199,98377,1,8,2:2:0:0:
374,187,98450,1,8,2:2:0:0:
423,176,98524,1,8,2:2:0:0:
483,210,98597,6,0,B|462:220|462:220|421:197|421:197|418:180|418:180|391:168|391:168|365:176,1,136,4|0,0:2|0:0,0:0:0:0:
316,366,98889,5,4,0:2:0:0:
365,367,98987,1,0,0:0:0:0:
393,334,99085,1,0,0:0:0:0:
393,296,99182,6,0,B|377:285|377:285|378:320,1,51,4|0,0:2|0:0,0:0:0:0:
220,362,99475,38,0,B|196:336|176:334|138:335|138:335|158:311|188:317,1,136,12|0,0:2|0:0,0:0:0:0:
256,159,99768,5,4,0:2:0:0:
224,120,99865,1,0,0:0:0:0:
180,121,99963,1,0,0:0:0:0:
158,150,100060,6,0,B|156:164|143:169|143:169|140:153|154:146,1,51,4|0,0:2|0:0,0:0:0:0:
287,16,100353,6,0,P|346:53|283:102,1,142.79999564209,4|0,0:2|0:0,0:0:0:0:
29,12,100646,37,4,0:2:0:0:
21,62,100743,1,0,0:0:0:0:
39,101,100841,1,0,0:0:0:0:
73,118,100938,6,0,B|85:118|85:118|60:82,1,53.5499983657837,4|0,0:2|0:0,0:0:0:0:
283,160,101231,6,0,B|247:142|227:190|232:193|237:195|223:242|173:226,1,142.79999564209,12|0,0:2|0:0,0:0:0:0:
48,177,101524,2,0,P|79:152|134:165,1,71.399997821045,4|0,0:2|0:0,0:0:0:0:
8,374,101719,5,8,0:2:0:0:
30,303,101816,1,8,0:2:0:0:
93,264,101914,1,8,0:2:0:0:
166,272,102011,1,8,0:2:0:0:
135,340,102109,38,0,B|162:362|162:362|243:328,1,82.6200020170899,4|0,0:2|0:0,0:0:0:0:
277,191,102399,2,0,B|244:203|244:203|233:290,1,82.6200020170899,0|2,0:0|0:2,0:0:0:0:
328,375,102690,2,0,B|333:340|333:340|263:287,1,82.6200020170899
448,209,102981,5,12,0:2:0:0:
435,174,103118,1,0,0:0:0:0:
335,135,103256,5,0,0:0:0:0:
408,82,103393,1,4,0:2:0:0:
257,92,103532,5,0,0:0:0:0:
329,222,103670,1,0,0:0:0:0:
190,43,103808,37,4,0:2:0:0:
271,71,103946,6,0,B|253:48|253:48|186:65,2,78.2000014915467,0|2|0,0:0|0:2|0:0,0:0:0:0:
135,202,104360,2,0,B|169:191|169:191|184:141,1,78.2000014915467,4|0,0:2|0:0,0:0:0:0:
412,258,104636,6,0,L|446:289,1,45.8999985992432,8|8,0:3|2:3,0:0:0:0:
341,247,104774,2,0,L|297:260,1,45.8999985992432,8|8,2:3|2:3,0:0:0:0:
386,189,104912,2,0,L|397:144,1,45.8999985992432,8|8,2:3|2:3,0:0:0:0:
358,359,105049,6,0,L|369:314,1,45.8999985992432,8|8,0:3|2:3,0:0:0:0:
281,147,105187,2,0,L|315:178,1,45.8999985992432,8|8,2:3|2:3,0:0:0:0:
502,187,105325,2,0,L|458:200,1,45.8999985992432,8|8,2:3|2:3,0:0:0:0:
213,358,105463,37,4,0:2:0:0:
138,327,105601,1,0,0:0:0:0:
66,358,105739,1,0,0:0:0:0:
210,279,105877,6,0,B|234:271|234:271|249:215,2,71.399997821045,12|0|0,0:2|0:0|0:0,0:0:0:0:
24,135,106291,6,0,P|73:157|92:196,1,71.399997821045,2|0,0:2|0:0,0:0:0:0:
65,193,106567,1,0,0:0:0:0:
218,47,106705,5,12,0:2:0:0:
194,114,106843,1,0,0:0:0:0:
173,188,106981,1,0,0:0:0:0:
202,31,107118,38,0,L|289:22,2,71.399997821045,2|0|0,0:2|0:0|0:0,0:0:0:0:
117,106,107532,6,0,L|58:99,1,52.0200003175049,0|8,0:0|2:2,0:0:0:0:
256,199,107669,5,8,2:2:0:0:
253,251,107738,1,8,2:2:0:0:
215,287,107808,1,8,2:2:0:0:
162,288,107877,1,8,2:2:0:0:
124,244,107946,5,8,0:3:0:0:
130,238,108015,1,8,0:3:0:0:
137,234,108084,1,8,0:3:0:0:
145,233,108153,1,8,0:3:0:0:
153,234,108222,1,8,0:1:0:0:
161,236,108291,1,8,0:1:0:0:
167,240,108360,37,4,0:2:0:0:
195,271,108429,1,8,1:2:0:0:
198,308,108498,1,0,0:0:0:0:
188,338,108567,1,8,1:2:0:0:
168,355,108636,1,0,0:0:0:0:
142,361,108705,1,8,1:2:0:0:
115,356,108774,5,4,0:2:0:0:
111,351,108843,1,8,1:2:0:0:
108,346,108912,1,2,0:2:0:0:
107,340,108981,1,8,1:2:0:0:
107,334,109049,6,0,B|119:319|119:319|156:323,1,53.5500015831471,2|8,0:2|1:2,0:0:0:0:
311,372,109187,5,2,0:2:0:0:
353,364,109256,1,8,1:2:0:0:
377,335,109325,1,2,0:2:0:0:
377,302,109394,1,8,1:2:0:0:
360,280,109463,1,2,0:2:0:0:
335,268,109532,1,8,1:2:0:0:
321,244,109601,37,2,0:2:0:0:
320,238,109670,1,8,1:2:0:0:
321,232,109739,1,2,0:2:0:0:
323,227,109808,1,8,1:2:0:0:
328,225,109877,6,0,P|346:197|348:170,1,53.5500015831471,2|8,0:2|1:2,0:0:0:0:
442,26,110014,6,0,B|454:52|454:52|433:78,1,53.5500015831471,2|8,0:2|1:2,0:0:0:0:
456,164,110152,2,0,B|426:161|426:161|414:129,1,53.5500015831471,2|8,0:2|1:2,0:0:0:0:
328,106,110290,2,0,B|344:81|344:81|378:87,1,53.5500015831471,2|8,0:2|1:2,0:0:0:0:
229,206,110429,5,2,0:2:0:0:
189,223,110498,1,8,1:2:0:0:
152,216,110567,1,2,0:2:0:0:
131,190,110636,1,8,1:2:0:0:
104,186,110705,1,2,0:2:0:0:
80,198,110774,1,8,1:2:0:0:
69,222,110843,37,4,0:2:0:0:
69,227,110912,1,8,1:2:0:0:
70,232,110981,1,0,0:0:0:0:
72,236,111049,1,8,1:2:0:0:
74,240,111118,6,0,B|80:262|80:262|125:272,1,53.5500015831471,4|8,0:2|1:2,0:0:0:0:
349,360,111256,6,0,L|304:316,1,53.5500015831471,2|8,0:3|1:2,0:0:0:0:
307,197,111393,2,0,L|291:256,1,53.5500015831471,2|8,0:3|1:2,0:0:0:0:
187,314,111531,2,0,L|246:297,1,53.5500015831471,2|8,0:3|1:2,0:0:0:0:
170,98,111670,5,2,0:3:0:0:
188,59,111739,1,8,1:2:0:0:
221,41,111808,1,2,0:3:0:0:
253,41,111877,1,8,1:2:0:0:
278,49,111946,1,2,0:3:0:0:
289,67,112015,1,8,1:2:0:0:
291,82,112084,1,2,0:3:0:0:
288,92,112153,1,8,1:2:0:0:
284,95,112222,1,2,0:3:0:0:
279,97,112291,1,8,1:2:0:0:
273,98,112360,38,0,P|241:81|252:53,1,53.5499983657837,2|8,0:3|1:2,0:0:0:0:
304,23,112498,2,0,P|336:40|325:68,1,53.5499983657837,2|8,0:3|1:2,0:0:0:0:
142,179,112636,5,2,0:3:0:0:
118,181,112705,1,8,1:2:0:0:
95,173,112774,2,0,B|77:144|77:144|83:108,1,53.5499983657837,2|8,0:3|1:2,0:0:0:0:
252,64,112912,5,4,0:2:0:0:
293,56,112980,1,8,1:2:0:0:
326,73,113049,1,2,0:3:0:0:
339,102,113118,1,8,1:2:0:0:
357,121,113187,1,2,0:3:0:0:
382,128,113256,1,8,1:2:0:0:
408,125,113325,5,2,0:3:0:0:
412,122,113394,1,8,1:2:0:0:
415,118,113463,1,2,0:3:0:0:
417,113,113532,1,8,1:2:0:0:
419,108,113601,2,0,L|427:60,1,39.1000007457733,2|8,0:3|1:2,0:0:0:0:
281,163,113739,37,2,0:3:0:0:
282,168,113808,1,8,1:2:0:0:
283,173,113877,1,2,0:3:0:0:
284,178,113946,1,8,1:2:0:0:
285,183,114015,2,0,P|311:181|353:208,1,45.8999985992432,2|0,0:3|0:0,0:0:0:0:
446,236,114153,5,4,0:2:0:0:
445,241,114222,1,0,0:0:0:0:
444,246,114291,1,0,0:0:0:0:
443,251,114360,1,0,0:0:0:0:
442,256,114429,2,0,P|416:254|374:281,1,40.7999987548829
216,366,114567,5,4,0:2:0:0:
168,373,114636,1,8,1:2:0:0:
127,359,114705,1,2,0:3:0:0:
111,324,114774,1,8,1:2:0:0:
119,293,114843,1,2,0:3:0:0:
141,278,114912,1,8,1:2:0:0:
162,277,114980,1,2,0:3:0:0:
178,290,115049,1,8,1:2:0:0:
179,311,115118,6,0,P|189:290|188:262,3,33.6599998972778,2|8|2|8,0:3|1:2|0:3|1:2,0:0:0:0:
273,192,115394,37,2,0:3:0:0:
311,173,115463,1,8,1:2:0:0:
322,137,115532,1,2,0:3:0:0:
312,106,115601,1,8,1:2:0:0:
285,99,115670,6,0,B|257:87|257:87|255:48,1,53.3800002036285,2|8,0:3|1:2,0:0:0:0:
480,25,115808,5,2,0:3:0:0:
484,67,115877,1,8,1:2:0:0:
460,95,115946,1,2,0:3:0:0:
428,100,116015,1,8,1:2:0:0:
401,95,116084,1,2,0:3:0:0:
389,77,116153,1,8,1:2:0:0:
387,61,116222,5,12,0:2:0:0:
440,61,116291,1,8,2:2:0:0:
468,99,116360,1,8,2:2:0:0:
463,141,116429,1,8,2:2:0:0:
437,168,116498,38,0,L|376:162,1,53.5499983657837,8|8,2:2|2:2,0:0:0:0:
253,228,116636,5,8,0:3:0:0:
245,243,116705,6,0,B|205:252|205:252|174:224|174:224|117:239,1,106.760000407257,8|8,2:3|2:3,0:0:0:0:
48,170,116912,1,8,2:3:0:0:
52,166,116980,1,8,2:3:0:0:
56,161,117049,6,0,P|83:178|85:189,2,32.9800007800141,4|8|8,0:1|2:3|2:3,0:0:0:0:
125,334,117325,37,0,0:0:0:0:
124,339,117394,1,0,0:0:0:0:
123,344,117463,5,8,2:2:0:0:
140,353,117532,5,8,2:2:0:0:
175,354,117601,1,8,2:2:0:0:
214,322,117670,1,8,2:2:0:0:
202,256,117739,6,0,P|177:240|151:243,1,51.0000019454957,8|8,2:2|2:2,0:0:0:0:
339,356,117877,37,4,0:2:0:0:
359,317,117946,1,8,1:2:0:0:
397,311,118015,1,0,0:0:0:0:
425,330,118084,1,8,1:2:0:0:
438,355,118153,6,0,B|449:348|449:348|452:299,1,55.0800013447266,0|8,0:0|1:2,0:0:0:0:
336,242,118291,5,4,0:2:0:0:
333,236,118360,1,8,1:2:0:0:
330,230,118429,6,0,B|357:225|357:225|360:223|360:223|395:215,1,55.0800013447266,0|8,0:0|1:2,0:0:0:0:
493,163,118567,2,0,B|466:158|466:158|463:156|463:156|428:148,1,55.0800013447266,2|8,0:2|1:2,0:0:0:0:
307,98,118705,37,2,0:2:0:0:
301,96,118774,1,8,1:2:0:0:
295,94,118843,1,2,0:2:0:0:
289,93,118912,1,8,1:2:0:0:
283,92,118980,6,0,P|300:124|330:118,1,55.0800013447266,2|8,0:2|1:2,0:0:0:0:
392,146,119118,2,0,P|423:127|416:98,1,55.0800013447266,2|8,0:2|1:2,0:0:0:0:
219,27,119256,6,0,L|152:47,1,55.0800013447266,2|8,0:2|1:2,0:0:0:0:
156,119,119394,2,0,L|208:103,1,55.0800013447266,2|8,0:2|1:2,0:0:0:0:
429,42,119532,5,4,0:2:0:0:
462,70,119601,1,8,1:2:0:0:
468,107,119670,1,2,0:2:0:0:
453,136,119739,1,8,1:2:0:0:
427,147,119808,1,2,0:2:0:0:
411,162,119877,1,8,1:2:0:0:
408,178,119946,37,2,0:2:0:0:
408,183,120015,1,8,1:2:0:0:
409,188,120084,1,2,0:2:0:0:
411,192,120153,1,8,1:2:0:0:
413,196,120222,6,0,L|482:183,1,55.0800013447266,2|8,0:2|1:2,0:0:0:0:
367,333,120360,6,0,P|332:327|319:303,1,55.0800013447266,4|8,0:2|1:2,0:0:0:0:
236,315,120498,2,0,P|226:280|241:258,1,55.0800013447266,2|8,0:2|1:2,0:0:0:0:
307,168,120636,2,0,P|316:202|301:224,1,55.0800013447266,2|8,0:2|1:2,0:0:0:0:
138,353,120774,5,4,0:2:0:0:
132,352,120843,1,8,1:2:0:0:
126,351,120912,2,0,B|106:343|106:343|104:304,1,55.0800013447266,2|8,0:2|1:2,0:0:0:0:
23,215,121049,37,2,0:2:0:0:
53,182,121118,1,8,1:2:0:0:
89,169,121187,1,4,0:2:0:0:
121,171,121256,1,8,1:2:0:0:
141,188,121325,1,0,0:0:0:0:
143,209,121394,1,8,1:2:0:0:
140,214,121463,1,2,0:2:0:0:
136,218,121532,1,8,1:2:0:0:
131,221,121601,6,0,P|105:200|102:168,1,55.0800013447266,2|8,0:2|1:2,0:0:0:0:
235,75,121739,1,0,0:0:0:0:
239,75,121808,1,8,1:2:0:0:
243,77,121877,6,0,P|238:110|213:129,1,55.0800013447266,2|8,0:2|1:2,0:0:0:0:
285,260,122015,5,2,0:2:0:0:
310,288,122084,1,8,1:2:0:0:
342,294,122153,1,2,0:2:0:0:
367,284,122222,1,8,1:2:0:0:
379,265,122291,38,0,L|394:198,1,55.0800013447266,2|8,0:2|1:2,0:0:0:0:
306,125,122429,5,0,0:0:0:0:
340,88,122498,1,8,1:2:0:0:
383,82,122567,1,2,0:2:0:0:
418,97,122636,1,8,1:2:0:0:
450,92,122705,6,0,P|456:72|435:42,1,55.0800013447266,2|8,0:2|1:2,0:0:0:0:
302,150,122843,5,4,0:1:0:0:
241,150,122912,1,8,2:2:0:0:
197,182,122980,1,8,2:2:0:0:
183,229,123049,1,8,2:2:0:0:
197,270,123118,1,8,2:2:0:0:
227,293,123187,1,8,2:2:0:0:
243,321,123256,37,8,0:3:0:0:
241,338,123325,1,8,2:3:0:0:
231,353,123394,1,8,2:3:0:0:
216,363,123463,1,8,2:3:0:0:
199,369,123532,6,0,L|188:302,1,44.8799998630371,8|8,2:3|2:3,0:0:0:0:
50,273,123670,2,0,L|43:318,3,44.8799998630371,8|8|8|8,2:3|2:3|2:3|2:3,0:0:0:0:
163,194,123946,6,0,B|176:209|194:200|194:200|182:183|162:189,1,61.1999981323243,8|8,0:1|0:1,0:0:0:0:
90,120,124084,5,4,0:2:0:0:
301,64,124222,37,0,0:0:0:0:
287,49,124360,1,8,0:2:0:0:
236,219,124498,5,4,0:2:0:0:
252,257,124567,1,0,1:0:0:0:
291,269,124636,1,0,0:0:0:0:
332,263,124705,1,0,1:0:0:0:
357,232,124774,1,0,0:0:0:0:
352,189,124843,1,0,1:0:0:0:
316,164,124912,6,0,L|329:235,1,53.3800002036285,8|0,0:2|1:0,0:0:0:0:
446,343,125049,2,0,L|455:290,1,53.3800002036285,8|0,0:2|1:0,0:0:0:0:
478,160,125187,5,8,0:2:0:0:
481,155,125256,1,0,1:0:0:0:
483,150,125325,2,0,P|470:130|425:137,1,53.3800002036285,8|0,0:2|1:0,0:0:0:0:
349,58,125463,37,8,0:2:0:0:
346,53,125532,1,0,1:0:0:0:
344,48,125601,2,0,P|357:28|402:35,1,53.5499983657837,8|0,0:2|1:0,0:0:0:0:
25,59,125739,6,0,B|15:75|15:75|37:119,1,53.3800002036285,8|0,0:2|1:0,0:0:0:0:
115,185,125877,2,0,B|125:201|125:201|102:245,1,58.480000892334,8|0,0:2|1:0,0:0:0:0:
10,34,126015,2,0,B|-3:47|-3:47|9:96,1,63.5799987388001,8|0,0:2|1:0,0:0:0:0:
180,287,126153,5,8,0:2:0:0:
195,289,126222,1,8,2:2:0:0:
210,291,126291,1,8,2:2:0:0:
225,294,126360,1,8,2:2:0:0:
240,295,126429,1,8,2:2:0:0:
255,296,126498,1,8,2:2:0:0:
270,328,126567,5,0,0:0:0:0:
279,325,126636,1,0,0:0:0:0:
288,322,126705,1,8,2:3:0:0:
297,319,126774,1,8,2:3:0:0:
306,316,126843,1,8,2:3:0:0:
315,313,126912,1,8,2:3:0:0:
328,290,126980,37,8,1:3:0:0:
332,291,127049,1,8,2:3:0:0:
336,292,127118,1,8,1:3:0:0:
340,293,127187,1,8,2:3:0:0:
344,294,127256,2,0,L|352:354,1,53.3800002036285
317,188,127394,6,0,B|263:201|263:201|257:214|257:214|191:232,1,106.760000407257,12|0,0:2|0:0,0:0:0:0:
120,253,127670,5,8,0:2:0:0:
321,64,127808,5,4,0:2:0:0:
317,61,127877,1,0,0:0:0:0:
312,58,127946,1,0,0:0:0:0:
307,56,128015,1,0,0:0:0:0:
301,55,128084,1,0,0:0:0:0:
295,55,128153,1,0,0:0:0:0:
289,55,128222,37,10,1:2:0:0:
295,113,128291,1,0,0:0:0:0:
341,148,128360,1,10,1:2:0:0:
399,148,128429,1,0,0:0:0:0:
443,109,128498,1,10,1:2:0:0:
448,50,128567,1,0,0:0:0:0:
407,7,128636,5,10,1:2:0:0:
376,48,128705,1,0,0:0:0:0:
376,99,128774,1,10,1:2:0:0:
408,138,128843,1,0,0:0:0:0:
447,171,128912,1,10,1:2:0:0:
487,201,128980,1,0,0:0:0:0:
497,251,129049,1,10,1:2:0:0:
479,297,129118,1,0,0:0:0:0:
436,321,129187,1,10,1:2:0:0:
386,317,129256,1,0,0:0:0:0:
352,281,129325,2,0,B|332:273|332:273|269:290,1,63.75,10|0,1:2|0:0,0:0:0:0:
81,382,129463,5,10,1:2:0:0:
42,333,129532,1,0,0:0:0:0:
39,271,129601,1,10,1:2:0:0:
72,219,129670,1,0,0:0:0:0:
129,195,129739,1,10,1:2:0:0:
190,201,129808,1,0,0:0:0:0:
241,235,129877,1,10,1:2:0:0:
298,245,129946,1,0,0:0:0:0:
354,230,130015,1,10,1:2:0:0:
388,182,130084,1,0,0:0:0:0:
391,123,130153,1,10,1:2:0:0:
351,79,130222,1,0,0:0:0:0:
293,70,130291,5,10,1:2:0:0:
307,116,130360,1,0,0:0:0:0:
351,133,130429,1,10,1:2:0:0:
398,124,130498,1,0,0:0:0:0:
423,82,130567,1,10,1:2:0:0:
413,34,130636,1,0,0:0:0:0:
369,13,130705,38,0,L|360:70,1,53.3800002036285,8|0,1:2|0:0,0:0:0:0:
254,192,130843,2,0,L|263:249,1,53.3800002036285,8|0,1:2|0:0,0:0:0:0:
362,4,130980,2,0,L|353:61,1,53.3800002036285,8|0,1:2|0:0,0:0:0:0:
184,90,131118,5,8,0:3:0:0:
178,91,131187,1,8,0:3:0:0:
172,90,131256,1,8,0:3:0:0:
166,88,131325,1,8,0:3:0:0:
161,85,131394,1,8,0:3:0:0:
156,81,131463,1,8,0:3:0:0:
153,76,131532,6,0,P|158:51|176:40,1,32.9800007800141,8|0,0:2|0:2,0:0:0:0:
277,129,131670,5,8,0:3:0:0:
176,215,131808,2,8,L|122:198,1,45.2199981369935,8|8,0:3|0:3,0:3:0:0:
288,114,131946,37,4,0:2:0:0:
329,103,132015,1,8,1:2:0:0:
360,123,132084,1,2,0:3:0:0:
368,153,132153,1,8,1:2:0:0:
361,178,132222,6,0,B|341:179|341:179|341:219,1,53.3800002036285,2|8,0:3|1:2,0:0:0:0:
451,311,132360,5,2,0:3:0:0:
451,305,132429,1,8,1:2:0:0:
452,299,132498,1,2,0:3:0:0:
453,293,132567,1,8,1:2:0:0:
454,287,132636,5,2,0:3:0:0:
418,326,132705,1,8,1:2:0:0:
370,333,132774,1,8,0:2:0:0:
333,310,132843,1,8,1:2:0:0:
321,274,132912,38,0,P|287:262|260:266,1,53.3800002036285,8|8,0:3|1:3,0:0:0:0:
211,356,133049,2,0,P|177:368|150:364,1,53.3800002036285,8|8,0:3|1:3,0:0:0:0:
42,258,133187,5,2,0:3:0:0:
72,228,133256,1,8,1:2:0:0:
109,224,133325,1,2,0:3:0:0:
137,238,133394,1,8,1:2:0:0:
151,260,133463,1,2,0:3:0:0:
148,286,133532,1,8,1:2:0:0:
130,305,133601,5,2,0:3:0:0:
124,305,133670,1,8,1:2:0:0:
118,303,133739,1,2,0:3:0:0:
113,299,133808,1,8,1:2:0:0:
110,294,133877,6,0,P|120:258|134:245,1,53.3800002036285,2|8,0:3|1:2,0:0:0:0:
218,127,134015,37,4,0:2:0:0:
266,124,134084,1,8,0:2:0:0:
297,153,134153,1,8,0:2:0:0:
302,190,134222,1,8,0:2:0:0:
293,221,134291,6,0,L|229:216,1,53.3800002036285,8|8,0:2|0:2,0:0:0:0:
92,89,134429,6,0,P|70:74|44:77,1,53.3800002036285,4|8,0:2|0:2,0:0:0:0:
16,144,134567,2,8,P|38:159|65:157,1,53.3800002036285,8|8,0:2|0:2,0:2:0:0:
178,12,134705,6,0,L|183:76,1,53.3800002036285,8|8,0:2|0:2,0:0:0:0:
188,234,134843,37,4,0:2:0:0:
199,192,134912,1,8,0:2:0:0:
179,160,134980,1,0,0:0:0:0:
147,153,135049,1,8,0:2:0:0:
122,163,135118,6,0,B|104:185|104:185|115:215,1,53.3800002036285,2|8,0:3|0:2,0:0:0:0:
84,333,135256,5,2,0:3:0:0:
80,330,135325,1,8,0:2:0:0:
76,327,135394,1,2,0:3:0:0:
71,324,135463,1,8,0:2:0:0:
66,321,135532,1,2,0:3:0:0:
61,318,135601,1,8,0:2:0:0:
55,318,135670,5,8,0:3:0:0:
90,358,135739,1,8,0:2:0:0:
137,368,135808,1,8,0:3:0:0:
178,358,135877,1,8,0:2:0:0:
204,331,135946,38,0,L|200:292,1,31.62000098909,8|8,0:1|0:1,0:0:0:0:
369,285,136084,5,0,0:0:0:0:
392,249,136153,1,8,0:2:0:0:
381,213,136222,1,2,0:3:0:0:
351,201,136291,1,8,0:2:0:0:
319,206,136360,6,0,P|293:172|297:128,1,53.3800002036285,0|8,0:3|1:2,0:0:0:0:
466,22,136498,5,2,0:3:0:0:
464,27,136567,1,8,1:2:0:0:
461,31,136636,1,2,0:3:0:0:
457,35,136705,1,8,1:2:0:0:
456,40,136774,37,2,0:3:0:0:
454,61,136843,1,8,1:2:0:0:
462,86,136912,1,2,0:3:0:0:
476,113,136980,1,8,0:2:0:0:
476,150,137049,1,8,0:2:0:0:
445,180,137118,1,8,0:2:0:0:
396,183,137187,1,8,0:2:0:0:
350,154,137256,1,8,0:2:0:0:
343,107,137325,6,0,P|370:124|380:157,1,53.3800002036285,12|8,0:2|0:2,0:0:0:0:
447,257,137463,5,8,0:2:0:0:
447,267,137532,1,8,0:2:0:0:
441,276,137601,2,0,P|419:299|384:302,1,53.3800002036285,8|8,0:2|0:0,0:0:0:0:
152,365,137739,5,4,0:2:0:0:
146,357,137808,1,0,0:0:0:0:
141,348,137877,1,0,0:0:0:0:
138,338,137946,1,0,0:0:0:0:
138,328,138015,1,0,0:0:0:0:
140,318,138084,1,0,0:0:0:0:
143,309,138153,1,4,0:2:0:0:
148,301,138222,1,0,0:0:0:0:
155,295,138291,38,0,P|180:276|189:252,1,30.5999990661621
257,227,138429,2,0,P|250:196|233:177,1,35.6999989105225
97,148,138567,5,12,0:2:0:0:
81,130,138636,1,0,0:0:0:0:
76,106,138705,1,0,0:0:0:0:
82,83,138774,1,0,0:0:0:0:
98,66,138843,1,0,0:0:0:0:
120,58,138912,1,0,0:0:0:0:
143,58,138980,1,0,0:0:0:0:
165,65,139049,1,0,0:0:0:0:
180,82,139118,6,0,B|193:103|193:103|179:139,1,35.6999989105225,4|0,0:2|0:0,0:0:0:0:
57,76,139256,2,0,B|49:56|49:56|62:35,1,40.8,2|0,0:2|0:0,0:0:0:0:
298,133,139394,5,4,0:2:0:0:
295,149,139463,1,0,0:0:0:0:
287,163,139532,1,0,0:0:0:0:
275,174,139601,1,0,0:0:0:0:
260,181,139670,1,0,0:0:0:0:
243,182,139739,1,0,0:0:0:0:
226,179,139808,1,4,0:2:0:0:
209,179,139877,1,0,0:0:0:0:
193,184,139946,38,0,P|174:204|165:236,1,35.6999989105225
100,268,140084,2,0,P|109:293|134:315,1,40.8
291,371,140222,5,12,0:2:0:0:
316,354,140291,1,0,0:0:0:0:
324,324,140360,1,0,0:2:0:0:
314,295,140429,1,0,0:0:0:0:
285,283,140498,5,8,0:2:0:0:
292,312,140567,1,0,0:0:0:0:
318,327,140636,1,4,0:2:0:0:
348,329,140705,1,0,0:0:0:0:
377,320,140774,6,0,B|394:375,1,40.8
493,255,140912,2,0,B|506:210,1,45.8999985992432,2|0,0:2|0:0,0:0:0:0:
318,152,141049,37,4,0:2:0:0:
339,142,141118,1,0,0:0:0:0:
362,140,141187,1,0,0:0:0:0:
384,147,141256,1,0,0:0:0:0:
402,161,141325,1,0,0:0:0:0:
413,181,141394,1,0,0:0:0:0:
416,204,141463,1,4,0:2:0:0:
409,226,141532,1,0,0:0:0:0:
391,241,141601,6,0,B|366:228|366:228|334:229,1,40.8
307,301,141739,2,0,B|284:317|284:317|271:346,1,45.8999985992432
492,154,141877,5,12,0:2:0:0:
495,116,141946,1,0,0:0:0:0:
473,85,142015,1,0,0:0:0:0:
439,68,142084,1,0,0:0:0:0:
401,71,142153,1,0,0:0:0:0:
372,95,142222,1,0,0:0:0:0:
336,107,142291,1,0,0:0:0:0:
299,98,142360,1,0,0:0:0:0:
281,64,142429,6,0,P|278:32|303:9,1,45.9000001750946,4|0,0:2|0:0,0:0:0:0:
402,106,142567,2,0,P|405:138|380:161,1,40.8,2|0,0:0|0:0,0:0:0:0:
244,183,142705,37,4,0:2:0:0:
229,189,142774,1,0,0:0:0:0:
212,189,142843,1,0,0:2:0:0:
197,181,142912,1,0,0:0:0:0:
187,167,142980,1,0,0:0:0:0:
185,150,143049,1,0,0:0:0:0:
191,134,143118,5,12,0:2:0:0:
175,140,143187,1,0,0:0:0:0:
158,138,143256,6,0,P|131:130|131:102,1,35.6999989105225
57,87,143394,2,0,P|59:58|86:53,1,40.8,8|0,0:2|0:0,0:0:0:0:
115,230,143532,5,4,0:2:0:0:
60,179,143670,38,0,B|33:178|33:178|21:210,1,43.3500008268356,8|8,2:3|2:3,0:0:0:0:
87,322,143808,5,8,2:3:0:0:
112,318,143877,1,8,2:3:0:0:
137,315,143946,1,8,2:3:0:0:
163,311,144015,1,8,2:3:0:0:
190,291,144084,5,8,2:3:0:0:
207,292,144153,1,8,2:3:0:0:
228,315,144222,5,8,2:3:0:0:
236,314,144291,1,8,2:3:0:0:
249,303,144360,38,0,L|317:317,1,43.3500008268356,4|0,2:2|0:2,0:2:0:0:
371,344,145187,5,4,0:2:0:0:
331,328,145256,1,8,1:2:0:0:
319,292,145325,1,2,0:2:0:0:
329,261,145394,1,8,1:2:0:0:
352,248,145463,1,2,0:2:0:0:
356,245,145532,1,8,1:2:0:0:
359,241,145601,5,2,0:2:0:0:
385,217,145670,1,8,1:2:0:0:
389,187,145739,1,2,0:2:0:0:
377,165,145808,1,8,1:2:0:0:
358,159,145877,1,2,0:2:0:0:
352,159,145946,1,8,1:2:0:0:
347,161,146015,5,8,0:2:0:0:
353,219,146084,1,8,0:2:0:0:
391,256,146153,1,8,0:2:0:0:
439,257,146222,1,8,0:2:0:0:
475,233,146291,1,8,0:2:0:0:
483,196,146360,1,8,0:2:0:0:
475,164,146429,37,4,0:2:0:0:
301,86,146567,1,4,0:2:0:0:
434,34,146705,1,4,0:2:0:0:
235,228,146843,5,8,0:3:0:0:
215,233,146912,2,0,B|192:240|192:240|158:209,1,53.5499983657837,8|8,2:3|2:3,0:0:0:0:
214,22,147049,2,0,B|253:29|253:29|263:68|263:68|305:76,1,107.099996731567,8|8,2:3|2:3,0:0:0:0:
301,86,147256,5,4,0:2:0:0:
132,15,147394,1,2,0:2:0:0:
74,116,147532,1,4,0:2:0:0:
286,174,147670,5,8,0:3:0:0:
306,198,147739,1,8,0:3:0:0:
314,223,147808,1,8,0:3:0:0:
311,244,147877,1,8,0:3:0:0:
300,259,147946,2,0,L|289:315,1,36.7200008964844
215,373,148084,2,0,L|207:336,1,36.7200008964844,8|8,0:1|0:1,0:0:0:0:
198,250,148222,38,0,P|216:243|233:242,3,22.7799989224549,8|8|8|8,2:1|2:1|2:1|2:1,0:0:0:0:
125,369,148498,6,0,L|61:346,1,44.8800013696289,4|0,0:2|0:0,0:0:0:0:
16,314,148634,5,0,0:0:0:0:
15,305,148703,1,0,0:0:0:0:
15,296,148772,2,0,B|29:285|29:285|30:262,1,26.0100001587524
26,158,148910,6,0,B|43:137|43:137|68:135,1,47.430001483635,4|0,0:2|0:0,0:0:0:0:
127,58,149048,37,0,0:0:0:0:
132,64,149117,1,0,0:0:0:0:
139,69,149187,1,0,0:0:0:0:
145,73,149256,1,0,0:0:0:0:
150,105,149325,6,0,B|184:118|184:118|250:78,1,89.7600027392579,8|0,0:3|0:0,0:0:0:0:
229,90,149601,1,8,0:3:0:0:
341,168,149738,6,0,L|308:188,1,25.8399996845703,4|0,0:2|0:0,0:0:0:0:
213,200,149877,5,0,0:0:0:0:
217,201,149945,1,0,0:0:0:0:
221,202,150014,1,0,0:0:0:0:
225,203,150083,1,0,0:0:0:0:
229,204,150152,2,0,L|242:240,1,38.7599995268555,4|0,0:2|0:0,0:0:0:0:
483,347,150290,37,0,0:0:0:0:
479,346,150359,1,0,0:0:0:0:
475,345,150428,1,0,0:0:0:0:
471,343,150497,1,0,0:0:0:0:
456,356,150565,6,0,B|449:342|431:333|431:333|445:317|445:291,1,63.5799987388001,10|0,0:2|0:0,0:0:0:0:
316,236,150703,2,0,B|323:222|341:213|341:213|327:197|327:172,1,58.480000892334,10|0,0:2|0:0,0:0:0:0:
431,229,150841,6,0,B|446:225|459:210|459:210|471:226|497:232,1,53.5499983657837,10|0,0:2|0:0,0:0:0:0:
341,318,150979,2,0,B|326:320|312:332|312:332|302:315|280:306,1,49.9799976739656,10|0,0:2|0:0,0:0:0:0:
450,204,151117,6,0,B|464:205|479:194|479:194|486:211|507:222,1,46.5800013148957,10|0,0:2|0:0,0:0:0:0:
327,338,151255,2,0,B|314:338|301:346|301:346|296:330|279:320,1,38.7599995268555,10|0,0:2|0:0,0:0:0:0:
330,97,151393,38,0,P|297:111|289:129,1,44.8800013696289,4|0,0:2|0:0,0:0:0:0:
339,188,151531,5,0,0:0:0:0:
337,204,151600,1,0,0:0:0:0:
336,219,151669,2,0,L|293:230,1,26.0100001587524
215,303,151807,6,0,L|155:292,1,47.430001483635,4|0,0:2|0:0,0:0:0:0:
133,222,151945,5,0,0:0:0:0:
124,203,152014,1,0,0:0:0:0:
127,183,152083,1,0,0:0:0:0:
141,169,152152,1,0,0:0:0:0:
178,180,152221,38,0,P|213:172|207:110,1,89.7600027392579,8|0,0:3|0:0,0:0:0:0:
220,124,152498,1,8,0:3:0:0:
95,76,152634,6,0,P|100:60|105:52,1,26.0100001587524,4|0,0:2|0:0,0:0:0:0:
9,103,152772,5,0,0:0:0:0:
10,107,152841,1,0,0:0:0:0:
11,111,152910,1,0,0:0:0:0:
12,115,152978,1,0,0:0:0:0:
13,119,153048,2,0,P|17:143|-8:162,1,38.7599995268555,4|0,0:2|0:0,0:0:0:0:
92,253,153186,5,0,0:0:0:0:
88,255,153254,1,0,0:0:0:0:
84,257,153323,1,0,0:0:0:0:
80,259,153392,1,0,0:0:0:0:
77,262,153461,38,0,B|63:278|63:278|87:311,1,56.6100013820801,8|8,0:3|0:3,0:0:0:0:
190,365,153599,1,8,0:3:0:0:
195,366,153668,1,8,0:3:0:0:
200,367,153737,6,0,B|221:364|221:364|225:323,1,56.6100013820801
291,248,153875,5,8,0:2:0:0:
311,299,153944,1,8,0:2:0:0:
361,324,154013,6,0,P|388:316|411:289,1,56.6100013820801,8|8,0:3|0:3,0:0:0:0:
449,222,154151,1,8,0:3:0:0:
453,224,154220,1,8,0:3:0:0:
458,226,154290,2,0,P|492:262|494:286,1,51.3399994124603,4|8,0:2|1:2,0:0:0:0:
219,236,154427,37,2,0:3:0:0:
230,192,154496,1,8,1:2:0:0:
263,170,154565,1,2,0:3:0:0:
296,166,154634,1,8,1:2:0:0:
320,179,154703,6,0,B|353:177|353:177|377:154,1,53.3800002036285,2|8,0:3|1:2,0:0:0:0:
503,59,154841,6,0,L|496:119,1,53.3800002036285,2|8,0:3|1:2,0:0:0:0:
420,113,154979,2,0,L|426:59,1,53.3800002036285,2|8,0:3|1:2,0:0:0:0:
374,245,155118,5,2,0:3:0:0:
356,283,155187,1,8,1:2:0:0:
322,299,155256,1,2,0:3:0:0:
290,292,155325,1,8,1:2:0:0:
271,272,155394,37,2,0:3:0:0:
266,269,155463,1,8,1:2:0:0:
260,268,155532,2,0,L|249:343,1,53.3800002036285,2|8,0:3|1:2,0:0:0:0:
108,360,155670,5,2,0:3:0:0:
103,363,155739,1,8,1:2:0:0:
97,364,155808,2,0,L|86:289,1,53.3800002036285,2|8,0:3|1:2,0:0:0:0:
187,177,155946,5,2,0:3:0:0:
210,141,156015,1,8,1:2:0:0:
199,104,156084,1,2,0:3:0:0:
168,94,156153,1,8,1:2:0:0:
143,104,156222,1,2,0:3:0:0:
129,120,156291,1,8,1:2:0:0:
114,126,156358,1,2,0:3:0:0:
103,126,156427,1,8,1:2:0:0:
98,124,156496,6,0,P|68:90|70:78,1,53.3800002036285,2|8,0:3|1:2,0:0:0:0:
1,55,156634,2,0,P|18:13|30:9,1,53.3800002036285,2|8,0:3|1:2,0:0:0:0:
166,211,156772,37,2,0:3:0:0:
165,216,156841,1,8,1:2:0:0:
163,221,156910,2,0,B|142:236|142:236|110:229,1,53.3800002036285,2|8,0:3|1:2,0:0:0:0:
15,288,157048,5,2,0:3:0:0:
16,293,157117,1,8,1:2:0:0:
18,298,157186,2,0,B|39:313|39:313|71:306,1,53.3800002036285,4|8,0:2|1:2,0:0:0:0:
184,340,157325,5,2,0:3:0:0:
183,345,157394,1,8,1:2:0:0:
181,350,157462,2,0,B|160:365|160:365|128:358,1,53.3800002036285,2|8,0:3|1:2,0:0:0:0:
303,180,157601,5,4,0:2:0:0:
311,184,157670,1,8,1:2:0:0:
315,192,157738,2,0,B|322:200|322:200|320:223|311:252,1,53.3800002036285,2|8,0:3|1:2,0:0:0:0:
406,90,157877,37,2,0:3:0:0:
404,94,157946,1,8,1:2:0:0:
402,98,158015,2,0,B|395:106|395:106|397:131|406:158,1,53.3800002036285,4|8,0:2|1:2,0:0:0:0:
490,164,158153,6,0,P|477:192|449:212,1,53.5499983657837,0|8,0:0|1:2,0:0:0:0:
442,298,158289,2,8,P|411:298|380:282,1,53.3800002036285,4|8,0:2|1:2,0:0:0:0:
246,185,158427,5,2,0:3:0:0:
197,181,158496,1,8,1:2:0:0:
161,204,158565,1,2,0:3:0:0:
153,240,158634,1,8,1:2:0:0:
131,263,158703,1,2,0:3:0:0:
104,267,158772,1,8,1:2:0:0:
85,255,158841,5,4,0:2:0:0:
118,213,158910,1,8,1:2:0:0:
165,216,158978,1,2,0:3:0:0:
196,244,159047,1,8,1:2:0:0:
198,281,159116,1,4,0:2:0:0:
184,310,159185,1,8,1:2:0:0:
162,326,159254,37,2,0:3:0:0:
141,270,159323,1,8,1:2:0:0:
157,213,159392,1,2,0:3:0:0:
198,170,159461,1,8,1:2:0:0:
256,163,159530,1,0,0:0:0:0:
310,185,159599,1,0,0:0:0:0:
346,231,159669,2,0,P|390:231|405:217,1,53.3800002036285,8|8,2:2|2:2,0:0:0:0:
499,55,159806,5,8,2:3:0:0:
456,51,159875,1,8,2:3:0:0:
422,68,159944,1,0,0:0:0:0:
408,97,160013,1,0,0:0:0:0:
410,123,160082,2,0,B|433:108|433:108|438:66,1,53.5499983657837,8|8,2:2|2:2,0:0:0:0:
282,72,160220,5,8,2:3:0:0:
250,68,160289,1,8,2:3:0:0:
223,64,160358,1,0,0:0:0:0:
201,61,160427,1,0,0:0:0:0:
185,59,160496,5,12,0:2:0:0:
382,224,160634,1,8,0:2:0:0:
132,318,160772,1,8,0:2:0:0:
40,161,160910,37,4,0:2:0:0:
44,158,160978,1,0,0:0:0:0:
48,155,161047,1,0,0:0:0:0:
51,151,161116,1,0,0:0:0:0:
54,146,161185,1,0,0:0:0:0:
56,141,161254,1,0,0:0:0:0:
58,136,161324,5,12,1:2:0:0:
82,174,161393,1,0,0:0:0:0:
122,194,161462,1,8,1:1:0:0:
166,186,161531,1,0,0:0:0:0:
192,149,161600,1,8,1:1:0:0:
191,103,161669,1,0,0:0:0:0:
159,69,161738,1,10,1:2:0:0:
105,64,161807,1,0,0:0:0:0:
70,104,161876,1,8,1:2:0:0:
62,157,161945,1,0,0:0:0:0:
81,206,162014,1,8,1:2:0:0:
126,235,162083,1,0,0:0:0:0:
179,232,162152,1,10,1:2:0:0:
233,209,162221,1,0,0:0:0:0:
291,213,162290,1,8,1:2:0:0:
340,245,162359,1,0,0:0:0:0:
359,300,162428,1,8,1:2:0:0:
343,356,162497,1,0,0:0:0:0:
295,375,162567,5,10,1:2:0:0:
246,341,162636,1,0,0:0:0:0:
224,285,162705,1,8,1:2:0:0:
241,229,162773,1,0,0:0:0:0:
287,192,162842,1,8,1:2:0:0:
345,189,162911,1,0,0:0:0:0:
399,210,162980,1,10,1:2:0:0:
456,196,163049,1,0,0:0:0:0:
480,142,163118,1,8,1:2:0:0:
467,84,163187,1,0,0:0:0:0:
415,54,163256,2,0,L|415:119,1,55.0800013447266,8|0,1:2|0:0,0:0:0:0:
305,278,163394,5,10,1:2:0:0:
261,298,163463,1,0,0:0:0:0:
212,291,163532,1,8,1:2:0:0:
176,258,163601,1,0,0:0:0:0:
131,238,163670,1,8,1:2:0:0:
84,250,163739,1,0,0:0:0:0:
57,289,163808,38,0,P|48:328|47:349,1,53.3800002036285,8|0,1:2|0:0,0:0:0:0:
137,116,163946,2,0,P|146:155|147:176,1,53.3800002036285,8|0,1:2|0:0,0:0:0:0:
43,292,164084,6,0,P|34:331|33:352,1,53.3800002036285,8|0,1:2|0:0,0:0:0:0:
9,164,164222,5,8,2:3:0:0:
8,158,164291,1,8,2:3:0:0:
8,152,164360,1,8,2:3:0:0:
9,146,164429,1,8,2:3:0:0:
11,141,164498,1,8,2:3:0:0:
14,136,164567,1,8,2:3:0:0:
18,132,164636,6,0,P|51:132|66:151,1,48.6200006676941,8|8,2:2|2:2,0:0:0:0:
132,170,164774,2,0,L|107:219,1,32.9800007800141,8|8,2:3|2:3,0:0:0:0:
292,144,164911,38,0,P|259:144|244:125,1,32.299999137497,8|8,2:3|2:3,0:0:0:0:
177,80,165049,5,4,0:2:0:0:
200,44,165118,1,8,1:2:0:0:
234,28,165187,1,2,0:3:0:0:
266,27,165256,1,8,1:2:0:0:
290,36,165325,6,0,B|306:45|306:45|345:23,1,53.3800002036285,2|8,0:3|1:2,0:0:0:0:
398,116,165463,5,2,0:3:0:0:
397,121,165532,1,8,1:2:0:0:
396,126,165601,1,2,0:3:0:0:
395,131,165670,1,8,1:2:0:0:
394,136,165739,37,2,0:3:0:0:
356,174,165808,1,8,1:2:0:0:
357,222,165877,1,8,0:2:0:0:
387,252,165946,1,8,0:2:0:0:
424,253,166015,6,8,L|475:229,1,53.3800002036285,8|8,0:2|0:2,0:2:0:0:
435,164,166153,2,8,L|386:186,1,53.3800002036285,8|8,0:2|0:2,0:2:0:0:
320,320,166291,5,12,0:2:0:0:
314,319,166360,1,8,1:2:0:0:
308,319,166429,1,2,0:3:0:0:
302,319,166498,1,8,1:2:0:0:
296,319,166567,6,0,P|263:292|264:284,1,53.3800002036285,2|8,0:3|1:2,0:0:0:0:
206,178,166705,37,2,0:3:0:0:
166,161,166774,1,8,1:2:0:0:
129,170,166843,1,2,0:3:0:0:
112,197,166912,1,8,1:2:0:0:
110,223,166980,6,0,L|91:164,1,53.3800002036285,2|8,0:3|1:2,0:0:0:0:
185,321,167118,6,0,B|194:347|194:347|174:371,1,53.3800002036285,4|8,0:2|1:2,0:0:0:0:
106,359,167256,2,8,B|96:332|96:332|116:308,1,53.3800002036285,8|8,0:2|0:2,0:2:0:0:
211,204,167394,6,8,P|244:206|277:177,1,53.3800002036285,8|8,0:2|0:2,0:2:0:0:
426,141,167532,37,4,0:2:0:0:
376,160,167601,1,8,0:2:0:0:
330,145,167670,1,8,0:2:0:0:
309,107,167739,1,8,0:2:0:0:
315,70,167808,6,8,P|282:68|249:97,1,53.3800002036285,8|8,0:2|0:2,0:2:0:0:
253,269,167946,5,4,0:2:0:0:
271,307,168014,1,8,1:2:0:0:
308,317,168084,1,2,0:3:0:0:
336,301,168153,1,8,1:2:0:0:
348,277,168222,6,0,B|346:248|346:248|317:234,1,53.3800002036285,2|8,0:3|1:2,0:0:0:0:
156,289,168360,37,2,0:3:0:0:
151,290,168429,1,8,1:2:0:0:
146,292,168498,1,2,0:3:0:0:
141,295,168567,1,8,1:2:0:0:
136,298,168636,1,2,0:3:0:0:
131,301,168705,1,8,1:2:0:0:
128,306,168774,5,8,0:2:0:0:
181,312,168842,1,8,2:2:0:0:
223,289,168911,1,8,2:3:0:0:
224,246,168980,1,8,2:3:0:0:
206,213,169049,6,0,L|167:223,1,31.62000098909,8|8,0:3|2:3,0:0:0:0:
74,176,169187,5,4,0:2:0:0:
51,139,169256,1,8,1:2:0:0:
69,106,169325,1,2,0:3:0:0:
100,98,169394,1,8,1:2:0:0:
124,108,169463,38,0,P|145:145|143:167,1,53.3800002036285,2|8,0:3|1:2,0:0:0:0:
55,305,169601,5,2,0:3:0:0:
89,353,169670,1,8,1:2:0:0:
139,357,169739,1,2,0:3:0:0:
177,337,169808,1,8,1:2:0:0:
186,303,169877,1,2,0:3:0:0:
173,279,169946,1,8,1:2:0:0:
151,273,170015,6,8,L|145:304,5,20.7399991455384,8|8|8|8|8|8,0:3|2:3|2:3|2:3|2:3|2:3,0:3:0:0:
293,362,170429,2,8,L|291:341,5,20.7399991455384,8|8|8|8|8|8,0:3|2:3|2:3|2:3|2:3|2:3,0:3:0:0:
433,134,170843,6,0,P|422:170|401:188,1,53.3800002036285,4|0,0:2|0:0,0:0:0:0:
436,259,170980,2,0,P|398:265|373:254,1,46.5800013148957
339,311,171118,2,0,P|316:280|315:252,1,43.1799996705627
320,261,171256,38,0,P|285:246|257:251,1,34.3399993188172,4|0,0:2|0:0,0:0:0:0:
236,197,171394,2,0,P|207:219|199:248,1,43.1799996705627
144,262,171532,2,0,P|153:298|174:317,1,46.5800013148957
328,181,171670,5,12,0:2:0:0:
144,86,171808,1,0,0:0:0:0:
213,51,171946,1,0,0:0:0:0:
58,218,172084,5,4,0:2:0:0:
21,102,172222,1,0,0:0:0:0:
75,224,172360,1,2,0:2:0:0:
12,91,172498,6,0,B|36:68|36:68|68:74,1,53.3800002036285,4|0,0:2|0:0,0:0:0:0:
96,16,172636,2,0,B|127:27|127:27|135:59,1,46.5800013148957
144,135,172774,38,0,B|175:123|175:123|184:92,1,51.0000019454957
245,92,172912,2,0,B|248:58|248:58|224:37,1,45.9000001750946,4|0,0:2|0:0,0:0:0:0:
314,217,173049,6,0,L|254:199,1,62.2199974366151
117,294,173187,2,0,L|176:311,1,62.2199988844528
368,141,173325,5,12,0:2:0:0:
410,289,173463,1,0,0:0:0:0:
490,302,173601,5,4,0:2:0:0:
395,281,173739,1,0,0:0:0:0:
330,366,173877,37,2,0:2:0:0:
358,355,174015,1,0,0:0:0:0:
472,212,174153,6,0,L|491:154,1,51.0000019454957,4|0,0:2|0:0,0:0:0:0:
416,141,174291,2,0,L|372:98,1,45.9000001750946
292,120,174429,6,0,L|273:62,1,46.5800013148957
348,49,174567,2,0,L|391:6,1,43.1799996705627,4|0,0:2|0:0,0:0:0:0:
186,182,174705,6,0,B|217:168|217:168|253:179,1,71.399997821045
279,338,174843,2,0,B|248:346|248:346|211:330,1,71.399997821045
172,108,174980,37,12,0:2:0:0:
36,61,175118,1,0,0:0:0:0:
165,90,175256,5,4,0:2:0:0:
111,166,175394,1,0,0:0:0:0:
24,190,175532,5,2,0:2:0:0:
35,229,175670,1,0,0:0:0:0:
120,284,175808,5,4,0:2:0:0:
115,300,176084,37,12,0:2:0:0:
150,343,176153,1,0,1:0:0:0:
205,352,176222,1,8,0:2:0:0:
257,332,176291,1,0,1:0:0:0:
274,278,176360,1,12,0:2:0:0:
316,241,176429,1,0,1:0:0:0:
372,239,176498,1,8,0:2:0:0:
422,264,176567,1,0,1:0:0:0:
442,316,176636,5,12,0:2:0:0:
435,329,176912,5,10,0:2:0:0:
387,314,176980,1,0,1:0:0:0:
352,277,177049,1,8,0:2:0:0:
354,226,177118,1,0,1:0:0:0:
381,183,177187,1,12,0:2:0:0:
429,170,177256,1,0,1:0:0:0:
475,150,177325,1,8,0:2:0:0:
497,104,177394,1,0,1:0:0:0:
473,59,177463,5,12,0:2:0:0:
251,170,177601,1,8,0:2:0:0:
480,264,177739,1,8,0:2:0:0:
416,190,177877,1,8,0:2:0:0:
361,307,178015,1,8,0:2:0:0:
512,192,178153,1,8,0:2:0:0:
262,274,178291,37,8,0:2:0:0:
291,342,178429,1,8,0:2:0:0:
179,295,178567,5,12,0:2:0:0:
194,208,178705,1,8,0:2:0:0:
61,264,178843,5,12,0:2:0:0:
110,374,178980,1,8,0:2:0:0:
107,197,179118,5,8,0:2:0:0:
237,179,179256,1,8,0:2:0:0:
219,49,179394,1,8,0:2:0:0:
89,67,179532,1,8,0:2:0:0:
355,141,179670,37,8,0:2:0:0:
163,119,179808,1,8,0:2:0:0:
362,127,179946,5,8,0:2:0:0:
432,238,180084,1,8,0:2:0:0:
368,309,180222,1,12,0:2:0:0:
296,286,180360,1,8,0:2:0:0:
287,244,180498,1,12,0:2:0:0:
301,228,180636,1,8,0:2:0:0:
186,344,180774,5,12,0:2:0:0:
52,194,180912,1,8,0:2:0:0:
45,341,181049,1,8,0:2:0:0:
185,197,181187,1,8,0:2:0:0:
14,26,181325,5,8,0:2:0:0:
119,263,181463,1,8,0:2:0:0:
8,41,181601,37,8,0:2:0:0:
144,21,181739,1,8,0:2:0:0:
215,82,181877,1,12,0:2:0:0:
197,151,182015,1,8,0:2:0:0:
150,169,182153,1,12,0:2:0:0:
126,155,182291,1,8,0:2:0:0:
314,31,182429,5,12,0:2:0:0:
326,22,182705,5,10,0:2:0:0:
384,43,182774,1,0,1:0:0:0:
395,103,182843,1,8,0:2:0:0:
374,161,182912,1,0,1:0:0:0:
320,189,182980,1,10,0:2:0:0:
258,189,183049,1,0,1:0:0:0:
208,151,183118,1,8,0:2:0:0:
155,119,183187,1,0,1:0:0:0:
94,130,183256,5,12,0:2:0:0:
82,122,183532,37,8,0:2:0:0:
58,173,183601,1,0,1:0:0:0:
71,227,183670,1,8,0:2:0:0:
113,263,183739,1,0,1:0:0:0:
168,271,183808,1,12,0:2:0:0:
216,257,183877,1,0,1:0:0:0:
260,263,183946,1,8,0:2:0:0:
282,295,184015,1,0,1:0:0:0:
277,328,184084,5,12,0:2:0:0:
236,46,190292,5,8,2:2:0:0:
253,35,190361,1,8,2:2:0:0:
283,34,190430,1,8,2:2:0:0:
317,55,190499,1,8,2:2:0:0:
338,101,190568,1,8,2:2:0:0:
396,120,190637,1,8,2:2:0:0:
463,95,190706,5,8,2:2:0:0:
463,95,191946,37,8,2:3:0:0:
457,117,192015,1,8,2:3:0:0:
452,139,192084,1,8,2:3:0:0:
448,163,192153,1,8,2:3:0:0:
431,178,192222,5,8,2:3:0:0:
434,195,192291,1,8,2:3:0:0:
454,216,192360,6,0,B|467:237|467:237|437:282,2,78.2000014915467,2|2|2,0:2|0:2|0:2,0:0:0:0:
298,234,192774,5,8,2:3:0:0:
275,227,192843,1,8,2:3:0:0:
252,232,192912,1,8,2:3:0:0:
233,245,192980,1,8,2:3:0:0:
221,265,193049,2,0,P|246:293|266:301,1,39.2699992210236
106,218,193187,37,8,0:2:0:0:
119,180,193256,1,8,0:2:0:0:
101,144,193325,1,8,0:3:0:0:
71,134,193394,1,8,0:3:0:0:
44,142,193463,2,0,L|33:100,1,39.1000007457733
281,130,193601,5,8,0:3:0:0:
318,119,193670,1,8,0:3:0:0:
330,94,193739,1,8,0:1:0:0:
326,70,193808,1,8,0:1:0:0:
315,53,193877,1,8,0:1:0:0:
300,46,193946,1,8,0:1:0:0:
287,45,194015,6,0,P|256:49|234:60,1,44.8800013696289,4|0,0:2|0:0,0:0:0:0:
188,126,194152,5,0,0:0:0:0:
177,130,194221,1,0,0:0:0:0:
165,129,194290,1,0,0:0:0:0:
153,127,194359,1,0,0:0:0:0:
142,123,194429,38,0,P|130:98|135:75,1,44.8800013696289,4|0,0:2|0:0,0:0:0:0:
42,151,194566,5,0,0:0:0:0:
43,162,194635,1,0,0:0:0:0:
44,173,194704,1,0,0:0:0:0:
45,184,194773,1,0,0:0:0:0:
22,215,194843,6,0,P|54:244|55:295,1,89.7600027392579,8|0,0:3|0:0,0:0:0:0:
57,288,195119,1,8,0:3:0:0:
167,367,195257,6,0,B|184:359|184:359|192:320,1,44.8800013696289,4|0,0:2|0:0,0:0:0:0:
157,252,195394,37,0,0:0:0:0:
165,249,195463,1,0,0:0:0:0:
174,245,195532,1,0,0:0:0:0:
182,242,195601,1,0,0:0:0:0:
192,239,195670,6,0,B|212:250|212:250|214:275,1,44.8800013696289,4|0,0:2|0:0,0:0:0:0:
314,295,195808,5,0,0:0:0:0:
315,303,195877,1,0,0:0:0:0:
316,312,195946,1,0,0:0:0:0:
318,321,196015,1,0,0:0:0:0:
295,342,196084,6,0,B|319:357|319:357|353:328,1,63.5799987388001,10|0,0:2|0:0,0:0:0:0:
311,215,196222,2,0,B|333:197|333:197|368:222,1,60.1800019513322,10|0,0:2|0:0,0:0:0:0:
308,356,196360,38,0,B|334:368|334:368|364:336,1,56.7799982238923,10|0,0:2|0:0,0:0:0:0:
319,202,196498,2,0,B|337:190|337:190|362:212,1,53.3800002036285,10|0,0:2|0:0,0:0:0:0:
332,362,196636,6,0,B|353:369|353:369|373:342,1,49.9799976739656,10|0,0:2|0:0,0:0:0:0:
336,197,196774,2,0,B|351:188|351:188|370:208,1,46.5800013148957,10|0,0:2|0:0,0:0:0:0:
467,344,196912,6,0,L|476:289,1,44.8800013696289,4|0,0:2|0:0,0:0:0:0:
490,212,197050,5,0,0:0:0:0:
489,200,197119,1,0,0:0:0:0:
483,190,197188,1,0,0:0:0:0:
474,182,197257,1,0,0:0:0:0:
464,177,197325,38,0,P|440:154|439:134,1,44.8800013696289,4|0,0:2|0:0,0:0:0:0:
502,30,197463,5,0,0:0:0:0:
491,32,197532,1,0,0:0:0:0:
480,34,197601,1,0,0:0:0:0:
468,35,197670,1,0,0:0:0:0:
454,55,197739,6,0,B|416:59|416:59|405:43|405:43|362:46,1,89.7600027392579,8|0,0:3|0:0,0:0:0:0:
372,45,198015,1,8,0:3:0:0:
332,135,198153,6,0,P|300:151|275:149,1,44.8800013696289,4|0,0:2|0:0,0:0:0:0:
232,87,198290,37,0,0:0:0:0:
221,89,198359,1,0,0:0:0:0:
211,94,198428,1,0,0:0:0:0:
203,102,198497,1,0,0:0:0:0:
197,111,198566,6,0,B|190:130|190:130|197:182,1,44.8800013696289,4|0,0:2|0:0,0:0:0:0:
249,218,198704,5,0,0:0:0:0:
252,228,198773,1,0,0:0:0:0:
254,238,198842,1,0,0:0:0:0:
255,249,198911,1,0,0:0:0:0:
255,259,198980,6,0,P|214:283|207:291,1,44.8800013696289,8|8,2:3|2:3,0:0:0:0:
98,310,199118,2,0,P|80:354|79:364,1,44.8800013696289,8|8,2:3|2:3,0:0:0:0:
258,271,199256,2,0,P|217:295|210:303,1,44.8799998630371
107,192,199394,38,0,P|123:177|103:191,1,83.2999992373657,12|0,2:2|0:0,0:0:0:0:
85,211,199808,6,0,P|129:226|171:193,1,91.7999971984864,4|0,0:2|0:0,0:0:0:0:
178,136,200083,1,0,0:0:0:0:
291,233,200221,6,0,L|278:331,1,91.7999971984864,4|0,0:2|0:0,0:0:0:0:
220,367,200497,1,0,0:0:0:0:
46,340,200635,5,12,0:2:0:0:
48,327,200773,1,0,0:0:0:0:
146,284,200911,37,8,0:2:0:0:
140,278,201049,6,0,B|119:263|119:263|186:281,1,91.7999971984864,4|0,0:2|0:0,0:0:0:0:
246,241,201325,1,0,0:0:0:0:
343,343,201463,6,0,B|385:334|385:334|391:329|391:329|449:315,1,91.8000003501892,4|0,0:2|0:0,0:0:0:0:
385,260,201738,1,0,0:0:0:0:
489,179,201876,5,12,0:2:0:0:
486,196,202014,1,0,0:0:0:0:
354,123,202152,37,8,0:2:0:0:
356,133,202290,1,4,0:2:0:0:
458,75,202428,5,8,0:2:0:0:
458,75,202566,1,2,0:2:0:0:
356,207,202704,6,0,P|308:191|287:143,1,91.7999971984864,4|0,0:2|0:0,0:0:0:0:
222,126,202980,1,0,0:0:0:0:
122,41,203118,6,0,B|99:48|99:74|99:74|119:139,1,91.7999971984864,4|0,0:2|0:0,0:0:0:0:
139,184,203394,1,0,0:0:0:0:
277,66,203532,37,12,0:2:0:0:
294,69,203670,1,0,0:0:0:0:
348,161,203808,5,8,0:2:0:0:
352,153,203946,6,0,B|371:143|396:160|396:160|417:173|442:157,1,91.7999971984864,4|0,0:2|0:0,0:0:0:0:
478,216,204221,1,0,0:0:0:0:
408,325,204359,6,0,L|320:290,1,91.7999971984864,4|0,0:2|0:0,0:0:0:0:
260,262,204635,1,0,0:0:0:0:
144,342,204773,38,0,L|187:360,1,41.8200006381226,8|8,2:3|2:3,0:0:0:0:
258,245,204911,2,0,L|301:227,1,41.8200006381226,8|8,2:3|2:3,0:0:0:0:
147,360,205049,6,0,L|190:378,1,41.8200006381226
91,236,205187,6,0,B|80:220|88:202|88:202|102:211|100:228,1,62.9000015356446,12|0,2:2|0:0,0:0:0:0:
79,254,205601,6,0,B|53:257|53:257|27:237,1,44.8800013696289,4|0,0:2|0:0,0:0:0:0:
19,147,205738,37,0,0:0:0:0:
22,138,205807,1,0,0:0:0:0:
25,129,205876,1,0,0:0:0:0:
28,120,205945,1,0,0:0:0:0:
32,112,206015,2,0,B|49:98|49:98|72:104,1,44.8800013696289
165,47,206151,5,0,0:0:0:0:
172,51,206220,1,0,0:0:0:0:
178,56,206289,1,0,0:0:0:0:
183,62,206358,1,0,0:0:0:0:
187,69,206428,6,0,P|184:98|171:112,1,44.8800013696289,8|0,0:2|0:0,0:0:0:0:
236,185,206565,5,0,0:0:0:0:
253,190,206634,1,0,0:0:0:0:
269,182,206703,1,0,0:0:0:0:
277,166,206772,1,0,0:0:0:0:
278,147,206843,38,0,B|305:150|305:150|320:174,1,44.8800013696289,4|0,0:2|0:0,0:0:0:0:
355,271,206980,5,0,0:0:0:0:
349,277,207049,1,0,0:0:0:0:
344,284,207118,1,0,0:0:0:0:
339,291,207187,1,0,0:0:0:0:
335,298,207256,6,0,B|303:288|303:288|300:263,1,44.8800013696289
394,187,207394,5,0,0:0:0:0:
402,188,207463,1,0,0:0:0:0:
410,190,207532,1,0,0:0:0:0:
417,194,207601,1,0,0:0:0:0:
421,201,207670,38,0,L|439:271,1,44.8800013696289,8|0,0:2|0:0,0:0:0:0:
506,286,207808,5,0,0:0:0:0:
495,297,207877,1,0,0:0:0:0:
483,311,207946,6,0,L|465:381,1,44.8800013696289,8|0,0:2|0:0,0:0:0:0:
354,367,208084,5,4,0:2:0:0:
336,370,208153,1,0,0:0:0:0:
318,373,208222,38,0,P|297:353|252:342,1,44.8800013696289,8|0,0:2|0:0,0:0:0:0:
149,347,208359,2,0,P|170:327|214:316,1,44.8800013696289,8|0,0:2|0:0,0:0:0:0:
294,246,208498,6,0,B|307:223|307:223|308:191,1,44.8800013696289,4|0,0:2|0:0,0:0:0:0:
211,174,208636,5,0,0:0:0:0:
205,167,208705,1,0,0:0:0:0:
200,159,208774,1,0,0:0:0:0:
197,150,208843,1,0,0:0:0:0:
196,141,208911,6,0,B|215:124|215:124|256:127,1,44.8800013696289,2|0,0:3|0:0,0:0:0:0:
370,100,209049,37,0,0:0:0:0:
376,116,209118,1,0,0:0:0:0:
370,133,209187,1,0,0:0:0:0:
356,145,209256,1,0,0:0:0:0:
340,136,209325,6,0,P|316:116|319:86,1,44.8800013696289,8|0,0:2|0:0,0:0:0:0:
249,30,209463,5,0,0:0:0:0:
241,25,209532,1,0,0:0:0:0:
232,23,209601,1,0,0:0:0:0:
223,22,209670,1,0,0:0:0:0:
214,24,209739,6,0,B|189:34|189:34|170:60,1,44.8800013696289,4|0,0:2|0:0,0:0:0:0:
102,133,209876,37,0,0:0:0:0:
93,134,209945,1,0,0:0:0:0:
84,131,210014,1,0,0:0:0:0:
77,125,210083,1,0,0:0:0:0:
72,117,210152,6,0,B|74:90|74:90|91:75,1,44.8800013696289
178,141,210290,5,0,0:0:0:0:
173,158,210359,1,0,0:0:0:0:
169,175,210428,1,0,0:0:0:0:
164,192,210497,1,0,0:0:0:0:
158,209,210566,6,0,P|132:218|117:235,1,44.8800013696289,8|8,2:3|2:3,0:0:0:0:
47,237,210704,2,0,P|43:264|52:285,1,44.8800013696289,8|8,2:3|2:3,0:0:0:0:
23,349,210842,2,0,P|46:363|68:365,1,44.8800013696289
211,311,210980,38,0,L|221:263,1,44.8800013696289,12|0,2:2|0:0,0:0:0:0:
200,326,211393,5,4,0:2:0:0:
312,215,211531,1,0,0:0:0:0:
398,321,211669,1,0,0:0:0:0:
186,190,211806,1,0,0:0:0:0:
304,306,211944,1,0,0:0:0:0:
428,190,212082,2,0,B|440:177|440:177|443:132,1,48.9600011953125,0|0,0:0|2:0,0:0:0:0:
175,54,212634,5,8,2:3:0:0:
174,59,212703,1,8,2:3:0:0:
173,64,212772,1,8,2:3:0:0:
40,138,212910,1,8,2:3:0:0:
197,210,213048,1,8,2:3:0:0:
81,266,213186,1,8,2:3:0:0:
148,313,213324,2,0,L|139:356,1,24.4800005976563,8|0,2:1|2:0,0:0:0:0:
281,135,213875,5,8,2:2:0:0:
298,130,213944,1,8,2:2:0:0:
316,124,214013,2,0,L|325:75,1,29.58000090271,8|8,2:3|2:3,0:0:0:0:
228,51,214151,37,0,0:0:0:0:
216,47,214220,1,0,0:0:0:0:
205,44,214289,5,12,0:2:0:0:
487,149,214427,1,8,0:2:0:0:
194,280,214565,1,8,0:2:0:0:
483,60,214703,6,0,P|494:89|464:154,1,82.9599965821535,4|0,0:2|0:0,0:0:0:0:
428,203,214979,1,0,0:0:0:0:
294,273,215117,6,0,P|308:245|376:224,1,82.9599965821535,2|0,0:2|0:0,0:0:0:0:
437,218,215393,1,0,0:0:0:0:
177,174,215531,37,10,0:2:0:0:
177,174,215944,6,0,B|154:194|154:194|86:170,1,82.9599965821535,4|0,0:2|0:0,0:0:0:0:
65,120,216220,1,0,0:0:0:0:
187,52,216358,6,0,B|164:32|164:32|96:56,1,82.9599965821535,4|0,0:2|0:0,0:0:0:0:
75,106,216634,1,0,0:0:0:0:
119,339,217186,5,8,2:3:0:0:
126,308,217255,1,8,2:3:0:0:
133,277,217324,1,8,2:3:0:0:
140,246,217393,1,8,2:3:0:0:
147,215,217462,2,0,L|161:265,1,41.4799982910767
245,337,217600,37,8,2:3:0:0:
267,331,217669,1,8,2:3:0:0:
284,310,217738,1,8,2:1:0:0:
299,313,217806,1,8,2:1:0:0:
314,316,217875,1,8,2:1:0:0:
329,319,217944,1,8,2:1:0:0:
347,354,218013,6,0,L|327:273,1,82.9599965821535,4|0,0:2|0:0,0:0:0:0:
373,220,218289,1,0,0:0:0:0:
503,300,218427,6,0,L|419:293,1,82.9599965821535,2|0,0:2|0:0,0:0:0:0:
383,233,218703,1,0,0:0:0:0:
131,249,218841,5,12,0:2:0:0:
131,249,219255,38,0,B|112:272|112:272|183:282,1,82.9599965821535,2|0,0:2|0:0,0:0:0:0:
236,291,219531,1,0,0:0:0:0:
336,346,219669,6,0,B|334:376|334:376|274:336,1,82.9599965821535,4|0,0:2|0:0,0:0:0:0:
230,307,219945,1,0,0:0:0:0:
441,183,220496,5,8,0:3:0:0:
450,153,220565,1,8,2:3:0:0:
459,122,220634,1,8,0:3:0:0:
504,281,220772,1,8,0:3:0:0:
343,221,220910,5,8,0:3:0:0:
347,244,220979,1,8,2:3:0:0:
351,267,221048,1,8,0:1:0:0:
494,268,221186,1,8,0:1:0:0:
312,129,221324,38,0,B|293:130|293:130|259:153|259:153|227:154,1,82.9599965821535,4|0,0:2|0:0,0:0:0:0:
169,141,221600,1,0,0:0:0:0:
111,16,221738,6,0,B|117:33|117:33|110:74|110:74|122:103,1,82.9599965821535,2|0,0:2|0:0,0:0:0:0:
158,151,222014,1,0,0:0:0:0:
417,31,222151,5,12,0:2:0:0:
417,31,222565,6,0,B|383:55|383:55|405:118,1,82.9599965821535,4|0,0:2|0:0,0:0:0:0:
337,140,222841,1,0,0:0:0:0:
457,235,222979,38,0,B|433:201|433:201|370:223,1,82.9599965821535,2|0,0:2|0:0,0:0:0:0:
348,155,223255,1,0,0:0:0:0:
484,105,223393,1,4,2:2:0:0:
264,328,223806,5,8,2:3:0:0:
233,321,223875,1,8,2:3:0:0:
202,314,223944,1,8,2:3:0:0:
171,307,224013,1,8,2:3:0:0:
138,321,224082,6,0,P|126:294|130:278,1,41.4799982910767
218,139,224220,5,8,2:3:0:0:
241,136,224289,1,8,2:3:0:0:
258,151,224358,37,8,2:1:0:0:
254,166,224427,1,8,2:1:0:0:
250,181,224496,1,8,2:1:0:0:
246,196,224565,1,8,2:1:0:0:
262,224,224634,6,0,P|221:231|174:203,2,82.9599965821535,4|0|0,0:2|0:0|0:0,0:0:0:0:
350,104,225048,1,4,0:2:0:0:
440,188,225186,1,0,0:0:0:0:
379,234,225324,1,0,0:0:0:0:
324,28,225462,6,0,B|299:21|299:21|240:40,1,82.9599965821535,10|0,0:2|0:0,0:0:0:0:
211,103,225738,1,0,0:0:0:0:
45,15,225875,6,0,P|26:69|28:96,1,82.9599965821535,4|0,0:2|0:0,0:0:0:0:
115,218,226151,2,0,P|134:164|132:137,1,82.9599965821535,0|2,0:0|0:3,0:0:0:0:
222,114,226427,1,0,0:0:0:0:
279,192,226565,1,0,0:0:0:0:
445,30,226703,37,12,0:2:0:0:
372,138,226841,1,0,0:0:0:0:
376,157,226910,1,0,0:0:0:0:
380,176,226979,1,8,0:2:0:0:
488,264,227117,5,4,0:2:0:0:
490,306,227186,1,0,0:0:0:0:
474,334,227255,1,0,0:0:0:0:
452,345,227324,1,0,0:0:0:0:
436,342,227393,1,0,0:0:0:0:
425,336,227462,1,0,0:0:0:0:
421,329,227531,5,10,1:2:0:0:
407,280,227600,1,0,0:0:0:0:
371,243,227669,1,8,1:2:0:0:
321,235,227737,1,0,0:0:0:0:
276,259,227806,2,0,L|260:315,1,51,8|0,1:2|0:0,0:0:0:0:
220,121,227944,5,10,1:2:0:0:
168,87,228013,1,0,0:0:0:0:
112,91,228082,1,8,1:2:0:0:
73,124,228151,1,0,0:0:0:0:
56,166,228220,1,8,1:2:0:0:
59,211,228289,1,0,0:0:0:0:
86,248,228358,37,10,1:2:0:0:
132,212,228427,1,0,0:0:0:0:
187,204,228496,1,8,1:2:0:0:
233,234,228565,1,0,0:0:0:0:
253,283,228634,1,8,1:2:0:0:
241,332,228703,1,0,0:0:0:0:
207,366,228772,5,10,1:2:0:0:
192,311,228841,1,0,0:0:0:0:
215,265,228910,1,8,1:2:0:0:
253,240,228979,1,0,0:0:0:0:
288,238,229048,1,8,1:2:0:0:
316,259,229117,1,0,0:0:0:0:
355,261,229186,5,8,0:3:0:0:
345,225,229255,1,8,2:3:0:0:
323,202,229324,1,8,0:3:0:0:
326,174,229393,1,8,2:3:0:0:
347,153,229462,1,8,0:1:0:0:
344,134,229531,1,8,2:1:0:0:
322,112,229600,6,0,B|345:102|345:102|371:116|371:116|395:109,1,76.5000029182435,12|0,2:2|0:0,0:0:0:0:
124,40,230018,38,0,B|152:66|152:66|136:125,2,82.2799976773377,4|0|0,0:2|0:0|0:0,0:0:0:0:
29,176,230431,5,2,0:2:0:0:
230,196,230569,1,0,0:0:0:0:
202,298,230707,1,0,0:0:0:0:
52,321,230845,6,0,P|92:291|130:283,1,82.2799976773377,10|0,0:2|0:0,0:0:0:0:
202,298,231121,1,0,0:0:0:0:
276,366,231259,2,0,L|292:272,1,82.2799976773377,4|0,0:2|0:0,0:0:0:0:
315,161,231535,1,0,0:0:0:0:
412,230,231673,5,2,0:2:0:0:
370,89,231811,1,0,0:0:0:0:
218,112,231949,1,0,0:0:0:0:
308,177,232086,37,10,0:2:0:0:
167,219,232224,1,4,0:1:0:0:
393,296,232362,5,10,0:2:0:0:
281,37,232500,5,4,0:2:0:0:
376,131,232638,1,0,0:0:0:0:
298,29,232776,1,0,0:0:0:0:
132,141,232914,5,2,0:2:0:0:
216,108,233052,1,0,0:0:0:0:
136,124,233190,1,0,0:0:0:0:
283,323,233328,38,0,B|265:296|265:296|179:278,1,96.5599951378176,12|0,0:2|0:0,0:0:0:0:
183,276,233604,1,0,0:0:0:0:
368,212,233742,6,0,B|386:185|386:185|472:167,1,93.1600026297913,12|0,0:2|0:0,0:0:0:0:
460,167,234018,1,0,0:0:0:0:
259,146,234155,6,0,L|215:136,1,37.7400009213867,12|0,0:2|0:0,0:0:0:0:
132,183,234293,5,0,0:0:0:0:
121,172,234362,1,0,0:0:0:0:
114,157,234431,1,0,0:0:0:0:
110,141,234500,1,0,0:0:0:0:
115,126,234569,38,0,B|130:109|130:109|126:86,1,32.9800007800141,10|0,0:2|0:0,0:0:0:0:
77,28,234707,5,0,0:0:0:0:
90,27,234776,1,0,0:0:0:0:
103,26,234845,1,0,0:0:0:0:
116,25,234914,1,0,0:0:0:0:
129,24,234983,5,12,0:2:0:0:
245,109,235121,1,8,0:2:0:0:
178,215,235259,1,8,0:2:0:0:
88,222,235397,1,12,0:2:0:0:
66,171,235535,1,8,0:2:0:0:
76,150,235673,1,8,0:2:0:0:
265,242,235811,6,0,L|261:297,1,41.4799982910767,4|0,0:2|2:0,0:0:0:0:
262,297,236018,1,0,2:0:0:0:
261,311,236086,1,8,2:3:0:0:
184,280,236224,1,8,2:3:0:0:
111,253,236362,2,0,P|109:270|100:284,1,20.7399991455384,0|8,2:0|2:3,0:0:0:0:
24,368,236500,1,8,2:3:0:0:
16,356,236638,38,0,P|41:341|66:337,2,41.4799982910767,8|8|8,2:3|2:1|2:1,0:0:0:0:
191,187,237052,5,4,0:2:0:0:
165,88,237190,6,0,B|146:118|146:118|170:199,1,102.000003890991,8|0,0:2|0:0,0:0:0:0:
303,25,237466,6,0,P|328:36|350:80,1,75.4800018427735,8|0,0:3|0:0,0:0:0:0:
429,91,237742,2,0,P|430:118|400:157,1,65.9600015600281,8|0,0:3|0:0,0:0:0:0:
408,170,237949,1,0,0:0:0:0:
414,182,238018,37,12,0:2:0:0:
253,209,238155,1,8,0:2:0:0:
326,248,238293,6,0,L|331:264,3,15.2999995330811,4|0|0|0,0:2|0:0|0:0|0:0,0:0:0:0:
285,367,238569,5,12,0:2:0:0:
276,363,238638,1,0,0:0:0:0:
266,361,238707,6,0,L|270:346,3,15.2999995330811,0|0|4|0,0:0|0:0|0:2|0:0,0:0:0:0:
196,317,238983,2,0,L|191:302,1,15.2999995330811
233,200,239121,37,12,0:2:0:0:
220,190,239190,1,0,0:0:0:0:
204,187,239259,1,0,0:0:0:0:
188,187,239328,1,0,0:0:0:0:
174,193,239397,6,0,P|162:203|151:205,3,15.2999995330811,4|0|0|0,0:2|0:0|0:0|0:0,0:0:0:0:
56,280,239673,5,12,0:2:0:0:
58,261,239742,1,0,0:0:0:0:
60,242,239811,1,0,0:0:0:0:
63,223,239880,1,0,0:0:0:0:
66,204,239949,6,0,L|68:185,3,15.2999995330811,4|0|0|0,0:2|0:0|0:0|0:0,0:0:0:0:
23,119,240224,37,12,0:2:0:0:
188,78,240362,5,8,0:3:0:0:
218,83,240431,1,8,0:3:0:0:
236,95,240500,1,8,0:3:0:0:
258,89,240569,1,8,0:3:0:0:
277,75,240638,1,8,0:1:0:0:
291,80,240707,1,8,0:1:0:0:
310,107,240776,6,0,P|325:163|319:198,2,76.1600009296875,4|0|0,0:2|0:0|0:0,0:0:0:0:
215,33,241190,5,2,0:2:0:0:
371,23,241328,1,0,0:0:0:0:
234,163,241466,1,0,0:0:0:0:
393,12,241604,38,0,B|419:25|419:25|432:53|432:53|469:72,1,76.1600009296875,10|0,0:2|0:0,0:0:0:0:
493,119,241880,1,0,0:0:0:0:
393,246,242017,6,0,B|419:233|419:233|432:205|432:205|469:186,1,76.1600009296875,4|0,0:2|0:0,0:0:0:0:
493,139,242294,1,0,0:0:0:0:
340,192,242431,6,0,P|312:239|326:280,2,76.1600009296875,2|0|0,0:2|0:0|0:0,0:0:0:0:
433,362,242845,5,12,0:2:0:0:
325,340,242983,1,4,0:1:0:0:
320,325,243121,37,8,0:2:0:0:
295,92,243259,6,0,B|258:121|226:82|226:82|195:44|128:70,1,153.000005836487,12|0,0:2|0:0,0:0:0:0:
118,200,243535,6,0,P|162:163|166:115,1,86.3599993411255,0|2,0:0|0:2,0:0:0:0:
30,104,243811,1,0,0:0:0:0:
75,282,243949,1,0,0:0:0:0:
287,212,244086,6,0,P|338:215|384:241,1,102,12|0,0:2|0:0,0:0:0:0:
392,254,244362,1,0,0:0:0:0:
224,293,244500,38,0,P|173:296|127:322,1,91.7999971984864,12|0,0:2|0:0,0:0:0:0:
125,330,244776,1,0,0:0:0:0:
315,352,244914,6,0,P|330:356|355:373,1,40.8,12|0,0:2|0:0,0:0:0:0:
463,366,245052,5,0,0:0:0:0:
468,350,245121,1,0,0:0:0:0:
469,333,245190,1,0,0:0:0:0:
466,316,245259,1,0,0:0:0:0:
457,301,245328,6,0,L|410:311,1,35.6999989105225,10|0,0:2|0:0,0:0:0:0:
336,269,245466,37,0,0:0:0:0:
329,256,245535,1,0,0:0:0:0:
327,241,245604,1,0,0:0:0:0:
329,226,245673,1,0,0:0:0:0:
334,212,245742,6,0,P|352:191|353:184,1,30.5999990661621,8|0,0:2|0:0,0:0:0:0:
318,89,245880,2,0,P|327:115|332:119,1,30.5999990661621,8|0,0:2|0:0,0:0:0:0:
432,136,246018,2,0,P|404:130|398:133,1,30.5999990661621,8|0,0:2|0:0,0:0:0:0:
207,32,246155,6,0,L|184:17,1,25.5,8|0,0:2|0:0,0:0:0:0:
275,34,246293,2,0,L|298:21,1,25.5,8|0,0:2|0:0,0:0:0:0:
238,91,246431,2,0,L|237:117,1,25.5,8|0,0:2|0:0,0:0:0:0:
114,212,246569,6,0,B|123:201|123:201|159:202,1,40.8,4|0,0:2|2:0,0:0:0:0:
169,210,246776,1,8,0:3:0:0:
179,225,246845,1,8,0:3:0:0:
207,296,246983,1,8,0:3:0:0:
261,304,247121,1,8,0:3:0:0:
279,284,247259,1,8,0:3:0:0:
271,271,247397,38,0,B|296:252|329:259|357:269|340:285|358:323|379:334|409:329|414:288|395:274|377:271|365:286|369:297,1,187.679993699707,0|2,2:0|0:3,0:0:0:0:
218,303,254431,5,2,2:2:0:0:
209,316,254845,5,4,0:1:0:0:
188,300,254914,1,8,2:3:0:0:
177,276,254983,1,8,2:3:0:0:
179,250,255052,1,8,2:3:0:0:
190,226,255121,1,8,2:3:0:0:
210,210,255190,1,8,2:3:0:0:
249,209,255259,6,0,B|268:198|268:198|273:169,1,43.1799996705627,8|8,0:3|2:3,0:0:0:0:
229,83,255397,2,0,B|210:72|210:72|205:43,1,43.1799996705627,8|8,2:3|2:3,0:0:0:0:
267,204,255535,2,0,B|286:193|286:193|291:164,1,43.1799996705627,8|8,2:3|2:3,0:0:0:0:
86,125,255673,38,0,B|64:136|64:136|70:167,1,51,4|0,0:2|0:0,0:0:0:0:
57,263,255811,5,0,0:0:0:0:
54,272,255880,1,0,0:0:0:0:
52,282,255949,1,2,0:3:0:0:
50,291,256017,1,0,0:0:0:0:
49,301,256086,6,0,L|129:279,1,51,8|2,1:2|0:3,0:0:0:0:
247,290,256224,5,8,1:2:0:0:
256,307,256293,1,2,0:3:0:0:
255,327,256362,38,0,P|221:317|216:293,1,51,8|2,1:2|0:3,0:0:0:0:
297,180,256500,6,0,P|323:202|318:226,1,51,8|2,1:2|0:3,0:0:0:0:
412,363,256638,5,8,1:2:0:0:
451,353,256707,1,2,0:3:0:0:
474,319,256776,1,8,1:2:0:0:
470,278,256845,1,2,0:3:0:0:
440,249,256914,6,0,P|419:234|427:198,1,51,8|2,1:2|0:3,0:0:0:0:
435,26,257052,37,8,1:2:0:0:
454,30,257121,1,2,0:3:0:0:
467,45,257190,6,0,L|453:104,1,51,8|2,1:2|0:3,0:0:0:0:
338,237,257328,2,0,L|324:178,1,51,8|2,1:2|0:3,0:0:0:0:
267,51,257466,5,8,1:2:0:0:
226,43,257535,1,2,0:3:0:0:
186,54,257604,1,8,1:2:0:0:
156,81,257673,1,2,0:3:0:0:
116,89,257742,6,0,P|85:64|87:51,1,51,8|2,1:2|0:3,0:0:0:0:
223,146,257880,37,8,1:2:0:0:
240,156,257949,1,2,0:3:0:0:
253,171,258017,6,0,B|255:198|255:198|235:219,1,51,8|2,1:2|0:3,0:0:0:0:
378,93,258155,2,0,B|362:76|362:76|364:49,1,51,8|2,1:2|0:3,0:0:0:0:
388,232,258293,5,8,1:2:0:0:
413,263,258362,1,2,0:3:0:0:
411,303,258431,1,8,1:2:0:0:
384,334,258500,1,2,0:3:0:0:
344,343,258569,6,0,P|352:315|373:293,1,51,12|2,1:2|0:3,0:0:0:0:
490,186,258707,37,8,1:2:0:0:
473,198,258776,1,2,0:3:0:0:
452,199,258845,6,0,P|432:173|407:157,1,51,8|2,1:2|0:3,0:0:0:0:
276,258,258983,6,0,P|256:273|241:294,1,51,12|2,1:2|0:3,0:0:0:0:
96,187,259121,5,8,1:2:0:0:
64,161,259190,1,2,0:3:0:0:
50,122,259259,1,8,1:2:0:0:
55,81,259328,1,2,0:3:0:0:
82,50,259397,38,0,B|97:34|97:34|91:3,1,48.2799975689088,8|2,1:2|0:3,0:0:0:0:
173,142,259535,5,8,1:2:0:0:
184,157,259604,1,2,0:3:0:0:
188,175,259673,6,0,P|171:221|165:228,1,48.4499987062455,8|2,1:2|0:3,0:0:0:0:
58,311,259811,6,0,P|75:357|81:364,1,48.2799975689088,8|2,1:2|0:3,0:0:0:0:
253,235,259949,37,8,1:2:0:0:
289,224,260017,1,2,0:3:0:0:
327,226,260086,1,8,1:2:0:0:
358,248,260155,1,2,0:3:0:0:
370,284,260224,6,0,L|438:271,1,48.2799975689088,8|2,1:2|0:3,0:0:0:0:
493,150,260362,5,8,1:2:0:0:
498,131,260431,1,2,0:3:0:0:
499,111,260500,6,0,B|474:134|474:134|476:155,1,48.2799975689088,8|2,1:2|0:3,0:0:0:0:
343,21,260638,38,0,B|368:44|368:44|366:58,1,48.2799975689088,8|2,1:2|0:3,0:0:0:0:
265,170,260776,5,8,1:2:0:0:
279,206,260845,1,2,0:3:0:0:
318,216,260914,1,8,1:2:0:0:
354,201,260983,1,2,0:3:0:0:
368,165,261052,6,0,P|339:131|310:119,1,48.2799975689088,8|2,1:2|0:3,0:0:0:0:
172,221,261190,5,8,1:2:0:0:
168,240,261259,1,2,0:3:0:0:
162,259,261328,38,0,L|149:307,1,39.1000007457733,8|2,1:2|0:3,0:0:0:0:
36,377,261466,2,0,L|25:339,1,39.1000007457733,0|8,0:0|0:2,0:0:0:0:
3,239,261604,6,0,P|18:240|32:247,1,25.8399996845703,8|8,1:2|0:2,0:0:0:0:
5,231,261742,2,0,P|20:232|34:239,1,25.8399996845703,8|8,1:3|0:3,0:0:0:0:
161,374,261880,6,0,B|182:375|182:375|197:353,1,39.2699992210236,0|0,0:3|0:3,0:0:0:0:
288,271,262017,6,0,L|321:281,1,25.8399996845703,8|8,1:2|0:2,0:0:0:0:
297,268,262155,2,0,L|330:278,1,25.8399996845703,8|8,1:2|0:2,0:0:0:0:
464,364,262293,38,0,B|478:358|478:358|490:313,1,51.0000019454957,4|0,0:2|0:0,0:0:0:0:
416,218,262431,5,8,1:2:0:0:
388,187,262500,1,0,0:0:0:0:
381,146,262569,1,8,1:2:0:0:
396,108,262638,1,0,0:0:0:0:
430,86,262707,6,0,P|457:49|457:38,1,51.0000019454957,12|0,1:2|0:0,0:0:0:0:
250,55,262845,5,8,1:2:0:0:
232,66,262914,1,0,0:0:0:0:
227,86,262983,38,0,P|245:127|255:133,1,51,8|2,1:2|0:2,0:0:0:0:
314,205,263121,5,8,1:2:0:0:
296,241,263190,1,2,0:2:0:0:
258,258,263259,1,8,1:2:0:0:
218,247,263328,1,2,0:2:0:0:
177,247,263397,1,8,1:2:0:0:
147,274,263466,1,2,0:2:0:0:
152,314,263535,6,0,L|94:292,1,51,8|2,1:2|0:2,0:0:0:0:
23,149,263673,5,8,1:2:0:0:
19,169,263742,1,2,0:2:0:0:
30,185,263811,38,0,L|89:153,1,51,8|2,1:2|0:2,0:0:0:0:
122,71,263949,5,8,1:2:0:0:
162,65,264018,1,2,0:2:0:0:
196,86,264086,1,8,1:2:0:0:
218,119,264155,1,2,0:2:0:0:
219,159,264224,1,8,1:2:0:0:
199,194,264293,1,2,0:2:0:0:
166,218,264362,6,0,B|144:243|144:243|147:277,1,51,12|2,1:2|0:2,0:0:0:0:
254,369,264500,5,8,1:2:0:0:
270,357,264569,1,2,0:2:0:0:
290,355,264638,38,0,B|312:330|312:330|309:296,1,51,8|2,1:2|0:2,0:0:0:0:
346,219,264776,5,8,1:2:0:0:
378,194,264845,1,2,0:2:0:0:
418,189,264914,1,8,1:2:0:0:
457,200,264983,1,2,0:2:0:0:
481,232,265052,1,8,1:2:0:0:
488,272,265121,1,2,0:2:0:0:
477,311,265190,6,0,P|451:284|453:263,1,51,12|2,1:2|0:2,0:0:0:0:
449,90,265328,5,8,1:2:0:0:
469,86,265397,1,2,0:2:0:0:
486,96,265466,38,0,P|498:131|488:149,1,51,8|2,1:2|0:2,0:0:0:0:
381,295,265604,5,12,1:2:0:0:
345,314,265673,1,2,0:2:0:0:
304,312,265742,1,8,1:2:0:0:
277,280,265811,1,2,0:2:0:0:
238,266,265880,1,8,1:2:0:0:
197,273,265949,1,2,0:2:0:0:
174,306,266017,6,0,B|191:331|191:331|219:328,1,51,8|2,1:2|0:2,0:0:0:0:
295,198,266155,5,8,1:2:0:0:
289,178,266224,1,2,0:2:0:0:
271,167,266293,38,0,B|288:142|288:142|316:145,1,51,8|2,1:2|0:2,0:0:0:0:
457,128,266431,5,8,1:2:0:0:
489,102,266500,1,2,0:2:0:0:
486,61,266569,1,8,1:2:0:0:
459,29,266638,1,2,0:2:0:0:
418,24,266707,1,8,1:2:0:0:
381,41,266776,1,2,0:2:0:0:
366,79,266845,6,0,L|314:61,1,51,8|2,1:2|0:2,0:0:0:0:
385,201,266983,5,8,1:2:0:0:
395,218,267052,1,2,0:2:0:0:
414,225,267121,38,0,L|466:207,1,51,8|2,1:2|0:2,0:0:0:0:
225,216,267259,5,8,1:2:0:0:
182,243,267328,1,2,0:2:0:0:
168,292,267397,1,8,1:2:0:0:
181,341,267466,1,2,0:2:0:0:
223,368,267535,1,8,1:2:0:0:
272,357,267604,1,2,0:2:0:0:
297,312,267673,5,8,0:3:0:0:
281,285,267742,1,8,2:3:0:0:
252,276,267811,1,8,2:3:0:0:
223,278,267880,1,8,2:3:0:0:
200,293,267949,1,8,2:3:0:0:
181,311,268017,1,8,2:3:0:0:
155,310,268086,6,0,P|128:291|128:265,1,51,8|8,0:2|2:2,0:0:0:0:
47,192,268224,37,8,2:3:0:0:
38,173,268293,1,8,2:3:0:0:
36,153,268362,1,8,2:3:0:0:
40,135,268431,1,8,2:3:0:0:
51,122,268500,6,0,B|32:104|32:104|3:104,1,51.0000019454957,8|8,0:2|2:2,0:0:0:0:
144,170,268638,5,8,2:1:0:0:
154,168,268707,1,8,2:1:0:0:
164,166,268776,1,8,2:1:0:0:
174,164,268845,1,8,2:1:0:0:
184,163,268914,5,4,0:2:0:0:
202,171,268983,1,0,0:0:0:0:
216,185,269052,1,0,0:0:0:0:
222,204,269121,1,0,0:0:0:0:
221,224,269190,1,0,0:0:0:0:
215,243,269259,1,0,0:0:0:0:
200,257,269328,38,0,P|180:275|176:312,1,53.3800002036285,8|2,1:2|0:3,0:0:0:0:
303,362,269466,1,8,1:2:0:0:
321,351,269535,1,2,0:3:0:0:
331,332,269603,6,0,P|323:306|292:286,1,53.3800002036285,8|2,1:2|0:3,0:0:0:0:
114,365,269742,5,8,1:2:0:0:
71,359,269811,1,2,0:3:0:0:
49,321,269880,1,8,1:2:0:0:
52,278,269949,1,2,0:3:0:0:
81,247,270017,1,8,1:2:0:0:
103,210,270086,1,2,0:3:0:0:
100,167,270155,6,0,L|29:146,1,53.3800002036285,8|2,1:2|0:3,0:0:0:0:
151,300,270293,1,8,1:2:0:0:
171,294,270362,1,2,0:3:0:0:
192,290,270431,38,0,L|213:219,1,53.3800002036285,8|2,1:2|0:3,0:0:0:0:
236,126,270569,5,8,1:2:0:0:
273,105,270638,1,2,0:3:0:0:
315,100,270707,1,8,1:2:0:0:
352,120,270776,1,2,0:3:0:0:
371,157,270845,1,8,1:2:0:0:
408,178,270914,1,2,0:3:0:0:
450,172,270983,6,0,P|475:135|474:114,1,53.3800002036285,8|2,1:2|0:3,0:0:0:0:
355,269,271121,5,8,1:2:0:0:
336,279,271190,1,2,0:3:0:0:
328,299,271259,38,0,P|338:342|355:355,1,53.3800002036285,8|2,1:2|0:3,0:0:0:0:
475,281,271397,5,8,1:2:0:0:
496,244,271466,1,2,0:3:0:0:
503,201,271535,1,8,1:2:0:0:
491,159,271604,1,2,0:3:0:0:
459,130,271673,1,8,1:2:0:0:
442,90,271742,1,2,0:3:0:0:
457,49,271811,6,0,B|476:71|476:71|474:102,1,53.3800002036285,12|2,1:2|0:3,0:0:0:0:
349,180,271949,1,8,1:2:0:0:
330,170,272017,1,2,0:3:0:0:
313,156,272086,6,0,B|335:137|335:137|366:139,1,53.3800002036285,8|2,1:2|0:3,0:0:0:0:
217,268,272224,37,12,1:2:0:0:
175,279,272293,1,2,0:3:0:0:
138,256,272362,1,8,1:2:0:0:
124,215,272431,1,2,0:3:0:0:
132,173,272500,1,8,1:2:0:0:
163,143,272569,1,2,0:3:0:0:
205,143,272638,6,0,P|190:129|148:122,1,51.0000019454957,8|2,1:2|0:3,0:0:0:0:
29,232,272776,5,8,1:2:0:0:
21,251,272845,1,2,0:3:0:0:
19,271,272914,6,0,P|34:257|76:250,1,51.0000019454957,8|2,1:2|0:3,0:0:0:0:
194,211,273052,37,8,1:2:0:0:
234,211,273121,1,2,0:3:0:0:
269,231,273190,1,8,1:2:0:0:
285,268,273259,1,2,0:3:0:0:
285,308,273328,1,8,1:2:0:0:
265,343,273397,1,2,0:3:0:0:
227,360,273466,6,0,L|177:337,1,51.0000019454957,8|2,1:2|0:3,0:0:0:0:
376,282,273604,1,8,1:2:0:0:
395,274,273673,1,2,0:3:0:0:
402,254,273742,6,0,L|352:277,1,51,8|2,1:2|0:3,0:0:0:0:
250,136,273880,5,8,0:2:0:0:
258,85,273949,1,8,2:2:0:0:
303,64,274017,1,8,2:2:0:0:
353,67,274086,1,8,2:2:0:0:
396,94,274155,37,8,0:3:0:0:
416,94,274224,1,8,2:3:0:0:
434,85,274293,1,8,2:3:0:0:
444,67,274362,1,8,2:3:0:0:
425,45,274431,5,8,0:3:0:0:
421,35,274500,1,8,2:3:0:0:
420,24,274569,1,8,2:3:0:0:
424,15,274638,1,8,2:3:0:0:
457,10,274707,6,0,B|478:21|478:21|469:54,1,51,8|8,0:2|2:2,0:0:0:0:
381,167,274845,2,0,B|360:178|360:178|369:211,1,51,8|8,2:2|2:2,0:0:0:0:
487,323,274983,5,8,0:3:0:0:
466,326,275052,1,8,2:3:0:0:
445,329,275121,1,8,2:3:0:0:
424,332,275190,1,8,2:3:0:0:
396,354,275259,37,8,0:1:0:0:
386,350,275328,1,8,2:1:0:0:
376,346,275397,1,8,2:1:0:0:
366,342,275466,1,8,2:1:0:0:
349,310,275535,54,0,B|322:315|322:315|308:333|308:333|280:335,1,63.239997491089,0|0,3:0|0:0,0:0:0:0:
166,375,275811,1,0,0:0:0:0:
97,348,275949,1,0,0:0:0:0:
87,274,276086,1,0,0:0:0:0:
156,239,276224,1,0,0:0:0:0:
71,148,276362,6,0,B|61:141|61:141|10:158,2,63.239997491089,0|0|0,3:0|0:0|0:0,0:0:0:0:
146,74,276776,69,0,0:0:0:0:
158,85,276914,1,0,0:0:0:0:
213,169,277052,5,0,0:0:0:0:
291,44,277190,70,0,L|279:115,1,63.239997491089,0|0,3:0|0:0,0:0:0:0:
205,156,277466,1,0,0:0:0:0:
257,222,277604,6,0,P|294:210|336:215,2,63.239997491089
189,315,278017,70,0,P|152:303|110:308,2,63.239997491089,0|0|0,3:0|0:0|0:0,0:0:0:0:
365,345,278431,5,0,0:0:0:0:
367,333,278569,2,0,B|403:322|404:353|435:338,1,63.239997491089
297,229,278845,69,0,3:0:0:0:
253,315,278983,6,0,P|212:295|210:262,1,63.239997491089
306,239,279259,69,0,0:0:0:0:
147,364,279397,5,0,0:0:0:0:
73,350,279535,1,0,0:0:0:0:
156,349,279673,69,0,3:0:0:0:
55,262,279811,5,0,0:0:0:0:
96,180,279949,1,0,0:0:0:0:
161,221,280086,69,0,0:0:0:0:
156,136,280224,6,0,L|80:149,1,63.239997491089
274,273,280500,70,0,P|302:244|330:243,2,63.239997491089,0|0|0,3:0|0:0|0:0,0:0:0:0:
353,173,280914,1,0,0:0:0:0:
441,255,281052,5,0,0:0:0:0:
455,263,281121,2,0,L|448:302,1,31.6199987455445,8|8,0:3|0:3,0:0:0:0:
340,162,281328,69,4,3:2:0:0:
448,97,281466,1,0,3:0:0:0:
454,95,281535,1,0,3:0:0:0:
460,93,281604,5,8,0:3:0:0:
340,29,281742,1,8,0:3:0:0:
255,49,281880,1,8,0:3:0:0:
237,98,282017,1,8,0:1:0:0:
252,121,282155,70,0,P|268:166|267:194,1,63.239997491089,4|0,3:2|0:0,0:0:0:0:
62,83,282431,5,0,0:0:0:0:
101,150,282569,1,0,0:0:0:0:
180,162,282707,1,0,0:0:0:0:
252,121,282845,1,0,0:0:0:0:
342,250,282983,70,0,B|341:266|341:266|322:239|292:229,2,63.239997491089,0|0|0,3:0|0:0|0:0,0:0:0:0:
297,349,283397,5,0,0:0:0:0:
311,358,283535,1,0,0:0:0:0:
410,304,283673,69,0,0:0:0:0:
427,378,283811,6,0,L|448:295,1,63.239997491089,0|0,3:0|0:0,0:0:0:0:
499,262,284086,1,0,0:0:0:0:
404,215,284224,70,0,B|392:182|392:182|405:144,2,63.239997491089
260,124,284638,6,0,B|272:91|272:91|259:53,2,63.239997491089,0|0|0,3:0|0:0|0:0,0:0:0:0:
133,163,285052,69,0,0:0:0:0:
139,178,285190,6,0,B|164:180|164:180|174:195|174:195|201:198,1,63.239997491089
105,296,285466,5,4,0:2:0:0:
109,292,285535,1,0,0:0:0:0:
110,287,285604,1,0,0:0:0:0:
111,282,285673,1,0,0:0:0:0:
111,276,285742,1,0,0:0:0:0:
110,270,285811,1,0,0:0:0:0:
108,265,285880,1,0,0:0:0:0:
106,260,285949,1,0,0:0:0:0:
103,255,286017,1,0,0:0:0:0:
100,250,286086,1,0,0:0:0:0:
96,246,286155,1,0,0:0:0:0:
91,243,286224,1,0,0:0:0:0:
58,240,286293,5,8,0:2:0:0:
55,232,286362,1,0,0:0:0:0:
54,224,286431,1,0,0:0:0:0:
54,216,286500,1,0,0:0:0:0:
56,208,286569,1,0,0:0:0:0:
59,200,286638,1,0,0:0:0:0:
92,183,286707,5,8,0:2:0:0:
96,174,286776,1,0,0:0:0:0:
97,165,286845,1,0,0:0:0:0:
97,156,286914,1,0,0:0:0:0:
95,147,286983,1,0,0:0:0:0:
91,138,287052,1,0,0:0:0:0:
53,126,287121,5,8,0:2:0:0:
62,113,287190,1,0,0:0:0:0:
79,105,287259,1,0,0:0:0:0:
101,103,287328,1,0,0:0:0:0:
125,112,287397,1,8,0:2:0:0:
148,130,287466,1,0,0:0:0:0:
176,147,287535,1,8,0:2:0:0:
212,144,287604,1,0,0:0:0:0:
244,120,287673,1,8,0:2:0:0:
253,75,287742,1,0,0:0:0:0:
218,37,287811,1,0,0:0:0:0:
162,44,287880,1,0,0:0:0:0:
131,96,287949,37,8,0:3:0:0:
168,81,288017,1,0,0:0:0:0:
202,90,288086,1,8,0:2:0:0:
216,116,288155,1,8,0:3:0:0:
244,120,288224,5,8,2:3:0:0:
241,140,288293,1,8,2:3:0:0:
238,160,288362,1,8,2:3:0:0:
235,180,288431,1,8,2:3:0:0:
208,207,288500,6,0,L|230:214,1,16.32,8|8,0:1|2:1,0:0:0:0:
139,281,288638,2,0,L|117:288,1,16.32,8|8,0:1|2:1,0:0:0:0:
148,64,288774,5,4,0:2:0:0:
98,63,288845,1,0,0:0:0:0:
55,92,288916,1,0,0:0:0:0:
48,146,288988,1,0,0:0:0:0:
75,195,289059,1,0,0:0:0:0:
132,210,289131,1,0,0:0:0:0:
187,184,289202,1,4,0:2:0:0:
246,182,289274,1,0,0:0:0:0:
290,216,289345,1,0,0:0:0:0:
292,267,289416,1,0,0:0:0:0:
256,294,289488,1,0,0:0:0:0:
221,294,289559,1,0,0:0:0:0:
206,276,289631,2,0,P|216:243|238:232,1,48.9600011953125,12|0,0:2|0:0,0:0:0:0:
317,63,289774,37,0,0:0:0:0:
467,127,289916,1,2,0:3:0:0:
381,172,290059,1,0,0:0:0:0:
154,116,290202,5,2,0:3:0:0:
143,131,290345,1,0,0:0:0:0:
258,370,290488,5,4,0:2:0:0:
324,366,290559,1,0,0:0:0:0:
375,318,290631,1,0,0:0:0:0:
369,245,290702,1,0,0:0:0:0:
301,210,290774,1,4,0:2:0:0:
242,227,290845,1,0,0:0:0:0:
227,268,290916,1,0,0:0:0:0:
237,290,290988,1,0,0:0:0:0:
247,285,291059,6,0,B|265:259|265:259|263:226,1,38.2500014591218
453,322,291202,2,0,B|460:352|460:352|486:373,1,43.3500008268356
370,118,291345,37,12,0:2:0:0:
352,156,291416,1,0,0:0:0:0:
316,178,291488,1,0,0:0:0:0:
275,180,291559,1,0,0:0:0:0:
240,158,291631,1,4,0:2:0:0:
212,128,291702,1,0,0:0:0:0:
172,117,291774,1,0,0:0:0:0:
132,124,291845,1,0,0:0:0:0:
101,152,291916,2,0,L|110:211,1,51,12|0,0:2|0:0,0:0:0:0:
297,100,292059,2,0,L|306:45,1,51,8|0,0:2|0:0,0:0:0:0:
26,328,292202,5,4,0:2:0:0:
37,360,292274,1,0,0:0:0:0:
65,381,292345,1,0,0:0:0:0:
99,373,292416,1,0,0:0:0:0:
124,348,292488,1,4,0:2:0:0:
130,315,292559,1,0,0:0:0:0:
157,293,292631,1,0,0:0:0:0:
192,292,292702,1,0,0:0:0:0:
216,318,292774,1,0,0:0:0:0:
215,345,292845,1,0,0:0:0:0:
201,362,292916,1,0,0:0:0:0:
186,370,292988,1,0,0:0:0:0:
176,369,293059,6,0,B|151:357|151:357|146:299,1,85.679997385254,12|0,0:2|0:0,0:0:0:0:
229,217,293345,2,0,B|254:205|254:205|259:147,1,85.679997385254,8|0,0:2|0:0,0:0:0:0:
342,326,293631,5,0,0:0:0:0:
350,324,293678,1,0,2:0:0:0:
355,317,293726,1,0,2:0:0:0:
354,309,293774,2,0,P|374:300|397:304,2,28.559999128418,0|0|0,0:0|2:0|2:0,0:0:0:0:
331,124,293916,37,4,0:2:0:0:
348,83,293988,1,0,0:0:0:0:
386,62,294059,1,0,0:0:0:0:
430,64,294131,1,0,0:0:0:0:
464,90,294202,5,4,0:2:0:0:
445,111,294274,1,0,0:0:0:0:
417,111,294345,1,0,0:0:0:0:
396,92,294416,1,0,0:0:0:0:
391,73,294488,6,0,L|405:38,3,33.6599998972778,4|0|0|0,0:2|0:0|0:0|0:0,0:0:0:0:
462,183,294774,6,0,L|426:191,1,33.6599998972778,8|0,2:3|0:0,0:0:0:0:
465,257,294916,2,0,L|501:265,1,33.6599998972778
289,256,295059,38,0,P|289:238|298:222,1,33.6599998972778,8|0,2:3|0:0,0:0:0:0:
206,189,295202,2,0,P|213:204|213:220,1,33.6599998972778
366,88,295345,5,8,0:2:0:0:
356,79,295416,1,8,0:2:0:0:
343,76,295488,1,8,0:2:0:0:
330,76,295559,1,8,0:2:0:0:
315,82,295631,5,14,0:2:0:0:
301,137,295702,1,10,1:2:0:0:
253,171,295774,1,2,0:2:0:0:
195,178,295845,1,10,1:2:0:0:
141,156,295916,1,2,0:2:0:0:
123,102,295988,1,10,1:2:0:0:
151,57,296059,1,2,0:2:0:0:
201,49,296131,1,10,1:2:0:0:
238,78,296202,1,2,0:2:0:0:
242,121,296274,1,10,1:2:0:0:
215,148,296345,1,2,0:2:0:0:
186,149,296416,1,10,1:2:0:0:
173,134,296488,5,2,0:2:0:0:
181,129,296559,1,10,1:2:0:0:
210,130,296631,1,2,0:2:0:0:
232,172,296702,1,10,1:2:0:0:
211,237,296774,1,2,0:2:0:0:
157,257,296845,1,10,1:2:0:0:
112,239,296916,1,2,0:2:0:0:
73,235,296988,1,10,1:2:0:0:
48,250,297059,1,2,0:2:0:0:
37,272,297131,1,10,1:2:0:0:
39,291,297202,1,2,0:2:0:0:
48,301,297274,1,10,1:2:0:0:
61,305,297345,37,4,0:2:0:0:
108,295,297416,1,8,1:2:0:0:
140,258,297488,1,2,0:2:0:0:
144,209,297559,1,8,1:2:0:0:
119,165,297631,1,2,0:2:0:0:
75,148,297702,1,8,1:2:0:0:
45,115,297774,1,2,0:2:0:0:
39,73,297845,1,8,1:2:0:0:
66,45,297916,1,2,0:2:0:0:
100,40,297988,1,8,1:2:0:0:
122,58,298059,1,2,0:2:0:0:
123,82,298131,1,8,1:2:0:0:
112,98,298202,6,0,B|81:101|81:101|50:77,1,53.5499983657837,4|8,0:2|1:2,0:0:0:0:
269,45,298345,2,0,B|238:42|238:42|207:66,1,53.5499983657837,0|8,0:0|1:2,0:0:0:0:
93,114,298488,6,0,B|61:112|61:112|35:83,1,48.4499987062455,4|8,0:2|1:2,0:0:0:0:
285,38,298631,2,0,B|254:30|254:30|220:49,1,48.4499987062455,0|8,0:0|1:2,0:0:0:0:
67,113,298774,6,0,B|36:106|36:106|14:73,1,43.3500008268356,4|8,0:2|1:2,0:0:0:0:
307,28,298916,2,0,B|278:15|278:15|241:28,1,43.3500008268356,0|8,0:0|1:2,0:0:0:0:
164,298,299059,37,4,0:2:0:0:
191,262,299131,1,8,1:2:0:0:
236,258,299202,1,2,0:2:0:0:
277,275,299274,1,8,1:2:0:0:
286,320,299345,1,2,0:2:0:0:
277,331,299416,1,8,1:2:0:0:
270,344,299488,5,2,0:2:0:0:
230,313,299559,1,8,1:2:0:0:
237,263,299631,1,2,0:2:0:0:
277,234,299702,1,8,1:2:0:0:
327,237,299774,1,2,0:2:0:0:
340,234,299845,1,8,1:2:0:0:
350,226,299916,5,2,0:2:0:0:
359,164,299988,1,8,1:2:0:0:
310,125,300059,1,2,0:2:0:0:
247,134,300131,1,8,1:2:0:0:
211,185,300202,1,2,0:2:0:0:
229,243,300274,1,8,1:2:0:0:
268,285,300345,1,2,0:2:0:0:
322,292,300416,1,8,1:2:0:0:
372,275,300488,1,2,0:2:0:0:
418,282,300559,1,8,1:2:0:0:
444,317,300631,1,2,0:2:0:0:
435,355,300702,1,8,1:2:0:0:
405,372,300774,5,0,0:0:0:0:
389,300,300845,1,8,2:3:0:0:
331,259,300916,1,8,2:3:0:0:
262,267,300988,1,8,2:3:0:0:
207,304,301059,1,8,2:3:0:0:
145,313,301131,1,8,2:3:0:0:
94,285,301202,1,8,2:3:0:0:
92,231,301274,1,8,2:3:0:0:
122,193,301345,37,8,3:2:0:0:
134,199,301416,1,8,3:2:0:0:
138,212,301488,2,0,P|125:240|86:245,1,58.65000111866,8|8,3:2|3:2,0:0:0:0:
72,59,301631,5,8,2:1:0:0:
101,39,301702,1,8,2:1:0:0:
136,37,301774,1,8,2:1:0:0:
166,53,301845,1,8,2:1:0:0:
187,79,301916,5,8,3:2:0:0:
187,94,301988,1,8,3:2:0:0:
177,105,302059,2,0,B|157:91|157:91|156:66,1,48.4499987062455,8|8,3:2|3:2,0:0:0:0:
337,28,302202,5,0,0:0:0:0:
336,34,302274,1,0,0:0:0:0:
335,40,302345,1,0,0:0:0:0:
334,46,302416,1,0,0:0:0:0:
332,52,302488,38,0,L|387:45,1,47.9399992684937,4|0,0:2|0:0,0:0:0:0:
487,135,302631,2,0,L|432:128,1,47.9399992684937
365,298,302774,5,0,0:0:0:0:
318,288,302845,1,0,0:0:0:0:
293,249,302916,1,4,0:2:0:0:
295,205,302988,1,0,0:0:0:0:
319,173,303059,1,0,0:0:0:0:
354,167,303131,1,0,0:0:0:0:
381,181,303202,1,0,0:0:0:0:
407,185,303274,1,0,0:0:0:0:
427,152,303345,6,0,B|446:174|446:174|430:232,1,71.399997821045,10|0,3:2|0:0,0:0:0:0:
229,315,303631,5,2,0:3:0:0:
436,288,303774,1,0,0:0:0:0:
341,380,303916,1,2,0:3:0:0:
330,383,304059,1,2,0:2:0:0:
231,196,304202,38,0,L|184:209,1,47.9399992684937,4|0,0:2|0:0,0:0:0:0:
57,271,304345,2,0,L|104:284,1,47.9399992684937
81,139,304488,6,0,L|94:186,1,47.9399992684937
202,328,304631,2,0,L|215:280,1,47.9399992684937,2|0,0:2|0:0,0:0:0:0:
340,134,304774,6,0,P|324:108|302:94,1,47.9399992684937
226,44,304916,2,0,P|248:37|273:39,1,47.9399992684937
175,187,305059,5,12,3:2:0:0:
13,133,305202,1,0,0:0:0:0:
109,131,305345,1,4,0:2:0:0:
34,255,305488,1,0,0:0:0:0:
17,114,305631,38,0,B|0:93|17:63|17:63|53:38,1,71.399997821045,4|0,0:2|0:0,0:0:0:0:
266,295,305916,6,0,B|273:322|273:322|255:351,1,49.4700011700211,4|0,0:2|0:0,0:0:0:0:
119,269,306059,2,0,B|112:242|112:242|130:213,1,49.4700011700211
313,189,306202,5,4,0:2:0:0:
362,192,306274,1,0,0:0:0:0:
395,224,306345,1,0,0:0:0:0:
397,268,306416,1,0,0:0:0:0:
372,302,306488,1,4,0:2:0:0:
336,311,306559,1,0,0:0:0:0:
306,297,306631,1,0,0:0:0:0:
298,271,306702,1,0,0:0:0:0:
321,229,306774,6,0,B|352:232|352:232|371:248|371:248|412:250,1,74.460002045105,10|0,0:2|0:0,0:0:0:0:
170,364,307059,37,2,0:3:0:0:
123,191,307202,1,0,0:0:0:0:
5,341,307345,1,2,0:3:0:0:
19,334,307488,1,0,0:0:0:0:
225,216,307631,5,4,0:2:0:0:
226,209,307702,1,0,0:0:0:0:
227,202,307774,1,0,0:0:0:0:
228,195,307845,1,0,0:0:0:0:
229,188,307916,1,0,0:0:0:0:
230,181,307988,1,0,0:0:0:0:
231,174,308059,1,0,0:0:0:0:
232,167,308131,1,0,0:0:0:0:
233,160,308202,5,0,0:0:0:0:
299,148,308274,1,0,0:0:0:0:
364,137,308345,2,0,L|321:130,1,41.8200006381226
129,109,308488,5,12,0:2:0:0:
132,115,308559,1,0,0:0:0:0:
135,121,308631,2,0,B|151:102|151:102|150:67,1,41.8200006381226
42,53,308774,37,8,0:2:0:0:
39,59,308845,1,0,0:0:0:0:
36,65,308917,2,0,B|20:46|20:46|21:11,1,41.8200006381226
85,200,309059,5,12,0:2:0:0:
73,270,309131,1,0,2:0:0:0:
63,340,309202,2,0,L|137:312,1,41.8200006381226,8|0,0:2|2:0,0:0:0:0:
250,199,309345,5,4,0:2:0:0:
260,202,309416,1,0,0:0:0:0:
270,205,309488,1,0,0:0:0:0:
280,207,309559,1,0,0:0:0:0:
290,209,309631,1,2,0:3:0:0:
300,213,309702,1,8,1:2:0:0:
310,217,309774,2,0,L|313:249,1,28.0500008560181,0|8,0:0|1:2,0:0:0:0:
406,354,309916,5,2,0:3:0:0:
413,345,309987,1,8,1:2:0:0:
420,336,310059,2,0,L|423:304,1,28.0500008560181,0|8,0:0|1:2,0:0:0:0:
489,181,310202,37,2,0:3:0:0:
485,164,310274,1,8,1:2:0:0:
474,150,310345,1,0,0:0:0:0:
459,142,310416,1,8,1:2:0:0:
442,139,310488,1,0,0:0:0:0:
413,150,310559,1,8,1:2:0:0:
382,144,310631,1,0,0:0:0:0:
364,118,310702,1,8,1:2:0:0:
369,82,310774,6,0,L|414:68,1,43.3500008268356,0|8,0:0|1:2,0:0:0:0:
387,227,310916,2,0,L|345:214,1,43.3500008268356,0|8,0:0|1:2,0:0:0:0:
173,81,311059,5,2,0:3:0:0:
164,70,311131,1,8,1:2:0:0:
161,57,311202,1,0,0:0:0:0:
162,43,311274,1,8,1:2:0:0:
168,31,311345,5,0,0:0:0:0:
203,48,311416,1,8,1:2:0:0:
224,82,311488,1,0,0:0:0:0:
224,121,311559,1,8,1:2:0:0:
203,155,311631,1,0,0:0:0:0:
169,169,311702,1,8,1:2:0:0:
135,165,311774,1,0,0:0:0:0:
114,143,311845,1,8,1:2:0:0:
111,117,311916,37,2,0:3:0:0:
150,97,311988,1,8,1:2:0:0:
193,99,312059,1,0,0:0:0:0:
223,130,312131,1,8,1:2:0:0:
239,169,312202,1,4,0:2:0:0:
261,206,312274,1,8,1:2:0:0:
302,219,312345,1,0,0:0:0:0:
343,205,312416,1,8,1:2:0:0:
363,166,312488,6,0,P|333:165|310:189,1,43.3500008268356,4|8,0:2|1:2,0:0:0:0:
258,371,312631,2,0,P|228:372|205:348,1,43.3500008268356,0|8,0:0|1:2,0:0:0:0:
153,229,312774,5,4,0:2:0:0:
103,218,312845,1,8,1:2:0:0:
56,231,312916,1,0,0:0:0:0:
32,272,312988,1,8,1:2:0:0:
37,317,313059,1,0,0:0:0:0:
73,342,313131,1,8,1:2:0:0:
114,341,313202,1,0,0:0:0:0:
140,310,313274,1,8,1:2:0:0:
177,306,313345,1,0,0:0:0:0:
204,320,313416,1,8,1:2:0:0:
214,341,313488,1,8,0:2:0:0:
210,357,313559,1,8,1:2:0:0:
203,367,313631,5,2,0:3:0:0:
200,315,313702,1,8,1:2:0:0:
241,282,313774,1,0,0:0:0:0:
292,276,313845,1,8,1:2:0:0:
336,303,313916,1,2,0:3:0:0:
388,304,313988,1,8,1:2:0:0:
430,274,314059,1,0,0:0:0:0:
430,221,314131,1,8,1:2:0:0:
389,188,314202,38,0,B|375:209|375:209|382:239,1,43.3500008268356,2|8,0:3|1:2,0:0:0:0:
162,162,314345,2,0,B|166:144|166:144|152:123,1,43.3500008268356,0|8,0:0|1:2,0:0:0:0:
461,17,314488,5,8,0:2:0:0:
453,84,314559,1,8,3:2:0:0:
409,126,314631,1,8,0:2:0:0:
357,129,314702,1,8,3:2:0:0:
320,104,314774,1,8,0:3:0:0:
316,87,314845,1,0,1:0:0:0:
319,70,314916,1,0,1:0:0:0:
331,57,314988,1,0,1:0:0:0:
347,52,315059,5,8,0:3:0:0:
325,199,315202,5,0,2:0:0:0:
310,208,315274,1,0,2:0:0:0:
292,208,315345,38,0,P|274:188|250:185,1,43.3500008268356,8|8,0:2|0:2,0:0:0:0:
92,147,315631,5,8,0:3:0:0:
100,155,315702,2,0,B|116:168|116:168|183:142,1,86.7000016536713
262,41,315916,5,8,0:1:0:0:
254,49,315988,2,0,B|238:62|238:62|171:36,1,86.7000016536713
84,264,316202,5,4,0:2:0:0:
249,86,328615,5,4,2:2:0:0:
245,75,329029,5,4,2:2:0:0:
240,66,329443,5,4,0:2:0:0:
170,49,329547,1,8,1:2:0:0:
117,80,329649,1,0,0:0:0:0:
112,131,329753,1,8,1:2:0:0:
133,164,329856,1,2,0:3:0:0:
164,169,329961,1,8,1:2:0:0:
182,160,330063,1,0,0:0:0:0:
231,146,330168,1,8,1:2:0:0:
332,168,330270,5,2,0:3:0:0:
348,237,330375,1,8,1:2:0:0:
319,290,330477,1,0,0:0:0:0:
268,296,330581,1,8,1:2:0:0:
166,282,330684,5,2,0:3:0:0:
235,264,330788,1,8,1:2:0:0:
288,280,330891,1,0,0:0:0:0:
312,312,330995,1,8,1:2:0:0:
378,376,331098,5,2,0:3:0:0:
388,370,331202,1,8,1:2:0:0:
422,295,331305,37,0,0:0:0:0:
430,302,331409,1,8,1:2:0:0:
507,376,331511,5,2,0:3:0:0:
504,365,331615,1,8,1:2:0:0:
501,354,331718,1,0,0:0:0:0:
498,343,331822,1,8,1:2:0:0:
482,222,331925,5,2,0:3:0:0:
411,208,332029,1,8,1:2:0:0:
348,242,332132,1,0,0:0:0:0:
306,300,332236,1,8,1:2:0:0:
242,332,332339,1,4,0:2:0:0:
182,316,332443,1,8,1:2:0:0:
156,272,332546,1,0,0:0:0:0:
168,232,332649,1,8,1:2:0:0:
254,197,332753,5,4,0:2:0:0:
296,139,332856,1,8,1:2:0:0:
282,89,332960,1,0,0:0:0:0:
253,77,333063,1,8,1:2:0:0:
189,17,333167,37,2,0:3:0:0:
179,18,333270,1,8,1:2:0:0:
169,22,333374,1,0,0:0:0:0:
161,28,333477,1,8,1:2:0:0:
77,72,333580,5,2,0:3:0:0:
54,140,333684,1,8,1:2:0:0:
86,180,333787,1,0,0:0:0:0:
116,185,333891,1,8,1:2:0:0:
184,136,333994,5,2,0:3:0:0:
193,140,334098,1,8,1:2:0:0:
196,149,334201,1,0,0:0:0:0:
199,158,334305,1,8,1:2:0:0:
142,230,334408,5,2,0:3:0:0:
132,247,334511,1,8,1:2:0:0:
130,267,334615,1,0,0:0:0:0:
135,286,334718,1,8,1:2:0:0:
87,340,334822,37,12,0:2:0:0:
127,315,334925,1,8,1:2:0:0:
181,322,335029,1,8,0:2:0:0:
221,366,335132,1,8,1:2:0:0:
287,376,335236,1,8,0:2:0:0:
353,342,335339,1,8,1:2:0:0:
296,227,335443,5,12,0:2:0:0:
251,282,335546,1,8,1:2:0:0:
275,337,335649,1,8,0:2:0:0:
325,343,335753,1,8,1:2:0:0:
359,321,335856,1,12,0:2:0:0:
389,318,335960,1,8,1:2:0:0:
476,376,336063,5,0,0:0:0:0:
415,331,336167,1,8,1:2:0:0:
406,267,336270,1,0,0:0:0:0:
422,215,336374,1,8,1:2:0:0:
453,186,336477,1,2,0:3:0:0:
475,162,336580,1,8,1:2:0:0:
477,140,336684,1,0,0:0:0:0:
451,93,336787,1,8,1:2:0:0:
348,118,336891,5,2,0:3:0:0:
333,191,336994,1,8,1:2:0:0:
371,242,337098,1,0,0:0:0:0:
422,258,337201,1,8,1:2:0:0:
411,166,337305,37,2,0:3:0:0:
440,97,337408,1,8,1:2:0:0:
404,50,337511,1,0,0:0:0:0:
361,45,337615,1,8,1:2:0:0:
274,100,337718,5,2,0:3:0:0:
263,103,337822,1,8,1:2:0:0:
190,38,337925,5,0,0:0:0:0:
201,41,338029,1,8,1:2:0:0:
167,137,338132,5,2,0:3:0:0:
168,147,338236,1,8,1:2:0:0:
169,157,338339,1,0,0:0:0:0:
171,167,338443,1,8,1:2:0:0:
258,222,338546,37,4,0:2:0:0:
240,294,338649,1,8,1:2:0:0:
173,328,338753,1,0,0:0:0:0:
98,322,338856,1,8,1:2:0:0:
50,263,338960,1,4,0:2:0:0:
47,199,339063,1,8,1:2:0:0:
76,153,339167,1,0,0:0:0:0:
116,138,339270,1,8,1:2:0:0:
169,240,339374,5,4,0:2:0:0:
236,271,339477,1,8,1:2:0:0:
287,249,339580,1,0,0:0:0:0:
306,222,339684,1,8,1:2:0:0:
269,147,339787,5,2,0:3:0:0:
275,138,339891,1,8,1:2:0:0:
284,134,339994,1,0,0:0:0:0:
294,132,340098,1,8,1:2:0:0:
378,95,340201,5,2,0:3:0:0:
429,150,340305,1,8,1:2:0:0:
424,203,340408,1,0,0:0:0:0:
406,229,340511,1,8,1:2:0:0:
455,302,340615,37,2,0:3:0:0:
445,306,340718,1,8,1:2:0:0:
434,306,340822,1,0,0:0:0:0:
425,300,340925,1,8,1:2:0:0:
330,306,341029,5,4,0:2:0:0:
368,317,341132,1,8,1:2:0:0:
417,270,341236,1,8,0:2:0:0:
453,148,341339,5,8,1:2:0:0:
367,116,341443,1,8,0:2:0:0:
303,158,341546,1,8,1:2:0:0:
293,216,341649,1,8,0:3:0:0:
328,245,341753,1,8,0:3:0:0:
363,227,341856,1,8,0:3:0:0:
366,204,341960,5,8,0:1:0:0:
312,143,342063,1,8,0:3:0:0:
237,157,342167,1,8,0:3:0:0:
201,205,342270,1,8,0:3:0:0:
156,213,342374,1,8,0:1:0:0:
131,187,342477,1,8,0:1:0:0:
165,59,342581,6,0,L|160:83,1,25.5,8|0,0:1|2:0,0:0:0:0:
256,192,342891,12,0,345994,2:0:0:0:
