osu file format v14

[General]
AudioFilename: audio.mp3
AudioLeadIn: 0
PreviewTime: 144167
Countdown: 0
SampleSet: Soft
StackLeniency: 0.7
Mode: 3
LetterboxInBreaks: 0
SpecialStyle: 0
WidescreenStoryboard: 1

[Editor]
DistanceSpacing: 0.8
BeatDivisor: 4
GridSize: 32
TimelineZoom: 1.6

[Metadata]
Title:Nightmare
TitleUnicode:Nightmare
Artist:Vairo
ArtistUnicode:Vairo
Creator:DarkistDeci
Version:Normal
Source:
Tags:famoss psytrance bounce Electronic Instrumental EDM dance music Ole Loke English
BeatmapID:2821009
BeatmapSetID:1363241

[Difficulty]
HPDrainRate:7
CircleSize:4
OverallDifficulty:7
ApproachRate:5
SliderMultiplier:1.4
SliderTickRate:1

[Events]
//Background and Video events
0,0,"bg.jpg",0,0
//Break Periods
2,14095,18387
//Storyboard Layer 0 (Background)
//Storyboard Layer 1 (Fail)
//Storyboard Layer 2 (Pass)
//Storyboard Layer 3 (Foreground)
//Storyboard Layer 4 (Overlay)
//Storyboard Sound Samples

[TimingPoints]
198,426.136363636364,4,2,1,70,1,0
61987,-100,4,2,1,70,0,1
88834,-100,4,2,1,70,0,0
102896,-100,4,2,1,70,0,1
116107,-100,4,2,1,70,0,0
145510,-100,4,2,1,70,0,1
172357,-100,4,2,1,70,0,0

[HitObjects]
64,192,198,5,0,0:0:0:50:Future Bass Kick 3.wav
448,192,482,1,0,0:0:0:0:
192,192,624,1,0,0:0:0:50:Future Bass Kick 3.wav
320,192,908,1,0,0:0:0:0:
64,192,1050,1,0,0:0:0:50:Future Bass Kick 3.wav
192,192,1334,1,0,0:0:0:0:
320,192,1476,1,0,0:0:0:50:Future Bass Kick 3.wav
64,192,1760,1,0,0:0:0:0:
448,192,1902,1,0,0:0:0:50:Future Bass Kick 3.wav
320,192,2186,1,0,0:0:0:0:
64,192,2328,1,0,0:0:0:50:Future Bass Kick 3.wav
192,192,2612,1,0,0:0:0:0:
448,192,2754,1,0,0:0:0:50:Future Bass Kick 3.wav
64,192,3038,1,0,0:0:0:0:
192,192,3180,1,0,0:0:0:50:Future Bass Kick 3.wav
448,192,3465,1,0,0:0:0:0:
64,192,3607,1,0,0:0:0:50:Future Bass Kick 3.wav
192,192,3891,1,0,0:0:0:0:
448,192,4033,1,0,0:0:0:50:Future Bass Kick 3.wav
320,192,4317,1,0,0:0:0:0:
64,192,4459,1,0,0:0:0:50:Future Bass Kick 3.wav
448,192,4743,1,0,0:0:0:0:
320,192,4885,1,0,0:0:0:50:Future Bass Kick 3.wav
448,192,5169,1,0,0:0:0:0:
64,192,5311,1,0,0:0:0:50:Future Bass Kick 3.wav
192,192,5595,1,0,0:0:0:0:
320,192,5737,1,0,0:0:0:50:Future Bass Kick 3.wav
320,192,6021,1,0,0:0:0:0:
64,192,6163,1,0,0:0:0:50:Future Bass Kick 3.wav
448,192,6448,1,0,0:0:0:0:
192,192,6590,128,0,7016:0:0:0:50:Future Bass Kick 3.wav
64,192,7016,1,0,0:0:0:50:Kick 33.wav
448,192,7300,1,0,0:0:0:0:
320,192,7442,1,0,0:0:0:50:Kick 33.wav
192,192,7442,1,0,0:0:0:70:Clap.wav
320,192,7726,1,0,0:0:0:0:
448,192,7868,1,0,0:0:0:50:Kick 33.wav
192,192,8152,1,0,0:0:0:0:
64,192,8294,1,0,0:0:0:50:Kick 33.wav
320,192,8294,1,0,0:0:0:70:Clap.wav
192,192,8578,1,0,0:0:0:0:
320,192,8720,1,0,0:0:0:50:Kick 33.wav
320,192,9004,1,0,0:0:0:0:
448,192,9146,1,0,0:0:0:50:Kick 33.wav
64,192,9146,1,0,0:0:0:70:Clap.wav
192,192,9430,1,0,0:0:0:0:
320,192,9573,1,0,0:0:0:50:Kick 33.wav
64,192,9857,1,0,0:0:0:0:
320,192,9999,1,0,0:0:0:50:Kick 33.wav
448,192,9999,1,0,0:0:0:70:Clap.wav
192,192,10283,1,0,0:0:0:0:
448,192,10425,1,0,0:0:0:50:Kick 33.wav
192,192,10709,1,0,0:0:0:0:
320,192,10851,1,0,0:0:0:50:Kick 33.wav
64,192,10851,1,0,0:0:0:70:Clap.wav
320,192,11135,1,0,0:0:0:0:
192,192,11277,1,0,0:0:0:50:Kick 33.wav
448,192,11561,1,0,0:0:0:0:
64,192,11703,1,0,0:0:0:50:Kick 33.wav
192,192,11703,1,0,0:0:0:70:Clap.wav
320,192,11987,1,0,0:0:0:50:0O.wav
448,192,12129,1,0,0:0:0:50:Kick 33.wav
192,192,12129,1,0,0:0:0:50:0O.wav
64,192,12271,1,0,0:0:0:50:0O.wav
320,192,12413,1,0,0:0:0:50:0O.wav
192,192,12555,1,0,0:0:0:50:0O.wav
448,192,12698,1,0,0:0:0:50:0O.wav
320,192,12840,1,0,0:0:0:50:0O.wav
64,192,12982,1,0,0:0:0:50:Kick 33.wav
448,192,12982,1,0,0:0:0:50:0O.wav
192,192,13124,1,0,0:0:0:50:0O.wav
64,192,13266,1,0,0:0:0:50:0O.wav
448,192,13408,128,0,13834:0:0:0:70:VEC3 Snares 007.wav
320,192,13408,1,0,0:0:0:0:
192,192,13834,1,0,0:0:0:50:Kick 33.wav
64,192,13834,1,0,0:0:0:0:
64,192,19587,132,0,19800:0:0:0:50:0O.wav
448,192,19800,1,0,0:0:0:50:0O.wav
320,192,20013,1,0,0:0:0:50:0O.wav
192,192,20226,1,0,0:0:0:70:VEC3 Snares 007.wav
64,192,20226,1,0,0:0:0:0:
192,192,20652,1,0,0:0:0:50:Kick 33.wav
64,192,20652,128,0,21291:0:0:0:70:Clap.wav
448,192,21291,128,0,21504:0:0:0:0:
320,192,21504,128,0,21930:0:0:0:70:Clap.wav
192,192,21930,128,0,22357:0:0:0:0:
448,192,22357,128,0,22996:0:0:0:70:Clap.wav
64,192,22996,128,0,23209:0:0:0:0:
192,192,23209,128,0,23635:0:0:0:70:Clap.wav
448,192,23635,128,0,24061:0:0:0:0:
64,192,24061,128,0,26831:0:0:0:70:Clap.wav
320,192,26831,128,0,27044:0:0:0:0:
192,192,27044,128,0,27257:0:0:0:0:
448,192,27257,128,0,27470:0:0:0:0:
64,192,27470,128,0,28109:0:0:0:70:Clap.wav
448,192,28109,128,0,28323:0:0:0:0:
320,192,28323,128,0,28749:0:0:0:70:Clap.wav
192,192,28749,128,0,29175:0:0:0:0:
448,192,29175,128,0,29814:0:0:0:70:Clap.wav
64,192,29814,128,0,30027:0:0:0:0:
192,192,30027,128,0,30453:0:0:0:70:Clap.wav
448,192,30453,128,0,30879:0:0:0:0:
64,192,30879,128,0,33223:0:0:0:70:Clap.wav
448,192,33223,128,0,33436:0:0:0:50:0O.wav
64,192,33436,1,0,0:0:0:50:0O.wav
192,192,33649,1,0,0:0:0:50:0O.wav
320,192,33862,1,0,0:0:0:70:VEC3 Snares 007.wav
448,192,33862,1,0,0:0:0:50:0O.wav
64,192,34288,1,0,0:0:0:50:Future Bass Kick 3.wav
448,192,34288,1,0,0:0:0:0:
192,192,34501,1,0,0:0:0:0:
320,192,34715,1,0,0:0:0:50:Future Bass Kick 3.wav
448,192,34715,1,0,0:0:0:0:
64,192,34928,1,0,0:0:0:0:
448,192,35141,1,0,0:0:0:50:Future Bass Kick 3.wav
192,192,35141,1,0,0:0:0:0:
320,192,35354,1,0,0:0:0:0:
448,192,35567,1,0,0:0:0:50:Future Bass Kick 3.wav
192,192,35567,1,0,0:0:0:0:
64,192,35780,1,0,0:0:0:0:
320,192,35993,1,0,0:0:0:50:Future Bass Kick 3.wav
448,192,35993,1,0,0:0:0:0:
64,192,36206,1,0,0:0:0:0:
192,192,36419,1,0,0:0:0:50:Future Bass Kick 3.wav
448,192,36419,1,0,0:0:0:0:
64,192,36632,1,0,0:0:0:0:
448,192,36845,1,0,0:0:0:50:Future Bass Kick 3.wav
320,192,36845,1,0,0:0:0:0:
192,192,37058,1,0,0:0:0:0:
64,192,37271,1,0,0:0:0:50:Future Bass Kick 3.wav
448,192,37271,1,0,0:0:0:0:
320,192,37484,1,0,0:0:0:0:
192,192,37698,1,0,0:0:0:50:Future Bass Kick 3.wav
64,192,37698,1,0,0:0:0:0:
448,192,37911,1,0,0:0:0:0:
320,192,38124,1,0,0:0:0:50:Future Bass Kick 3.wav
192,192,38124,1,0,0:0:0:0:
448,192,38337,1,0,0:0:0:0:
192,192,38550,1,0,0:0:0:50:Future Bass Kick 3.wav
64,192,38550,1,0,0:0:0:0:
320,192,38763,1,0,0:0:0:0:
64,192,38976,1,0,0:0:0:50:Future Bass Kick 3.wav
448,192,38976,1,0,0:0:0:0:
192,192,39189,1,0,0:0:0:0:
64,192,39402,1,0,0:0:0:50:Future Bass Kick 3.wav
320,192,39402,1,0,0:0:0:0:
448,192,39615,1,0,0:0:0:0:
64,192,39828,1,0,0:0:0:50:Future Bass Kick 3.wav
192,192,39828,1,0,0:0:0:0:
320,192,40041,1,0,0:0:0:0:
448,192,40254,1,0,0:0:0:50:Future Bass Kick 3.wav
64,192,40254,1,0,0:0:0:0:
192,192,40467,1,0,0:0:0:0:
448,192,40680,1,0,0:0:0:50:Future Bass Kick 3.wav
320,192,40680,1,0,0:0:0:0:
64,192,40894,1,0,0:0:0:0:
320,192,41107,1,0,0:0:0:50:Future Bass Kick 3.wav
448,192,41107,1,0,0:0:0:0:
64,192,41320,1,0,0:0:0:0:
192,192,41533,1,0,0:0:0:50:Future Bass Kick 3.wav
320,192,41533,1,0,0:0:0:0:
448,192,41746,1,0,0:0:0:0:
320,192,41959,1,0,0:0:0:50:Future Bass Kick 3.wav
64,192,41959,1,0,0:0:0:0:
192,192,42172,1,0,0:0:0:0:
64,192,42385,1,0,0:0:0:50:Future Bass Kick 3.wav
448,192,42385,1,0,0:0:0:0:
320,192,42598,1,0,0:0:0:0:
448,192,42811,1,0,0:0:0:50:Future Bass Kick 3.wav
64,192,42811,1,0,0:0:0:0:
192,192,43024,1,0,0:0:0:0:
64,192,43237,1,0,0:0:0:50:Future Bass Kick 3.wav
448,192,43237,1,0,0:0:0:0:
320,192,43450,1,0,0:0:0:0:
192,192,43663,1,0,0:0:0:50:Future Bass Kick 3.wav
448,192,43663,1,0,0:0:0:0:
64,192,43876,1,0,0:0:0:0:
320,192,44090,1,0,0:0:0:50:Future Bass Kick 3.wav
192,192,44090,1,0,0:0:0:0:
448,192,44303,1,0,0:0:0:0:
64,192,44516,1,0,0:0:0:50:Future Bass Kick 3.wav
192,192,44516,1,0,0:0:0:0:
320,192,44729,1,0,0:0:0:0:
448,192,44942,1,0,0:0:0:50:Future Bass Kick 3.wav
192,192,44942,1,0,0:0:0:0:
320,192,45155,1,0,0:0:0:0:
64,192,45368,1,0,0:0:0:50:Future Bass Kick 3.wav
448,192,45368,1,0,0:0:0:0:
192,192,45581,1,0,0:0:0:0:
320,192,45794,1,0,0:0:0:50:Future Bass Kick 3.wav
448,192,45794,1,0,0:0:0:0:
192,192,46007,1,0,0:0:0:0:
64,192,46220,5,0,0:0:0:50:0O.wav
448,192,46220,1,0,0:0:0:0:
192,192,46433,1,0,0:0:0:0:
320,192,46646,1,0,0:0:0:50:0O.wav
448,192,46646,1,0,0:0:0:0:
64,192,46859,1,0,0:0:0:0:
448,192,47073,1,0,0:0:0:50:0O.wav
192,192,47073,1,0,0:0:0:0:
320,192,47286,1,0,0:0:0:0:
448,192,47499,1,0,0:0:0:50:VEC3 Snares 007.wav
64,192,47499,128,0,47925:0:0:0:0:
192,192,47925,1,0,0:0:0:50:Kick 33.wav
448,192,48138,128,0,49061:0:0:0:0:
64,192,49807,128,0,51014:0:0:0:0:
448,192,51387,128,0,52719:0:0:0:0:
192,192,53038,128,0,54317:0:0:0:0:
320,192,54636,1,0,0:0:0:50:0O.wav
448,192,54743,1,0,0:0:0:50:0O.wav
64,192,54743,1,0,0:0:0:0:
192,192,54956,1,0,0:0:0:50:0O.wav
64,192,55169,1,0,0:0:0:50:0O.wav
448,192,55169,1,0,0:0:0:0:
320,192,55382,1,0,0:0:0:50:0O.wav
192,192,55595,1,0,0:0:0:50:0O.wav
64,192,55595,1,0,0:0:0:0:
448,192,55808,1,0,0:0:0:50:0O.wav
320,192,56021,1,0,0:0:0:50:0O.wav
64,192,56021,1,0,0:0:0:0:
192,192,56234,1,0,0:0:0:50:0O.wav
320,192,56341,1,0,0:0:0:50:0O.wav
64,192,56448,1,0,0:0:0:50:0O.wav
448,192,56448,1,0,0:0:0:0:
192,192,56661,1,0,0:0:0:50:0O.wav
320,192,56874,1,0,0:0:0:50:0O.wav
448,192,56874,1,0,0:0:0:0:
64,192,57087,1,0,0:0:0:50:0O.wav
192,192,57300,1,0,0:0:0:50:0O.wav
448,192,57300,1,0,0:0:0:0:
320,192,57513,1,0,0:0:0:50:0O.wav
448,192,57726,1,0,0:0:0:50:0O.wav
192,192,57726,1,0,0:0:0:0:
64,192,57939,1,0,0:0:0:50:0O.wav
192,192,58046,1,0,0:0:0:50:0O.wav
320,192,58152,1,0,0:0:0:50:0O.wav
448,192,58152,1,0,0:0:0:0:
192,192,58365,1,0,0:0:0:50:0O.wav
64,192,58578,1,0,0:0:0:50:0O.wav
448,192,58578,1,0,0:0:0:0:
320,192,58791,1,0,0:0:0:50:0O.wav
192,192,58898,1,0,0:0:0:50:0O.wav
448,192,59004,1,0,0:0:0:50:0O.wav
64,192,59004,1,0,0:0:0:0:
192,192,59217,1,0,0:0:0:50:0O.wav
320,192,59324,1,0,0:0:0:50:0O.wav
448,192,59430,1,0,0:0:0:50:0O.wav
64,192,59430,1,0,0:0:0:0:
192,192,59644,1,0,0:0:0:50:0O.wav
320,192,59857,1,0,0:0:0:50:0O.wav
448,192,59857,1,0,0:0:0:0:
192,192,61135,128,0,61561:0:0:0:70:VEC3 Snares 007.wav
64,192,61135,1,0,0:0:0:0:
320,192,61561,1,0,0:0:0:50:Kick 33.wav
448,192,61561,1,0,0:0:0:0:
448,192,61987,128,0,62271:0:0:0:50:Kick 33.wav
320,192,61987,1,0,0:0:0:0:
64,192,62271,1,0,0:0:0:0:
320,192,62413,128,0,62698:0:0:0:50:Kick 33.wav
192,192,62413,1,0,0:0:0:0:
448,192,62698,1,0,0:0:0:0:
192,192,62840,1,0,0:0:0:50:Kick 33.wav
64,192,62840,1,0,0:0:0:0:
448,192,63266,128,0,63550:0:0:0:50:Kick 33.wav
192,192,63266,1,0,0:0:0:0:
64,192,63550,1,0,0:0:0:0:
448,192,63692,128,0,63976:0:0:0:50:Kick 33.wav
320,192,63692,1,0,0:0:0:0:
192,192,63976,1,0,0:0:0:0:
64,192,64118,128,0,64402:0:0:0:50:Kick 33.wav
320,192,64118,1,0,0:0:0:0:
192,192,64402,1,0,0:0:0:0:
320,192,64544,1,0,0:0:0:50:Kick 33.wav
448,192,64544,1,0,0:0:0:0:
448,192,64970,1,0,0:0:0:50:Kick 33.wav
192,192,64970,128,0,65254:0:0:0:0:
320,192,65254,1,0,0:0:0:0:
64,192,65396,1,0,0:0:0:50:Kick 33.wav
192,192,65396,128,0,65680:0:0:0:0:
448,192,65680,1,0,0:0:0:0:
320,192,65823,1,0,0:0:0:50:Kick 33.wav
192,192,65823,128,0,66107:0:0:0:0:
64,192,66107,1,0,0:0:0:0:
448,192,66249,1,0,0:0:0:50:Kick 33.wav
320,192,66249,1,0,0:0:0:0:
64,192,66675,1,0,0:0:0:50:Kick 33.wav
320,192,66675,128,0,66959:0:0:0:0:
448,192,66959,1,0,0:0:0:0:
192,192,67101,1,0,0:0:0:50:Kick 33.wav
320,192,67101,128,0,67385:0:0:0:0:
64,192,67385,1,0,0:0:0:0:
448,192,67527,1,0,0:0:0:50:Kick 33.wav
320,192,67527,128,0,67811:0:0:0:0:
192,192,67811,1,0,0:0:0:0:
448,192,67953,1,0,0:0:0:0:
320,192,68095,1,0,0:0:0:0:
64,192,68237,1,0,0:0:0:0:
448,192,68379,128,0,68663:0:0:0:0:
320,192,68379,1,0,0:0:0:50:Kick 33.wav
64,192,68663,1,0,0:0:0:0:
448,192,68805,128,0,69090:0:0:0:50:Kick 33.wav
192,192,68805,1,0,0:0:0:0:
64,192,69090,1,0,0:0:0:0:
320,192,69232,128,0,69516:0:0:0:50:Kick 33.wav
192,192,69232,1,0,0:0:0:0:
448,192,69516,1,0,0:0:0:0:
192,192,69658,1,0,0:0:0:50:Kick 33.wav
64,192,69658,1,0,0:0:0:0:
448,192,70084,128,0,70368:0:0:0:50:Kick 33.wav
192,192,70084,1,0,0:0:0:0:
64,192,70368,1,0,0:0:0:0:
448,192,70510,128,0,70794:0:0:0:50:Kick 33.wav
320,192,70510,1,0,0:0:0:0:
192,192,70794,1,0,0:0:0:0:
64,192,70936,128,0,71220:0:0:0:50:Kick 33.wav
320,192,70936,1,0,0:0:0:0:
192,192,71220,1,0,0:0:0:0:
320,192,71362,1,0,0:0:0:50:Kick 33.wav
448,192,71362,1,0,0:0:0:0:
448,192,71788,1,0,0:0:0:50:Kick 33.wav
192,192,71788,128,0,72073:0:0:0:0:
320,192,72073,1,0,0:0:0:0:
64,192,72215,1,0,0:0:0:50:Kick 33.wav
192,192,72215,128,0,72499:0:0:0:0:
448,192,72499,1,0,0:0:0:0:
320,192,72641,1,0,0:0:0:50:Kick 33.wav
192,192,72641,128,0,72925:0:0:0:0:
64,192,72925,1,0,0:0:0:0:
448,192,73067,1,0,0:0:0:50:Kick 33.wav
320,192,73067,1,0,0:0:0:0:
320,192,73351,5,0,0:0:0:50:0O.wav
192,192,73493,1,0,0:0:0:50:0O.wav
448,192,73493,1,0,0:0:0:50:Kick 33.wav
64,192,73635,1,0,0:0:0:50:0O.wav
320,192,73777,1,0,0:0:0:50:0O.wav
192,192,73919,1,0,0:0:0:50:0O.wav
448,192,74061,1,0,0:0:0:50:0O.wav
320,192,74203,1,0,0:0:0:50:0O.wav
64,192,74345,1,0,0:0:0:50:0O.wav
448,192,74345,1,0,0:0:0:50:Kick 33.wav
192,192,74487,1,0,0:0:0:50:0O.wav
64,192,74629,1,0,0:0:0:50:0O.wav
320,192,74771,1,0,0:0:0:70:VEC3 Snares 007.wav
448,192,74771,128,0,75198:0:0:0:0:
64,192,75198,128,0,75482:0:0:0:50:Kick 33.wav
192,192,75198,1,0,0:0:0:0:
448,192,75482,1,0,0:0:0:0:
64,192,75624,128,0,75908:0:0:0:50:Kick 33.wav
320,192,75624,1,0,0:0:0:70:Clap.wav
448,192,75908,1,0,0:0:0:0:
192,192,76050,128,0,76334:0:0:0:50:Kick 33.wav
320,192,76050,1,0,0:0:0:0:
64,192,76334,1,0,0:0:0:0:
320,192,76476,1,0,0:0:0:50:Kick 33.wav
448,192,76476,1,0,0:0:0:70:Clap.wav
64,192,76902,128,0,77186:0:0:0:50:Kick 33.wav
320,192,76902,1,0,0:0:0:0:
448,192,77186,1,0,0:0:0:0:
64,192,77328,128,0,77612:0:0:0:50:Kick 33.wav
192,192,77328,1,0,0:0:0:70:Clap.wav
320,192,77612,1,0,0:0:0:0:
448,192,77754,128,0,78038:0:0:0:50:Kick 33.wav
192,192,77754,1,0,0:0:0:0:
320,192,78038,1,0,0:0:0:0:
192,192,78180,1,0,0:0:0:50:Kick 33.wav
64,192,78180,1,0,0:0:0:70:Clap.wav
448,192,78607,1,0,0:0:0:50:Kick 33.wav
192,192,78607,128,0,78891:0:0:0:0:
64,192,78891,1,0,0:0:0:0:
320,192,79033,1,0,0:0:0:50:Kick 33.wav
192,192,79033,128,0,79317:0:0:0:70:Clap.wav
448,192,79317,1,0,0:0:0:0:
64,192,79459,1,0,0:0:0:50:Kick 33.wav
192,192,79459,128,0,79743:0:0:0:0:
320,192,79743,1,0,0:0:0:0:
448,192,79885,1,0,0:0:0:50:Kick 33.wav
64,192,79885,1,0,0:0:0:70:Clap.wav
448,192,80311,1,0,0:0:0:50:Kick 33.wav
192,192,80311,128,0,80595:0:0:0:0:
64,192,80595,1,0,0:0:0:0:
320,192,80737,1,0,0:0:0:50:Kick 33.wav
192,192,80737,128,0,81021:0:0:0:70:Clap.wav
448,192,81021,1,0,0:0:0:0:
64,192,81163,1,0,0:0:0:50:Kick 33.wav
192,192,81163,128,0,81448:0:0:0:0:
320,192,81448,1,0,0:0:0:0:
64,192,81590,1,0,0:0:0:70:Clap.wav
192,192,81732,1,0,0:0:0:0:
448,192,81874,1,0,0:0:0:0:
320,192,82016,128,0,82300:0:0:0:0:
64,192,82016,1,0,0:0:0:50:Kick 33.wav
192,192,82300,1,0,0:0:0:0:
320,192,82442,128,0,82726:0:0:0:70:Clap.wav
448,192,82442,1,0,0:0:0:50:Kick 33.wav
64,192,82726,1,0,0:0:0:0:
192,192,82868,128,0,83152:0:0:0:0:
320,192,82868,1,0,0:0:0:50:Kick 33.wav
448,192,83152,1,0,0:0:0:0:
320,192,83294,1,0,0:0:0:50:Kick 33.wav
192,192,83294,1,0,0:0:0:70:Clap.wav
64,192,83720,128,0,84004:0:0:0:0:
192,192,83720,1,0,0:0:0:50:Kick 33.wav
320,192,84004,1,0,0:0:0:0:
448,192,84146,128,0,84430:0:0:0:50:Kick 33.wav
192,192,84146,1,0,0:0:0:70:Clap.wav
320,192,84430,1,0,0:0:0:0:
64,192,84573,128,0,84857:0:0:0:50:Kick 33.wav
192,192,84573,1,0,0:0:0:0:
320,192,84857,1,0,0:0:0:0:
192,192,84999,1,0,0:0:0:50:Kick 33.wav
448,192,84999,1,0,0:0:0:70:Clap.wav
192,192,85425,128,0,85709:0:0:0:0:
448,192,85425,1,0,0:0:0:50:Kick 33.wav
320,192,85709,1,0,0:0:0:0:
192,192,85851,128,0,86135:0:0:0:70:Clap.wav
64,192,85851,1,0,0:0:0:50:Kick 33.wav
320,192,86135,1,0,0:0:0:0:
192,192,86277,128,0,86561:0:0:0:0:
448,192,86277,1,0,0:0:0:50:Kick 33.wav
320,192,86561,1,0,0:0:0:0:
448,192,86703,1,0,0:0:0:70:Clap.wav
64,192,86703,1,0,0:0:0:50:Kick 33.wav
320,192,86987,5,0,0:0:0:50:0O.wav
448,192,87129,1,0,0:0:0:50:Kick 33.wav
192,192,87129,1,0,0:0:0:50:0O.wav
64,192,87271,1,0,0:0:0:50:0O.wav
320,192,87413,1,0,0:0:0:50:0O.wav
192,192,87555,1,0,0:0:0:50:Kick 33.wav
448,192,87698,1,0,0:0:0:50:0O.wav
320,192,87840,1,0,0:0:0:50:0O.wav
64,192,87982,1,0,0:0:0:50:Kick 33.wav
448,192,87982,1,0,0:0:0:50:0O.wav
192,192,88124,1,0,0:0:0:50:0O.wav
64,192,88266,1,0,0:0:0:50:0O.wav
448,192,88408,128,0,88834:0:0:0:70:VEC3 Snares 007.wav
320,192,88408,1,0,0:0:0:0:
192,192,88834,1,0,0:0:0:50:Kick 33.wav
64,192,88834,1,0,0:0:0:0:
320,192,89260,128,0,90325:0:0:0:0:
64,192,90325,1,0,0:0:0:0:
192,192,90538,1,0,0:0:0:0:
448,192,90965,128,0,92030:0:0:0:0:
64,192,92030,1,0,0:0:0:0:
320,192,92243,1,0,0:0:0:0:
192,192,92669,128,0,93734:0:0:0:0:
448,192,93734,1,0,0:0:0:0:
320,192,93948,1,0,0:0:0:0:
64,192,94374,128,0,95226:0:0:0:0:
448,192,95226,1,0,0:0:0:0:
320,192,95439,1,0,0:0:0:0:
192,192,95652,1,0,0:0:0:50:VEC3 Snares 054.wav
64,192,95652,1,0,0:0:0:0:
320,192,95865,1,0,0:0:0:50:Future Bass Kick 3.wav
448,192,96078,1,0,0:0:0:50:VEC3 Snares 054.wav
64,192,96078,1,0,0:0:0:0:
192,192,96291,1,0,0:0:0:50:Future Bass Kick 3.wav
320,192,96504,1,0,0:0:0:50:VEC3 Snares 054.wav
448,192,96504,1,0,0:0:0:0:
192,192,96717,1,0,0:0:0:50:Future Bass Kick 3.wav
64,192,96930,1,0,0:0:0:50:VEC3 Snares 054.wav
448,192,96930,1,0,0:0:0:0:
320,192,97144,1,0,0:0:0:50:Future Bass Kick 3.wav
192,192,97357,1,0,0:0:0:50:VEC3 Snares 054.wav
448,192,97357,1,0,0:0:0:0:
64,192,97570,1,0,0:0:0:50:Future Bass Kick 3.wav
320,192,97783,1,0,0:0:0:50:VEC3 Snares 054.wav
448,192,97783,1,0,0:0:0:0:
192,192,97996,1,0,0:0:0:50:Future Bass Kick 3.wav
64,192,98209,1,0,0:0:0:50:VEC3 Snares 054.wav
448,192,98209,1,0,0:0:0:0:
192,192,98422,1,0,0:0:0:50:Future Bass Kick 3.wav
64,192,98635,1,0,0:0:0:50:VEC3 Snares 054.wav
320,192,98635,1,0,0:0:0:0:
448,192,98848,1,0,0:0:0:50:Future Bass Kick 3.wav
64,192,99061,1,0,0:0:0:50:VEC3 Snares 054.wav
192,192,99061,1,0,0:0:0:0:
320,192,99274,1,0,0:0:0:50:Future Bass Kick 3.wav
448,192,99487,1,0,0:0:0:50:VEC3 Snares 054.wav
64,192,99487,1,0,0:0:0:0:
192,192,99700,1,0,0:0:0:50:Future Bass Kick 3.wav
320,192,99913,1,0,0:0:0:50:VEC3 Snares 054.wav
448,192,99913,1,0,0:0:0:0:
192,192,100126,1,0,0:0:0:50:Future Bass Kick 3.wav
64,192,100340,1,0,0:0:0:50:VEC3 Snares 054.wav
448,192,100340,1,0,0:0:0:0:
320,192,100553,1,0,0:0:0:50:Future Bass Kick 3.wav
192,192,100766,1,0,0:0:0:70:LS-LFXC Voice 034s.wav
64,192,100766,1,0,0:0:0:50:VEC3 Snares 054.wav
320,192,102044,128,0,102470:0:0:0:70:VEC3 Snares 007.wav
192,192,102470,1,0,0:0:0:50:Kick 33.wav
192,192,102896,128,0,103109:0:0:0:50:Kick 33.wav
448,192,102896,1,0,0:0:0:0:
64,192,103109,128,0,103323:0:0:0:0:
320,192,103323,128,0,103536:0:0:0:50:Kick 33.wav
192,192,103323,1,0,0:0:0:0:
192,192,103536,128,0,103749:0:0:0:0:
448,192,103749,128,0,103962:0:0:0:50:Kick 33.wav
64,192,103749,1,0,0:0:0:0:
320,192,103962,128,0,104175:0:0:0:0:
64,192,104175,1,0,0:0:0:50:Kick 33.wav
192,192,104175,1,0,0:0:0:0:
192,192,104601,128,0,104814:0:0:0:50:Kick 33.wav
64,192,104601,1,0,0:0:0:0:
448,192,104814,128,0,105027:0:0:0:0:
64,192,105027,128,0,105240:0:0:0:50:Kick 33.wav
320,192,105027,1,0,0:0:0:0:
320,192,105240,128,0,105453:0:0:0:0:
64,192,105453,128,0,105666:0:0:0:50:Kick 33.wav
448,192,105453,1,0,0:0:0:0:
192,192,105666,128,0,105879:0:0:0:0:
320,192,105879,1,0,0:0:0:50:Kick 33.wav
448,192,105879,1,0,0:0:0:0:
448,192,106305,1,0,0:0:0:0:
192,192,106305,128,0,106519:0:0:0:50:Kick 33.wav
64,192,106519,128,0,106732:0:0:0:0:
192,192,106732,1,0,0:0:0:0:
320,192,106732,128,0,106945:0:0:0:50:Kick 33.wav
192,192,106945,128,0,107158:0:0:0:0:
64,192,107158,1,0,0:0:0:0:
448,192,107158,128,0,107371:0:0:0:50:Kick 33.wav
320,192,107371,128,0,107584:0:0:0:0:
192,192,107584,1,0,0:0:0:0:
64,192,107584,1,0,0:0:0:50:Kick 33.wav
64,192,108010,1,0,0:0:0:0:
192,192,108010,128,0,108223:0:0:0:50:Kick 33.wav
448,192,108223,128,0,108436:0:0:0:0:
320,192,108436,1,0,0:0:0:0:
64,192,108436,128,0,108649:0:0:0:50:Kick 33.wav
320,192,108649,128,0,108862:0:0:0:0:
448,192,108862,1,0,0:0:0:0:
64,192,108862,128,0,109288:0:0:0:70:VEC3 Snares 007.wav
320,192,109288,1,0,0:0:0:50:Kick 33.wav
320,192,109501,1,0,0:0:0:50:Kick 33.wav
192,192,109715,128,0,109928:0:0:0:50:Kick 33.wav
448,192,109715,1,0,0:0:0:70:Clap.wav
64,192,109928,128,0,110141:0:0:0:0:
320,192,110141,128,0,110354:0:0:0:50:Kick 33.wav
192,192,110141,1,0,0:0:0:0:
192,192,110354,128,0,110567:0:0:0:0:
448,192,110567,128,0,110780:0:0:0:50:Kick 33.wav
64,192,110567,1,0,0:0:0:70:Clap.wav
320,192,110780,128,0,110993:0:0:0:0:
64,192,110993,1,0,0:0:0:50:Kick 33.wav
192,192,110993,1,0,0:0:0:0:
192,192,111419,128,0,111632:0:0:0:50:Kick 33.wav
64,192,111419,1,0,0:0:0:70:Clap.wav
448,192,111632,128,0,111845:0:0:0:0:
64,192,111845,128,0,112058:0:0:0:50:Kick 33.wav
320,192,111845,1,0,0:0:0:0:
320,192,112058,128,0,112271:0:0:0:0:
64,192,112271,128,0,112484:0:0:0:50:Kick 33.wav
448,192,112271,1,0,0:0:0:70:Clap.wav
192,192,112484,128,0,112698:0:0:0:0:
320,192,112698,1,0,0:0:0:50:Kick 33.wav
448,192,112698,1,0,0:0:0:0:
192,192,113124,128,0,113337:0:0:0:50:Kick 33.wav
448,192,113124,1,0,0:0:0:70:Clap.wav
64,192,113337,128,0,113550:0:0:0:0:
320,192,113550,128,0,113763:0:0:0:50:Kick 33.wav
192,192,113550,1,0,0:0:0:0:
192,192,113763,128,0,113976:0:0:0:0:
64,192,113976,128,0,114189:0:0:0:50:Kick 33.wav
448,192,113976,1,0,0:0:0:70:Clap.wav
320,192,114189,1,0,0:0:0:0:
192,192,114296,1,0,0:0:0:50:0O.wav
448,192,114402,1,0,0:0:0:50:Kick 33.wav
64,192,114402,1,0,0:0:0:70:Clap.wav
320,192,114828,1,0,0:0:0:70:Clap.wav
64,192,115254,1,0,0:0:0:70:Clap.wav
192,192,115680,128,0,116107:0:0:0:50:Kick 33.wav
448,192,116107,1,0,0:0:0:50:Kick 33.wav
320,192,116107,1,0,0:0:0:0:
64,192,116533,128,0,116746:0:0:0:50:0O.wav
192,192,116746,128,0,116959:0:0:0:0:
320,192,116959,128,0,117385:0:0:0:50:0O.wav
448,192,117385,128,0,117811:0:0:0:50:0O.wav
64,192,117811,128,0,118450:0:0:0:50:0O.wav
320,192,118237,1,0,0:0:0:50:0O.wav
448,192,118450,128,0,118663:0:0:0:0:
192,192,118663,128,0,119090:0:0:0:50:0O.wav
320,192,119090,128,0,119409:0:0:0:50:0O.wav
192,192,119409,1,0,0:0:0:50:0O.wav
64,192,119516,128,0,120155:0:0:0:50:0O.wav
320,192,119942,1,0,0:0:0:50:0O.wav
448,192,120155,128,0,120368:0:0:0:0:
320,192,120368,128,0,120794:0:0:0:50:0O.wav
192,192,120794,128,0,121220:0:0:0:50:0O.wav
64,192,121220,128,0,122073:0:0:0:50:0O.wav
448,192,121646,1,0,0:0:0:50:0O.wav
320,192,122073,1,0,0:0:0:50:0O.wav
192,192,122499,1,0,0:0:0:50:0O.wav
448,192,122925,1,0,0:0:0:30:Grime Kick 6.wav
448,192,123351,1,0,0:0:0:30:Grime Kick 6.wav
448,192,123777,1,0,0:0:0:30:Grime Kick 6.wav
448,192,124203,1,0,0:0:0:30:Grime Kick 6.wav
320,192,124629,1,0,0:0:0:30:Grime Kick 6.wav
320,192,125055,1,0,0:0:0:30:Grime Kick 6.wav
320,192,125482,1,0,0:0:0:30:Grime Kick 6.wav
320,192,125908,1,0,0:0:0:30:Grime Kick 6.wav
64,192,126334,1,0,0:0:0:30:Grime Kick 6.wav
64,192,126760,1,0,0:0:0:30:Grime Kick 6.wav
64,192,127186,1,0,0:0:0:20:Grime Kick 6.wav
64,192,127612,1,0,0:0:0:20:Grime Kick 6.wav
192,192,128038,1,0,0:0:0:10:Grime Kick 6.wav
192,192,128465,1,0,0:0:0:10:Grime Kick 6.wav
320,192,129743,1,0,0:0:0:50:Kick 33.wav
448,192,129743,1,0,0:0:0:50:0O.wav
64,192,130169,1,0,0:0:0:50:0O.wav
320,192,130169,1,0,0:0:0:0:
192,192,130595,1,0,0:0:0:50:0O.wav
64,192,130595,1,0,0:0:0:0:
448,192,131021,1,0,0:0:0:50:0O.wav
64,192,131021,1,0,0:0:0:0:
192,192,131234,1,0,0:0:0:50:0O.wav
320,192,131448,1,0,0:0:0:50:0O.wav
448,192,131448,1,0,0:0:0:0:
192,192,131874,1,0,0:0:0:50:0O.wav
448,192,131874,1,0,0:0:0:0:
448,192,132300,1,0,0:0:0:50:0O.wav
64,192,132300,1,0,0:0:0:0:
320,192,132726,1,0,0:0:0:50:0O.wav
64,192,132726,1,0,0:0:0:0:
192,192,132939,1,0,0:0:0:50:0O.wav
448,192,133152,1,0,0:0:0:50:0O.wav
64,192,133152,1,0,0:0:0:0:
192,192,133578,1,0,0:0:0:50:0O.wav
64,192,133578,1,0,0:0:0:0:
448,192,134004,1,0,0:0:0:50:0O.wav
192,192,134004,1,0,0:0:0:0:
64,192,134430,1,0,0:0:0:50:0O.wav
448,192,134430,1,0,0:0:0:0:
320,192,134644,1,0,0:0:0:50:0O.wav
192,192,134857,1,0,0:0:0:50:0O.wav
64,192,134857,1,0,0:0:0:0:
320,192,135283,1,0,0:0:0:50:0O.wav
64,192,135283,1,0,0:0:0:0:
448,192,135709,1,0,0:0:0:50:0O.wav
320,192,135709,1,0,0:0:0:0:
448,192,136135,128,0,136561:0:0:0:70:Clap.wav
64,192,136561,5,0,0:0:0:50:0O.wav
192,192,136561,1,0,0:0:0:0:
320,192,136774,1,0,0:0:0:50:0O.wav
448,192,136987,1,0,0:0:0:50:0O.wav
192,192,137200,1,0,0:0:0:50:0O.wav
320,192,137413,1,0,0:0:0:50:0O.wav
192,192,137626,1,0,0:0:0:50:0O.wav
64,192,137840,1,0,0:0:0:50:0O.wav
320,192,138053,1,0,0:0:0:50:0O.wav
448,192,138266,1,0,0:0:0:50:0O.wav
64,192,138266,1,0,0:0:0:0:
192,192,138479,1,0,0:0:0:50:0O.wav
64,192,138692,1,0,0:0:0:50:0O.wav
448,192,138692,1,0,0:0:0:0:
320,192,138905,1,0,0:0:0:50:0O.wav
192,192,139118,1,0,0:0:0:50:0O.wav
448,192,139118,1,0,0:0:0:0:
64,192,139331,1,0,0:0:0:50:0O.wav
320,192,139544,1,0,0:0:0:50:0O.wav
448,192,139544,1,0,0:0:0:0:
192,192,139757,1,0,0:0:0:50:0O.wav
64,192,139970,128,0,141675:0:0:0:50:0O.wav
448,192,140823,128,0,141675:0:0:0:50:0O.wav
192,192,141675,128,0,143379:0:0:0:70:LS-LFXC Voice 034.wav
320,192,143379,128,0,144232:0:0:0:0:
192,192,144232,1,0,0:0:0:0:
448,192,144658,1,0,0:0:0:70:VEC3 Snares 007.wav
320,192,144658,1,0,0:0:0:0:
64,192,145084,128,0,145510:0:0:0:50:Kick 33.wav
192,192,145510,1,0,0:0:0:0:
448,192,145510,128,0,145794:0:0:0:50:Kick 33.wav
64,192,145794,1,0,0:0:0:0:
192,192,145936,1,0,0:0:0:0:
320,192,145936,128,0,146220:0:0:0:50:Kick 33.wav
448,192,146220,1,0,0:0:0:0:
64,192,146362,1,0,0:0:0:0:
192,192,146362,1,0,0:0:0:50:Kick 33.wav
192,192,146788,1,0,0:0:0:0:
448,192,146788,128,0,147073:0:0:0:50:Kick 33.wav
64,192,147073,1,0,0:0:0:0:
320,192,147215,1,0,0:0:0:0:
448,192,147215,128,0,147499:0:0:0:50:Kick 33.wav
192,192,147499,1,0,0:0:0:0:
320,192,147641,1,0,0:0:0:0:
64,192,147641,128,0,147925:0:0:0:50:Kick 33.wav
192,192,147925,1,0,0:0:0:0:
448,192,148067,1,0,0:0:0:0:
320,192,148067,1,0,0:0:0:50:Kick 33.wav
192,192,148493,128,0,148777:0:0:0:0:
448,192,148493,1,0,0:0:0:50:Kick 33.wav
320,192,148777,1,0,0:0:0:0:
192,192,148919,128,0,149203:0:0:0:0:
64,192,148919,1,0,0:0:0:50:Kick 33.wav
448,192,149203,1,0,0:0:0:0:
192,192,149345,128,0,149629:0:0:0:0:
320,192,149345,1,0,0:0:0:50:Kick 33.wav
64,192,149629,1,0,0:0:0:0:
320,192,149771,1,0,0:0:0:0:
448,192,149771,1,0,0:0:0:50:Kick 33.wav
320,192,150198,128,0,150482:0:0:0:0:
64,192,150198,1,0,0:0:0:50:Kick 33.wav
448,192,150482,1,0,0:0:0:0:
320,192,150624,128,0,150908:0:0:0:0:
192,192,150624,1,0,0:0:0:50:Kick 33.wav
64,192,150908,1,0,0:0:0:0:
320,192,151050,128,0,151334:0:0:0:0:
448,192,151050,1,0,0:0:0:50:Kick 33.wav
192,192,151334,1,0,0:0:0:0:
64,192,151476,128,0,151902:0:0:0:0:
320,192,151902,1,0,0:0:0:50:Kick 33.wav
448,192,151902,128,0,152186:0:0:0:0:
64,192,152186,1,0,0:0:0:0:
192,192,152328,1,0,0:0:0:0:
448,192,152328,128,0,152612:0:0:0:50:Kick 33.wav
64,192,152612,1,0,0:0:0:0:
192,192,152754,1,0,0:0:0:0:
320,192,152754,128,0,153038:0:0:0:50:Kick 33.wav
448,192,153038,1,0,0:0:0:0:
64,192,153180,1,0,0:0:0:0:
192,192,153180,1,0,0:0:0:50:Kick 33.wav
192,192,153607,1,0,0:0:0:0:
448,192,153607,128,0,153891:0:0:0:50:Kick 33.wav
64,192,153891,1,0,0:0:0:0:
320,192,154033,1,0,0:0:0:0:
448,192,154033,128,0,154317:0:0:0:50:Kick 33.wav
192,192,154317,1,0,0:0:0:0:
320,192,154459,1,0,0:0:0:0:
64,192,154459,128,0,154743:0:0:0:50:Kick 33.wav
192,192,154743,1,0,0:0:0:0:
448,192,154885,1,0,0:0:0:0:
320,192,154885,1,0,0:0:0:50:Kick 33.wav
192,192,155311,128,0,155595:0:0:0:0:
448,192,155311,1,0,0:0:0:50:Kick 33.wav
320,192,155595,1,0,0:0:0:0:
192,192,155737,128,0,156021:0:0:0:0:
64,192,155737,1,0,0:0:0:50:Kick 33.wav
448,192,156021,1,0,0:0:0:0:
192,192,156163,128,0,156448:0:0:0:0:
320,192,156163,1,0,0:0:0:50:Kick 33.wav
64,192,156448,1,0,0:0:0:0:
320,192,156590,1,0,0:0:0:0:
448,192,156590,1,0,0:0:0:50:Kick 33.wav
320,192,156874,5,0,0:0:0:50:0O.wav
192,192,157016,1,0,0:0:0:50:0O.wav
448,192,157016,1,0,0:0:0:50:Kick 33.wav
64,192,157158,1,0,0:0:0:50:0O.wav
320,192,157300,1,0,0:0:0:50:0O.wav
192,192,157442,1,0,0:0:0:50:0O.wav
448,192,157584,1,0,0:0:0:50:0O.wav
320,192,157726,1,0,0:0:0:50:0O.wav
448,192,157868,1,0,0:0:0:50:Kick 33.wav
64,192,157868,1,0,0:0:0:50:0O.wav
192,192,158010,1,0,0:0:0:50:0O.wav
64,192,158152,1,0,0:0:0:50:0O.wav
448,192,158294,128,0,158720:0:0:0:0:
320,192,158294,128,0,158720:0:0:0:70:VEC3 Snares 007.wav
192,192,158720,1,0,0:0:0:0:
64,192,158720,128,0,159004:0:0:0:50:Kick 33.wav
448,192,159004,1,0,0:0:0:0:
320,192,159146,1,0,0:0:0:70:Clap.wav
64,192,159146,128,0,159430:0:0:0:50:Kick 33.wav
448,192,159430,1,0,0:0:0:0:
320,192,159573,1,0,0:0:0:0:
192,192,159573,128,0,159857:0:0:0:50:Kick 33.wav
64,192,159857,1,0,0:0:0:0:
448,192,159999,1,0,0:0:0:70:Clap.wav
320,192,159999,1,0,0:0:0:50:Kick 33.wav
320,192,160425,1,0,0:0:0:0:
64,192,160425,128,0,160709:0:0:0:50:Kick 33.wav
448,192,160709,1,0,0:0:0:0:
192,192,160851,1,0,0:0:0:70:Clap.wav
64,192,160851,128,0,161135:0:0:0:50:Kick 33.wav
320,192,161135,1,0,0:0:0:0:
192,192,161277,1,0,0:0:0:0:
448,192,161277,128,0,161561:0:0:0:50:Kick 33.wav
320,192,161561,1,0,0:0:0:0:
64,192,161703,1,0,0:0:0:70:Clap.wav
192,192,161703,1,0,0:0:0:50:Kick 33.wav
192,192,162129,128,0,162413:0:0:0:0:
448,192,162129,1,0,0:0:0:50:Kick 33.wav
64,192,162413,1,0,0:0:0:0:
192,192,162555,128,0,162840:0:0:0:70:Clap.wav
320,192,162555,1,0,0:0:0:50:Kick 33.wav
448,192,162840,1,0,0:0:0:0:
192,192,162982,128,0,163266:0:0:0:0:
64,192,162982,1,0,0:0:0:50:Kick 33.wav
320,192,163266,1,0,0:0:0:0:
64,192,163408,1,0,0:0:0:70:Clap.wav
448,192,163408,1,0,0:0:0:50:Kick 33.wav
192,192,163834,128,0,164118:0:0:0:0:
448,192,163834,1,0,0:0:0:50:Kick 33.wav
64,192,164118,1,0,0:0:0:0:
192,192,164260,128,0,164544:0:0:0:70:Clap.wav
320,192,164260,1,0,0:0:0:50:Kick 33.wav
448,192,164544,1,0,0:0:0:0:
192,192,164686,128,0,164970:0:0:0:0:
64,192,164686,1,0,0:0:0:50:Kick 33.wav
320,192,164970,1,0,0:0:0:0:
448,192,165112,128,0,165538:0:0:0:70:Clap.wav
64,192,165538,1,0,0:0:0:50:Kick 33.wav
320,192,165538,128,0,165823:0:0:0:0:
192,192,165823,1,0,0:0:0:0:
448,192,165965,1,0,0:0:0:50:Kick 33.wav
320,192,165965,128,0,166249:0:0:0:70:Clap.wav
64,192,166249,1,0,0:0:0:0:
320,192,166391,1,0,0:0:0:50:Kick 33.wav
192,192,166391,128,0,166675:0:0:0:0:
448,192,166675,1,0,0:0:0:0:
192,192,166817,1,0,0:0:0:70:Clap.wav
320,192,166817,1,0,0:0:0:50:Kick 33.wav
192,192,167243,1,0,0:0:0:50:Kick 33.wav
64,192,167243,128,0,167527:0:0:0:0:
320,192,167527,1,0,0:0:0:0:
192,192,167669,1,0,0:0:0:70:Clap.wav
448,192,167669,128,0,167953:0:0:0:50:Kick 33.wav
320,192,167953,1,0,0:0:0:0:
192,192,168095,1,0,0:0:0:0:
64,192,168095,128,0,168379:0:0:0:50:Kick 33.wav
320,192,168379,1,0,0:0:0:0:
448,192,168521,1,0,0:0:0:70:Clap.wav
192,192,168521,1,0,0:0:0:50:Kick 33.wav
448,192,168948,1,0,0:0:0:50:Kick 33.wav
192,192,168948,128,0,169232:0:0:0:0:
320,192,169232,1,0,0:0:0:0:
64,192,169374,1,0,0:0:0:50:Kick 33.wav
192,192,169374,128,0,169658:0:0:0:70:Clap.wav
320,192,169658,1,0,0:0:0:0:
448,192,169800,1,0,0:0:0:50:Kick 33.wav
192,192,169800,128,0,170084:0:0:0:0:
320,192,170084,1,0,0:0:0:0:
64,192,170226,1,0,0:0:0:50:Kick 33.wav
448,192,170226,1,0,0:0:0:70:Clap.wav
320,192,170510,5,0,0:0:0:50:0O.wav
192,192,170652,1,0,0:0:0:50:Kick 33.wav
448,192,170652,1,0,0:0:0:50:0O.wav
320,192,170936,1,0,0:0:0:50:0O.wav
448,192,171078,1,0,0:0:0:50:Kick 33.wav
64,192,171220,1,0,0:0:0:50:0O.wav
192,192,171362,1,0,0:0:0:50:0O.wav
448,192,171504,1,0,0:0:0:50:Kick 33.wav
320,192,171504,1,0,0:0:0:0:
192,192,171646,1,0,0:0:0:50:0O.wav
64,192,171788,1,0,0:0:0:50:0O.wav
320,192,171930,1,0,0:0:0:70:VEC3 Snares 007.wav
448,192,171930,128,0,172357:0:0:0:0:
64,192,172357,128,0,172783:0:0:0:50:Kick 33.wav
448,192,172783,1,0,0:0:0:50:Kick 33.wav
320,192,172783,128,0,173209:0:0:0:70:Clap.wav
192,192,173209,128,0,173635:0:0:0:50:Kick 33.wav
64,192,173209,1,0,0:0:0:0:
448,192,173635,1,0,0:0:0:50:Kick 33.wav
64,192,173635,1,0,0:0:0:70:Clap.wav
448,192,174061,128,0,174487:0:0:0:50:Kick 33.wav
64,192,174061,1,0,0:0:0:0:
192,192,174487,128,0,174913:0:0:0:50:Kick 33.wav
320,192,174487,1,0,0:0:0:70:Clap.wav
320,192,174913,128,0,175340:0:0:0:50:Kick 33.wav
64,192,174913,1,0,0:0:0:0:
448,192,175340,1,0,0:0:0:50:Kick 33.wav
192,192,175340,1,0,0:0:0:70:Clap.wav
192,192,175766,128,0,176192:0:0:0:50:Kick 33.wav
320,192,175766,1,0,0:0:0:0:
64,192,176192,1,0,0:0:0:50:Kick 33.wav
448,192,176192,128,0,176618:0:0:0:70:Clap.wav
64,192,176618,128,0,177044:0:0:0:50:Kick 33.wav
192,192,176618,1,0,0:0:0:0:
320,192,177044,1,0,0:0:0:50:Kick 33.wav
448,192,177044,1,0,0:0:0:70:Clap.wav
448,192,177470,128,0,177896:0:0:0:50:Kick 33.wav
192,192,177470,1,0,0:0:0:0:
64,192,177896,128,0,178323:0:0:0:50:Kick 33.wav
320,192,177896,1,0,0:0:0:70:Clap.wav
320,192,178323,128,0,178749:0:0:0:50:Kick 33.wav
192,192,178323,1,0,0:0:0:0:
64,192,178749,1,0,0:0:0:50:Kick 33.wav
448,192,178749,1,0,0:0:0:70:Clap.wav
448,192,179175,128,0,179601:0:0:0:50:Kick 33.wav
320,192,179175,1,0,0:0:0:0:
64,192,179601,1,0,0:0:0:50:Kick 33.wav
192,192,179601,128,0,180027:0:0:0:70:Clap.wav
320,192,180027,128,0,180453:0:0:0:50:Kick 33.wav
448,192,180027,1,0,0:0:0:0:
64,192,180453,1,0,0:0:0:50:Kick 33.wav
448,192,180453,1,0,0:0:0:70:Clap.wav
64,192,180879,128,0,181305:0:0:0:50:Kick 33.wav
448,192,180879,1,0,0:0:0:0:
320,192,181305,128,0,181732:0:0:0:50:Kick 33.wav
192,192,181305,1,0,0:0:0:70:Clap.wav
192,192,181732,128,0,182158:0:0:0:50:Kick 33.wav
448,192,181732,1,0,0:0:0:0:
64,192,182158,1,0,0:0:0:50:Kick 33.wav
320,192,182158,1,0,0:0:0:70:Clap.wav
320,192,182584,128,0,183010:0:0:0:50:Kick 33.wav
192,192,182584,1,0,0:0:0:0:
448,192,183010,5,0,0:0:0:50:Kick 33.wav
64,192,183010,128,0,183436:0:0:0:70:Clap.wav
448,192,183436,128,0,183862:0:0:0:50:Kick 33.wav
320,192,183436,1,0,0:0:0:0:
192,192,183862,1,0,0:0:0:50:Kick 33.wav
64,192,183862,1,0,0:0:0:70:Clap.wav
320,192,184146,5,0,0:0:0:50:0O.wav
448,192,184288,1,0,0:0:0:50:Kick 33.wav
192,192,184288,1,0,0:0:0:50:0O.wav
64,192,184430,1,0,0:0:0:50:0O.wav
320,192,184573,1,0,0:0:0:50:0O.wav
192,192,184715,1,0,0:0:0:50:Kick 33.wav
448,192,184857,1,0,0:0:0:50:0O.wav
320,192,184999,1,0,0:0:0:50:0O.wav
64,192,185141,1,0,0:0:0:50:Kick 33.wav
448,192,185141,1,0,0:0:0:50:0O.wav
192,192,185283,1,0,0:0:0:50:0O.wav
64,192,185425,1,0,0:0:0:50:0O.wav
320,192,185567,1,0,0:0:0:70:VEC3 Snares 007.wav
448,192,185567,128,0,185993:0:0:0:0:
192,192,185993,1,0,0:0:0:50:Kick 33.wav
64,192,185993,1,0,0:0:0:0:
