osu file format v14

[General]
AudioFilename: audio.mp3
AudioLeadIn: 0
PreviewTime: 87814
Countdown: 0
SampleSet: Normal
StackLeniency: 0.7
Mode: 0
LetterboxInBreaks: 0
WidescreenStoryboard: 0

[Editor]
DistanceSpacing: 2
BeatDivisor: 4
GridSize: 8
TimelineZoom: 1.6

[Metadata]
Title:lazorbeamz
TitleUnicode:lazorbeamz
Artist:Vaenus
ArtistUnicode:Vaenus
Creator:voynich
Version:uhh
Source:
Tags:hardcore
BeatmapID:2045522
BeatmapSetID:977293

[Difficulty]
HPDrainRate:5
CircleSize:4
OverallDifficulty:9.8
ApproachRate:10
SliderMultiplier:2
SliderTickRate:1

[Events]
//Background and Video events
0,0,"uhh.jpg",0,0
//Break Periods
//Storyboard Layer 0 (Background)
//Storyboard Layer 1 (Fail)
//Storyboard Layer 2 (Pass)
//Storyboard Layer 3 (Foreground)
//Storyboard Layer 4 (Overlay)
//Storyboard Sound Samples

[TimingPoints]
7507,230.769230769231,4,1,0,80,1,0
14891,-133.333333333333,4,2,0,60,0,0
22276,-100,4,2,0,70,0,1
29660,-100,4,2,0,60,0,0
44430,-133.333333333333,4,3,0,50,0,0
59199,-133.333333333333,4,2,0,60,0,0
87814,-1000,4,2,0,60,0,0
88737,-83.3333333333333,4,1,0,80,0,1
103507,-83.3333333333333,4,1,0,80,0,0
110891,-83.3333333333333,4,2,0,60,0,0
118276,-133.333333333333,4,1,0,50,0,0
133045,-83.3333333333333,4,1,0,70,0,0

[HitObjects]
92,188,7506,6,0,L|212:166,1,100
120,262,7737,2,0,L|240:240,1,100
148,336,7968,2,0,L|268:314,1,100
312,219,8199,1,8,0:0:0:0:
246,317,8314,2,0,L|148:336,1,100
48,276,8545,1,0,0:0:0:0:
92,188,8660,2,0,L|212:166,1,100
443,332,8891,2,0,L|304:317,1,100
493,238,9122,2,0,L|354:223,1,100,2|0,0:0|0:0,0:0:0:0:
91,148,9353,6,0,L|211:126,1,100
119,222,9584,2,0,L|239:200,1,100
147,296,9815,2,0,L|267:274,1,100
311,179,10046,1,8,0:0:0:0:
245,277,10161,2,0,L|146:295,1,100
91,148,10392,1,0,0:0:0:0:
91,148,10449,1,0,0:0:0:0:
91,148,10507,2,0,L|211:126,1,100
443,332,10737,2,0,L|304:317,1,100
493,238,10968,2,0,L|354:223,1,100
92,188,11199,6,0,L|212:166,1,100
120,262,11430,2,0,L|240:240,1,100
148,336,11661,2,0,L|268:314,1,100
312,219,11892,1,8,0:0:0:0:
246,317,12007,2,0,L|148:336,1,100
48,276,12238,1,0,0:0:0:0:
61,116,12353,2,0,L|181:94,1,100
443,332,12584,2,0,L|304:317,1,100
393,227,12815,2,0,L|493:238,1,100,2|0,0:0|0:0,0:0:0:0:
91,148,13045,6,0,L|211:126,1,100
91,148,13276,6,0,L|211:126,1,100
91,148,13507,6,0,L|211:126,1,100
91,148,13737,6,0,L|211:126,1,100
340,98,13968,5,0,0:0:0:0:
340,98,14026,1,0,0:0:0:0:
340,98,14083,1,0,0:0:0:0:
116,335,14199,1,0,0:0:0:0:
126,50,14314,1,0,0:0:0:0:
290,199,14430,2,0,L|302:313,1,100
20,353,14660,2,0,L|32:239,1,100
378,310,14891,6,0,P|359:354|252:362,1,150.000005722046,4|0,0:0|0:0,0:0:0:0:
212,303,15237,1,0,0:0:0:0:
377,226,15353,1,8,0:0:0:0:
377,226,15410,1,8,0:0:0:0:
377,226,15468,1,8,0:0:0:0:
377,226,15526,1,8,0:0:0:0:
377,226,15583,2,0,P|428:243|458:275,1,75.0000028610231,8|0,0:0|0:0,0:0:0:0:
477,113,15814,6,0,L|486:193,1,75.0000028610231,2|0,0:0|0:0,0:0:0:0:
366,132,16045,2,0,L|375:58,1,75.0000028610231,2|0,0:0|0:0,0:0:0:0:
268,95,16276,2,0,L|277:175,1,75.0000028610231,2|0,0:0|0:0,0:0:0:0:
157,114,16507,2,0,L|166:40,1,75.0000028610231,2|0,0:0|0:0,0:0:0:0:
147,213,16737,6,0,P|105:200|74:168,1,75.0000028610231,2|0,0:0|0:0,0:0:0:0:
131,233,16968,2,0,P|95:206|77:165,1,75.0000028610231,2|0,0:0|0:0,0:0:0:0:
85,252,17199,1,8,0:0:0:0:
85,252,17257,1,8,0:0:0:0:
85,252,17314,1,8,0:0:0:0:
85,252,17372,1,8,0:0:0:0:
85,252,17430,2,0,P|75:209|87:166,1,75.0000028610231,8|0,0:0|0:0,0:0:0:0:
184,96,17660,5,8,0:0:0:0:
188,114,17717,1,8,0:0:0:0:
192,132,17775,1,8,0:0:0:0:
197,150,17833,1,8,0:0:0:0:
201,168,17890,1,8,0:0:0:0:
234,290,18007,1,8,0:0:0:0:
323,237,18122,5,8,0:0:0:0:
327,218,18179,1,8,0:0:0:0:
331,200,18237,1,8,0:0:0:0:
336,182,18295,1,8,0:0:0:0:
340,164,18353,5,8,0:0:0:0:
344,145,18410,1,8,0:0:0:0:
348,127,18468,1,8,0:0:0:0:
353,109,18526,1,8,0:0:0:0:
357,91,18583,6,0,P|297:117|283:155,1,75.0000028610231,4|0,0:0|0:0,0:0:0:0:
413,178,18814,2,0,L|505:173,1,75.0000028610231,8|0,0:0|0:0,0:0:0:0:
217,86,19045,1,8,0:0:0:0:
179,82,19102,1,8,0:0:0:0:
142,79,19160,1,8,0:0:0:0:
104,76,19218,1,8,0:0:0:0:
67,73,19275,1,8,0:0:0:0:
182,218,19391,1,8,0:0:0:0:
99,183,19507,6,0,L|91:230,1,37.5000014305115,2|0,1:0|0:0,0:0:0:0:
137,342,19622,2,0,L|129:295,1,37.5000014305115,2|0,1:0|0:0,0:0:0:0:
188,181,19737,6,0,L|180:228,1,37.5000014305115,2|0,1:0|0:0,0:0:0:0:
226,340,19852,2,0,L|218:293,1,37.5000014305115,2|0,1:0|0:0,0:0:0:0:
280,222,19968,2,0,P|330:260|430:248,1,150.000005722046,0|8,0:0|0:0,0:0:0:0:
361,177,20314,1,0,1:0:0:0:
287,139,20430,6,0,L|281:51,1,75.0000028610231,8|0,0:0|0:0,0:0:0:0:
393,98,20660,2,0,L|399:10,1,75.0000028610231
152,55,20891,1,8,0:0:0:0:
155,73,20948,1,8,0:0:0:0:
158,91,21006,1,8,0:0:0:0:
162,110,21064,1,8,0:0:0:0:
165,128,21121,1,8,0:0:0:0:
169,147,21179,1,8,0:0:0:0:
172,165,21237,1,8,0:0:0:0:
176,184,21294,1,8,0:0:0:0:
180,202,21352,5,8,0:0:0:0:
180,202,21468,1,8,0:0:0:0:
34,162,21583,2,0,L|49:72,1,75.0000028610231,2|8,0:0|0:0,0:0:0:0:
310,33,21814,2,0,L|325:123,1,75.0000028610231,2|0,0:0|0:0,0:0:0:0:
83,339,22045,2,0,L|98:249,1,75.0000028610231,2|0,0:0|0:0,0:0:0:0:
433,247,22276,6,0,L|443:115,1,100,12|0,0:0|0:0,0:0:0:0:
218,245,22507,2,0,L|228:377,1,100,8|0,0:0|0:0,0:0:0:0:
318,164,22737,1,8,0:0:0:0:
273,104,22794,1,8,0:0:0:0:
205,74,22852,1,8,0:0:0:0:
132,81,22910,1,8,0:0:0:0:
70,123,22968,2,8,L|79:223,1,100,8|0,0:0|0:0,0:0:0:0:
183,162,23199,5,8,0:0:0:0:
347,294,23314,1,0,0:0:0:0:
479,130,23430,1,8,0:0:0:0:
316,0,23545,1,0,0:0:0:0:
246,248,23660,2,0,L|251:318,1,50,10|0,0:0|0:0,0:0:0:0:
456,244,23776,2,0,L|526:239,1,50,2|0,0:0|0:0,0:0:0:0:
413,52,23891,2,0,L|408:-18,1,50,10|0,0:0|0:0,0:0:0:0:
203,56,24007,2,0,L|133:61,1,50,2|0,0:0|0:0,0:0:0:0:
71,319,24122,6,0,L|214:347,1,100,12|0,0:0|0:0,0:0:0:0:
261,146,24353,2,0,L|118:174,1,100,8|0,0:0|0:0,0:0:0:0:
472,322,24583,2,0,L|329:350,1,100,8|0,0:0|0:0,0:0:0:0:
281,66,24814,2,0,L|424:94,1,100,8|0,0:0|0:0,0:0:0:0:
84,28,25045,6,0,L|79:104,1,50,8|0,0:0|0:0,0:0:0:0:
72,216,25160,2,0,L|67:292,1,50,8|0,0:0|0:0,0:0:0:0:
258,363,25276,2,0,L|244:249,1,100,8|8,0:0|0:0,0:0:0:0:
455,49,25507,5,8,0:0:0:0:
458,109,25564,1,8,0:0:0:0:
419,156,25622,1,8,0:0:0:0:
358,163,25680,1,8,0:0:0:0:
309,127,25737,1,8,0:0:0:0:
482,222,25853,1,10,0:0:0:0:
318,45,25968,6,0,P|261:30|137:103,1,200,4|0,0:0|0:0,0:0:0:0:
141,224,26314,1,8,0:0:0:0:
43,340,26430,5,12,0:0:0:0:
90,354,26487,1,8,0:0:0:0:
140,350,26545,1,8,0:0:0:0:
184,328,26603,1,8,0:0:0:0:
218,291,26660,1,8,0:0:0:0:
220,161,26776,1,8,0:0:0:0:
5,147,26891,6,0,L|105:156,1,100,8|0,0:0|0:0,0:0:0:0:
103,266,27122,1,8,0:0:0:0:
53,270,27179,1,8,0:0:0:0:
3,274,27237,1,8,0:0:0:0:
435,35,27353,6,0,L|335:44,1,100,8|0,0:0|0:0,0:0:0:0:
307,333,27584,2,0,L|407:342,1,100,8|0,0:0|0:0,0:0:0:0:
249,62,27814,5,4,0:0:0:0:
455,237,27930,1,0,0:0:0:0:
150,113,28045,5,8,0:0:0:0:
479,162,28160,1,0,0:0:0:0:
111,243,28276,5,4,0:0:0:0:
459,77,28392,1,0,0:0:0:0:
173,357,28507,5,8,0:0:0:0:
395,20,28622,1,0,0:0:0:0:
316,343,28737,5,8,0:0:0:0:
236,27,28853,1,8,0:0:0:0:
97,136,28968,1,2,0:0:0:0:
92,185,29025,1,2,0:0:0:0:
87,235,29083,1,2,0:0:0:0:
82,285,29141,1,2,0:0:0:0:
77,335,29198,5,2,0:0:0:0:
433,287,29314,1,2,0:0:0:0:
206,267,29430,1,8,0:0:0:0:
196,217,29487,1,8,0:0:0:0:
187,168,29545,1,8,0:0:0:0:
178,119,29603,1,8,0:0:0:0:
169,70,29660,5,12,0:0:0:0:
395,91,29776,1,0,0:0:0:0:
119,141,29891,5,8,0:0:0:0:
312,160,30007,1,0,0:0:0:0:
78,213,30122,5,8,0:0:0:0:
240,231,30237,1,0,0:0:0:0:
39,286,30353,5,8,0:0:0:0:
158,303,30468,1,8,0:0:0:0:
34,133,30583,6,0,P|28:77|53:12,1,100,4|0,0:0|0:0,0:0:0:0:
318,241,30814,2,0,P|324:297|299:362,1,100,8|0,0:0|0:0,0:0:0:0:
154,110,31045,6,0,P|148:54|173:-11,1,100,4|0,0:0|0:0,0:0:0:0:
212,266,31276,2,0,P|218:322|193:387,1,100,8|8,0:0|0:0,0:0:0:0:
141,317,31507,5,12,0:0:0:0:
395,293,31623,1,0,0:0:0:0:
113,244,31738,5,8,0:0:0:0:
312,224,31854,1,0,0:0:0:0:
78,171,31969,5,8,0:0:0:0:
240,153,32084,1,0,0:0:0:0:
39,98,32200,5,8,0:0:0:0:
158,81,32315,1,8,0:0:0:0:
34,251,32430,6,0,P|28:307|53:372,1,100,4|0,0:0|0:0,0:0:0:0:
318,143,32661,2,0,P|324:87|299:22,1,100,8|0,0:0|0:0,0:0:0:0:
141,344,32891,5,8,0:0:0:0:
212,118,33007,1,8,0:0:0:0:
212,118,33064,1,8,0:0:0:0:
212,118,33123,2,0,P|218:62|193:-3,1,100,8|8,0:0|0:0,0:0:0:0:
141,70,33353,5,12,0:0:0:0:
395,91,33469,1,0,0:0:0:0:
110,144,33584,5,8,0:0:0:0:
312,160,33700,1,0,0:0:0:0:
78,213,33815,5,8,0:0:0:0:
240,231,33930,1,0,0:0:0:0:
39,286,34046,5,8,0:0:0:0:
158,303,34161,1,8,0:0:0:0:
34,133,34276,6,0,P|28:77|53:12,1,100,4|0,0:0|0:0,0:0:0:0:
318,241,34507,2,0,P|324:297|299:362,1,100,8|0,0:0|0:0,0:0:0:0:
154,110,34738,6,0,P|148:54|173:-11,1,100,4|0,0:0|0:0,0:0:0:0:
212,266,34969,2,0,P|218:322|193:387,1,100,8|8,0:0|0:0,0:0:0:0:
141,317,35200,5,12,0:0:0:0:
395,293,35316,1,0,0:0:0:0:
113,244,35431,5,8,0:0:0:0:
312,224,35547,1,0,0:0:0:0:
78,171,35662,5,8,0:0:0:0:
240,153,35777,1,0,0:0:0:0:
39,98,35893,5,8,0:0:0:0:
158,81,36008,1,8,0:0:0:0:
34,251,36123,6,0,P|28:307|53:372,1,100,4|0,0:0|0:0,0:0:0:0:
318,143,36354,2,0,P|324:87|299:22,1,100,8|0,0:0|0:0,0:0:0:0:
141,344,36584,5,8,0:0:0:0:
212,118,36700,1,8,0:0:0:0:
212,118,36757,1,8,0:0:0:0:
212,118,36814,1,8,0:0:0:0:
212,118,36872,1,8,0:0:0:0:
212,118,36930,1,8,0:0:0:0:
371,70,37045,5,12,0:0:0:0:
117,91,37161,1,0,0:0:0:0:
402,144,37276,5,8,0:0:0:0:
200,160,37392,1,0,0:0:0:0:
434,213,37507,5,8,0:0:0:0:
272,231,37622,1,0,0:0:0:0:
473,286,37738,5,8,0:0:0:0:
354,303,37853,1,8,0:0:0:0:
478,133,37968,6,0,P|484:77|459:12,1,100,4|0,0:0|0:0,0:0:0:0:
194,241,38199,2,0,P|188:297|213:362,1,100,8|0,0:0|0:0,0:0:0:0:
358,110,38430,6,0,P|364:54|339:-11,1,100,4|0,0:0|0:0,0:0:0:0:
300,266,38661,2,0,P|294:322|319:387,1,100,8|8,0:0|0:0,0:0:0:0:
371,317,38892,5,12,0:0:0:0:
117,293,39008,1,0,0:0:0:0:
399,244,39123,5,8,0:0:0:0:
200,224,39239,1,0,0:0:0:0:
434,171,39354,5,8,0:0:0:0:
272,153,39469,1,0,0:0:0:0:
474,97,39585,5,8,0:0:0:0:
354,81,39700,1,8,0:0:0:0:
478,251,39815,6,0,P|484:307|459:372,1,100,4|0,0:0|0:0,0:0:0:0:
194,143,40046,2,0,P|188:87|213:22,1,100,8|0,0:0|0:0,0:0:0:0:
371,344,40276,5,8,0:0:0:0:
300,118,40392,1,8,0:0:0:0:
300,118,40449,1,8,0:0:0:0:
300,118,40508,2,0,P|294:62|319:-3,1,100,8|8,0:0|0:0,0:0:0:0:
371,70,40737,5,12,0:0:0:0:
117,91,40853,1,0,0:0:0:0:
402,144,40968,5,8,0:0:0:0:
200,160,41084,1,0,0:0:0:0:
434,213,41199,5,8,0:0:0:0:
272,231,41314,1,0,0:0:0:0:
473,286,41430,5,8,0:0:0:0:
354,303,41545,1,8,0:0:0:0:
478,133,41660,6,0,P|484:77|459:12,1,100,4|0,0:0|0:0,0:0:0:0:
194,241,41891,2,0,P|188:297|213:362,1,100,8|0,0:0|0:0,0:0:0:0:
358,110,42122,6,0,P|364:54|339:-11,1,100,4|0,0:0|0:0,0:0:0:0:
300,266,42353,2,0,P|294:322|319:387,1,100,8|8,0:0|0:0,0:0:0:0:
371,317,42584,5,12,0:0:0:0:
117,293,42700,1,0,0:0:0:0:
399,244,42815,5,8,0:0:0:0:
200,224,42931,1,0,0:0:0:0:
434,171,43046,5,8,0:0:0:0:
276,148,43161,1,0,0:0:0:0:
474,97,43277,5,8,0:0:0:0:
354,81,43392,1,8,0:0:0:0:
478,251,43507,6,0,P|484:307|459:372,1,100,4|0,0:0|0:0,0:0:0:0:
194,143,43738,2,0,P|188:87|213:22,1,100,8|0,0:0|0:0,0:0:0:0:
371,344,43968,5,8,0:0:0:0:
300,118,44084,1,8,0:0:0:0:
300,118,44141,1,8,0:0:0:0:
300,118,44199,1,8,0:0:0:0:
321,87,44256,1,8,0:0:0:0:
353,67,44314,1,8,0:0:0:0:
390,61,44372,1,8,0:0:0:0:
426,68,44430,6,0,L|415:173,1,75.0000028610231,4|0,0:0|0:0,0:0:0:0:
295,304,44660,2,0,L|283:199,1,75.0000028610231,8|0,0:0|0:0,0:0:0:0:
429,224,44891,6,0,L|417:328,1,75.0000028610231,4|0,0:0|0:0,0:0:0:0:
225,174,45121,2,0,L|213:69,1,75.0000028610231,8|0,0:0|0:0,0:0:0:0:
24,68,45353,6,0,L|35:173,1,75.0000028610231,4|0,0:0|0:0,0:0:0:0:
155,304,45583,2,0,L|167:199,1,75.0000028610231,8|0,0:0|0:0,0:0:0:0:
21,224,45814,6,0,L|33:328,1,75.0000028610231,4|0,0:0|0:0,0:0:0:0:
225,174,46045,2,8,L|237:69,1,75.0000028610231,8|8,1:0|1:0,1:0:0:0:
426,80,46276,6,0,L|415:185,1,75.0000028610231,4|0,0:0|0:0,0:0:0:0:
295,316,46506,2,0,L|283:211,1,75.0000028610231,8|0,0:0|0:0,0:0:0:0:
429,236,46737,6,0,L|417:340,1,75.0000028610231,4|0,0:0|0:0,0:0:0:0:
225,186,46967,2,0,L|213:81,1,75.0000028610231,8|0,0:0|0:0,0:0:0:0:
24,80,47199,6,0,L|35:185,1,75.0000028610231,4|0,0:0|0:0,0:0:0:0:
155,316,47429,2,0,L|167:211,1,75.0000028610231,8|0,0:0|0:0,0:0:0:0:
22,240,47660,5,0,0:0:0:0:
225,186,47776,1,8,1:0:0:0:
225,186,47833,1,8,1:0:0:0:
225,186,47891,2,8,L|237:81,1,75.0000028610231,8|8,1:0|1:0,1:0:0:0:
426,80,48122,6,0,L|415:185,1,75.0000028610231,4|0,0:0|0:0,0:0:0:0:
295,316,48352,2,0,L|283:211,1,75.0000028610231,8|0,0:0|0:0,0:0:0:0:
429,236,48583,6,0,L|417:340,1,75.0000028610231,4|0,0:0|0:0,0:0:0:0:
225,186,48813,2,0,L|213:81,1,75.0000028610231,8|0,0:0|0:0,0:0:0:0:
24,80,49045,6,0,L|35:185,1,75.0000028610231,4|0,0:0|0:0,0:0:0:0:
155,316,49275,2,0,L|167:211,1,75.0000028610231,8|0,0:0|0:0,0:0:0:0:
21,236,49506,6,0,L|33:340,1,75.0000028610231,4|0,0:0|0:0,0:0:0:0:
225,186,49737,2,8,L|237:81,1,75.0000028610231,8|8,1:0|1:0,1:0:0:0:
426,92,49968,6,0,L|415:197,1,75.0000028610231,4|0,0:0|0:0,0:0:0:0:
295,328,50198,2,0,L|283:223,1,75.0000028610231,8|0,0:0|0:0,0:0:0:0:
429,248,50429,6,0,L|417:352,1,75.0000028610231,4|0,0:0|0:0,0:0:0:0:
225,198,50659,2,0,L|213:93,1,75.0000028610231,8|0,0:0|0:0,0:0:0:0:
24,92,50891,6,0,L|35:197,1,75.0000028610231,4|0,0:0|0:0,0:0:0:0:
155,328,51121,2,0,L|167:223,1,75.0000028610231,8|0,0:0|0:0,0:0:0:0:
22,252,51352,5,0,0:0:0:0:
225,198,51468,1,8,1:0:0:0:
225,198,51525,1,8,1:0:0:0:
225,198,51583,2,8,L|237:93,1,75.0000028610231,8|8,1:0|1:0,1:0:0:0:
426,92,51814,6,0,L|415:197,1,75.0000028610231,4|0,0:0|0:0,0:0:0:0:
295,328,52044,2,0,L|283:223,1,75.0000028610231,8|0,0:0|0:0,0:0:0:0:
429,248,52275,6,0,L|417:352,1,75.0000028610231,4|0,0:0|0:0,0:0:0:0:
225,198,52505,2,0,L|213:93,1,75.0000028610231,8|0,0:0|0:0,0:0:0:0:
24,92,52737,6,0,L|35:197,1,75.0000028610231,4|0,0:0|0:0,0:0:0:0:
155,328,52967,2,0,L|167:223,1,75.0000028610231,8|0,0:0|0:0,0:0:0:0:
21,248,53198,6,0,L|33:352,1,75.0000028610231,4|0,0:0|0:0,0:0:0:0:
225,198,53429,2,8,L|237:93,1,75.0000028610231,8|8,1:0|1:0,1:0:0:0:
426,104,53660,6,0,L|415:209,1,75.0000028610231,4|0,0:0|0:0,0:0:0:0:
295,340,53890,2,0,L|283:235,1,75.0000028610231,8|0,0:0|0:0,0:0:0:0:
429,260,54121,6,0,L|417:364,1,75.0000028610231,4|0,0:0|0:0,0:0:0:0:
225,210,54351,2,0,L|213:105,1,75.0000028610231,8|0,0:0|0:0,0:0:0:0:
24,104,54583,6,0,L|35:209,1,75.0000028610231,4|0,0:0|0:0,0:0:0:0:
155,340,54813,2,0,L|167:235,1,75.0000028610231,8|0,0:0|0:0,0:0:0:0:
22,264,55044,5,0,0:0:0:0:
225,210,55160,1,8,1:0:0:0:
225,210,55217,1,8,1:0:0:0:
225,210,55275,2,8,L|237:105,1,75.0000028610231,8|8,1:0|1:0,1:0:0:0:
426,104,55507,6,0,L|415:209,1,75.0000028610231,4|0,0:0|0:0,0:0:0:0:
295,340,55737,2,0,L|283:235,1,75.0000028610231,8|0,0:0|0:0,0:0:0:0:
429,260,55968,6,0,L|417:364,1,75.0000028610231,4|0,0:0|0:0,0:0:0:0:
225,210,56198,2,0,L|213:105,1,75.0000028610231,8|0,0:0|0:0,0:0:0:0:
24,104,56430,6,0,L|35:209,1,75.0000028610231,4|0,0:0|0:0,0:0:0:0:
155,340,56660,2,0,L|167:235,1,75.0000028610231,8|0,0:0|0:0,0:0:0:0:
21,260,56891,6,0,L|33:364,1,75.0000028610231,4|0,0:0|0:0,0:0:0:0:
225,210,57122,2,8,L|237:105,1,75.0000028610231,8|8,1:0|1:0,1:0:0:0:
426,116,57353,6,0,L|415:221,1,75.0000028610231,4|0,0:0|0:0,0:0:0:0:
295,352,57583,2,0,L|283:247,1,75.0000028610231,8|0,0:0|0:0,0:0:0:0:
429,272,57814,6,0,L|417:376,1,75.0000028610231,4|0,0:0|0:0,0:0:0:0:
225,222,58044,2,0,L|213:117,1,75.0000028610231,8|0,0:0|0:0,0:0:0:0:
426,116,58276,6,0,L|415:221,1,75.0000028610231,4|0,0:0|0:0,0:0:0:0:
426,116,58507,6,0,L|415:221,1,75.0000028610231,4|0,0:0|0:0,0:0:0:0:
355,46,58737,1,8,0:0:0:0:
426,116,58853,5,8,1:0:0:0:
426,116,58910,1,8,1:0:0:0:
426,116,58968,2,8,L|415:221,1,75.0000028610231,12|8,1:0|1:0,1:0:0:0:
475,279,59199,6,0,P|438:296|337:252,1,150.000005722046,4|8,0:0|0:0,0:0:0:0:
309,181,59545,1,0,0:0:0:0:
242,269,59660,1,8,0:0:0:0:
223,236,59717,1,8,0:0:0:0:
195,211,59775,1,8,0:0:0:0:
161,195,59833,1,8,0:0:0:0:
124,191,59890,1,8,0:0:0:0:
88,199,59948,1,8,0:0:0:0:
55,218,60006,1,8,0:0:0:0:
68,297,60122,6,0,L|159:290,1,75.0000028610231,4|0,0:0|0:0,0:0:0:0:
206,99,60353,2,0,L|114:92,1,75.0000028610231
32,92,60583,5,0,0:0:0:0:
292,166,60699,1,8,0:0:0:0:
88,28,60814,5,0,0:0:0:0:
390,36,60930,1,8,0:0:0:0:
51,178,61045,6,0,P|40:234|87:332,1,150.000005722046,4|0,0:0|0:0,0:0:0:0:
186,339,61391,1,8,0:0:0:0:
314,306,61507,6,0,P|325:250|278:152,1,150.000005722046,4|0,0:0|0:0,0:0:0:0:
179,145,61853,1,8,0:0:0:0:
239,244,61968,5,8,0:0:0:0:
239,244,62083,1,8,0:0:0:0:
391,128,62199,1,8,0:0:0:0:
398,90,62256,1,8,0:0:0:0:
406,54,62314,1,8,0:0:0:0:
154,267,62430,5,8,0:0:0:0:
154,267,62545,1,8,0:0:0:0:
466,214,62661,1,8,0:0:0:0:
473,176,62718,1,8,0:0:0:0:
481,140,62776,1,8,0:0:0:0:
86,193,62891,6,0,P|67:132|198:82,1,225.000008583069,4|0,0:0|0:0,0:0:0:0:
264,161,63353,1,8,0:0:0:0:
227,167,63410,1,8,0:0:0:0:
190,174,63468,1,8,0:0:0:0:
337,31,63583,1,8,0:0:0:0:
283,255,63699,1,8,0:0:0:0:
377,122,63814,6,0,P|437:145|455:16,1,225.000008583069,4|0,0:0|0:0,0:0:0:0:
379,228,64276,1,8,0:0:0:0:
415,234,64333,1,8,0:0:0:0:
452,241,64391,1,8,0:0:0:0:
371,329,64507,1,8,0:0:0:0:
428,77,64622,1,8,0:0:0:0:
236,161,64737,6,0,P|196:202|38:133,1,225.000008583069,4|0,0:0|0:0,0:0:0:0:
104,83,65199,2,0,P|144:42|302:111,1,225.000008583069,4|0,0:0|0:0,0:0:0:0:
70,292,65660,5,8,0:0:0:0:
70,292,65776,1,8,0:0:0:0:
294,237,65891,2,0,L|294:324,1,75.0000028610231,8|0,0:0|0:0,0:0:0:0:
139,344,66122,5,8,0:0:0:0:
139,344,66238,1,8,0:0:0:0:
378,187,66353,1,8,0:0:0:0:
378,224,66410,1,8,0:0:0:0:
378,262,66468,1,8,0:0:0:0:
187,227,66583,6,0,P|169:165|212:61,1,150.000005722046,4|0,0:0|0:0,0:0:0:0:
353,32,66930,1,8,0:0:0:0:
94,200,67045,1,8,0:0:0:0:
57,206,67102,1,8,0:0:0:0:
20,212,67160,1,8,0:0:0:0:
124,49,67276,2,0,P|162:14|213:13,1,75.0000028610231,8|0,0:0|0:0,0:0:0:0:
295,89,67507,6,0,P|319:138|478:134,1,225.000008583069,4|0,0:0|0:0,0:0:0:0:
263,206,67968,2,0,P|271:277|263:314,1,75.0000028610231,8|0,0:0|0:0,0:0:0:0:
470,263,68199,2,0,P|461:334|469:371,1,75.0000028610231,8|0,0:0|0:0,0:0:0:0:
118,337,68430,6,0,P|154:295|40:260,1,225.000008583069,4|0,0:0|0:0,0:0:0:0:
46,142,68891,2,0,P|108:133|141:146,1,75.0000028610231,8|0,0:0|0:0,0:0:0:0:
190,330,69122,2,0,P|128:339|95:326,1,75.0000028610231,8|0,0:0|0:0,0:0:0:0:
210,168,69353,5,8,0:0:0:0:
210,168,69468,1,8,0:0:0:0:
448,56,69583,2,8,L|457:144,1,75.0000028610231,8|0,0:0|0:0,0:0:0:0:
173,83,69814,5,8,0:0:0:0:
173,83,69929,1,8,0:0:0:0:
377,125,70044,2,8,L|386:213,1,75.0000028610231,8|0,0:0|0:0,0:0:0:0:
124,156,70276,6,0,P|72:162|98:37,1,225.000008583069,4|0,0:0|0:0,0:0:0:0:
217,266,70737,1,8,0:0:0:0:
221,228,70794,1,8,0:0:0:0:
226,191,70852,1,8,0:0:0:0:
173,83,70968,1,8,0:0:0:0:
91,309,71083,1,8,0:0:0:0:
318,255,71199,6,0,L|415:266,1,75.0000028610231,8|0,0:0|0:0,0:0:0:0:
321,360,71430,2,0,L|395:351,1,75.0000028610231,8|0,0:0|0:0,0:0:0:0:
442,60,71660,2,0,L|345:71,1,75.0000028610231,8|0,0:0|0:0,0:0:0:0:
439,165,71891,2,0,L|364:156,1,75.0000028610231,8|0,0:0|0:0,0:0:0:0:
171,203,72122,6,0,P|199:109|108:188,1,300.000011444092,4|8,0:0|0:0,0:0:0:0:
250,39,72699,1,0,0:0:0:0:
107,337,72814,1,8,0:0:0:0:
107,337,72872,1,8,0:0:0:0:
107,337,72930,1,8,0:0:0:0:
107,337,72987,1,8,0:0:0:0:
107,337,73045,6,8,L|115:231,1,75.0000028610231
292,148,73276,6,8,L|284:42,1,75.0000028610231,4|4,0:0|0:0,0:0:0:0:
38,192,73507,6,8,L|46:86,1,75.0000028610231
392,256,73738,6,8,L|384:150,1,75.0000028610231,4|4,0:0|0:0,0:0:0:0:
89,49,73968,6,0,P|121:98|84:182,1,150.000005722046,4|0,0:0|0:0,0:0:0:0:
12,41,74314,1,0,0:0:0:0:
238,156,74430,1,8,0:0:0:0:
274,162,74487,1,8,0:0:0:0:
311,168,74545,1,8,0:0:0:0:
348,174,74603,1,8,0:0:0:0:
385,180,74660,2,0,L|380:101,1,75.0000028610231,8|0,0:0|0:0,0:0:0:0:
205,34,74891,5,4,0:0:0:0:
232,284,75007,1,0,0:0:0:0:
99,89,75122,5,0,0:0:0:0:
126,339,75238,1,0,0:0:0:0:
442,237,75353,2,8,P|465:181|457:147,1,75.0000028610231
326,40,75583,2,8,P|303:96|311:130,1,75.0000028610231
65,165,75814,6,0,P|23:120|124:7,1,225.000008583069,4|0,0:0|0:0,0:0:0:0:
191,163,76276,2,8,P|198:209|179:269,1,75.0000028610231
29,356,76507,2,8,P|22:310|41:250,1,75.0000028610231
239,61,76737,5,8,0:0:0:0:
239,61,76853,1,8,0:0:0:0:
300,242,76968,1,8,0:0:0:0:
295,279,77025,1,8,0:0:0:0:
290,316,77083,1,8,0:0:0:0:
143,22,77199,5,8,0:0:0:0:
143,22,77315,1,8,0:0:0:0:
82,203,77430,1,8,0:0:0:0:
87,240,77487,1,8,0:0:0:0:
92,277,77545,1,8,0:0:0:0:
338,155,77660,6,0,P|380:122|473:148,1,150.000005722046,4|0,0:0|0:0,0:0:0:0:
406,197,78007,1,8,0:0:0:0:
275,50,78122,5,12,0:0:0:0:
249,76,78179,1,8,0:0:0:0:
213,87,78237,1,8,0:0:0:0:
176,83,78295,1,8,0:0:0:0:
145,62,78352,1,8,0:0:0:0:
276,344,78468,1,8,0:0:0:0:
478,299,78583,6,8,L|487:208,1,75.0000028610231
267,255,78814,2,8,L|258:164,1,75.0000028610231
186,108,79045,1,8,0:0:0:0:
215,84,79102,1,8,0:0:0:0:
250,74,79160,1,8,0:0:0:0:
287,79,79218,1,8,0:0:0:0:
320,98,79275,1,8,0:0:0:0:
330,324,79391,1,0,0:0:0:0:
149,187,79507,6,0,P|107:214|-3:115,1,225.000008583069,4|0,0:0|0:0,0:0:0:0:
88,53,79968,2,0,L|79:160,1,75.0000028610231
184,22,80199,1,0,0:0:0:0:
184,22,80314,1,0,0:0:0:0:
9,22,80430,5,0,1:0:0:0:
9,22,80545,1,0,1:0:0:0:
250,228,80660,1,10,0:0:0:0:
287,224,80717,1,10,0:0:0:0:
324,220,80775,1,10,0:0:0:0:
9,22,80891,5,0,1:0:0:0:
9,22,81006,1,0,1:0:0:0:
378,137,81121,1,10,0:0:0:0:
415,133,81178,1,10,0:0:0:0:
452,129,81236,1,10,0:0:0:0:
180,263,81353,6,0,P|145:335|22:306,1,225.000008583069,4|0,0:0|0:0,0:0:0:0:
101,193,81814,1,8,0:0:0:0:
99,230,81871,1,8,0:0:0:0:
97,267,81929,1,8,0:0:0:0:
53,109,82045,1,8,0:0:0:0:
240,360,82160,1,8,0:0:0:0:
136,52,82276,6,0,P|176:78|326:6,1,225.000008583069,4|0,0:0|0:0,0:0:0:0:
194,171,82737,1,8,0:0:0:0:
229,181,82794,1,8,0:0:0:0:
265,192,82852,1,8,0:0:0:0:
401,80,82968,1,8,0:0:0:0:
341,287,83083,1,0,0:0:0:0:
133,117,83199,6,0,P|78:148|17:32,1,225.000008583069,4|0,0:0|0:0,0:0:0:0:
214,74,83660,1,8,0:0:0:0:
250,66,83717,1,8,0:0:0:0:
287,59,83775,1,8,0:0:0:0:
437,25,83891,1,8,0:0:0:0:
117,230,84007,1,0,0:0:0:0:
78,73,84122,5,0,1:0:0:0:
78,73,84237,1,0,1:0:0:0:
368,349,84353,2,0,L|378:257,1,75.0000028610231,2|8,0:0|0:0,0:0:0:0:
434,73,84583,5,0,1:0:0:0:
434,73,84698,1,0,1:0:0:0:
144,349,84814,2,0,L|134:257,1,75.0000028610231,2|8,0:0|0:0,0:0:0:0:
342,200,85045,6,0,P|393:193|429:335,1,225.000008583069,4|0,0:0|0:0,0:0:0:0:
252,235,85507,1,8,0:0:0:0:
214,232,85564,1,8,0:0:0:0:
177,229,85622,1,8,0:0:0:0:
139,226,85680,1,8,0:0:0:0:
102,223,85737,1,8,0:0:0:0:
11,216,85853,1,8,0:0:0:0:
105,88,85968,6,0,P|54:81|18:223,1,225.000008583069,4|0,0:0|0:0,0:0:0:0:
195,123,86430,1,8,0:0:0:0:
232,120,86487,1,8,0:0:0:0:
269,117,86545,1,8,0:0:0:0:
307,114,86603,1,8,0:0:0:0:
344,111,86660,1,8,0:0:0:0:
436,104,86776,1,8,0:0:0:0:
66,159,86891,5,4,0:0:0:0:
86,24,87007,1,8,0:0:0:0:
289,2,87122,5,4,0:0:0:0:
424,22,87238,1,8,0:0:0:0:
446,225,87353,5,4,0:0:0:0:
426,360,87469,1,8,0:0:0:0:
223,382,87583,5,4,0:0:0:0:
88,362,87699,1,8,0:0:0:0:
256,192,87814,6,0,L|256:234,1,40
256,232,88737,5,4,0:0:0:0:
64,77,88853,1,0,0:0:0:0:
162,280,88968,5,8,0:0:0:0:
166,33,89083,1,0,0:0:0:0:
237,322,89199,5,4,0:0:0:0:
45,167,89315,1,0,0:0:0:0:
143,370,89430,5,8,0:0:0:0:
147,123,89545,1,0,0:0:0:0:
354,33,89660,6,0,L|369:169,1,119.999996337891,4|0,0:0|0:0,0:0:0:0:
465,345,89891,2,0,L|478:225,1,119.999996337891,8|0,0:0|0:0,0:0:0:0:
234,6,90122,6,0,L|219:142,1,119.999996337891,4|0,0:0|0:0,0:0:0:0:
123,318,90353,2,0,L|109:198,1,119.999996337891,8|8,0:0|0:0,0:0:0:0:
18,25,90583,6,0,L|31:144,1,119.999996337891,4|0,0:0|0:0,0:0:0:0:
380,335,90814,1,2,2:0:0:0:
418,289,90871,1,2,2:0:0:0:
438,232,90929,1,2,2:0:0:0:
438,173,90987,1,2,2:0:0:0:
417,117,91044,1,2,2:0:0:0:
379,71,91102,1,2,2:0:0:0:
327,41,91160,1,2,2:0:0:0:
302,203,91276,5,8,0:0:0:0:
302,203,91391,1,8,0:0:0:0:
36,142,91507,6,8,L|161:122,1,119.999996337891,4|0,0:0|0:0,0:0:0:0:
228,19,91737,1,8,0:0:0:0:
193,327,91853,1,0,0:0:0:0:
18,25,91968,5,4,0:0:0:0:
31,366,92083,1,8,0:0:0:0:
31,366,92141,1,8,0:0:0:0:
31,366,92199,1,8,0:0:0:0:
281,111,92314,1,8,0:0:0:0:
31,190,92430,6,0,L|48:346,1,119.999996337891,4|0,0:0|0:0,0:0:0:0:
481,190,92660,2,0,L|464:346,1,119.999996337891,8|0,0:0|0:0,0:0:0:0:
31,194,92891,6,0,L|48:38,1,119.999996337891,4|0,0:0|0:0,0:0:0:0:
481,194,93121,2,0,L|464:38,1,119.999996337891,8|0,0:0|0:0,0:0:0:0:
0,189,93353,6,0,L|19:367,1,119.999996337891,4|0,0:0|0:0,0:0:0:0:
511,189,93583,2,0,L|492:367,1,119.999996337891,8|0,0:0|0:0,0:0:0:0:
0,194,93814,6,0,L|19:16,1,119.999996337891,4|0,0:0|0:0,0:0:0:0:
511,194,94044,2,8,L|492:16,1,119.999996337891
344,22,94276,6,0,P|332:102|372:171,1,119.999996337891,4|0,0:0|0:0,0:0:0:0:
168,362,94507,1,2,2:0:0:0:
181,303,94564,1,2,2:0:0:0:
170,245,94622,1,2,2:0:0:0:
137,195,94680,1,2,2:0:0:0:
87,163,94737,1,2,2:0:0:0:
63,292,94853,1,0,0:0:0:0:
6,83,94968,2,0,P|74:72|135:3,1,119.999996337891,8|0,0:0|0:0,0:0:0:0:
466,41,95199,6,0,L|450:164,1,119.999996337891,4|0,0:0|0:0,0:0:0:0:
388,233,95430,2,0,L|404:356,1,119.999996337891,2|0,0:0|0:0,0:0:0:0:
183,22,95660,6,0,L|199:145,1,119.999996337891,4|0,0:0|0:0,0:0:0:0:
261,214,95891,1,8,0:0:0:0:
253,273,95948,1,8,0:0:0:0:
245,332,96006,1,8,0:0:0:0:
72,253,96122,5,4,0:0:0:0:
337,137,96237,1,0,0:0:0:0:
319,310,96353,5,8,0:0:0:0:
121,78,96468,1,0,0:0:0:0:
93,289,96583,5,4,0:0:0:0:
316,104,96698,1,0,0:0:0:0:
346,276,96814,5,8,0:0:0:0:
92,107,96929,1,0,0:0:0:0:
214,21,97045,5,4,0:0:0:0:
218,353,97160,1,0,0:0:0:0:
31,209,97276,5,8,0:0:0:0:
376,181,97391,1,0,0:0:0:0:
175,24,97507,5,4,0:0:0:0:
254,346,97622,1,0,0:0:0:0:
39,248,97738,5,8,0:0:0:0:
369,143,97853,1,8,0:0:0:0:
89,125,97968,6,0,P|66:70|4:33,1,119.999996337891,4|0,0:0|0:0,0:0:0:0:
329,254,98199,2,0,P|352:309|414:346,1,119.999996337891,8|0,0:0|0:0,0:0:0:0:
283,77,98430,6,0,P|338:54|375:-8,1,119.999996337891,4|0,0:0|0:0,0:0:0:0:
147,303,98661,2,0,P|92:326|55:388,1,119.999996337891,8|0,0:0|0:0,0:0:0:0:
32,209,98891,6,0,L|166:193,1,119.999996337891,4|0,0:0|0:0,0:0:0:0:
476,162,99122,1,8,0:0:0:0:
476,162,99180,1,8,0:0:0:0:
476,162,99237,1,8,0:0:0:0:
511,260,99353,6,0,L|378:232,1,119.999996337891,4|0,0:0|0:0,0:0:0:0:
85,123,99584,1,8,0:0:0:0:
85,123,99642,1,8,0:0:0:0:
85,123,99699,1,8,0:0:0:0:
283,153,99814,6,0,P|297:89|273:36,1,119.999996337891,4|0,0:0|0:0,0:0:0:0:
237,240,100045,2,0,P|223:304|247:357,1,119.999996337891,8|0,0:0|0:0,0:0:0:0:
277,144,100276,6,0,P|280:72|244:19,1,119.999996337891,4|0,0:0|0:0,0:0:0:0:
244,247,100507,2,0,P|241:319|277:372,1,119.999996337891,8|0,0:0|0:0,0:0:0:0:
259,134,100737,6,0,P|235:59|178:19,1,119.999996337891,4|0,0:0|0:0,0:0:0:0:
263,252,100968,2,0,P|287:327|344:368,1,119.999996337891,8|0,0:0|0:0,0:0:0:0:
227,136,101199,6,0,P|164:79|89:71,1,119.999996337891,4|0,0:0|0:0,0:0:0:0:
295,244,101430,2,0,P|358:302|434:309,1,119.999996337891,8|0,0:0|0:0,0:0:0:0:
194,166,101660,6,0,P|102:162|35:208,1,119.999996337891,4|0,0:0|0:0,0:0:0:0:
325,208,101891,2,0,P|416:212|484:166,1,119.999996337891,8|0,0:0|0:0,0:0:0:0:
193,221,102122,6,0,P|133:288|125:367,1,119.999996337891,4|0,0:0|0:0,0:0:0:0:
314,145,102353,2,0,P|376:78|383:-2,1,119.999996337891,8|0,0:0|0:0,0:0:0:0:
250,254,102583,6,0,P|277:336|339:381,1,119.999996337891,4|0,0:0|0:0,0:0:0:0:
246,124,102814,2,0,P|219:42|157:-2,1,119.999996337891,8|0,0:0|0:0,0:0:0:0:
155,114,103045,6,2,L|161:153,6,29.9999990844727,2|2|2|2|2|2|2,3:0|3:0|3:0|3:0|3:0|3:0|3:0,3:0:0:0:
348,274,103276,6,2,L|354:235,6,29.9999990844727,2|2|2|2|2|2|2,3:0|3:0|3:0|3:0|3:0|3:0|3:0,3:0:0:0:
80,216,103507,6,0,P|50:148|74:59,1,119.999996337891,4|0,0:0|0:0,0:0:0:0:
299,38,103737,2,0,L|289:163,1,119.999996337891,8|0,0:0|0:0,0:0:0:0:
466,105,103968,2,0,L|476:230,1,119.999996337891
104,31,104199,1,8,0:0:0:0:
506,303,104314,2,0,P|435:295|462:143,1,239.999992675781
302,255,104660,2,0,P|328:322|306:385,1,119.999996337891,8|0,0:0|0:0,0:0:0:0:
162,304,104891,2,0,P|90:293|47:242,1,119.999996337891
189,158,105122,2,8,P|234:101|299:89,1,119.999996337891
80,208,105353,6,0,P|50:140|74:51,1,119.999996337891,4|0,0:0|0:0,0:0:0:0:
299,30,105583,2,0,L|289:155,1,119.999996337891,8|0,0:0|0:0,0:0:0:0:
466,97,105814,2,0,L|476:222,1,119.999996337891
104,23,106045,1,8,0:0:0:0:
506,295,106160,2,0,P|435:287|462:135,1,239.999992675781
302,247,106506,2,0,P|328:314|306:377,1,119.999996337891,8|0,0:0|0:0,0:0:0:0:
162,296,106737,2,0,P|90:285|47:234,1,119.999996337891
189,150,106968,1,8,0:0:0:0:
222,101,107025,1,8,0:0:0:0:
278,80,107083,1,8,0:0:0:0:
80,200,107199,6,0,P|50:132|74:43,1,119.999996337891,4|0,0:0|0:0,0:0:0:0:
299,22,107429,2,0,L|289:147,1,119.999996337891,8|0,0:0|0:0,0:0:0:0:
466,89,107660,2,0,L|476:214,1,119.999996337891
104,15,107891,1,8,0:0:0:0:
506,287,108006,2,0,P|435:279|462:127,1,239.999992675781
302,239,108352,2,0,P|328:306|306:369,1,119.999996337891,8|0,0:0|0:0,0:0:0:0:
162,288,108583,2,0,P|90:277|47:226,1,119.999996337891
189,142,108814,2,8,P|234:85|299:73,1,119.999996337891
80,208,109045,6,0,P|50:140|74:51,1,119.999996337891,4|0,0:0|0:0,0:0:0:0:
299,30,109275,2,0,L|289:155,1,119.999996337891,8|0,0:0|0:0,0:0:0:0:
466,97,109506,2,0,L|476:222,1,119.999996337891
104,23,109737,1,8,0:0:0:0:
506,295,109852,2,0,P|435:287|462:135,1,239.999992675781
302,247,110198,2,0,P|328:314|306:377,1,119.999996337891,8|0,0:0|0:0,0:0:0:0:
162,296,110429,2,0,P|90:285|47:234,1,119.999996337891
189,150,110660,1,8,0:0:0:0:
222,101,110717,1,8,0:0:0:0:
278,80,110775,1,8,0:0:0:0:
462,177,110891,6,0,L|480:49,1,119.999996337891,4|0,0:0|0:0,0:0:0:0:
378,246,111122,2,0,L|360:118,1,119.999996337891,8|0,0:0|0:0,0:0:0:0:
462,185,111353,6,0,L|480:57,1,119.999996337891,4|0,0:0|0:0,0:0:0:0:
378,254,111584,2,0,L|360:126,1,119.999996337891,8|0,0:0|0:0,0:0:0:0:
462,193,111814,6,0,L|480:65,1,119.999996337891,4|0,0:0|0:0,0:0:0:0:
378,262,112045,2,0,L|360:134,1,119.999996337891,8|0,0:0|0:0,0:0:0:0:
462,201,112276,6,0,L|480:73,1,119.999996337891,4|0,0:0|0:0,0:0:0:0:
378,270,112507,2,8,L|360:142,1,119.999996337891
50,177,112737,6,0,L|32:49,1,119.999996337891,4|0,0:0|0:0,0:0:0:0:
134,246,112968,2,0,L|152:118,1,119.999996337891,8|0,0:0|0:0,0:0:0:0:
50,185,113199,6,0,L|32:57,1,119.999996337891,4|0,0:0|0:0,0:0:0:0:
134,254,113430,2,0,L|152:126,1,119.999996337891,8|0,0:0|0:0,0:0:0:0:
50,193,113660,6,0,L|32:65,1,119.999996337891,4|0,0:0|0:0,0:0:0:0:
134,262,113891,2,0,L|152:134,1,119.999996337891,8|0,0:0|0:0,0:0:0:0:
19,277,114122,5,4,0:0:0:0:
134,270,114237,1,8,0:0:0:0:
134,270,114295,1,8,0:0:0:0:
134,270,114353,2,0,L|152:142,1,119.999996337891
462,209,114583,6,0,L|480:81,1,119.999996337891,4|0,0:0|0:0,0:0:0:0:
378,278,114814,2,0,L|360:150,1,119.999996337891,8|0,0:0|0:0,0:0:0:0:
462,217,115045,6,0,L|480:89,1,119.999996337891,4|0,0:0|0:0,0:0:0:0:
378,286,115276,2,0,L|360:158,1,119.999996337891,8|0,0:0|0:0,0:0:0:0:
462,225,115506,6,0,L|480:97,1,119.999996337891,4|0,0:0|0:0,0:0:0:0:
378,294,115737,2,0,L|360:166,1,119.999996337891,8|0,0:0|0:0,0:0:0:0:
462,233,115968,6,0,L|480:105,1,119.999996337891,4|0,0:0|0:0,0:0:0:0:
378,302,116199,2,8,L|360:174,1,119.999996337891
50,209,116429,6,0,L|32:81,1,119.999996337891,4|0,0:0|0:0,0:0:0:0:
134,278,116660,2,0,L|152:150,1,119.999996337891,8|0,0:0|0:0,0:0:0:0:
50,217,116891,6,0,L|32:89,1,119.999996337891,4|0,0:0|0:0,0:0:0:0:
134,286,117122,2,0,L|152:158,1,119.999996337891,8|0,0:0|0:0,0:0:0:0:
33,106,117353,6,0,L|50:225,1,119.999996337891,8|0,0:0|0:0,0:0:0:0:
150,175,117584,2,0,L|134:294,1,119.999996337891,8|0,0:0|0:0,0:0:0:0:
128,72,117814,1,8,0:0:0:0:
211,356,117930,1,8,0:0:0:0:
256,317,117987,1,8,0:0:0:0:
311,294,118045,1,8,0:0:0:0:
371,291,118103,1,8,0:0:0:0:
429,306,118160,1,8,0:0:0:0:
479,339,118218,1,8,0:0:0:0:
479,339,118276,5,12,0:0:0:0:
455,310,118333,1,8,2:0:0:0:
436,278,118391,1,8,2:0:0:0:
424,242,118449,1,8,2:0:0:0:
418,205,118506,1,8,2:0:0:0:
419,168,118564,1,8,2:0:0:0:
427,131,118622,1,8,2:0:0:0:
442,97,118679,1,8,2:0:0:0:
462,65,118737,6,0,L|501:31,6,37.5000014305115
202,3,119198,5,8,3:0:0:0:
201,40,119256,1,8,2:0:0:0:
191,76,119314,1,8,2:0:0:0:
172,109,119372,1,8,2:0:0:0:
145,135,119429,1,8,2:0:0:0:
113,154,119487,1,8,2:0:0:0:
77,164,119545,1,8,2:0:0:0:
40,165,119602,1,8,2:0:0:0:
3,157,119660,6,0,L|16:219,6,37.5000014305115
121,384,120122,5,8,3:0:0:0:
157,377,120179,1,8,3:0:0:0:
194,371,120237,1,8,3:0:0:0:
231,364,120295,1,8,3:0:0:0:
268,358,120352,1,8,3:0:0:0:
305,351,120410,1,8,3:0:0:0:
342,345,120468,1,8,3:0:0:0:
379,338,120525,1,8,3:0:0:0:
416,332,120583,6,0,L|470:319,6,37.5000014305115
267,141,121044,5,8,2:0:0:0:
289,171,121102,1,8,2:0:0:0:
296,208,121160,1,8,2:0:0:0:
288,244,121218,1,8,2:0:0:0:
266,274,121275,1,8,2:0:0:0:
233,292,121333,1,8,2:0:0:0:
196,294,121391,1,8,2:0:0:0:
161,282,121448,1,8,2:0:0:0:
135,255,121507,6,0,L|191:221,6,37.5000014305115
6,220,121968,5,12,0:0:0:0:
43,214,122025,1,8,3:0:0:0:
80,209,122083,1,8,3:0:0:0:
117,203,122141,1,8,3:0:0:0:
154,197,122198,1,8,3:0:0:0:
191,192,122256,1,8,3:0:0:0:
228,186,122314,1,8,3:0:0:0:
265,181,122371,1,8,3:0:0:0:
302,175,122430,6,0,L|359:168,6,37.5000014305115
27,294,122891,5,8,3:0:0:0:
64,293,122948,1,8,3:0:0:0:
102,293,123006,1,8,3:0:0:0:
139,293,123064,1,8,3:0:0:0:
177,293,123121,1,8,3:0:0:0:
214,293,123179,1,8,3:0:0:0:
252,293,123237,1,8,3:0:0:0:
289,293,123294,1,8,3:0:0:0:
327,293,123353,6,0,L|381:292,6,37.5000014305115
276,43,123814,5,8,2:0:0:0:
276,80,123871,1,8,2:0:0:0:
285,116,123929,1,8,2:0:0:0:
303,149,123987,1,8,2:0:0:0:
329,176,124044,1,8,2:0:0:0:
360,196,124102,1,8,2:0:0:0:
396,208,124160,1,8,2:0:0:0:
433,211,124217,1,8,2:0:0:0:
470,204,124276,6,0,L|501:162,6,37.5000014305115
226,255,124737,5,8,3:0:0:0:
224,217,124794,1,8,3:0:0:0:
215,181,124852,1,8,3:0:0:0:
200,146,124910,1,8,3:0:0:0:
179,115,124967,1,8,3:0:0:0:
153,89,125025,1,8,3:0:0:0:
122,68,125083,1,8,3:0:0:0:
88,52,125141,1,8,3:0:0:0:
51,44,125199,6,0,L|54:106,6,37.5000014305115
111,338,125660,5,12,0:0:0:0:
146,349,125717,1,0,0:0:0:0:
183,353,125775,1,0,0:0:0:0:
220,348,125833,1,0,0:0:0:0:
256,335,125890,1,0,0:0:0:0:
287,314,125948,1,0,0:0:0:0:
313,287,126006,1,0,0:0:0:0:
332,255,126063,1,0,0:0:0:0:
344,220,126122,6,0,L|282:210,6,37.5000014305115
177,19,126583,5,4,2:0:0:0:
150,44,126640,1,0,2:0:0:0:
129,75,126698,1,0,2:0:0:0:
116,110,126756,1,0,2:0:0:0:
111,148,126813,1,0,2:0:0:0:
115,185,126871,1,0,2:0:0:0:
128,220,126929,1,0,2:0:0:0:
148,252,126986,1,0,2:0:0:0:
175,278,127045,6,0,L|218:273,6,37.5000014305115
424,208,127507,5,0,0:0:0:0:
402,178,127564,1,4,0:0:0:0:
375,152,127622,1,0,0:0:0:0:
344,131,127680,1,0,0:0:0:0:
310,116,127737,1,0,0:0:0:0:
273,107,127795,1,0,0:0:0:0:
236,105,127853,1,0,0:0:0:0:
199,109,127910,1,0,0:0:0:0:
163,120,127968,6,0,L|179:169,6,37.5000014305115
37,366,128430,5,8,3:0:0:0:
74,360,128487,1,8,3:0:0:0:
111,354,128545,1,8,3:0:0:0:
148,348,128603,1,8,3:0:0:0:
185,342,128660,1,8,3:0:0:0:
222,336,128718,1,8,3:0:0:0:
259,330,128776,1,8,3:0:0:0:
296,324,128833,1,8,3:0:0:0:
333,318,128891,6,0,L|381:309,6,37.5000014305115
330,109,129352,5,12,0:0:0:0:
327,146,129410,1,0,0:0:0:0:
315,181,129468,1,0,0:0:0:0:
294,212,129526,1,0,0:0:0:0:
266,237,129583,1,0,0:0:0:0:
232,253,129641,1,0,0:0:0:0:
195,260,129699,1,0,0:0:0:0:
158,257,129756,1,0,0:0:0:0:
123,244,129814,6,0,L|97:202,6,37.5000014305115
28,30,130275,5,12,0:0:0:0:
37,67,130333,1,0,0:0:0:0:
57,99,130391,1,0,0:0:0:0:
84,124,130449,1,0,0:0:0:0:
117,142,130506,1,0,0:0:0:0:
154,149,130564,1,0,0:0:0:0:
191,146,130622,1,0,0:0:0:0:
226,133,130679,1,0,0:0:0:0:
256,110,130737,6,0,L|274:64,6,37.5000014305115
485,154,131198,5,12,0:0:0:0:
449,161,131256,1,0,0:0:0:0:
415,177,131314,1,0,0:0:0:0:
387,202,131372,1,0,0:0:0:0:
367,234,131429,1,0,0:0:0:0:
357,270,131487,1,0,0:0:0:0:
357,307,131545,1,0,0:0:0:0:
367,343,131602,1,0,0:0:0:0:
386,375,131660,5,8,0:0:0:0:
363,346,131717,1,0,0:0:0:0:
334,322,131775,1,0,0:0:0:0:
301,305,131833,1,0,0:0:0:0:
264,295,131890,1,0,0:0:0:0:
227,294,131948,1,0,0:0:0:0:
190,300,132006,1,0,0:0:0:0:
155,314,132063,1,0,0:0:0:0:
124,335,132122,6,8,L|141:258,1,75.0000028610231
262,164,132353,2,8,L|245:86,1,75.0000028610231,8|8,2:0|0:0,0:0:0:0:
54,54,132583,5,2,2:0:0:0:
88,85,132640,1,2,2:0:0:0:
128,108,132698,1,8,2:0:0:0:
173,122,132757,1,8,2:0:0:0:
220,124,132813,1,8,2:0:0:0:
266,116,132871,1,2,2:0:0:0:
309,97,132929,1,8,2:0:0:0:
346,69,132986,1,2,2:0:0:0:
376,33,133045,6,0,L|369:171,1,119.999996337891,4|0,2:0|0:0,0:0:0:0:
500,220,133276,2,0,L|492:82,1,119.999996337891,8|0,0:0|0:0,0:0:0:0:
273,191,133507,2,0,L|265:328,1,119.999996337891,4|0,0:0|0:0,0:0:0:0:
412,353,133738,2,0,L|404:215,1,119.999996337891,8|0,0:0|0:0,0:0:0:0:
176,251,133968,6,0,P|97:296|36:266,1,119.999996337891,4|0,0:0|0:0,0:0:0:0:
96,90,134199,2,0,P|175:45|236:75,1,119.999996337891,8|0,0:0|0:0,0:0:0:0:
256,314,134430,2,0,P|177:359|116:329,1,119.999996337891
21,49,134661,2,8,P|100:4|161:34,1,119.999996337891
325,95,134891,6,0,L|470:72,1,119.999996337891,4|0,0:0|0:0,0:0:0:0:
470,254,135122,2,0,L|325:231,1,119.999996337891,8|0,0:0|0:0,0:0:0:0:
307,84,135353,6,0,L|445:36,1,119.999996337891
477,215,135584,2,0,L|330:218,1,119.999996337891,8|0,0:0|0:0,0:0:0:0:
287,77,135814,6,0,L|416:6,1,119.999996337891,4|0,0:0|0:0,0:0:0:0:
478,177,136045,2,0,L|334:205,1,119.999996337891,8|0,0:0|0:0,0:0:0:0:
267,73,136276,6,0,L|381:-18,1,119.999996337891,0|8,0:0|0:0,0:0:0:0:
472,138,136507,1,8,0:0:0:0:
416,160,136564,1,8,0:0:0:0:
360,181,136622,1,8,0:0:0:0:
186,144,136737,6,0,L|46:138,1,119.999996337891,4|0,0:0|0:0,0:0:0:0:
138,332,136968,2,0,L|278:326,1,119.999996337891,8|0,0:0|0:0,0:0:0:0:
216,62,137199,2,0,L|76:56,1,119.999996337891
179,248,137430,2,0,L|319:242,1,119.999996337891,8|0,0:0|0:0,0:0:0:0:
326,144,137660,6,0,L|445:138,1,119.999996337891,4|0,0:0|0:0,0:0:0:0:
374,332,137891,2,0,L|254:326,1,119.999996337891,8|0,0:0|0:0,0:0:0:0:
296,62,138122,2,0,L|415:56,1,119.999996337891
333,248,138353,2,0,L|213:242,1,119.999996337891,8|0,0:0|0:0,0:0:0:0:
109,122,138583,6,0,P|90:60|22:16,1,119.999996337891,4|0,0:0|0:0,0:0:0:0:
51,262,138814,2,0,P|70:324|138:368,1,119.999996337891,8|0,0:0|0:0,0:0:0:0:
123,97,139045,6,0,P|115:33|56:-21,1,119.999996337891
41,225,139276,2,0,P|49:289|109:344,1,119.999996337891,8|0,0:0|0:0,0:0:0:0:
141,75,139507,6,0,P|145:11|96:-53,1,119.999996337891,4|0,0:0|0:0,0:0:0:0:
39,187,139738,2,0,P|36:252|84:317,1,119.999996337891,8|0,0:0|0:0,0:0:0:0:
163,57,139968,6,0,P|178:-5|141:-77,1,119.999996337891,0|8,0:0|0:0,0:0:0:0:
43,150,140199,1,8,0:0:0:0:
28,207,140256,1,8,0:0:0:0:
46,263,140314,1,8,0:0:0:0:
221,189,140430,6,0,L|363:173,1,119.999996337891,4|0,0:0|0:0,0:0:0:0:
354,342,140660,2,0,L|212:326,1,119.999996337891,8|0,0:0|0:0,0:0:0:0:
260,98,140891,2,0,L|402:82,1,119.999996337891
419,273,141121,2,0,L|277:257,1,119.999996337891,8|0,0:0|0:0,0:0:0:0:
221,189,141353,6,0,L|79:173,1,119.999996337891,4|0,0:0|0:0,0:0:0:0:
88,342,141583,2,0,L|230:326,1,119.999996337891,8|0,0:0|0:0,0:0:0:0:
182,98,141814,2,0,L|40:82,1,119.999996337891
23,273,142044,2,0,L|165:257,1,119.999996337891,8|0,0:0|0:0,0:0:0:0:
332,150,142276,6,0,P|380:117|456:123,1,119.999996337891,4|0,0:0|0:0,0:0:0:0:
447,279,142507,2,0,P|399:312|323:306,1,119.999996337891,8|0,0:0|0:0,0:0:0:0:
323,137,142737,6,0,P|365:96|440:89,1,119.999996337891
459,244,142968,2,0,P|417:285|341:292,1,119.999996337891,8|0,0:0|0:0,0:0:0:0:
313,126,143199,6,0,P|346:79|420:58,1,119.999996337891,4|0,0:0|0:0,0:0:0:0:
465,208,143430,2,0,P|431:255|357:276,1,119.999996337891,8|0,0:0|0:0,0:0:0:0:
300,117,143660,6,0,P|325:65|394:32,1,119.999996337891,0|8,0:0|0:0,0:0:0:0:
464,171,143891,1,8,0:0:0:0:
439,225,143948,1,8,0:0:0:0:
388,254,144007,1,8,0:0:0:0:
314,168,144122,6,0,P|307:103|270:57,1,119.999996337891,4|0,0:0|0:0,0:0:0:0:
226,135,144353,2,0,P|161:142|115:179,1,119.999996337891,8|0,0:0|0:0,0:0:0:0:
195,220,144583,2,0,P|202:285|239:331,1,119.999996337891
283,253,144814,2,0,P|348:246|394:209,1,119.999996337891,8|0,0:0|0:0,0:0:0:0:
232,134,145045,6,0,P|167:141|121:178,1,119.999996337891,4|0,0:0|0:0,0:0:0:0:
199,222,145276,2,0,P|206:287|243:333,1,119.999996337891,8|0,0:0|0:0,0:0:0:0:
284,253,145506,2,0,P|349:246|395:209,1,119.999996337891
317,165,145737,2,8,P|310:100|273:54,1,119.999996337891
274,60,145968,6,0,P|309:108|314:167,1,119.999996337891,4|0,0:0|0:0,0:0:0:0:
118,174,146199,2,0,P|166:139|225:134,1,119.999996337891,8|0,0:0|0:0,0:0:0:0:
234,327,146429,2,0,P|199:279|194:220,1,119.999996337891
390,213,146660,2,0,P|342:248|283:253,1,119.999996337891,8|0,0:0|0:0,0:0:0:0:
124,173,146891,6,0,P|172:138|231:133,1,119.999996337891,4|0,0:0|0:0,0:0:0:0:
238,329,147122,2,0,P|203:281|198:222,1,119.999996337891,8|0,0:0|0:0,0:0:0:0:
391,213,147352,2,0,P|343:248|284:253,1,119.999996337891,0|8,0:0|0:0,0:0:0:0:
277,57,147583,1,8,0:0:0:0:
312,105,147640,1,8,0:0:0:0:
317,164,147698,1,8,0:0:0:0:
95,42,147814,5,4,0:0:0:0:
96,352,147930,1,0,0:0:0:0:
175,115,148045,5,8,0:0:0:0:
42,290,148160,1,0,0:0:0:0:
417,42,148276,5,0,0:0:0:0:
416,352,148392,1,0,0:0:0:0:
337,115,148507,5,8,0:0:0:0:
470,290,148622,1,0,0:0:0:0:
21,119,148737,5,4,0:0:0:0:
498,208,148853,1,0,0:0:0:0:
451,122,148968,5,8,0:0:0:0:
35,234,149083,1,0,0:0:0:0:
85,41,149199,5,0,0:0:0:0:
470,290,149314,1,0,0:0:0:0:
407,32,149430,5,8,0:0:0:0:
97,307,149545,1,0,0:0:0:0:
305,48,149660,5,4,0:0:0:0:
176,372,149776,1,0,0:0:0:0:
230,109,149891,5,8,0:0:0:0:
261,338,150007,1,0,0:0:0:0:
139,112,150122,5,0,0:0:0:0:
356,347,150237,1,0,0:0:0:0:
87,182,150353,5,8,0:0:0:0:
413,278,150468,1,0,0:0:0:0:
57,264,150583,5,4,0:0:0:0:
442,190,150699,1,0,0:0:0:0:
94,346,150814,5,8,0:0:0:0:
394,91,150930,1,0,0:0:0:0:
187,375,151045,5,0,0:0:0:0:
313,20,151160,1,0,0:0:0:0:
339,366,151276,5,8,0:0:0:0:
201,32,151391,1,0,0:0:0:0:
34,35,151507,5,4,0:0:0:0:
46,333,151622,1,0,0:0:0:0:
136,85,151737,5,8,0:0:0:0:
127,367,151853,1,0,0:0:0:0:
258,32,151968,5,0,0:0:0:0:
213,348,152083,1,0,0:0:0:0:
340,96,152199,5,8,0:0:0:0:
314,369,152314,1,0,0:0:0:0:
466,42,152430,5,4,0:0:0:0:
65,149,152545,1,0,0:0:0:0:
465,152,152660,5,8,0:0:0:0:
18,223,152776,1,0,0:0:0:0:
438,253,152891,5,0,0:0:0:0:
13,303,153007,1,0,0:0:0:0:
388,340,153122,5,8,0:0:0:0:
73,366,153237,1,0,0:0:0:0:
386,16,153353,5,12,0:0:0:0:
