osu file format v14

[General]
AudioFilename: audio.ogg
AudioLeadIn: 0
PreviewTime: 43135
Countdown: 0
SampleSet: Soft
StackLeniency: 0.3
Mode: 0
LetterboxInBreaks: 0
WidescreenStoryboard: 0

[Editor]
DistanceSpacing: 1
BeatDivisor: 4
GridSize: 4
TimelineZoom: 3.799999

[Metadata]
Title:Wo Xiang Dui Ni Shuo Baby (Yu vs. CTM Radio Mix) (Nightcore Mix)
TitleUnicode:我想对你说Baby (Yu vs. CTM Radio Mix) (Nightcore Mix)
Artist:VaVa
ArtistUnicode:毛衍七
Creator:__Ag
Version:Main DJ
Source:
Tags:matsuyuki ame rk657 lkx_Shore NatsuRin yf_bmp dahkjdas muziyami remix cpop chinese pop c-pop electronic 王绎龙
BeatmapID:4222413
BeatmapSetID:2026486

[Difficulty]
HPDrainRate:5
CircleSize:4
OverallDifficulty:9
ApproachRate:9.5
SliderMultiplier:2
SliderTickRate:1

[Events]
//Background and Video events
0,0,"BG.png",0,0
//Break Periods
2,142930,153177
//Storyboard Layer 0 (Background)
//Storyboard Layer 1 (Fail)
//Storyboard Layer 2 (Pass)
//Storyboard Layer 3 (Foreground)
//Storyboard Layer 4 (Overlay)
//Storyboard Sound Samples

[TimingPoints]
102,342.857142857143,4,2,1,70,1,0
102,-83.3333333333333,4,2,1,70,0,0
22044,-166.666666666667,4,2,1,60,0,0
33016,-111.111111111111,4,2,1,60,0,0
43987,-76.9230769230769,4,2,1,80,0,0
44330,-66.6666666666667,4,2,1,80,0,0
44673,-58.8235294117647,4,2,1,80,0,0
45016,-76.9230769230769,4,2,1,80,0,0
49130,-333.333333333333,4,2,1,80,0,0
49473,-76.9230769230769,4,2,1,80,0,0
49816,-66.6666666666667,4,2,1,80,0,0
50159,-58.8235294117647,4,2,1,80,0,0
50502,-76.9230769230769,4,2,1,80,0,0
53759,-333.333333333333,4,2,1,80,0,0
54102,-76.9230769230769,4,2,1,80,0,0
54959,-76.9230769230769,4,2,1,90,0,0
64559,-50,4,2,1,90,0,0
65244,-76.9230769230769,4,2,1,80,0,0
65930,-100,4,2,1,60,0,0
71416,-90.9090909090909,4,2,1,70,0,0
75530,-50,4,2,1,70,0,0
76216,-100,4,2,1,70,0,0
76902,-90.9090909090909,4,2,1,80,0,0
97473,-50,4,2,1,80,0,0
98844,-100,4,2,1,70,0,0
115302,-90.9090909090909,4,2,1,70,0,0
119416,-50,4,2,1,70,0,0
120102,-100,4,2,1,80,0,0
120787,-76.9230769230769,4,2,1,80,0,0
121130,-66.6666666666667,4,2,1,80,0,0
121473,-58.8235294117647,4,2,1,80,0,0
121816,-76.9230769230769,4,2,1,80,0,0
123873,-66.6666666666667,4,2,1,80,0,0
124216,-58.8235294117647,4,2,1,80,0,0
124559,-76.9230769230769,4,2,1,80,0,0
126616,-66.6666666666667,4,2,1,80,0,0
126959,-58.8235294117647,4,2,1,80,0,0
127302,-76.9230769230769,4,2,1,80,0,0
131759,-76.9230769230769,4,2,1,90,0,0
141359,-50,4,2,1,80,0,0
142044,-76.9230769230769,4,2,1,80,0,0
142730,-125,4,2,1,60,0,0
153702,-100,4,2,1,60,0,0
159187,-90.9090909090909,4,2,1,60,0,0
161930,-90.9090909090909,4,2,1,70,0,0
164673,-76.9230769230769,4,2,1,80,0,0
165016,-66.6666666666667,4,2,1,80,0,0
165359,-58.8235294117647,4,2,1,80,0,0
165702,-76.9230769230769,4,2,1,80,0,0
167759,-66.6666666666667,4,2,1,80,0,0
168102,-58.8235294117647,4,2,1,80,0,0
168444,-76.9230769230769,4,2,1,80,0,0
170502,-66.6666666666667,4,2,1,80,0,0
170844,-58.8235294117647,4,2,1,80,0,0
171187,-76.9230769230769,4,2,1,80,0,0
175644,-76.9230769230769,4,2,1,90,0,0
185244,-50,4,2,1,70,0,0
185759,-76.9230769230769,4,2,1,70,0,0
185930,-76.9230769230769,4,2,1,60,0,0

[Colours]
Combo1 : 145,72,70
Combo2 : 62,45,52
Combo3 : 227,221,192
Combo4 : 196,171,190
Combo5 : 192,161,130

[HitObjects]
54,226,102,6,0,L|180:245,1,119.999996337891,6|2,3:2|0:2,0:0:0:0:
327,161,444,2,0,L|201:142,1,119.999996337891,8|0,0:1|0:0,0:0:0:0:
266,255,787,1,0,1:0:0:0:
424,114,959,1,2,0:2:0:0:
413,121,1044,1,0,0:0:0:0:
402,128,1130,2,0,B|416:169|416:169|380:218|390:277,1,119.999996337891,8|2,0:1|0:2,0:0:0:0:
296,353,1473,5,0,1:0:0:0:
419,264,1644,1,0,0:0:0:0:
409,244,1730,1,2,0:2:0:0:
388,239,1816,2,0,P|321:254|270:222,1,119.999996337891,8|2,0:1|0:2,0:0:0:0:
196,157,2159,2,0,P|261:189|278:248,1,119.999996337891,0|0,1:0|0:0,0:0:0:0:
274,246,2416,1,2,0:2:0:0:
265,259,2502,2,0,P|234:320|252:370,1,119.999996337891,8|2,0:1|0:2,0:0:0:0:
4,195,2844,6,0,B|20:180|29:164|29:164|67:198|119:184,1,119.999996337891,0|2,1:0|0:2,0:0:0:0:
166,50,3187,2,0,P|136:93|60:62,1,119.999996337891,8|0,0:1|0:0,0:0:0:0:
176,167,3530,1,0,1:0:0:0:
6,43,3702,1,2,0:2:0:0:
246,19,3873,1,8,0:1:0:0:
190,245,4044,1,2,0:2:0:0:
368,123,4216,6,0,L|261:200,1,119.999996337891,0|0,1:0|0:0,0:0:0:0:
250,184,4473,2,0,P|276:252|255:302,1,119.999996337891,2|0,0:2|0:0,0:0:0:0:
136,262,4730,2,0,P|173:242|207:255,1,59.9999981689454,2|0,0:2|0:0,0:0:0:0:
221,363,4902,2,0,B|196:351|189:323|189:323|146:359|100:329,1,119.999996337891,0|0,1:0|0:0,0:0:0:0:
54,335,5159,2,0,B|63:303|63:303|52:255|52:255|69:200,1,119.999996337891,2|0,0:2|0:0,0:0:0:0:
76,182,5416,1,2,0:2:0:0:
1,102,5587,5,0,1:0:0:0:
263,41,5759,1,2,0:2:0:0:
190,216,5930,2,0,L|68:179,1,119.999996337891,8|0,0:1|0:0,0:0:0:0:
299,172,6273,1,0,1:0:0:0:
325,361,6444,1,2,0:2:0:0:
389,252,6616,1,8,0:1:0:0:
212,337,6787,1,2,0:2:0:0:
116,76,6959,6,0,B|155:62|155:62|185:72|185:72|245:49,1,119.999996337891,0|0,1:0|0:0,0:0:0:0:
246,50,7216,1,2,0:2:0:0:
264,45,7302,2,0,P|266:114|328:149,1,119.999996337891,8|2,0:1|0:2,0:0:0:0:
436,17,7644,2,0,P|371:31|336:84,1,119.999996337891,0|0,1:0|0:0,0:0:0:0:
389,168,7902,1,2,0:2:0:0:
401,182,7987,2,0,P|460:176|499:125,1,119.999996337891,8|2,0:1|0:2,0:0:0:0:
495,267,8330,5,0,1:0:0:0:
421,96,8502,1,2,0:2:0:0:
294,298,8673,2,0,L|427:275,1,119.999996337891,8|0,0:1|0:0,0:0:0:0:
265,145,9016,1,0,1:0:0:0:
238,365,9187,1,2,0:2:0:0:
238,365,9273,2,0,P|217:350|203:317,1,59.9999981689454,0|8,0:0|0:1,0:0:0:0:
140,214,9444,1,0,0:0:0:0:
140,214,9530,2,0,P|175:196|206:200,1,59.9999981689454,2|0,0:2|0:0,0:0:0:0:
13,274,9702,5,0,1:0:0:0:
14,228,9787,1,8,0:3:0:0:
35,199,9873,1,8,0:3:0:0:
55,194,9959,1,8,0:3:0:0:
76,199,10044,1,8,0:1:0:0:
86,210,10130,1,8,0:3:0:0:
82,222,10216,1,8,0:3:0:0:
69,219,10302,1,8,0:3:0:0:
71,189,10387,5,0,1:0:0:0:
86,175,10473,1,8,0:3:0:0:
112,174,10559,1,8,0:3:0:0:
146,190,10644,1,8,0:3:0:0:
175,211,10730,1,8,0:1:0:0:
223,214,10816,1,8,0:3:0:0:
276,196,10902,1,8,0:3:0:0:
292,141,10987,1,8,0:3:0:0:
241,90,11073,1,6,3:2:0:0:
297,275,11244,5,2,0:2:0:0:
407,172,11416,2,0,L|287:139,1,119.999996337891,8|0,0:1|0:0,0:0:0:0:
407,378,11759,1,0,1:0:0:0:
297,275,11931,2,0,L|417:242,1,119.999996337891,2|8,0:2|0:1,0:0:0:0:
223,214,12273,1,2,0:2:0:0:
190,332,12444,6,0,P|220:307|217:278,1,59.9999981689454,0|0,1:0|0:0,0:0:0:0:
178,151,12616,2,0,P|148:176|151:205,1,59.9999981689454,0|2,0:0|0:2,0:0:0:0:
294,333,12787,2,0,P|302:300|294:269,1,59.9999981689454,8|0,0:1|0:0,0:0:0:0:
74,194,12959,2,0,P|79:222|102:250,1,59.9999981689454,2|0,0:2|0:0,0:0:0:0:
223,214,13130,6,0,P|248:196|284:196,1,59.9999981689454,0|0,1:0|0:0,0:0:0:0:
190,332,13302,2,0,P|165:350|129:350,1,59.9999981689454,0|2,0:0|0:2,0:0:0:0:
276,193,13473,2,0,P|314:205|346:248,1,59.9999981689454,8|0,0:1|0:0,0:0:0:0:
136,352,13644,2,0,P|98:340|66:297,1,59.9999981689454,2|0,0:2|0:0,0:0:0:0:
25,95,13816,5,0,1:0:0:0:
34,65,13902,1,2,0:2:0:0:
63,86,13987,1,2,0:2:0:0:
178,137,14159,2,0,P|241:119|274:44,1,119.999996337891,8|0,0:1|0:0,0:0:0:0:
298,0,14502,1,0,1:0:0:0:
178,137,14673,2,0,P|111:168|88:220,1,119.999996337891,2|8,0:2|0:1,0:0:0:0:
210,359,15016,2,0,L|192:328,2,29.9999990844727,2|0|0,0:2|0:0|0:0,0:0:0:0:
178,261,15187,6,0,P|150:269|129:293,1,59.9999981689454,0|0,1:0|0:0,0:0:0:0:
246,221,15359,2,0,P|228:198|199:185,1,59.9999981689454,0|2,0:0|0:2,0:0:0:0:
372,238,15530,2,0,P|399:229|421:206,1,59.9999981689454,8|0,0:1|0:0,0:0:0:0:
304,278,15702,2,0,P|321:300|350:313,1,59.9999981689454,2|0,0:2|0:0,0:0:0:0:
493,184,15873,6,0,P|478:158|444:137,1,59.9999981689454,0|0,1:0|0:0,0:0:0:0:
345,25,16044,2,0,P|309:51|297:84,1,59.9999981689454,0|2,0:0|0:2,0:0:0:0:
444,63,16216,2,0,P|414:72|386:101,1,59.9999981689454,8|0,0:1|0:0,0:0:0:0:
229,38,16387,2,0,P|225:77|243:114,1,59.9999981689454,2|0,0:2|0:0,0:0:0:0:
263,288,16559,5,0,1:0:0:0:
226,224,16644,1,2,0:2:0:0:
151,224,16730,2,0,P|132:255|97:271,1,59.9999981689454,2|0,0:2|0:0,0:0:0:0:
126,148,16902,2,0,P|190:157|210:177,1,59.9999981689454,8|0,0:1|0:0,0:0:0:0:
73,203,17073,1,2,0:2:0:0:
51,205,17159,1,2,0:2:0:0:
34,183,17244,2,0,P|30:160|57:113,1,59.9999981689454,0|0,1:0|0:0,0:0:0:0:
43,283,17416,2,0,P|33:305|-6:329,1,59.9999981689454,2|0,0:2|0:0,0:0:0:0:
226,224,17587,1,8,0:1:0:0:
269,249,17673,1,2,0:2:0:0:
275,274,17759,1,2,0:2:0:0:
270,291,17844,1,2,0:2:0:0:
256,300,17930,6,0,P|233:275|235:238,1,59.9999981689454,0|0,1:0|0:0,0:0:0:0:
169,114,18102,2,0,P|202:106|233:126,1,59.9999981689454,0|2,0:0|0:2,0:0:0:0:
159,231,18273,2,0,P|169:198|202:181,1,59.9999981689454,8|0,0:1|0:0,0:0:0:0:
271,60,18444,2,0,P|294:84|291:121,1,59.9999981689454,2|0,0:2|0:0,0:0:0:0:
338,193,18616,6,0,P|375:202|409:195,1,59.9999981689454,0|0,1:0|0:0,0:0:0:0:
511,117,18787,2,0,P|474:108|440:115,1,59.9999981689454,0|2,0:0|0:2,0:0:0:0:
366,42,18959,2,0,B|365:76|365:76|385:129,1,59.9999981689454,8|0,0:1|0:0,0:0:0:0:
484,270,19130,2,0,B|485:236|485:236|465:183,1,59.9999981689454,2|0,0:2|0:0,0:0:0:0:
336,284,19302,5,0,1:0:0:0:
316,297,19387,1,8,0:3:0:0:
292,297,19473,1,8,0:3:0:0:
269,289,19559,1,8,0:3:0:0:
234,265,19644,5,8,0:1:0:0:
191,263,19730,1,8,0:3:0:0:
151,280,19816,1,8,0:3:0:0:
132,319,19902,1,8,0:3:0:0:
124,304,19987,5,0,1:0:0:0:
143,265,20073,1,8,0:3:0:0:
183,248,20159,1,8,0:3:0:0:
226,250,20245,1,8,0:3:0:0:
272,219,20330,5,8,0:1:0:0:
282,164,20416,1,8,0:3:0:0:
242,124,20502,1,8,0:3:0:0:
188,135,20587,1,8,0:3:0:0:
169,188,20673,6,0,B|183:244|183:244|175:283|175:283|204:378,1,179.999994506836,4|2,1:3|0:2,0:0:0:0:
281,359,21016,2,0,P|315:332|264:318,1,119.999996337891,8|2,0:1|0:2,0:0:0:0:
510,129,21359,2,0,B|443:120|443:120|416:83|416:83|323:73,1,179.999994506836,0|2,1:0|0:2,0:0:0:0:
321,145,21702,2,0,P|358:190|339:134,1,119.999996337891,8|2,0:1|0:2,0:0:0:0:
140,116,22044,6,0,B|175:67|153:12|111:-11|42:-10|-9:48|7:119|82:158|82:158|39:212|84:258,1,449.99998626709,6|0,3:2|0:0,0:0:0:0:
84,359,23416,6,0,B|169:335|168:249|168:249|242:366|242:366|236:249|338:247,1,449.99998626709,2|0,0:2|0:0,0:0:0:0:
327,116,24787,6,0,P|482:42|408:197,1,449.99998626709,2|0,0:2|0:0,0:0:0:0:
333,279,26159,6,0,B|233:258|220:154|220:154|141:190|141:190|169:83|56:34,1,449.99998626709,2|0,0:2|0:0,0:0:0:0:
0,147,27530,6,0,B|-2:188|22:278|96:222|122:357|122:357|130:309|138:269|226:268|253:346|185:375,1,449.99998626709,2|0,0:2|0:0,0:0:0:0:
356,237,28902,6,0,B|373:314|402:348|402:348|301:319|301:319|364:248|362:159|333:107,1,449.99998626709,2|0,0:2|0:0,0:0:0:0:
216,121,30273,6,0,P|239:160|98:109,1,449.99998626709,2|0,0:2|0:0,0:0:0:0:
149,205,31644,6,0,B|110:191|139:140|169:120|284:259|375:198|418:148|418:148|373:228|313:207,1,449.99998626709,2|0,0:2|0:0,0:0:0:0:
377,323,33016,6,0,L|426:114,1,179.999994506836,0|0,1:0|0:0,0:0:0:0:
446,60,33530,2,0,P|486:83|505:122,1,89.9999972534181,2|8,0:2|0:2,0:0:0:0:
307,91,33873,1,2,0:2:0:0:
446,60,34044,1,0,0:0:0:0:
296,91,34216,1,2,0:2:0:0:
283,92,34302,1,0,1:0:0:0:
270,92,34387,6,0,B|228:107|228:107|174:88,2,89.9999972534181,0|2|0,1:0|0:2|1:0,0:0:0:0:
107,57,34902,1,2,0:2:0:0:
277,174,35073,1,8,0:2:0:0:
178,277,35244,1,0,0:0:0:0:
285,276,35416,1,2,0:2:0:0:
175,176,35587,1,0,0:0:0:0:
381,323,35759,6,0,L|425:121,1,179.999994506836,0|2,1:0|0:2,0:0:0:0:
419,147,36273,1,0,0:0:0:0:
512,343,36444,2,0,P|468:374|415:374,1,89.9999972534181,8|0,0:2|0:0,0:0:0:0:
285,276,36787,1,0,1:0:0:0:
433,377,36959,1,2,0:2:0:0:
205,247,37130,6,0,B|212:289|182:316|182:316|184:326|184:326|174:322|174:322|135:348|90:322,1,179.999994506836,0|0,1:0|0:0,0:0:0:0:
79,189,37644,1,2,0:2:0:0:
264,190,37816,2,0,P|207:164|169:178,2,89.9999972534181,8|0|2,0:2|0:0|0:2,0:0:0:0:
303,335,38330,1,2,0:2:0:0:
303,335,38416,1,2,0:2:0:0:
303,335,38502,6,0,P|361:311|391:191,1,179.999994506836,0|0,1:0|0:0,0:0:0:0:
358,100,39016,1,2,0:2:0:0:
395,206,39187,2,0,B|402:235|393:256|393:256|498:244|521:316,1,179.999994506836,8|0,0:2|0:0,0:0:0:0:
238,227,39702,1,2,0:2:0:0:
238,227,39787,1,0,1:0:0:0:
238,227,39873,6,0,P|183:224|92:133,1,179.999994506836,0|0,1:0|1:0,0:0:0:0:
275,125,40387,1,0,0:0:0:0:
238,227,40559,1,8,0:2:0:0:
406,228,40730,1,0,0:0:0:0:
370,129,40902,1,2,0:2:0:0:
323,286,41073,1,0,0:0:0:0:
275,125,41244,6,0,L|68:146,2,179.999994506836,0|2|8,1:0|0:2|0:2,0:0:0:0:
353,66,42102,1,0,0:0:0:0:
406,258,42273,1,2,0:2:0:0:
173,213,42444,1,2,0:2:0:0:
284,309,42616,6,0,P|250:275|291:309,1,224.999993133545,4|0,0:3|0:0,0:0:0:0:
284,309,43130,5,2,0:2:0:0:
266,303,43302,5,2,0:2:0:0:
266,285,43473,5,2,0:2:0:0:
284,279,43644,5,2,0:2:0:0:
294,294,43816,5,2,0:2:0:0:
281,288,43987,6,0,P|320:228|435:260,1,194.999991073609,6|0,3:2|0:0,0:0:0:0:
281,288,44330,6,0,B|286:253|312:233|312:233|246:175|259:79,1,225.000008583069,8|0,0:1|0:0,0:0:0:0:
281,288,44673,6,0,P|239:339|74:298,1,255.000004863739,0|0,1:0|0:0,0:0:0:0:
39,229,45016,5,8,0:1:0:0:
281,288,45187,2,0,P|364:293|400:331,2,129.999994049073,2|0|2,0:1|1:0|0:1,0:0:0:0:
81,67,45702,1,8,0:1:0:0:
286,208,45873,1,2,0:2:0:0:
223,89,46044,1,0,1:0:0:0:
137,218,46216,1,2,0:2:0:0:
429,187,46387,1,8,0:1:0:0:
342,326,46559,1,2,0:2:0:0:
386,33,46730,6,0,P|324:74|215:-11,1,194.999991073609,0|0,1:0|0:0,0:0:0:0:
386,33,47073,6,0,B|350:69|350:69|383:170|280:198,1,194.999991073609,8|0,0:1|0:0,0:0:0:0:
386,33,47416,6,0,P|469:66|474:186,1,194.999991073609,0|0,1:0|0:0,0:0:0:0:
479,282,47759,5,8,0:1:0:0:
255,305,47930,2,0,P|273:228|317:183,2,129.999994049073,2|0|2,0:1|1:0|0:1,0:0:0:0:
410,298,48444,1,8,0:1:0:0:
110,258,48616,1,2,0:2:0:0:
222,162,48787,1,2,1:2:0:0:
255,305,48959,1,2,0:2:0:0:
327,53,49130,6,0,P|355:56|375:75,1,44.999998626709,2|2,0:2|0:2,0:0:0:0:
319,62,49473,6,0,P|385:110|303:168,1,194.999991073609,0|0,1:0|0:0,0:0:0:0:
321,173,49816,6,0,P|356:243|245:249,1,225.000008583069,8|0,0:1|0:0,0:0:0:0:
247,255,50159,6,0,P|177:312|119:183,1,255.000004863739,0|0,1:0|0:0,0:0:0:0:
146,118,50502,5,8,0:1:0:0:
290,377,50673,2,0,L|245:248,2,129.999994049073,2|0|2,0:1|1:0|0:1,0:0:0:0:
223,177,51187,1,8,0:1:0:0:
357,299,51359,1,2,0:2:0:0:
188,356,51530,1,0,1:0:0:0:
103,88,51702,1,2,0:2:0:0:
272,31,51873,1,8,0:1:0:0:
217,258,52044,2,0,L|89:213,1,129.999994049073,2|0,0:2|1:0,0:0:0:0:
0,172,52387,5,2,0:2:0:0:
94,214,52559,1,8,0:1:0:0:
134,95,52730,1,2,0:2:0:0:
215,277,52902,1,0,1:0:0:0:
270,24,53073,1,2,0:2:0:0:
345,343,53244,1,8,0:1:0:0:
414,0,53416,2,0,P|391:97|291:149,1,194.999991073609,2|0,0:2|0:0,0:0:0:0:
102,215,53759,6,0,L|155:202,1,44.999998626709,4|0,0:3|0:0,0:0:0:0:
245,181,54102,5,2,0:2:0:0:
185,333,54273,2,0,P|250:349|319:319,1,129.999994049073,2|2,0:2|0:2,0:0:0:0:
327,51,54616,2,0,P|262:35|193:65,1,129.999994049073,2|2,0:3|0:2,0:0:0:0:
98,135,54959,5,6,3:2:0:0:
420,251,55130,1,2,0:2:0:0:
98,135,55302,5,8,0:1:0:0:
420,251,55473,1,2,0:2:0:0:
98,135,55644,5,0,1:0:0:0:
420,251,55815,1,2,0:2:0:0:
98,135,55987,5,8,0:1:0:0:
282,306,56159,2,0,B|296:333|296:333|346:215|346:215|305:232,1,194.999991073609,2|0,0:1|0:0,0:0:0:0:
368,370,56502,2,0,L|428:232,1,129.999994049073,2|8,0:1|0:1,0:0:0:0:
230,243,56844,1,2,0:2:0:0:
181,66,57016,2,0,B|234:29|234:29|343:70,1,129.999994049073,0|2,1:0|0:2,0:0:0:0:
389,345,57359,2,0,B|336:382|336:382|227:341,1,129.999994049073,8|2,0:1|0:2,0:0:0:0:
452,137,57702,5,0,1:0:0:0:
110,205,57873,1,2,0:2:0:0:
452,137,58044,5,8,0:1:0:0:
110,205,58215,1,2,0:2:0:0:
452,137,58387,5,0,1:0:0:0:
110,205,58558,1,2,0:2:0:0:
452,137,58730,5,8,0:1:0:0:
273,130,58902,2,0,P|245:199|241:130,1,194.999991073609,2|0,0:1|0:0,0:0:0:0:
249,97,59244,2,0,B|222:117|222:117|157:99|157:99|116:119,1,129.999994049073,2|8,0:1|0:1,0:0:0:0:
248,374,59587,1,2,0:2:0:0:
456,197,59759,2,0,B|428:243|428:243|427:269|427:269|391:317,1,129.999994049073,0|2,1:0|0:2,0:0:0:0:
504,117,60102,1,8,0:1:0:0:
310,236,60273,2,0,L|262:191,1,64.9999970245363,2|2,0:2|0:2,0:0:0:0:
343,31,60444,5,0,1:0:0:0:
157,321,60616,1,2,0:2:0:0:
343,31,60787,5,8,0:1:0:0:
157,321,60959,1,2,0:2:0:0:
343,31,61130,5,0,1:0:0:0:
157,321,61302,1,2,0:2:0:0:
343,31,61473,5,8,0:1:0:0:
229,224,61644,2,0,B|200:240|183:245|183:245|190:266|179:293|179:293|201:273|216:271|216:271|212:249|232:219,1,194.999991073609,2|0,0:1|0:0,0:0:0:0:
240,205,61987,1,2,0:1:0:0:
76,261,62159,1,8,0:1:0:0:
257,381,62330,1,2,0:2:0:0:
172,109,62502,1,0,1:0:0:0:
353,229,62673,1,2,0:2:0:0:
157,321,62844,1,8,0:1:0:0:
368,355,63016,2,0,L|400:290,1,64.9999970245363,2|2,0:2|0:2,0:0:0:0:
452,109,63187,5,8,1:3:0:0:
434,91,63273,1,8,0:3:0:0:
409,79,63359,1,8,0:3:0:0:
383,82,63444,1,8,0:3:0:0:
325,130,63530,5,8,1:3:0:0:
333,204,63616,1,8,0:3:0:0:
267,237,63702,1,8,0:3:0:0:
207,197,63787,1,8,0:3:0:0:
236,127,63873,5,8,1:3:0:0:
254,135,63959,1,8,0:3:0:0:
264,154,64044,1,8,0:3:0:0:
259,174,64130,1,8,0:3:0:0:
211,234,64216,5,8,1:3:0:0:
138,218,64302,1,8,0:3:0:0:
86,272,64387,1,8,0:3:0:0:
116,341,64473,1,8,0:3:0:0:
189,357,64559,6,0,L|237:303,14,50,4|0|0|0|0|0|0|0|0|0|0|0|0|0|0,3:0|0:0|0:0|0:0|0:0|0:0|0:0|0:0|0:0|0:0|0:0|0:0|0:0|0:0|0:0,0:0:0:0:
309,302,65244,6,0,B|242:286|242:286|196:209,3,129.999994049073,2|0|2|0,0:2|0:0|0:2|0:0,0:0:0:0:
351,69,65930,5,6,0:2:0:0:
228,147,66102,1,0,0:0:0:0:
228,147,66444,1,0,0:0:0:0:
351,69,66616,1,2,0:2:0:0:
373,157,66787,1,0,0:0:0:0:
261,63,66959,1,0,0:0:0:0:
261,63,67302,5,2,0:2:0:0:
228,147,67473,1,0,0:0:0:0:
351,69,67644,1,0,0:0:0:0:
297,205,67816,1,0,0:0:0:0:
373,157,67987,1,2,0:2:0:0:
141,325,68330,1,2,0:2:0:0:
66,102,68673,5,2,0:2:0:0:
132,40,68844,1,0,0:0:0:0:
132,40,69187,1,0,0:0:0:0:
66,102,69359,1,2,0:2:0:0:
156,126,69530,1,0,0:0:0:0:
43,9,69702,1,0,0:0:0:0:
255,191,70044,5,2,0:2:0:0:
255,191,70216,1,0,0:0:0:0:
205,354,70559,1,0,0:0:0:0:
255,289,70730,1,2,0:2:0:0:
306,357,70902,1,0,0:0:0:0:
255,112,71073,1,8,0:3:0:0:
184,266,71244,5,8,0:3:0:0:
255,289,71330,1,8,0:3:0:0:
327,267,71416,2,0,P|348:242|356:211,1,55.0000016784668,0|0,1:0|0:0,0:0:0:0:
423,247,71587,2,0,P|428:214|420:184,1,55.0000016784668,8|0,0:3|0:0,0:0:0:0:
352,38,71759,2,0,P|331:63|323:94,1,55.0000016784668,8|0,0:3|0:0,0:0:0:0:
256,58,71930,2,0,P|250:90|258:120,1,55.0000016784668,8|0,0:3|0:0,0:0:0:0:
237,258,72102,6,0,P|217:244|180:236,1,55.0000016784668,8|0,0:2|0:0,0:0:0:0:
105,138,72273,2,0,P|102:162|114:198,1,55.0000016784668,8|0,0:3|0:0,0:0:0:0:
66,312,72444,2,0,P|88:301|113:273,1,55.0000016784668,8|0,0:3|0:0,0:0:0:0:
143,14,72616,5,8,0:3:0:0:
182,79,72702,1,8,0:3:0:0:
256,58,72787,2,0,P|285:57|314:70,1,55.0000016784668,0|0,1:0|0:0,0:0:0:0:
457,111,72959,2,0,P|439:133|410:147,1,55.0000016784668,8|0,0:3|0:0,0:0:0:0:
372,21,73130,2,0,P|385:46|385:78,1,55.0000016784668,8|0,0:3|0:0,0:0:0:0:
414,225,73302,2,0,P|385:218|361:198,1,55.0000016784668,8|0,0:3|0:0,0:0:0:0:
269,204,73473,2,0,L|222:245,1,55.0000016784668,8|0,0:2|0:0,0:0:0:0:
251,323,73644,2,0,L|298:282,1,55.0000016784668,8|0,0:3|0:0,0:0:0:0:
248,120,73816,2,0,L|201:161,1,55.0000016784668,8|0,0:3|0:0,0:0:0:0:
58,109,73987,5,8,0:3:0:0:
64,124,74073,1,8,0:3:0:0:
23,189,74159,5,8,1:3:0:0:
50,201,74244,1,8,0:3:0:0:
79,200,74330,1,8,0:3:0:0:
109,188,74416,1,8,0:3:0:0:
136,147,74502,5,8,1:3:0:0:
142,99,74587,1,8,0:3:0:0:
177,66,74673,1,8,0:3:0:0:
226,64,74759,1,8,0:3:0:0:
269,110,74844,5,8,1:2:0:0:
272,168,74930,1,8,0:3:0:0:
315,209,75016,1,8,0:3:0:0:
374,205,75102,1,8,0:3:0:0:
424,173,75187,5,8,1:3:0:0:
416,159,75273,1,8,0:3:0:0:
401,152,75359,1,8,0:3:0:0:
386,156,75444,1,8,0:3:0:0:
352,226,75530,6,0,L|427:257,15,50,4|0|0|0|2|0|0|0|0|0|0|0|0|0|0|0,3:0|0:0|0:0|0:0|0:2|0:0|0:0|0:0|0:0|0:0|0:0|0:0|0:0|0:0|0:0|0:0,0:0:0:0:
400,285,76216,6,2,P|367:250|299:250,1,100,8|2,0:2|0:2,0:0:0:0:
315,362,76559,1,2,0:2:0:0:
200,57,76902,5,6,3:2:0:0:
282,117,77073,2,0,P|231:153|179:151,1,110.000003356934,2|8,0:2|0:1,0:0:0:0:
69,115,77416,1,2,0:2:0:0:
337,38,77587,1,0,1:0:0:0:
418,170,77759,1,2,0:2:0:0:
350,305,77930,2,0,P|293:281|270:233,1,110.000003356934,8|0,0:1|0:0,0:0:0:0:
143,72,78273,5,0,1:0:0:0:
46,229,78444,1,2,0:2:0:0:
164,257,78616,1,8,0:1:0:0:
41,116,78787,1,2,0:2:0:0:
216,154,78959,1,0,1:0:0:0:
216,154,79302,2,0,P|259:133|245:166,1,110.000003356934,8|0,0:1|0:0,0:0:0:0:
187,336,79644,5,0,1:0:0:0:
216,45,79816,2,0,B|271:34|271:34|321:79,1,110.000003356934,2|8,0:2|0:1,0:0:0:0:
141,70,80159,1,2,0:2:0:0:
366,123,80330,1,0,1:0:0:0:
249,163,80502,1,2,0:2:0:0:
134,202,80673,2,0,L|64:103,1,110.000003356934,8|0,0:1|0:0,0:0:0:0:
184,262,81016,5,0,1:0:0:0:
105,327,81187,1,2,0:2:0:0:
105,327,81530,1,2,0:2:0:0:
184,262,81702,1,0,1:0:0:0:
41,380,81873,1,2,0:2:0:0:
247,207,82044,1,8,0:1:0:0:
317,368,82216,1,2,0:2:0:0:
317,368,82302,1,0,0:0:0:0:
317,368,82387,5,0,1:0:0:0:
247,207,82559,1,2,0:2:0:0:
420,236,82730,1,8,0:1:0:0:
331,273,82902,1,2,0:2:0:0:
509,204,83073,1,0,1:0:0:0:
361,83,83244,1,2,0:2:0:0:
460,338,83416,2,0,L|417:228,1,110.000003356934,8|0,0:1|0:0,0:0:0:0:
97,201,83759,5,0,1:0:0:0:
109,18,83930,1,2,0:2:0:0:
262,120,84102,1,8,0:1:0:0:
152,112,84273,1,2,0:2:0:0:
359,182,84444,2,0,P|379:120|343:58,1,110.000003356934,0|0,1:0|0:0,0:0:0:0:
97,201,84787,2,0,P|77:263|113:325,1,110.000003356934,8|0,0:1|0:0,0:0:0:0:
262,120,85130,5,0,1:0:0:0:
358,273,85302,2,0,P|313:303|259:300,1,110.000003356934,2|8,0:2|0:1,0:0:0:0:
434,330,85644,1,2,0:2:0:0:
228,381,85816,1,0,1:0:0:0:
286,209,85987,1,2,0:2:0:0:
259,300,86159,1,8,0:1:0:0:
358,273,86330,1,0,0:0:0:0:
193,234,86502,5,0,1:0:0:0:
382,183,86673,1,2,0:2:0:0:
107,264,86844,1,8,0:1:0:0:
107,264,86930,1,2,0:2:0:0:
108,264,87016,2,0,P|100:224|150:162,1,110.000003356934,2|0,0:2|1:0,0:0:0:0:
29,30,87359,1,2,0:2:0:0:
193,234,87530,1,8,0:1:0:0:
193,234,87873,5,6,3:2:0:0:
308,290,88044,2,0,B|291:358|219:357,1,110.000003356934,2|8,0:2|0:1,0:0:0:0:
334,211,88387,1,2,0:2:0:0:
496,369,88559,1,0,1:0:0:0:
505,123,88730,1,2,0:2:0:0:
506,287,88902,2,0,B|472:286|472:286|448:299|448:299|388:293,1,110.000003356934,8|0,0:1|0:0,0:0:0:0:
212,90,89244,5,0,1:0:0:0:
59,176,89415,1,2,0:2:0:0:
220,307,89587,2,0,B|196:278|196:278|204:239|204:239|177:198,1,110.000003356934,8|2,0:1|0:2,0:0:0:0:
292,260,89930,1,0,1:0:0:0:
109,251,90102,1,0,0:0:0:0:
212,90,90273,2,0,B|242:127|242:127|254:129|254:129|250:138|250:138|279:178,1,110.000003356934,8|0,0:1|0:0,0:0:0:0:
367,313,90615,5,0,1:0:0:0:
400,46,90787,2,0,L|286:56,1,110.000003356934,2|8,0:2|0:1,0:0:0:0:
490,38,91130,1,2,0:2:0:0:
413,174,91301,1,0,1:0:0:0:
290,55,91473,1,2,0:2:0:0:
193,265,91644,2,0,L|161:149,1,110.000003356934,8|0,0:1|0:0,0:0:0:0:
305,270,91987,5,0,1:0:0:0:
246,354,92158,1,2,0:2:0:0:
193,265,92330,1,8,0:1:0:0:
341,360,92501,1,2,0:2:0:0:
249,187,92673,1,0,1:0:0:0:
146,351,92844,1,2,0:2:0:0:
56,168,93015,1,8,0:1:0:0:
346,200,93187,1,2,0:2:0:0:
346,200,93273,1,2,0:2:0:0:
346,200,93359,6,0,P|388:212|406:237,1,55.0000016784668,0|0,1:0|0:0,0:0:0:0:
200,131,93531,2,0,P|212:89|236:71,1,55.0000016784668,2|0,0:2|0:0,0:0:0:0:
282,132,93702,2,0,P|320:110|350:115,1,55.0000016784668,8|0,0:1|0:0,0:0:0:0:
139,183,93874,2,0,P|117:144|122:114,1,55.0000016784668,2|0,0:2|0:0,0:0:0:0:
210,238,94044,2,0,P|237:258|246:290,1,55.0000016784668,0|0,1:0|0:0,0:0:0:0:
107,316,94216,2,0,P|134:318|159:306,1,55.0000016784668,2|0,0:2|0:0,0:0:0:0:
123,232,94387,2,0,P|126:198|150:174,1,55.0000016784668,8|0,0:1|0:0,0:0:0:0:
282,132,94559,1,2,0:2:0:0:
306,160,94644,1,2,0:2:0:0:
335,152,94730,6,0,P|367:152|396:172,1,55.0000016784668,0|0,1:0|0:0,0:0:0:0:
283,292,94902,2,0,P|278:323|253:348,1,55.0000016784668,2|0,0:2|0:0,0:0:0:0:
338,230,95073,2,0,P|359:254|362:289,1,55.0000016784668,8|0,0:1|0:0,0:0:0:0:
204,284,95244,2,0,P|177:300|142:297,1,55.0000016784668,2|0,0:2|0:0,0:0:0:0:
37,169,95416,2,0,P|104:159|146:193,1,110.000003356934,0|0,1:0|0:0,0:0:0:0:
263,340,95759,1,8,0:1:0:0:
336,62,95930,1,2,0:2:0:0:
316,69,96016,1,2,0:2:0:0:
250,31,96102,5,0,1:0:0:0:
236,50,96187,1,8,0:3:0:0:
230,74,96273,1,8,0:3:0:0:
241,97,96359,1,8,0:3:0:0:
190,151,96444,5,8,0:1:0:0:
203,165,96530,1,8,0:3:0:0:
221,171,96616,1,8,0:3:0:0:
241,169,96702,1,8,0:3:0:0:
290,227,96787,5,0,1:0:0:0:
302,220,96873,1,8,0:3:0:0:
309,208,96959,1,8,0:3:0:0:
308,194,97044,1,8,0:3:0:0:
319,124,97130,5,8,0:1:0:0:
330,120,97216,1,8,0:3:0:0:
330,109,97302,1,8,0:3:0:0:
319,106,97387,1,8,0:3:0:0:
313,116,97473,6,0,L|368:140,14,50,4|0|2|0|2|0|0|0|8|0|0|0|0|0|0,1:2|0:0|0:2|0:0|0:2|0:0|0:0|0:0|0:1|0:0|0:0|0:0|0:0|0:0|0:0,0:0:0:0:
394,66,98159,2,0,L|339:42,14,50,0|0|0|0|2|0|0|0|8|0|0|0|0|0|0,1:0|0:0|0:0|0:0|0:2|0:0|0:0|0:0|0:1|0:0|0:0|0:0|0:0|0:0|0:0,0:0:0:0:
456,115,98844,6,0,L|432:159,2,50,6|0|0,3:2|0:0|0:0,0:0:0:0:
425,308,99187,1,8,0:2:0:0:
278,189,99359,2,0,P|317:149|379:136,1,100,2|0,0:2|1:0,0:0:0:0:
256,291,99702,1,2,0:2:0:0:
256,291,99787,1,2,0:2:0:0:
256,291,99873,2,0,P|200:263|181:219,1,100,8|0,0:2|0:0,0:0:0:0:
180,125,100216,5,0,1:0:0:0:
337,262,100387,2,0,P|344:315|316:365,1,100,2|8,0:2|0:2,0:0:0:0:
180,125,100730,2,0,P|173:72|201:22,1,100,0|0,0:0|1:0,0:0:0:0:
278,189,101073,1,2,0:2:0:0:
278,189,101159,1,2,0:2:0:0:
278,189,101244,1,8,0:2:0:0:
75,108,101416,1,2,0:2:0:0:
254,87,101587,6,0,L|363:75,1,100,0|0,1:0|0:0,0:0:0:0:
495,277,101930,2,0,L|386:289,1,100,8|2,0:2|0:2,0:0:0:0:
278,189,102273,1,0,1:0:0:0:
248,322,102444,1,2,0:2:0:0:
125,186,102616,1,8,0:2:0:0:
87,328,102787,1,2,0:2:0:0:
39,94,102959,6,0,P|86:54|140:57,1,100,0|0,1:0|0:0,0:0:0:0:
248,322,103302,2,0,P|201:362|147:359,1,100,8|2,0:2|0:2,0:0:0:0:
302,139,103644,1,0,1:0:0:0:
339,317,103816,1,2,0:2:0:0:
339,317,103902,1,2,0:2:0:0:
339,317,103987,2,0,P|381:284|435:278,1,100,8|0,0:2|0:0,0:0:0:0:
427,373,104330,5,0,1:0:0:0:
466,139,104502,1,2,0:2:0:0:
466,139,104587,1,2,0:2:0:0:
466,139,104673,2,0,P|470:86|430:32,1,100,8|2,0:2|0:2,0:0:0:0:
259,143,105016,1,0,1:0:0:0:
436,215,105187,1,2,0:2:0:0:
375,29,105359,2,0,P|316:42|286:80,1,100,8|0,0:2|0:0,0:0:0:0:
285,240,105702,5,0,1:0:0:0:
169,58,105873,1,2,0:2:0:0:
290,70,106044,1,8,0:2:0:0:
162,234,106216,1,0,0:0:0:0:
116,141,106387,1,0,1:0:0:0:
335,153,106559,1,2,0:2:0:0:
335,153,106644,1,2,0:2:0:0:
335,153,106730,2,0,P|375:197|381:251,1,100,8|2,0:2|0:2,0:0:0:0:
332,364,107073,5,0,1:0:0:0:
243,154,107244,2,0,P|257:101|308:67,1,100,0|8,0:0|0:2,0:0:0:0:
380,8,107587,1,2,0:2:0:0:
290,72,107759,1,0,1:0:0:0:
194,5,107930,1,2,0:2:0:0:
108,77,108102,1,8,0:2:0:0:
290,72,108273,6,0,B|304:107|304:107|284:169,1,100,2|0,0:2|1:0,0:0:0:0:
93,333,108616,2,0,B|79:298|79:298|99:236,1,100,0|8,0:0|0:2,0:0:0:0:
201,203,108959,1,2,0:2:0:0:
258,302,109130,1,0,1:0:0:0:
153,105,109302,1,2,0:2:0:0:
93,333,109473,1,8,0:2:0:0:
312,64,109644,1,2,0:2:0:0:
95,29,109816,6,0,L|-2:81,2,100,0|0|8,1:0|0:0|0:2,0:0:0:0:
186,220,110330,2,0,L|85:274,1,100,2|0,0:2|1:0,0:0:0:0:
46,169,110673,2,0,L|147:115,1,100,2|8,0:2|0:2,0:0:0:0:
377,121,111016,2,0,L|466:169,1,100,2|0,0:2|1:0,0:0:0:0:
414,267,111359,2,0,L|326:220,1,100,2|8,0:2|0:2,0:0:0:0:
231,35,111702,5,2,0:2:0:0:
311,324,111873,1,0,1:0:0:0:
236,232,112044,1,2,0:2:0:0:
170,325,112216,1,8,0:2:0:0:
305,137,112387,1,2,0:2:0:0:
164,133,112559,5,0,1:0:0:0:
236,232,112730,1,2,0:2:0:0:
305,137,112902,1,8,0:2:0:0:
99,234,113073,1,2,0:2:0:0:
371,235,113244,1,0,1:0:0:0:
237,363,113416,1,2,0:2:0:0:
237,96,113587,1,8,0:2:0:0:
237,363,113759,6,0,B|225:323|225:323|261:282|230:204,1,150,2|0,0:2|0:0,0:0:0:0:
231,200,114102,2,0,P|294:201|318:169,1,100,2|8,0:2|0:2,0:0:0:0:
350,52,114444,1,0,0:0:0:0:
452,193,114616,1,0,1:0:0:0:
315,176,114787,1,2,0:2:0:0:
350,52,114959,1,8,0:2:0:0:
282,288,115130,1,8,0:3:0:0:
282,288,115216,1,8,0:3:0:0:
282,288,115302,6,0,L|243:344,1,55.0000016784668,2|0,1:2|0:0,0:0:0:0:
208,239,115474,2,0,L|169:295,1,55.0000016784668,8|0,0:3|0:0,0:0:0:0:
159,118,115644,2,0,L|198:62,1,55.0000016784668,0|0,1:0|0:0,0:0:0:0:
232,166,115816,2,0,L|271:110,1,55.0000016784668,8|0,0:3|0:0,0:0:0:0:
456,117,115987,2,0,P|482:129|495:154,1,55.0000016784668,0|0,1:0|0:0,0:0:0:0:
352,192,116159,2,0,P|349:162|364:138,1,55.0000016784668,8|0,0:3|0:0,0:0:0:0:
472,244,116330,2,0,P|448:261|419:259,1,55.0000016784668,0|0,1:0|0:0,0:0:0:0:
282,288,116502,1,8,0:3:0:0:
282,288,116587,1,8,0:3:0:0:
282,288,116673,6,0,L|306:355,1,55.0000016784668,0|0,1:0|0:0,0:0:0:0:
195,170,116844,2,0,L|171:103,1,55.0000016784668,8|0,0:3|0:0,0:0:0:0:
171,324,117016,2,0,L|195:391,1,55.0000016784668,0|0,1:0|0:0,0:0:0:0:
84,206,117187,2,0,L|60:139,1,55.0000016784668,8|0,0:3|0:0,0:0:0:0:
177,31,117359,2,0,P|211:33|234:49,1,55.0000016784668,0|0,1:0|0:0,0:0:0:0:
386,108,117530,2,0,P|362:132|335:140,1,55.0000016784668,8|0,0:3|0:0,0:0:0:0:
305,9,117702,2,0,P|317:40|312:68,1,55.0000016784668,0|0,1:0|0:0,0:0:0:0:
327,222,117873,2,0,P|294:211|276:189,1,55.0000016784668,8|8,0:3|0:3,0:0:0:0:
88,74,118044,5,8,1:3:0:0:
60,82,118130,1,8,0:3:0:0:
45,107,118216,1,8,0:3:0:0:
54,135,118302,1,8,0:3:0:0:
79,148,118387,1,8,1:3:0:0:
106,142,118473,1,8,0:3:0:0:
136,144,118559,1,8,0:3:0:0:
151,170,118644,1,8,0:3:0:0:
148,224,118730,5,8,1:3:0:0:
151,170,118816,1,8,0:3:0:0:
203,157,118902,1,8,0:3:0:0:
252,177,118987,1,8,0:3:0:0:
274,226,119073,1,8,1:3:0:0:
327,233,119159,1,8,0:3:0:0:
368,200,119244,1,8,0:3:0:0:
363,147,119330,1,8,0:3:0:0:
306,122,119416,6,0,L|240:141,11,50,4|0|0|0|0|0|0|0|0|0|0|0,3:0|0:0|0:0|0:0|0:0|0:0|0:0|0:0|0:0|0:0|0:0|0:0,0:0:0:0:
236,102,119930,5,2,0:2:0:0:
146,142,120102,2,0,B|137:175|137:175|108:200|108:200|95:235,1,100,2|2,0:2|0:2,0:0:0:0:
64,116,120444,1,2,0:2:0:0:
179,313,120616,1,2,0:2:0:0:
179,313,120702,1,0,0:0:0:0:
179,313,120787,6,0,B|211:270|247:251|247:251|296:262|354:288,1,194.999991073609,6|0,3:2|0:0,0:0:0:0:
179,313,121130,6,0,B|241:224|241:224|365:295,1,225.000008583069,8|0,0:1|0:0,0:0:0:0:
179,313,121473,6,0,B|237:202|237:202|359:296,1,255.000004863739,0|0,1:0|0:0,0:0:0:0:
412,343,121816,5,8,0:1:0:0:
149,126,121987,2,0,P|215:92|291:109,2,129.999994049073,2|0|2,0:1|1:0|0:1,0:0:0:0:
71,220,122502,1,8,0:1:0:0:
352,80,122673,1,2,0:2:0:0:
131,17,122844,1,0,1:0:0:0:
71,220,123016,1,2,0:2:0:0:
277,285,123187,1,8,0:1:0:0:
131,17,123359,1,2,0:2:0:0:
277,285,123530,6,0,P|185:258|93:324,1,194.999991073609,0|0,1:0|0:0,0:0:0:0:
277,285,123873,6,0,B|239:253|194:258|194:258|216:184|159:86,1,225.000008583069,8|0,0:1|0:0,0:0:0:0:
277,285,124216,6,0,P|370:313|473:198,1,255.000004863739,0|0,1:0|0:0,0:0:0:0:
471,14,124559,5,8,0:1:0:0:
277,285,124730,2,0,P|240:232|254:155,2,129.999994049073,2|0|2,0:1|1:0|0:1,0:0:0:0:
471,211,125244,1,8,0:1:0:0:
277,285,125416,1,2,0:2:0:0:
305,53,125587,1,0,1:0:0:0:
471,211,125759,1,2,0:2:0:0:
194,332,125930,1,8,0:1:0:0:
108,55,126102,1,2,0:2:0:0:
108,55,126187,1,2,0:2:0:0:
108,55,126273,6,0,P|42:103|124:161,1,194.999991073609,0|0,1:0|0:0,0:0:0:0:
105,166,126616,6,0,P|70:236|181:242,1,225.000008583069,8|0,0:1|0:0,0:0:0:0:
178,248,126959,6,0,P|248:305|306:176,1,255.000004863739,0|0,1:0|0:0,0:0:0:0:
286,107,127302,5,8,0:1:0:0:
395,369,127473,2,0,L|490:270,2,129.999994049073,2|0|2,0:1|1:0|0:1,0:0:0:0:
319,194,127987,1,8,0:1:0:0:
474,193,128159,1,2,0:2:0:0:
316,371,128330,1,0,1:0:0:0:
164,195,128502,1,2,0:2:0:0:
322,30,128673,1,8,0:1:0:0:
378,252,128844,2,0,P|311:275|245:223,1,129.999994049073,2|0,0:2|1:0,0:0:0:0:
220,109,129187,5,2,0:2:0:0:
321,190,129359,1,8,0:1:0:0:
167,276,129530,1,2,0:2:0:0:
418,144,129702,1,0,1:0:0:0:
101,87,129873,1,2,0:2:0:0:
348,349,130044,1,8,0:1:0:0:
165,28,130216,2,0,L|299:8,1,129.999994049073,2|0,0:2|1:0,0:0:0:0:
348,349,130559,2,0,L|214:369,1,129.999994049073,0|8,0:0|0:1,0:0:0:0:
135,175,130902,5,2,0:2:0:0:
336,200,131073,2,0,P|401:216|446:269,1,129.999994049073,0|2,1:0|0:2,0:0:0:0:
135,175,131416,2,0,P|70:159|23:108,1,129.999994049073,2|2,0:3|0:2,0:0:0:0:
333,28,131759,5,6,3:2:0:0:
134,313,131930,1,2,0:2:0:0:
333,28,132102,5,8,0:1:0:0:
134,313,132273,1,2,0:2:0:0:
333,28,132444,5,0,1:0:0:0:
134,313,132615,1,2,0:2:0:0:
333,28,132787,5,8,0:1:0:0:
424,289,132959,2,0,B|408:320|408:320|375:205|375:205|408:229,1,194.999991073609,2|0,0:1|0:0,0:0:0:0:
337,341,133302,2,0,L|301:215,1,129.999994049073,2|8,0:1|0:1,0:0:0:0:
109,141,133644,1,2,0:2:0:0:
310,15,133816,2,0,B|242:14|242:14|188:74,1,129.999994049073,0|2,1:0|0:2,0:0:0:0:
338,333,134159,2,0,B|406:334|406:334|460:274,1,129.999994049073,8|2,0:1|0:2,0:0:0:0:
109,141,134502,5,0,1:0:0:0:
452,189,134673,1,2,0:2:0:0:
109,141,134844,5,8,0:1:0:0:
452,189,135015,1,2,0:2:0:0:
109,141,135187,5,0,1:0:0:0:
452,189,135358,1,2,0:2:0:0:
109,141,135530,5,8,0:1:0:0:
264,167,135702,2,0,B|268:236|268:236|218:284|218:284|223:351,1,194.999991073609,2|0,0:1|0:0,0:0:0:0:
244,340,136044,2,0,P|268:275|357:290,1,129.999994049073,2|8,0:1|0:1,0:0:0:0:
452,189,136387,1,2,0:2:0:0:
188,188,136559,2,0,P|146:238|62:197,1,129.999994049073,0|2,1:0|0:2,0:0:0:0:
173,74,136902,1,8,0:1:0:0:
280,205,137073,2,0,P|311:192|359:197,1,64.9999970245363,2|2,0:2|0:2,0:0:0:0:
396,346,137244,5,0,1:0:0:0:
173,74,137416,1,2,0:2:0:0:
396,346,137587,5,8,0:1:0:0:
173,74,137759,1,2,0:2:0:0:
396,346,137930,5,0,1:0:0:0:
173,74,138102,1,2,0:2:0:0:
396,346,138273,5,8,0:1:0:0:
432,87,138444,2,0,P|452:30|379:68,1,194.999991073609,2|0,0:1|0:0,0:0:0:0:
391,104,138787,1,2,0:1:0:0:
483,312,138959,1,8,0:1:0:0:
215,141,139130,1,2,0:2:0:0:
246,370,139302,1,0,1:0:0:0:
302,118,139473,1,2,0:2:0:0:
134,368,139645,1,8,0:1:0:0:
302,118,139816,2,0,P|283:78|261:66,1,64.9999970245363,2|2,0:2|0:2,0:0:0:0:
51,47,139987,5,8,1:3:0:0:
44,81,140073,1,8,0:3:0:0:
63,109,140159,1,8,0:3:0:0:
98,111,140244,1,8,0:3:0:0:
135,101,140330,5,8,1:3:0:0:
183,116,140416,1,8,0:3:0:0:
213,162,140502,1,8,0:3:0:0:
193,212,140587,1,8,0:3:0:0:
173,195,140673,5,8,1:3:0:0:
197,185,140759,1,8,0:3:0:0:
223,186,140844,1,8,0:3:0:0:
246,199,140930,1,8,0:3:0:0:
266,272,141016,5,8,1:3:0:0:
338,283,141102,1,8,0:3:0:0:
387,229,141187,1,8,0:3:0:0:
355,163,141273,1,8,0:3:0:0:
284,163,141359,6,0,L|250:110,15,50,4|0|0|0|0|0|0|0|0|0|0|0|2|0|2|0,3:0|0:0|0:0|0:0|0:0|0:0|0:0|0:0|1:0|0:0|0:0|0:0|0:2|0:0|0:2|0:0,0:0:0:0:
207,108,142044,6,0,L|280:221,3,129.999994049073,8|0|2|2,0:2|0:0|0:2|0:2,0:0:0:0:
44,278,142730,5,6,1:2:0:0:
189,280,153702,6,0,P|135:314|3:260,1,200,6|2,1:2|0:2,0:0:0:0:
255,236,154159,2,0,P|334:240|375:303,1,133.333333333333,2|8,0:2|0:2,0:0:0:0:
182,199,154502,2,0,P|144:146|58:139,1,133.333333333333,2|2,0:2|0:2,0:0:0:0:
246,50,154844,5,2,0:2:0:0:
255,135,154959,1,2,0:2:0:0:
325,79,155073,2,0,B|348:130|333:170|333:170|383:141|484:178,1,200,2|2,1:2|1:2,0:0:0:0:
373,315,155530,2,0,P|363:248|426:252,1,133.333333333333,2|8,0:2|0:2,0:0:0:0:
301,376,155873,2,0,B|265:271|265:271|278:221,1,133.333333333333,2|2,0:2|0:2,0:0:0:0:
228,179,156216,5,2,0:2:0:0:
189,264,156330,1,2,0:2:0:0:
146,189,156444,2,0,P|83:220|69:115,1,200,2|2,1:2|0:2,0:0:0:0:
144,100,156902,1,2,0:2:0:0:
421,32,157130,1,8,0:2:0:0:
330,75,157244,2,0,P|390:116|361:176,1,133.333333333333,2|2,0:2|1:2,0:0:0:0:
313,232,157587,5,2,0:2:0:0:
396,258,157702,1,2,0:2:0:0:
479,283,157816,2,0,B|396:255|396:255|361:326|296:318,1,200,2|2,1:2|0:2,0:0:0:0:
223,293,158273,1,2,0:2:0:0:
239,154,158502,1,8,0:2:0:0:
318,156,158616,2,0,P|316:227|254:221,1,133.333333333333,2|8,0:2|0:3,0:0:0:0:
12,294,158959,5,2,0:2:0:0:
85,260,159073,1,2,0:2:0:0:
126,331,159187,6,0,P|142:351|153:393,1,55.0000016784668,0|0,1:0|0:0,0:0:0:0:
242,183,159359,2,0,P|215:178|188:182,1,55.0000016784668,8|0,0:3|0:0,0:0:0:0:
177,264,159530,2,0,P|200:273|231:304,1,55.0000016784668,8|0,0:3|0:0,0:0:0:0:
204,77,159702,2,0,P|178:86|157:103,1,55.0000016784668,8|0,0:3|0:0,0:0:0:0:
438,83,159873,2,0,P|422:63|411:21,1,55.0000016784668,8|0,0:2|0:0,0:0:0:0:
321,230,160045,2,0,P|347:235|375:231,1,55.0000016784668,8|0,0:3|0:0,0:0:0:0:
387,150,160216,2,0,P|363:140|332:109,1,55.0000016784668,8|0,0:3|0:0,0:0:0:0:
359,336,160388,2,0,P|384:327|406:310,1,55.0000016784668,8|8,0:3|0:3,0:0:0:0:
222,292,160559,6,0,P|193:314|156:315,1,55.0000016784668,0|0,1:0|0:0,0:0:0:0:
8,257,160730,2,0,P|37:235|74:234,1,55.0000016784668,8|0,0:3|0:0,0:0:0:0:
134,149,160902,2,0,L|149:227,1,55.0000016784668,8|0,0:3|0:0,0:0:0:0:
83,367,161073,2,0,L|68:289,1,55.0000016784668,8|0,0:3|0:0,0:0:0:0:
22,82,161244,2,0,L|76:24,1,55.0000016784668,8|0,0:2|0:0,0:0:0:0:
253,96,161416,2,0,L|268:167,1,55.0000016784668,8|0,0:3|0:0,0:0:0:0:
134,149,161587,2,0,L|146:96,1,55.0000016784668,8|0,0:3|0:0,0:0:0:0:
339,41,161759,2,0,L|377:82,1,55.0000016784668,8|8,0:3|0:3,0:0:0:0:
457,244,161930,5,8,1:3:0:0:
452,289,162016,1,8,0:3:0:0:
419,321,162102,1,8,0:3:0:0:
373,325,162187,1,8,0:3:0:0:
330,306,162273,1,8,1:3:0:0:
306,265,162359,1,8,0:3:0:0:
314,220,162444,1,8,0:3:0:0:
350,191,162530,1,8,0:3:0:0:
354,210,162616,5,8,1:2:0:0:
343,228,162702,1,8,0:3:0:0:
325,236,162787,1,8,0:3:0:0:
305,239,162873,1,8,0:3:0:0:
270,202,162959,5,8,1:3:0:0:
215,192,163044,1,8,0:3:0:0:
171,228,163130,1,8,0:3:0:0:
172,285,163216,1,8,0:3:0:0:
215,321,163302,6,0,B|256:304|256:304|310:348|387:299,1,146.666671142578,4|0,3:0|0:0,0:0:0:0:
345,181,163644,1,0,0:0:0:0:
429,204,163759,2,0,P|402:283|340:320,1,146.666671142578,2|2,0:2|0:2,0:0:0:0:
183,146,164102,5,2,0:2:0:0:
261,212,164216,5,2,0:2:0:0:
277,114,164330,5,2,0:2:0:0:
182,248,164444,5,2,0:2:0:0:
345,181,164559,5,2,0:2:0:0:
191,46,164673,6,0,B|326:38|326:38|386:91,1,194.999991073609,6|0,3:2|0:0,0:0:0:0:
191,46,165016,6,0,B|328:38|328:38|405:111,1,225.000008583069,8|0,0:1|0:0,0:0:0:0:
191,46,165359,6,0,B|329:39|329:39|417:124,1,255.000004863739,0|0,1:0|0:0,0:0:0:0:
467,181,165702,5,8,0:1:0:0:
153,161,165873,2,0,L|54:71,2,129.999994049073,2|0|2,0:1|1:0|0:1,0:0:0:0:
249,253,166388,1,8,0:1:0:0:
302,21,166559,1,2,0:2:0:0:
186,356,166730,1,0,1:0:0:0:
173,20,166902,1,2,0:2:0:0:
312,358,167073,1,8,0:1:0:0:
173,20,167245,1,2,0:2:0:0:
253,188,167416,6,0,P|161:161|69:227,1,194.999991073609,0|0,1:0|0:0,0:0:0:0:
253,188,167759,6,0,B|309:224|309:224|297:329|436:370,1,225.000008583069,8|0,0:1|0:0,0:0:0:0:
253,188,168102,6,0,P|341:159|387:2,1,255.000004863739,0|0,1:0|0:0,0:0:0:0:
315,0,168445,5,8,0:1:0:0:
253,188,168616,2,0,P|247:251|284:303,2,129.999994049073,2|0|2,0:1|1:0|0:1,0:0:0:0:
318,42,169130,1,8,0:1:0:0:
176,351,169302,1,2,0:2:0:0:
206,42,169473,1,0,1:0:0:0:
348,349,169645,1,2,0:2:0:0:
399,40,169816,1,8,0:1:0:0:
40,224,169988,1,2,0:2:0:0:
40,224,170073,1,2,0:2:0:0:
40,224,170159,6,0,P|43:295|110:236,1,194.999991073609,0|0,1:0|0:0,0:0:0:0:
113,245,170502,6,0,P|146:309|164:209,1,225.000008583069,8|0,0:1|0:0,0:0:0:0:
191,218,170845,6,0,P|288:222|198:150,1,255.000004863739,0|0,1:0|0:0,0:0:0:0:
151,148,171188,5,8,0:1:0:0:
439,370,171359,2,0,P|487:328|505:267,2,129.999994049073,2|0|2,0:1|1:0|0:1,0:0:0:0:
363,238,171873,1,8,0:1:0:0:
277,354,172045,1,2,0:2:0:0:
443,133,172216,1,0,1:0:0:0:
192,1,172388,1,2,0:2:0:0:
49,222,172559,1,8,0:1:0:0:
443,133,172730,2,0,L|301:170,1,129.999994049073,2|0,0:2|1:0,0:0:0:0:
179,140,173073,5,2,0:2:0:0:
331,22,173245,1,8,0:1:0:0:
293,301,173416,1,2,0:2:0:0:
192,1,173588,1,0,1:0:0:0:
151,285,173759,1,2,0:2:0:0:
459,43,173930,1,8,0:1:0:0:
411,321,174102,2,0,L|442:180,1,129.999994049073,2|0,0:2|1:0,0:0:0:0:
102,35,174445,2,0,L|67:189,1,129.999994049073,0|8,0:0|0:1,0:0:0:0:
177,364,174788,5,2,0:2:0:0:
240,27,174959,2,0,P|305:43|350:96,1,129.999994049073,0|2,1:0|0:2,0:0:0:0:
177,364,175302,2,0,P|112:348|65:297,1,129.999994049073,2|2,0:3|0:2,0:0:0:0:
22,104,175645,5,6,3:2:0:0:
392,232,175816,1,2,0:2:0:0:
22,104,175988,5,8,0:1:0:0:
392,232,176159,1,2,0:2:0:0:
22,104,176330,5,0,1:0:0:0:
392,232,176501,1,2,0:2:0:0:
22,104,176673,5,8,0:1:0:0:
280,240,176845,2,0,B|312:215|312:215|280:330|280:330|256:270,1,194.999991073609,2|0,0:1|0:0,0:0:0:0:
392,232,177188,2,0,L|353:382,1,129.999994049073,2|8,0:1|0:1,0:0:0:0:
314,25,177530,1,2,0:2:0:0:
211,368,177702,2,0,B|89:295,1,129.999994049073,0|2,1:0|0:2,0:0:0:0:
314,25,178045,2,0,B|450:108,1,129.999994049073,8|2,0:1|0:2,0:0:0:0:
491,242,178388,5,0,1:0:0:0:
115,150,178559,1,2,0:2:0:0:
491,242,178730,5,8,0:1:0:0:
115,150,178901,1,2,0:2:0:0:
491,242,179073,5,0,1:0:0:0:
115,150,179244,1,2,0:2:0:0:
491,242,179416,5,8,0:1:0:0:
277,211,179588,2,0,P|245:271|258:200,1,194.999991073609,2|0,0:1|0:0,0:0:0:0:
256,175,179930,2,0,B|303:189|303:189|323:215|323:215|390:235,1,129.999994049073,2|8,0:1|0:1,0:0:0:0:
138,304,180273,1,2,0:2:0:0:
108,74,180445,2,0,P|53:84|4:155,1,129.999994049073,0|2,1:0|0:2,0:0:0:0:
212,77,180787,1,8,0:1:0:0:
369,228,180959,2,0,P|343:197|344:157,1,64.9999970245363,2|2,0:2|0:2,0:0:0:0:
449,37,181130,5,0,1:0:0:0:
124,255,181302,1,2,0:2:0:0:
449,37,181473,5,8,0:1:0:0:
124,255,181645,1,2,0:2:0:0:
449,37,181816,5,0,1:0:0:0:
124,255,181988,1,2,0:2:0:0:
449,37,182159,5,8,0:1:0:0:
246,166,182330,2,0,B|268:199|256:238|256:238|285:240|308:263|308:263|296:233|304:196,1,194.999991073609,2|0,0:1|0:0,0:0:0:0:
297,169,182673,1,2,0:1:0:0:
197,368,182845,1,8,0:1:0:0:
311,24,183016,1,2,0:2:0:0:
324,372,183188,1,0,1:0:0:0:
167,24,183359,1,2,0:2:0:0:
197,368,183530,1,8,0:1:0:0:
311,24,183702,2,0,L|251:71,1,64.9999970245363,2|2,0:2|0:2,0:0:0:0:
33,172,183873,5,8,1:3:0:0:
62,185,183959,1,8,0:3:0:0:
92,175,184045,1,8,0:3:0:0:
108,148,184130,1,8,0:3:0:0:
104,77,184216,5,8,1:3:0:0:
145,49,184302,1,8,0:3:0:0:
195,61,184388,1,8,0:3:0:0:
220,105,184473,1,8,0:3:0:0:
226,178,184559,5,8,1:3:0:0:
199,233,184645,1,8,0:3:0:0:
240,278,184730,1,8,0:3:0:0:
301,274,184816,1,8,0:3:0:0:
318,203,184902,5,8,1:3:0:0:
380,162,184988,1,8,0:3:0:0:
449,187,185073,1,8,0:3:0:0:
464,259,185159,1,8,0:3:0:0:
408,309,185245,6,0,L|374:256,10,50,4|0|0|0|0|0|0|0|0|0|0,3:0|0:0|0:0|0:0|0:0|0:0|0:0|0:0|0:0|0:0|0:0,0:0:0:0:
348,355,185759,2,0,L|300:282,1,64.9999970245363
241,224,185930,6,0,L|186:362,1,129.999994049073,2|0,0:2|0:0,0:0:0:0:
225,116,186273,2,0,P|292:116|334:212,1,129.999994049073,2|0,0:2|0:0,0:0:0:0:
96,89,186616,5,6,1:2:0:0:
