osu file format v14

[General]
AudioFilename: audio.mp3
AudioLeadIn: 0
PreviewTime: 66742
Countdown: 0
SampleSet: Soft
StackLeniency: 0.5
Mode: 0
LetterboxInBreaks: 0
WidescreenStoryboard: 1

[Editor]
Bookmarks: 24228,28342,39828,103085,106171,131199,138742,142171,149714,176456,190171,219999,237828,246399,254628
DistanceSpacing: 0.8
BeatDivisor: 4
GridSize: 4
TimelineZoom: 1.3

[Metadata]
Title:Shark In The Water (Blame Remix)
TitleUnicode:Shark In The Water (Blame Remix)
Artist:VV Brown
ArtistUnicode:VV Brown
Creator:CloudBlaze
Version:(^^^)
Source:
Tags:dnb drum n bass pop remix 2009
BeatmapID:1612890
BeatmapSetID:767338

[Difficulty]
HPDrainRate:6
CircleSize:4
OverallDifficulty:8
ApproachRate:9.4
SliderMultiplier:1.8
SliderTickRate:1

[Events]
//Background and Video events
0,0,"tumblr_ossmz1BBTT1rxefdro1_500.jpg",0,0
//Break Periods
2,176656,186888
//Storyboard Layer 0 (Background)
//Storyboard Layer 1 (Fail)
//Storyboard Layer 2 (Pass)
//Storyboard Layer 3 (Foreground)
//Storyboard Sound Samples

[TimingPoints]
914,342.857142857143,4,2,0,100,1,0
20114,-100,4,2,0,60,0,0
44799,-153.846153846153,4,2,0,60,0,0
55771,-133.333333333333,4,2,0,60,0,0
56799,-100,4,2,0,60,0,0
57142,-133.333333333333,4,2,0,60,0,0
58171,-100,4,2,0,60,0,0
58514,-133.333333333333,4,2,0,60,0,0
59542,-100,4,2,0,60,0,0
59885,-133.333333333333,4,2,0,60,0,0
60914,-100,4,2,0,60,0,0
61256,-133.333333333333,4,2,0,60,0,0
62285,-100,4,2,0,60,0,0
62628,-133.333333333333,4,2,0,60,0,0
63656,-100,4,2,0,60,0,0
66742,-100,4,2,0,60,0,1
67256,-76.9230769230769,4,2,0,60,0,1
88342,-100,4,2,0,60,0,0
88685,-100,4,2,0,60,0,1
110285,-100,4,2,0,60,0,0
110628,-100,4,2,0,60,0,0
132571,-100,4,2,0,60,0,1
154514,-100,4,2,0,60,0,0
187428,-153.846153846154,4,2,0,60,0,0
198399,-133.333333333333,4,2,0,60,0,0
214856,-100,4,2,0,60,0,0
220342,-76.9230769230769,4,2,0,60,0,1
264228,-76.9230769230769,4,2,0,60,0,0
286171,-76.9230769230769,4,2,0,60,0,1
308114,-76.9230769230769,4,2,0,60,0,0

[HitObjects]
256,192,20114,12,0,22514,0:0:0:0:
82,127,22856,5,4,0:0:0:0:
82,234,23028,1,0,0:0:0:0:
173,180,23199,1,8,0:0:0:0:
250,327,23371,1,0,0:0:0:0:
256,294,23456,1,0,0:0:0:0:
262,261,23542,1,0,0:0:0:0:
268,227,23628,1,0,0:0:0:0:
274,194,23713,1,0,0:0:0:0:
471,81,23885,6,0,L|358:85,1,90,8|0,0:0|0:0,0:0:0:0:
274,194,24228,2,0,L|387:190,1,90,2|2,0:0|0:0,0:0:0:0:
364,191,24571,1,8,0:0:0:0:
284,308,24742,1,0,0:0:0:0:
250,311,24827,1,0,0:0:0:0:
219,299,24913,1,0,0:0:0:0:
195,276,24999,1,0,0:0:0:0:
183,244,25084,1,0,0:0:0:0:
65,168,25256,6,0,L|63:273,1,90,8|0,0:0|0:0,0:0:0:0:
67,51,25599,1,8,0:0:0:0:
169,114,25771,1,0,0:0:0:0:
65,168,25942,1,8,0:0:0:0:
120,306,26114,1,0,0:0:0:0:
152,312,26199,1,0,0:0:0:0:
185,304,26285,1,0,0:0:0:0:
211,282,26371,1,0,0:0:0:0:
225,252,26456,1,0,0:0:0:0:
474,53,26628,6,0,L|465:167,1,90,8|0,0:0|0:0,0:0:0:0:
373,253,26971,2,0,L|382:139,1,90,2|2,0:0|0:0,0:0:0:0:
384,34,27314,1,8,0:0:0:0:
284,123,27485,1,0,0:0:0:0:
281,156,27570,1,0,0:0:0:0:
278,190,27656,1,0,0:0:0:0:
276,223,27742,1,0,0:0:0:0:
273,257,27827,1,0,0:0:0:0:
79,318,27999,6,0,L|182:313,1,90,8|0,0:0|0:0,0:0:0:0:
277,361,28342,2,0,P|341:322|366:219,1,180,8|0,0:0|0:0,0:0:0:0:
152,49,28856,2,0,P|88:88|63:191,1,180,8|0,0:0|0:0,0:0:0:0:
156,251,29371,2,0,L|279:248,1,90,8|0,0:0|0:0,0:0:0:0:
344,10,29714,5,2,0:0:0:0:
269,87,29885,1,2,0:0:0:0:
377,115,30056,1,8,0:0:0:0:
452,198,30228,1,0,0:0:0:0:
445,231,30313,1,0,0:0:0:0:
439,264,30399,1,0,0:0:0:0:
433,297,30485,1,0,0:0:0:0:
427,330,30570,1,0,0:0:0:0:
186,298,30742,6,0,L|82:294,1,90,8|0,0:0|0:0,0:0:0:0:
197,180,31085,2,0,B|299:184|299:184|371:151,1,180,0|8,0:0|0:0,0:0:0:0:
210,47,31599,2,0,B|161:21|120:46|114:46|72:72|12:26,1,180,0|8,0:0|0:0,0:0:0:0:
164,140,32114,2,0,L|163:256,1,90,8|0,0:0|0:0,0:0:0:0:
254,339,32456,5,2,0:0:0:0:
348,292,32628,1,2,0:0:0:0:
267,223,32799,1,8,0:0:0:0:
358,131,32971,1,0,0:0:0:0:
340,102,33056,1,0,0:0:0:0:
312,84,33142,1,0,0:0:0:0:
279,79,33228,1,0,0:0:0:0:
246,88,33313,1,0,0:0:0:0:
83,154,33485,6,0,L|75:272,1,90,8|0,0:0|0:0,0:0:0:0:
92,37,33828,1,0,0:0:0:0:
187,121,33999,1,0,0:0:0:0:
257,21,34171,1,8,0:0:0:0:
315,134,34342,1,0,0:0:0:0:
312,167,34427,1,0,0:0:0:0:
309,201,34513,1,0,0:0:0:0:
306,234,34599,1,0,0:0:0:0:
303,268,34684,1,0,0:0:0:0:
44,319,34856,6,0,L|54:214,1,90,8|0,0:0|0:0,0:0:0:0:
119,49,35199,2,0,L|129:154,2,90,2|2|8,0:0|0:0|0:0,0:0:0:0:
174,262,35714,1,0,0:0:0:0:
205,251,35799,1,0,0:0:0:0:
231,229,35885,1,0,0:0:0:0:
247,199,35971,1,0,0:0:0:0:
251,166,36056,1,0,0:0:0:0:
512,58,36228,6,0,L|389:62,1,90,8|0,0:0|0:0,0:0:0:0:
313,114,36571,1,0,0:0:0:0:
429,198,36742,1,0,0:0:0:0:
302,256,36914,1,8,0:0:0:0:
181,312,37085,1,0,0:0:0:0:
179,278,37170,1,0,0:0:0:0:
177,244,37256,1,0,0:0:0:0:
175,210,37342,1,0,0:0:0:0:
173,177,37427,1,0,0:0:0:0:
5,58,37599,6,0,L|116:52,1,90,8|0,0:0|0:0,0:0:0:0:
212,111,37942,1,2,0:0:0:0:
96,180,38114,1,2,0:0:0:0:
95,53,38285,1,8,0:0:0:0:
298,52,38456,5,0,0:0:0:0:
308,83,38541,1,0,0:0:0:0:
311,117,38627,1,0,0:0:0:0:
306,150,38713,1,0,0:0:0:0:
292,181,38798,1,0,0:0:0:0:
177,272,38971,5,8,0:0:0:0:
177,272,39056,1,0,0:0:0:0:
177,272,39142,1,0,0:0:0:0:
177,272,39228,1,0,0:0:0:0:
177,272,39314,2,0,B|101:264|38:269|18:287|47:307|121:296|121:296,1,180,0|8,0:0|0:0,0:0:0:0:
386,197,39828,6,0,B|310:189|247:194|227:212|256:232|330:221|330:221,1,180,0|2,0:0|0:0,0:0:0:0:
180,125,40342,2,0,L|67:126,1,90,8|0,0:0|0:0,0:0:0:0:
171,245,40685,5,2,0:0:0:0:
241,334,40856,1,2,0:0:0:0:
285,224,41028,1,8,0:0:0:0:
394,172,41199,1,0,0:0:0:0:
389,138,41284,1,0,0:0:0:0:
371,110,41370,1,0,0:0:0:0:
343,92,41456,1,0,0:0:0:0:
310,86,41541,1,0,0:0:0:0:
104,179,41714,6,0,L|45:182,3,45,8|0|0|0,0:0|0:0|0:0|0:0,0:0:0:0:
256,192,42056,12,0,44456,0:0:0:0:
506,135,44799,6,0,B|542:173|538:230|514:261|453:286|405:269|344:178|468:114|454:61|454:61|330:48|330:48|315:122|258:148|258:148|381:189|315:305,1,818.999962509157,4|0,0:0|0:0,0:0:0:0:
147,59,47542,6,0,B|77:67|17:30|17:30|-34:133|78:154|138:263|96:283|44:313|-6:306|-38:262|-37:201|53:172|53:172|102:133|160:162|160:162|206:117|269:142,1,818.999962509157
361,247,50285,6,0,B|328:200|337:135|337:135|264:247|264:247|157:244|119:318|119:318|330:417|393:268|514:296,1,818.999962509157,4|0,0:0|0:0,0:0:0:0:
262,183,53028,6,0,B|302:126|294:22|294:22|379:71|379:71|368:177|406:271|512:297|552:246|563:184|515:21|349:198|317:312,1,818.999962509157
86,267,55771,6,0,L|93:129,1,135.000005149842
205,23,56285,2,0,L|211:157,1,135.000005149842
215,247,56799,6,0,L|210:144,1,90
210,157,57142,6,0,P|275:172|309:250,1,135.000005149842
224,356,57656,2,0,P|159:341|125:263,1,135.000005149842
211,157,58171,6,0,P|267:167|302:213,1,90
125,285,58514,6,0,B|94:242|94:242|94:143,1,135.000005149842
217,96,59028,2,0,B|248:139|248:139|248:238,1,135.000005149842
94,160,59542,6,0,L|94:59,1,90
175,206,59885,6,0,P|138:254|44:244,1,135.000005149842
94,160,60399,2,0,P|131:112|225:122,1,135.000005149842
175,206,60914,6,0,L|176:306,1,90
483,140,61256,6,0,L|341:133,1,135.000005149842
256,237,61771,2,0,L|398:244,1,135.000005149842
263,128,62285,6,0,L|133:121,1,90
256,237,62628,6,0,P|316:216|358:138,1,135.000005149842
174,124,63142,2,0,B|145:158|145:158|145:248,1,135.000005149842
257,327,63656,6,0,L|256:233,1,90
256,47,63999,1,0,0:0:0:0:
116,187,64171,1,0,0:0:0:0:
257,327,64342,1,0,0:0:0:0:
396,188,64514,1,0,0:0:0:0:
186,67,64685,5,0,0:0:0:0:
138,260,64857,1,0,0:0:0:0:
331,307,65028,1,0,0:0:0:0:
379,116,65200,1,0,0:0:0:0:
266,37,65371,5,0,0:0:0:0:
230,46,65456,1,0,0:0:0:0:
202,71,65542,1,0,0:0:0:0:
188,105,65628,1,0,0:0:0:0:
195,142,65713,1,0,0:0:0:0:
220,169,65799,1,0,0:0:0:0:
253,189,65885,1,0,0:0:0:0:
282,211,65971,1,0,0:0:0:0:
301,242,66056,1,0,0:0:0:0:
301,279,66142,1,0,0:0:0:0:
283,312,66228,1,0,0:0:0:0:
254,337,66313,1,0,0:0:0:0:
219,348,66399,1,0,0:0:0:0:
80,133,66742,5,0,0:0:0:0:
139,51,66914,1,0,0:0:0:0:
225,102,67085,1,0,0:0:0:0:
279,231,67256,1,0,0:0:0:0:
251,265,67341,1,0,0:0:0:0:
214,287,67427,1,0,0:0:0:0:
171,295,67513,1,0,0:0:0:0:
129,287,67598,1,0,0:0:0:0:
24,211,67771,2,0,L|8:331,1,116.999994644165
321,188,68114,6,0,P|380:189|440:163,2,116.999994644165
222,86,68628,1,0,0:0:0:0:
183,105,68713,1,0,0:0:0:0:
159,142,68799,1,0,0:0:0:0:
155,185,68885,1,0,0:0:0:0:
173,224,68970,1,0,0:0:0:0:
293,299,69142,6,0,L|432:297,1,116.999994644165
376,60,69485,5,0,0:0:0:0:
347,215,69656,1,0,0:0:0:0:
291,80,69828,5,0,0:0:0:0:
262,235,69999,1,0,0:0:0:0:
210,109,70171,5,0,0:0:0:0:
181,264,70342,1,0,0:0:0:0:
125,129,70514,5,0,0:0:0:0:
96,284,70685,1,0,0:0:0:0:
108,56,70856,5,0,0:0:0:0:
150,333,71028,1,0,0:0:0:0:
182,34,71199,5,0,0:0:0:0:
77,359,71371,5,0,0:0:0:0:
58,336,71456,1,0,0:0:0:0:
46,309,71542,1,0,0:0:0:0:
40,281,71628,1,0,0:0:0:0:
42,251,71713,1,0,0:0:0:0:
50,223,71799,1,0,0:0:0:0:
64,198,71885,6,0,L|220:196,1,116.999994644165
372,109,72228,2,0,L|216:111,1,116.999994644165
309,238,72571,2,0,P|347:285|417:284,1,116.999994644165
463,161,72914,2,0,P|425:114|355:115,1,116.999994644165
180,196,73256,2,0,L|180:350,1,116.999994644165
346,166,73599,6,0,L|502:159,1,116.999994644165
330,65,73942,2,0,L|174:72,1,116.999994644165
63,201,74285,2,0,L|219:194,1,116.999994644165
305,260,74628,1,0,0:0:0:0:
324,259,74713,1,0,0:0:0:0:
343,258,74799,1,0,0:0:0:0:
363,257,74885,1,0,0:0:0:0:
380,257,74971,6,0,L|536:250,1,116.999994644165
273,85,75314,1,0,0:0:0:0:
229,88,75399,1,0,0:0:0:0:
194,113,75485,1,0,0:0:0:0:
175,152,75571,1,0,0:0:0:0:
179,195,75656,2,0,P|182:275|175:334,1,116.999994644165
22,226,75999,2,0,P|18:145|25:86,1,116.999994644165
273,85,76342,6,0,P|338:90|432:81,1,116.999994644165
455,259,76685,2,0,P|389:253|296:263,1,116.999994644165
185,318,77028,1,0,0:0:0:0:
198,270,77113,1,0,0:0:0:0:
179,225,77199,1,0,0:0:0:0:
136,201,77285,1,0,0:0:0:0:
88,209,77370,1,0,0:0:0:0:
301,44,77714,5,0,0:0:0:0:
265,147,77885,1,0,0:0:0:0:
377,128,78056,1,0,0:0:0:0:
484,175,78228,1,0,0:0:0:0:
479,218,78313,1,0,0:0:0:0:
475,262,78399,1,0,0:0:0:0:
471,306,78485,1,0,0:0:0:0:
468,349,78570,1,0,0:0:0:0:
315,276,78742,6,0,L|177:270,1,116.999994644165
148,141,79085,2,0,L|286:147,2,116.999994644165
204,326,79599,1,0,0:0:0:0:
247,327,79684,1,0,0:0:0:0:
287,309,79770,1,0,0:0:0:0:
315,276,79856,1,0,0:0:0:0:
326,234,79941,1,0,0:0:0:0:
171,93,80114,6,0,L|163:215,1,116.999994644165
163,209,80456,1,0,0:0:0:0:
328,75,80628,1,0,0:0:0:0:
314,325,80799,5,0,0:0:0:0:
284,199,80971,1,0,0:0:0:0:
271,157,81056,1,0,0:0:0:0:
243,123,81142,1,0,0:0:0:0:
205,102,81228,1,0,0:0:0:0:
162,97,81313,1,0,0:0:0:0:
153,313,81485,6,0,L|320:305,1,116.999994644165
401,271,81828,2,0,P|375:197|305:161,2,116.999994644165
183,204,82342,1,0,0:0:0:0:
188,160,82427,1,0,0:0:0:0:
211,123,82513,1,0,0:0:0:0:
246,97,82599,1,0,0:0:0:0:
288,88,82684,1,0,0:0:0:0:
396,155,82856,6,0,L|403:306,1,116.999994644165
295,361,83199,2,0,L|288:210,1,116.999994644165
211,123,83542,2,0,P|164:64|73:61,1,116.999994644165
40,172,83885,2,0,P|87:231|178:234,1,116.999994644165
289,244,84228,2,0,L|428:240,1,116.999994644165
368,32,84571,6,0,L|242:38,1,116.999994644165
211,123,84914,2,0,L|85:129,1,116.999994644165
246,239,85256,1,0,0:0:0:0:
289,244,85341,1,0,0:0:0:0:
329,226,85427,1,0,0:0:0:0:
353,190,85513,1,0,0:0:0:0:
356,147,85598,1,0,0:0:0:0:
256,192,85942,12,0,88342,0:0:0:0:
123,188,88685,5,0,0:0:0:0:
173,89,88856,2,0,P|215:84|285:90,1,90
100,214,89199,1,0,0:0:0:0:
202,64,89371,2,0,P|244:59|314:65,1,90
411,110,89714,5,0,0:0:0:0:
423,211,89885,1,0,0:0:0:0:
342,271,90056,2,0,P|300:276|230:270,2,90
223,147,90571,1,0,0:0:0:0:
188,146,90656,1,0,0:0:0:0:
158,161,90742,1,0,0:0:0:0:
139,187,90828,1,0,0:0:0:0:
131,220,90913,1,0,0:0:0:0:
357,187,91085,6,0,L|352:60,1,90
221,31,91428,1,0,0:0:0:0:
132,86,91599,1,0,0:0:0:0:
227,136,91771,1,0,0:0:0:0:
354,98,91942,1,0,0:0:0:0:
350,131,92027,1,0,0:0:0:0:
347,164,92113,1,0,0:0:0:0:
345,198,92199,1,0,0:0:0:0:
342,232,92284,1,0,0:0:0:0:
144,168,92456,6,0,P|90:163|32:169,1,90
113,308,92799,2,0,P|167:313|225:307,2,90
267,176,93314,1,0,0:0:0:0:
300,180,93399,1,0,0:0:0:0:
328,198,93485,1,0,0:0:0:0:
346,226,93571,1,0,0:0:0:0:
351,264,93656,1,0,0:0:0:0:
78,224,93828,5,0,0:0:0:0:
80,185,93913,1,0,0:0:0:0:
82,146,93999,1,0,0:0:0:0:
84,108,94085,1,0,0:0:0:0:
85,69,94171,6,0,P|136:62|198:70,1,90
250,161,94514,1,0,0:0:0:0:
434,80,94685,2,0,L|420:195,1,90
398,305,95028,1,0,0:0:0:0:
264,326,95199,2,0,L|154:317,1,90
209,67,95542,6,0,P|259:62|323:72,2,90
260,202,96056,1,0,0:0:0:0:
292,208,96141,1,0,0:0:0:0:
325,202,96227,1,0,0:0:0:0:
353,183,96313,1,0,0:0:0:0:
371,155,96398,1,0,0:0:0:0:
104,114,96571,5,0,0:0:0:0:
102,147,96656,1,0,0:0:0:0:
101,181,96742,1,0,0:0:0:0:
99,215,96828,1,0,0:0:0:0:
98,248,96913,1,0,0:0:0:0:
256,192,96999,12,0,99314,0:0:0:0:
124,111,99656,5,0,0:0:0:0:
203,200,99828,2,0,L|325:193,1,90
100,80,100171,1,0,0:0:0:0:
242,265,100343,2,0,L|364:258,1,90
467,168,100685,5,0,0:0:0:0:
409,48,100856,1,0,0:0:0:0:
284,59,101028,2,0,L|283:178,2,90
183,180,101542,1,0,0:0:0:0:
186,213,101627,1,0,0:0:0:0:
202,242,101713,1,0,0:0:0:0:
229,262,101799,1,0,0:0:0:0:
262,269,101884,1,0,0:0:0:0:
443,71,102056,2,0,L|332:65,1,90
116,116,102399,5,0,0:0:0:0:
298,124,102571,1,0,0:0:0:0:
160,187,102742,5,0,0:0:0:0:
342,195,102914,1,0,0:0:0:0:
208,257,103085,5,0,0:0:0:0:
390,265,103256,1,0,0:0:0:0:
250,326,103428,5,0,0:0:0:0:
432,334,103599,1,0,0:0:0:0:
343,170,103771,5,0,0:0:0:0:
338,332,103942,1,0,0:0:0:0:
272,127,104114,5,0,0:0:0:0:
267,289,104285,1,0,0:0:0:0:
200,90,104456,5,0,0:0:0:0:
195,252,104627,1,0,0:0:0:0:
47,120,104799,1,0,0:0:0:0:
56,87,104884,1,0,0:0:0:0:
77,61,104970,1,0,0:0:0:0:
106,45,105056,1,0,0:0:0:0:
140,41,105142,6,0,L|269:48,1,90
294,142,105485,1,0,0:0:0:0:
205,287,105656,2,0,L|76:280,1,90
53,191,105999,1,0,0:0:0:0:
140,41,106171,2,0,L|269:48,1,90
406,138,106514,6,0,L|409:258,2,90
285,254,107028,1,0,0:0:0:0:
291,286,107113,1,0,0:0:0:0:
309,315,107199,1,0,0:0:0:0:
336,335,107285,1,0,0:0:0:0:
368,345,107370,1,0,0:0:0:0:
498,229,107542,2,0,L|384:227,1,90
142,165,107885,6,0,L|138:54,2,90
151,286,108399,1,0,0:0:0:0:
184,283,108484,1,0,0:0:0:0:
214,269,108570,1,0,0:0:0:0:
237,244,108656,1,0,0:0:0:0:
248,213,108741,1,0,0:0:0:0:
370,90,108914,5,0,0:0:0:0:
370,123,108999,1,0,0:0:0:0:
371,157,109085,1,0,0:0:0:0:
372,191,109171,1,0,0:0:0:0:
373,224,109256,2,0,L|377:346,2,90
307,31,109771,1,0,0:0:0:0:
274,37,109856,1,0,0:0:0:0:
249,59,109942,1,0,0:0:0:0:
238,90,110028,1,0,0:0:0:0:
244,123,110114,2,0,P|248:182|244:235,1,90
55,70,110628,5,0,0:0:0:0:
36,171,110799,1,0,0:0:0:0:
138,139,110971,1,0,0:0:0:0:
239,176,111142,1,0,0:0:0:0:
237,209,111227,1,0,0:0:0:0:
235,243,111313,1,0,0:0:0:0:
233,277,111399,1,0,0:0:0:0:
231,310,111484,1,0,0:0:0:0:
423,207,111656,6,0,L|541:199,1,90
397,95,111999,2,0,L|280:88,1,90
307,89,112342,1,0,0:0:0:0:
148,91,112514,1,0,0:0:0:0:
145,124,112599,1,0,0:0:0:0:
155,156,112685,1,0,0:0:0:0:
178,181,112771,1,0,0:0:0:0:
208,195,112856,1,0,0:0:0:0:
429,209,113028,5,0,0:0:0:0:
304,296,113199,1,0,0:0:0:0:
310,155,113371,2,0,L|316:51,2,90
175,303,113885,1,0,0:0:0:0:
142,296,113970,1,0,0:0:0:0:
114,277,114056,1,0,0:0:0:0:
96,249,114142,1,0,0:0:0:0:
90,216,114227,1,0,0:0:0:0:
161,100,114399,2,0,L|293:96,1,90
483,145,114742,5,0,0:0:0:0:
444,246,114914,1,0,0:0:0:0:
381,162,115085,1,0,0:0:0:0:
258,135,115256,1,0,0:0:0:0:
258,168,115341,1,0,0:0:0:0:
259,202,115427,1,0,0:0:0:0:
260,236,115513,1,0,0:0:0:0:
261,269,115598,1,0,0:0:0:0:
14,152,115771,6,0,L|26:30,1,90
115,182,116114,2,0,L|127:304,2,90
138,33,116628,1,0,0:0:0:0:
171,34,116713,1,0,0:0:0:0:
201,50,116799,1,0,0:0:0:0:
221,76,116885,1,0,0:0:0:0:
228,109,116970,1,0,0:0:0:0:
298,189,117142,2,0,L|413:187,1,90
121,335,117485,5,0,0:0:0:0:
25,273,117656,1,0,0:0:0:0:
119,225,117828,1,0,0:0:0:0:
225,283,117999,1,0,0:0:0:0:
226,249,118084,1,0,0:0:0:0:
228,215,118170,1,0,0:0:0:0:
230,181,118256,1,0,0:0:0:0:
232,148,118341,1,0,0:0:0:0:
294,67,118514,2,0,L|417:64,1,90
327,246,118856,6,0,L|325:344,2,90
228,126,119371,1,0,0:0:0:0:
196,114,119456,1,0,0:0:0:0:
162,116,119542,1,0,0:0:0:0:
132,130,119628,1,0,0:0:0:0:
110,155,119713,1,0,0:0:0:0:
132,259,119885,2,0,L|149:360,1,90
281,193,120228,5,0,0:0:0:0:
378,148,120399,1,0,0:0:0:0:
294,83,120571,1,0,0:0:0:0:
173,56,120742,1,0,0:0:0:0:
172,89,120827,1,0,0:0:0:0:
171,123,120913,1,0,0:0:0:0:
170,157,120999,1,0,0:0:0:0:
169,190,121084,1,0,0:0:0:0:
247,277,121256,2,0,L|367:274,1,90
287,133,121599,6,0,L|289:30,2,90
173,202,122114,1,0,0:0:0:0:
173,202,122285,2,0,L|40:209,1,90
149,307,122628,2,0,L|282:300,1,90
313,185,122971,6,0,L|308:95,1,90
408,30,123314,2,0,L|413:120,1,90
422,263,123656,6,0,L|333:263,1,90
262,338,123999,2,0,L|173:338,1,90
112,163,124342,6,0,P|166:146|205:11,1,180
298,40,124856,2,0,P|321:124|400:163,1,180
295,272,125371,5,0,0:0:0:0:
202,325,125542,1,0,0:0:0:0:
193,218,125714,2,0,B|133:223|87:172|87:172|27:195,1,180
319,218,126228,2,0,B|379:223|425:172|425:172|485:195,1,180
331,122,126742,2,0,L|231:117,1,90
91,191,127085,6,0,L|85:280,2,90
169,55,127599,1,0,0:0:0:0:
201,65,127684,1,0,0:0:0:0:
226,87,127770,1,0,0:0:0:0:
241,117,127856,1,0,0:0:0:0:
241,150,127941,1,0,0:0:0:0:
310,251,128114,2,0,L|420:251,1,90
412,91,128456,5,0,0:0:0:0:
333,30,128628,1,0,0:0:0:0:
321,126,128799,1,0,0:0:0:0:
232,197,128971,1,0,0:0:0:0:
198,197,129056,1,0,0:0:0:0:
164,198,129142,1,0,0:0:0:0:
130,198,129228,1,0,0:0:0:0:
97,199,129313,1,0,0:0:0:0:
217,316,129485,2,0,L|332:315,1,90
274,43,129828,5,0,0:0:0:0:
389,231,129999,1,0,0:0:0:0:
401,52,130171,1,0,0:0:0:0:
262,222,130342,1,0,0:0:0:0:
250,62,130514,5,0,0:0:0:0:
412,211,130685,1,0,0:0:0:0:
374,36,130857,1,0,0:0:0:0:
288,237,131028,1,0,0:0:0:0:
232,87,131199,5,0,0:0:0:0:
430,186,131370,1,0,0:0:0:0:
345,28,131542,1,0,0:0:0:0:
317,245,131713,1,0,0:0:0:0:
188,333,131885,5,0,0:0:0:0:
165,330,131970,1,0,0:0:0:0:
144,322,132056,1,0,0:0:0:0:
125,311,132142,1,0,0:0:0:0:
109,295,132227,1,0,0:0:0:0:
96,277,132313,1,0,0:0:0:0:
87,256,132399,1,0,0:0:0:0:
84,234,132485,1,0,0:0:0:0:
83,208,132571,6,0,L|214:199,2,90
251,297,133085,1,0,0:0:0:0:
288,273,133170,1,0,0:0:0:0:
311,235,133256,1,0,0:0:0:0:
312,190,133342,1,0,0:0:0:0:
291,151,133427,1,0,0:0:0:0:
201,69,133599,2,0,L|93:70,1,90
38,179,133942,5,0,0:0:0:0:
50,273,134113,1,0,0:0:0:0:
128,212,134285,1,0,0:0:0:0:
214,140,134456,1,0,0:0:0:0:
216,184,134541,1,0,0:0:0:0:
219,229,134627,1,0,0:0:0:0:
222,274,134713,1,0,0:0:0:0:
224,319,134798,1,0,0:0:0:0:
418,199,134971,6,0,L|516:189,1,90
279,33,135314,1,0,0:0:0:0:
269,143,135485,1,0,0:0:0:0:
373,96,135656,1,0,0:0:0:0:
466,162,135828,1,0,0:0:0:0:
463,206,135913,1,0,0:0:0:0:
460,251,135999,1,0,0:0:0:0:
457,296,136085,1,0,0:0:0:0:
455,341,136170,1,0,0:0:0:0:
179,309,136342,6,0,L|66:306,1,90
195,200,136685,2,0,L|308:203,2,90
52,145,137199,1,0,0:0:0:0:
58,100,137284,1,0,0:0:0:0:
84,64,137370,1,0,0:0:0:0:
124,44,137456,1,0,0:0:0:0:
168,45,137541,1,0,0:0:0:0:
294,119,137714,2,0,L|418:121,1,90
382,258,138056,6,0,L|373:375,1,90
283,285,138399,2,0,L|292:168,1,90
195,63,138742,6,0,L|91:58,1,90
40,152,139085,2,0,L|144:157,1,90
282,165,139428,6,0,L|411:170,1,90
389,251,139771,2,0,L|518:256,1,90
300,343,140114,1,0,0:0:0:0:
256,336,140199,1,0,0:0:0:0:
221,308,140285,1,0,0:0:0:0:
204,267,140371,1,0,0:0:0:0:
210,223,140456,1,0,0:0:0:0:
300,107,140628,1,0,0:0:0:0:
300,107,140714,1,0,0:0:0:0:
300,107,140799,6,0,L|430:111,2,90
134,149,141314,1,0,0:0:0:0:
131,193,141399,1,0,0:0:0:0:
129,238,141485,1,0,0:0:0:0:
126,283,141571,1,0,0:0:0:0:
124,328,141656,1,0,0:0:0:0:
316,241,141828,6,0,L|420:237,1,90
479,106,142171,2,0,L|375:110,1,90
389,109,142514,1,0,0:0:0:0:
253,164,142685,1,0,0:0:0:0:
230,184,142770,1,0,0:0:0:0:
216,210,142856,1,0,0:0:0:0:
210,239,142942,1,0,0:0:0:0:
214,268,143027,1,0,0:0:0:0:
227,295,143113,1,0,0:0:0:0:
248,316,143199,1,0,0:0:0:0:
285,64,143542,6,0,P|233:59|181:25,2,90
417,80,144056,1,0,0:0:0:0:
451,106,144141,1,0,0:0:0:0:
470,147,144227,1,0,0:0:0:0:
468,191,144313,1,0,0:0:0:0:
445,230,144398,1,0,0:0:0:0:
368,316,144571,2,0,L|262:313,1,90
198,204,144914,6,0,L|304:207,2,90
73,273,145428,1,0,0:0:0:0:
74,228,145513,1,0,0:0:0:0:
75,183,145599,1,0,0:0:0:0:
77,138,145685,1,0,0:0:0:0:
78,93,145770,1,0,0:0:0:0:
200,43,145942,2,0,L|302:44,1,90
438,200,146285,5,0,0:0:0:0:
457,299,146456,1,0,0:0:0:0:
362,268,146628,1,0,0:0:0:0:
268,344,146799,1,0,0:0:0:0:
264,299,146884,1,0,0:0:0:0:
260,254,146970,1,0,0:0:0:0:
256,209,147056,1,0,0:0:0:0:
252,164,147141,1,0,0:0:0:0:
159,91,147314,2,0,L|40:85,1,90
311,87,147656,6,0,P|361:77|406:14,2,90
164,174,148171,1,0,0:0:0:0:
144,214,148256,1,0,0:0:0:0:
143,258,148342,1,0,0:0:0:0:
160,299,148428,1,0,0:0:0:0:
194,329,148513,1,0,0:0:0:0:
318,275,148685,2,0,L|427:273,1,90
308,173,149028,6,0,L|199:175,1,90
159,82,149371,2,0,L|268:80,1,90
484,152,149714,6,0,L|488:260,1,90
396,291,150056,2,0,L|392:183,1,90
326,73,150399,6,0,L|216:68,1,90
207,152,150742,2,0,L|97:147,1,90
212,245,151085,1,0,0:0:0:0:
256,246,151170,1,0,0:0:0:0:
301,248,151256,1,0,0:0:0:0:
216,337,151428,1,0,0:0:0:0:
172,336,151513,1,0,0:0:0:0:
127,334,151599,1,0,0:0:0:0:
256,192,151771,12,0,154171,0:0:0:0:
105,126,154514,5,0,0:0:0:0:
118,239,154685,1,0,0:0:0:0:
205,167,154856,1,0,0:0:0:0:
303,83,155028,1,0,0:0:0:0:
305,116,155113,1,0,0:0:0:0:
307,150,155199,1,0,0:0:0:0:
309,184,155285,1,0,0:0:0:0:
311,217,155370,1,0,0:0:0:0:
374,290,155542,2,0,L|479:287,1,90
205,167,155885,6,0,L|111:161,2,90
212,280,156399,1,0,0:0:0:0:
245,282,156484,1,0,0:0:0:0:
276,270,156570,1,0,0:0:0:0:
299,246,156656,1,0,0:0:0:0:
308,214,156742,1,0,0:0:0:0:
240,84,156914,2,0,L|135:86,1,90
58,302,157256,5,0,0:0:0:0:
158,273,157427,1,0,0:0:0:0:
89,189,157598,1,0,0:0:0:0:
150,85,157771,1,0,0:0:0:0:
183,89,157856,1,0,0:0:0:0:
216,94,157942,1,0,0:0:0:0:
250,99,158028,1,0,0:0:0:0:
283,103,158113,1,0,0:0:0:0:
370,183,158285,2,0,L|366:285,1,90
60,92,158628,6,0,L|162:83,2,90
75,209,159142,1,0,0:0:0:0:
79,242,159227,1,0,0:0:0:0:
83,275,159313,1,0,0:0:0:0:
88,309,159399,1,0,0:0:0:0:
92,342,159484,1,0,0:0:0:0:
210,278,159656,2,0,L|324:271,1,90
477,211,159999,5,0,0:0:0:0:
495,99,160171,1,0,0:0:0:0:
398,130,160342,1,0,0:0:0:0:
304,58,160514,1,0,0:0:0:0:
302,91,160599,1,0,0:0:0:0:
301,125,160685,1,0,0:0:0:0:
300,158,160771,1,0,0:0:0:0:
299,192,160856,1,0,0:0:0:0:
216,280,161028,2,0,L|122:276,1,90
366,220,161371,6,0,L|471:213,2,90
260,162,161885,1,0,0:0:0:0:
264,128,161970,1,0,0:0:0:0:
283,101,162056,1,0,0:0:0:0:
312,84,162142,1,0,0:0:0:0:
346,82,162227,1,0,0:0:0:0:
423,287,162399,2,0,L|327:287,1,90
187,247,162742,6,0,L|75:247,2,90
276,134,163256,1,0,0:0:0:0:
266,101,163341,1,0,0:0:0:0:
244,76,163427,1,0,0:0:0:0:
214,61,163513,1,0,0:0:0:0:
181,59,163599,1,0,0:0:0:0:
53,95,163771,2,0,L|48:208,1,90
190,229,164114,5,0,0:0:0:0:
274,285,164285,1,0,0:0:0:0:
287,184,164456,1,0,0:0:0:0:
298,82,164628,1,0,0:0:0:0:
331,88,164713,1,0,0:0:0:0:
364,87,164799,1,0,0:0:0:0:
397,80,164885,1,0,0:0:0:0:
428,67,164970,1,0,0:0:0:0:
431,222,165142,2,0,L|429:340,1,90
190,155,165485,6,0,L|176:50,2,90
210,290,165999,1,0,0:0:0:0:
243,294,166084,1,0,0:0:0:0:
276,292,166170,1,0,0:0:0:0:
309,282,166256,1,0,0:0:0:0:
338,265,166341,1,0,0:0:0:0:
386,143,166514,2,0,L|512:138,1,90
84,156,166856,5,0,0:0:0:0:
112,256,167028,1,0,0:0:0:0:
187,185,167199,1,0,0:0:0:0:
274,105,167371,1,0,0:0:0:0:
279,139,167456,1,0,0:0:0:0:
289,171,167542,1,0,0:0:0:0:
304,201,167628,1,0,0:0:0:0:
324,228,167713,1,0,0:0:0:0:
293,327,167885,2,0,L|176:325,1,90
124,144,168228,6,0,P|72:142|29:101,2,90
204,83,168742,1,0,0:0:0:0:
237,84,168827,1,0,0:0:0:0:
271,85,168913,1,0,0:0:0:0:
305,87,168999,1,0,0:0:0:0:
338,88,169084,1,0,0:0:0:0:
418,164,169256,2,0,L|410:293,1,90
224,287,169600,5,0,0:0:0:0:
139,348,169771,1,0,0:0:0:0:
127,247,169942,1,0,0:0:0:0:
205,167,170114,1,0,0:0:0:0:
234,183,170199,1,0,0:0:0:0:
267,188,170285,1,0,0:0:0:0:
300,182,170371,1,0,0:0:0:0:
329,164,170456,1,0,0:0:0:0:
248,49,170628,2,0,L|125:55,1,90
32,225,170971,6,0,L|25:330,2,90
94,129,171485,1,0,0:0:0:0:
122,111,171570,1,0,0:0:0:0:
155,106,171656,1,0,0:0:0:0:
187,116,171742,1,0,0:0:0:0:
213,137,171827,1,0,0:0:0:0:
257,262,171999,2,0,P|298:276|369:261,1,90
318,110,172342,5,0,0:0:0:0:
234,47,172514,1,0,0:0:0:0:
223,146,172685,1,0,0:0:0:0:
149,211,172856,1,0,0:0:0:0:
115,210,172941,1,0,0:0:0:0:
81,209,173027,1,0,0:0:0:0:
47,208,173113,1,0,0:0:0:0:
14,207,173198,1,0,0:0:0:0:
101,323,173371,2,0,L|192:326,1,90
369,191,173714,6,0,L|486:183,2,90
290,281,174228,1,0,0:0:0:0:
266,257,174313,1,0,0:0:0:0:
251,226,174399,1,0,0:0:0:0:
246,193,174485,1,0,0:0:0:0:
253,160,174570,1,0,0:0:0:0:
132,57,174742,5,0,0:0:0:0:
132,90,174827,1,0,0:0:0:0:
125,123,174913,1,0,0:0:0:0:
110,153,174999,1,0,0:0:0:0:
89,180,175085,2,0,P|77:250|85:288,1,90
150,347,175428,1,0,0:0:0:0:
246,293,175599,1,0,0:0:0:0:
279,292,175684,1,0,0:0:0:0:
313,291,175770,1,0,0:0:0:0:
347,290,175856,1,0,0:0:0:0:
380,290,175941,1,0,0:0:0:0:
459,107,176114,5,0,0:0:0:0:
385,195,176285,1,0,0:0:0:0:
338,193,176370,1,0,0:0:0:0:
305,160,176456,1,0,0:0:0:0:
0,203,187428,6,0,B|86:171|142:62|142:62|140:248|174:332|273:322|306:293|338:186|276:119|147:192|93:226|80:326,1,818.999962509157
287,244,190171,6,0,B|306:295|358:347|493:327|493:327|419:238|379:147|432:124|517:83|555:157|517:232|516:289|324:233|293:183|299:97|376:41,1,818.999962509157
233,199,192914,6,0,B|203:132|230:61|230:61|162:85|94:41|94:41|51:100|72:194|132:271|317:277|90:370|12:311|-39:221|6:117,1,818.999962509157
213,95,195656,6,0,B|267:139|219:218|219:218|316:219|316:219|343:287|484:314|580:283|584:74|526:19|394:15|309:33|316:159|316:159,1,818.999962509157
151,75,198399,5,0,0:0:0:0:
141,264,198742,1,0,0:0:0:0:
151,75,199084,2,0,L|148:162,1,67.5000025749208
356,260,199771,5,0,0:0:0:0:
355,169,199942,1,0,0:0:0:0:
355,71,200114,1,0,0:0:0:0:
356,260,200628,2,0,L|356:174,1,67.5000025749208
179,52,201142,5,0,0:0:0:0:
106,120,201314,1,0,0:0:0:0:
197,164,201485,1,0,0:0:0:0:
293,207,201656,1,0,0:0:0:0:
310,211,201741,1,0,0:0:0:0:
324,215,201828,2,0,L|399:213,2,67.5000025749208
58,254,202514,6,0,L|52:337,2,67.5000025749208
119,159,203028,1,0,0:0:0:0:
130,147,203113,1,0,0:0:0:0:
143,135,203199,2,0,L|213:132,1,67.5000025749208
210,132,203542,1,0,0:0:0:0:
374,102,203885,5,0,0:0:0:0:
370,291,204228,1,0,0:0:0:0:
374,102,204570,2,0,L|371:189,1,67.5000025749208
142,245,205256,5,0,0:0:0:0:
142,154,205427,1,0,0:0:0:0:
142,56,205599,1,0,0:0:0:0:
142,245,206113,2,0,L|142:159,1,67.5000025749208
270,157,206628,5,0,0:0:0:0:
309,72,206799,1,0,0:0:0:0:
362,151,206971,1,0,0:0:0:0:
423,239,207142,1,0,0:0:0:0:
423,239,207228,1,0,0:0:0:0:
423,239,207314,2,0,L|416:323,2,67.5000025749208
117,305,207999,5,0,0:0:0:0:
58,215,208170,1,0,0:0:0:0:
145,159,208342,1,0,0:0:0:0:
215,259,208514,1,0,0:0:0:0:
215,259,208599,1,0,0:0:0:0:
215,259,208685,2,0,L|300:265,2,67.5000025749208
433,60,209371,6,0,L|437:198,1,135.000005149842
433,60,210056,5,0,0:0:0:0:
437,194,210228,1,0,0:0:0:0:
130,227,210742,6,0,L|34:224,2,67.5000025749208
130,227,211599,2,0,L|228:230,1,67.5000025749208
410,68,212114,5,0,0:0:0:0:
458,170,212285,1,0,0:0:0:0:
351,159,212456,1,0,0:0:0:0:
302,68,212628,1,0,0:0:0:0:
302,68,212714,1,0,0:0:0:0:
302,68,212799,2,0,L|210:69,2,67.5000025749208
351,159,213485,6,0,L|418:159,2,67.5000025749208
252,223,213999,1,0,0:0:0:0:
252,223,214085,1,0,0:0:0:0:
252,223,214171,2,0,L|184:223,1,67.5000025749208
184,223,214514,1,0,0:0:0:0:
276,51,214856,6,0,L|404:60,1,90
440,165,215199,2,0,L|312:156,1,90
223,190,215542,6,0,L|231:302,1,90
113,223,215885,2,0,L|105:111,1,90
276,51,216228,5,0,0:0:0:0:
276,51,216399,1,0,0:0:0:0:
350,158,216571,1,0,0:0:0:0:
350,158,216742,1,0,0:0:0:0:
276,256,216914,1,0,0:0:0:0:
276,256,217085,1,0,0:0:0:0:
160,188,217256,1,0,0:0:0:0:
160,188,217428,1,0,0:0:0:0:
276,51,217599,5,0,0:0:0:0:
338,224,217771,1,0,0:0:0:0:
410,50,217942,1,0,0:0:0:0:
472,226,218114,1,0,0:0:0:0:
340,118,218285,5,0,0:0:0:0:
335,324,218456,1,0,0:0:0:0:
179,149,218628,1,0,0:0:0:0:
159,357,218799,1,0,0:0:0:0:
29,218,218971,5,0,0:0:0:0:
2,183,219056,1,0,0:0:0:0:
2,139,219142,1,0,0:0:0:0:
27,102,219228,1,0,0:0:0:0:
68,87,219313,1,0,0:0:0:0:
112,97,219399,1,0,0:0:0:0:
150,121,219485,1,0,0:0:0:0:
190,141,219571,1,0,0:0:0:0:
234,142,219656,1,0,0:0:0:0:
276,127,219742,1,0,0:0:0:0:
313,109,219828,6,0,P|358:111|409:100,1,90
510,230,220342,6,0,L|512:353,2,116.999994644165
482,106,220856,1,0,0:0:0:0:
451,75,220941,1,0,0:0:0:0:
409,61,221027,1,0,0:0:0:0:
366,66,221113,1,0,0:0:0:0:
330,91,221198,1,0,0:0:0:0:
260,177,221371,2,0,L|125:178,1,116.999994644165
311,279,221714,5,0,0:0:0:0:
397,349,221885,1,0,0:0:0:0:
403,239,222056,1,0,0:0:0:0:
327,112,222228,1,0,0:0:0:0:
290,135,222313,1,0,0:0:0:0:
247,142,222399,1,0,0:0:0:0:
204,133,222485,1,0,0:0:0:0:
169,108,222570,1,0,0:0:0:0:
84,200,222742,2,0,P|91:271|118:310,1,116.999994644165
245,79,223085,5,0,0:0:0:0:
238,258,223257,1,0,0:0:0:0:
327,83,223428,5,0,0:0:0:0:
320,262,223600,1,0,0:0:0:0:
405,87,223771,5,0,0:0:0:0:
398,266,223943,1,0,0:0:0:0:
487,91,224114,5,0,0:0:0:0:
480,270,224286,1,0,0:0:0:0:
405,180,224456,5,0,0:0:0:0:
391,353,224628,1,0,0:0:0:0:
275,224,224799,1,0,0:0:0:0:
188,116,224971,1,0,0:0:0:0:
149,136,225056,1,0,0:0:0:0:
127,173,225142,1,0,0:0:0:0:
127,216,225228,1,0,0:0:0:0:
150,254,225313,1,0,0:0:0:0:
252,339,225485,6,0,L|391:346,1,116.999994644165
444,242,225828,2,0,L|304:234,1,116.999994644165
207,249,226171,6,0,L|211:102,1,116.999994644165
90,56,226514,2,0,L|86:203,1,116.999994644165
207,250,226856,6,0,L|353:245,1,116.999994644165
405,123,227199,2,0,L|259:128,1,116.999994644165
116,92,227542,6,0,L|121:232,1,116.999994644165
173,279,227886,1,0,0:0:0:0:
216,283,227971,1,0,0:0:0:0:
257,269,228057,1,0,0:0:0:0:
290,240,228143,1,0,0:0:0:0:
308,201,228228,1,0,0:0:0:0:
459,99,228399,5,0,0:0:0:0:
459,99,228485,1,0,0:0:0:0:
459,99,228571,2,0,L|451:251,2,116.999994644165
318,42,229085,1,0,0:0:0:0:
274,39,229170,1,0,0:0:0:0:
235,58,229256,1,0,0:0:0:0:
211,94,229342,1,0,0:0:0:0:
207,137,229427,1,0,0:0:0:0:
291,216,229599,2,0,P|304:290|282:362,1,116.999994644165
116,102,229942,6,0,L|-9:97,2,116.999994644165
206,224,230456,1,0,0:0:0:0:
249,229,230541,1,0,0:0:0:0:
291,216,230627,1,0,0:0:0:0:
324,188,230713,1,0,0:0:0:0:
344,150,230799,2,0,P|344:69|371:21,1,116.999994644165
4,235,231314,5,0,0:0:0:0:
13,128,231485,1,0,0:0:0:0:
99,192,231656,1,0,0:0:0:0:
185,253,231828,1,0,0:0:0:0:
206,215,231913,1,0,0:0:0:0:
210,171,231999,1,0,0:0:0:0:
193,131,232085,1,0,0:0:0:0:
161,102,232170,1,0,0:0:0:0:
99,192,232342,2,0,L|93:312,1,116.999994644165
386,87,232685,6,0,L|519:82,2,116.999994644165
280,56,233199,1,0,0:0:0:0:
268,98,233284,1,0,0:0:0:0:
279,141,233370,1,0,0:0:0:0:
308,173,233456,1,0,0:0:0:0:
349,187,233541,1,0,0:0:0:0:
465,223,233714,2,0,L|459:354,1,116.999994644165
328,318,234056,5,0,0:0:0:0:
150,304,234228,1,0,0:0:0:0:
294,240,234399,5,0,0:0:0:0:
116,227,234571,1,0,0:0:0:0:
256,166,234742,5,0,0:0:0:0:
78,152,234914,1,0,0:0:0:0:
222,88,235085,5,0,0:0:0:0:
44,75,235257,1,0,0:0:0:0:
116,227,235428,6,0,L|113:352,2,116.999994644165
155,112,235942,1,0,0:0:0:0:
174,90,236027,1,0,0:0:0:0:
199,75,236113,1,0,0:0:0:0:
227,67,236199,1,0,0:0:0:0:
256,68,236284,1,0,0:0:0:0:
284,76,236370,1,0,0:0:0:0:
308,93,236456,6,0,P|311:181|335:225,1,116.999994644165
423,134,236799,2,0,P|419:45|395:1,1,116.999994644165
322,202,237142,2,0,L|317:335,1,116.999994644165
213,214,237485,2,0,L|217:97,1,116.999994644165
99,165,237828,2,0,L|94:281,1,116.999994644165
259,270,238171,6,0,P|319:289|392:252,1,116.999994644165
377,143,238514,2,0,P|317:124|244:161,1,116.999994644165
173,221,238856,2,0,L|171:354,1,116.999994644165
67,161,239199,1,0,0:0:0:0:
80,119,239284,1,0,0:0:0:0:
112,90,239370,1,0,0:0:0:0:
154,81,239456,1,0,0:0:0:0:
196,94,239541,1,0,0:0:0:0:
256,192,239628,12,0,241942,0:0:0:0:
73,242,242285,5,0,0:0:0:0:
76,132,242456,2,0,L|211:105,1,116.999994644165
60,240,242799,5,0,0:0:0:0:
87,133,242970,2,0,L|224:134,1,116.999994644165
308,189,243314,1,0,0:0:0:0:
207,254,243485,1,0,0:0:0:0:
203,133,243656,6,0,P|244:84|314:80,2,116.999994644165
308,189,244171,1,0,0:0:0:0:
349,202,244256,1,0,0:0:0:0:
391,192,244342,1,0,0:0:0:0:
421,161,244428,1,0,0:0:0:0:
431,119,244513,1,0,0:0:0:0:
325,73,244685,2,0,L|200:76,1,116.999994644165
62,144,245028,5,0,0:0:0:0:
69,310,245199,1,0,0:0:0:0:
138,118,245371,5,0,0:0:0:0:
145,284,245542,1,0,0:0:0:0:
216,98,245714,5,0,0:0:0:0:
223,264,245885,1,0,0:0:0:0:
292,72,246057,5,0,0:0:0:0:
299,238,246228,1,0,0:0:0:0:
460,118,246399,5,0,0:0:0:0:
453,284,246570,1,0,0:0:0:0:
384,92,246742,5,0,0:0:0:0:
377,258,246913,1,0,0:0:0:0:
306,72,247085,5,0,0:0:0:0:
299,238,247256,1,0,0:0:0:0:
108,223,247428,5,0,0:0:0:0:
82,186,247513,1,0,0:0:0:0:
78,144,247599,1,0,0:0:0:0:
95,104,247685,1,0,0:0:0:0:
129,77,247771,6,0,L|245:78,1,116.999994644165
297,174,248114,1,0,0:0:0:0:
228,316,248285,2,0,L|111:314,1,116.999994644165
60,219,248628,1,0,0:0:0:0:
200,77,248799,2,0,L|316:78,1,116.999994644165
335,235,249142,6,0,L|218:233,2,116.999994644165
458,193,249656,1,0,0:0:0:0:
456,150,249741,1,0,0:0:0:0:
433,113,249827,1,0,0:0:0:0:
395,92,249913,1,0,0:0:0:0:
352,94,249998,1,0,0:0:0:0:
283,191,250171,2,0,L|279:310,1,116.999994644165
118,111,250514,6,0,L|-17:110,2,116.999994644165
113,204,251028,1,0,0:0:0:0:
156,205,251113,1,0,0:0:0:0:
194,184,251199,1,0,0:0:0:0:
216,147,251285,1,0,0:0:0:0:
216,103,251370,1,0,0:0:0:0:
315,56,251542,2,0,L|441:56,1,116.999994644165
441,275,251885,5,0,0:0:0:0:
424,161,252056,1,0,0:0:0:0:
339,228,252228,1,0,0:0:0:0:
240,127,252399,1,0,0:0:0:0:
239,156,252484,1,0,0:0:0:0:
239,185,252570,1,0,0:0:0:0:
239,214,252656,1,0,0:0:0:0:
239,243,252742,2,0,L|237:359,1,116.999994644165
31,86,253256,6,0,L|156:83,1,116.999994644165
182,183,253599,1,0,0:0:0:0:
40,73,253771,6,0,L|164:92,1,116.999994644165
172,195,254114,1,0,0:0:0:0:
191,297,254285,2,0,L|314:296,1,116.999994644165
391,193,254628,2,0,L|268:194,2,116.999994644165
506,191,255142,1,0,0:0:0:0:
508,147,255227,1,0,0:0:0:0:
491,107,255313,1,0,0:0:0:0:
458,80,255399,1,0,0:0:0:0:
415,71,255484,1,0,0:0:0:0:
320,135,255656,2,0,P|319:197|301:265,1,116.999994644165
84,174,255999,5,0,0:0:0:0:
97,332,256171,1,0,0:0:0:0:
153,136,256342,5,0,0:0:0:0:
166,294,256514,1,0,0:0:0:0:
223,101,256685,5,0,0:0:0:0:
236,259,256857,1,0,0:0:0:0:
292,63,257028,5,0,0:0:0:0:
305,221,257200,1,0,0:0:0:0:
424,205,257371,6,0,L|428:334,2,116.999994644165
379,95,257885,1,0,0:0:0:0:
337,106,257970,1,0,0:0:0:0:
306,136,258056,1,0,0:0:0:0:
294,178,258142,1,0,0:0:0:0:
305,221,258228,2,0,P|314:287|297:344,1,116.999994644165
106,101,258571,5,0,0:0:0:0:
106,101,258656,1,0,0:0:0:0:
106,101,258742,2,0,L|112:235,2,116.999994644165
259,318,259256,2,0,L|264:201,2,116.999994644165
421,103,259771,2,0,L|415:219,1,116.999994644165
182,149,260114,6,0,L|50:151,2,116.999994644165
188,257,260628,1,0,0:0:0:0:
231,253,260713,1,0,0:0:0:0:
268,230,260799,1,0,0:0:0:0:
290,192,260885,1,0,0:0:0:0:
293,149,260970,1,0,0:0:0:0:
396,72,261142,2,0,L|395:210,1,116.999994644165
188,257,261485,6,0,P|119:257|63:230,2,116.999994644165
277,316,261999,1,0,0:0:0:0:
304,282,262084,1,0,0:0:0:0:
311,239,262170,1,0,0:0:0:0:
296,198,262256,1,0,0:0:0:0:
263,170,262341,1,0,0:0:0:0:
149,127,262514,5,0,0:0:0:0:
145,83,262599,1,0,0:0:0:0:
164,45,262685,1,0,0:0:0:0:
202,23,262771,1,0,0:0:0:0:
245,25,262856,2,0,L|370:24,2,116.999994644165
240,145,263371,1,0,0:0:0:0:
242,174,263456,1,0,0:0:0:0:
244,203,263542,1,0,0:0:0:0:
246,232,263628,1,0,0:0:0:0:
248,260,263714,2,0,L|254:383,1,116.999994644165
