osu file format v14

[General]
AudioFilename: audio.ogg
AudioLeadIn: 0
PreviewTime: 18856
Countdown: 0
SampleSet: Soft
StackLeniency: 0.7
Mode: 3
LetterboxInBreaks: 0
SpecialStyle: 0
WidescreenStoryboard: 1

[Editor]
Bookmarks: 56503
DistanceSpacing: 2.1
BeatDivisor: 8
GridSize: 8
TimelineZoom: 1.3

[Metadata]
Title:Money Rain (Phonk Remix)
TitleUnicode:Money Rain (Phonk Remix)
Artist:VTORNIK
ArtistUnicode:VTORNIK
Creator:keksikosu
Version:Flade's Normal
Source:
Tags:russian english русский фонк electronic hip hop hip-hop hiphop хип хоп хип-хоп хипхоп rap реп рэп вторник мани рейн никитин максим вадимович SAVAGE$TATION SAVAGESTATION chordjack chordjacks chord chords jack jacks cj rice Antipole Symmatrix- Flade
BeatmapID:4191996
BeatmapSetID:1959771

[Difficulty]
HPDrainRate:7
CircleSize:4
OverallDifficulty:7
ApproachRate:5
SliderMultiplier:1.4
SliderTickRate:1

[Events]
//Background and Video events
0,0,"bg.jpg",0,0
//Break Periods
//Storyboard Layer 0 (Background)
//Storyboard Layer 1 (Fail)
//Storyboard Layer 2 (Pass)
//Storyboard Layer 3 (Foreground)
//Storyboard Layer 4 (Overlay)
//Storyboard Sound Samples

[TimingPoints]
9445,588.235294117647,4,2,1,40,1,0
18856,-100,4,2,1,40,0,1
37680,-100,4,2,1,40,0,0
75327,-100,4,2,1,40,0,1
91797,-100,4,2,1,40,0,0
103562,-100,4,2,1,40,0,1
131797,-100,4,2,1,40,0,0

[HitObjects]
448,192,9445,5,0,0:0:0:0:
64,192,9445,1,0,0:0:0:0:
320,192,9592,1,0,0:0:0:0:
192,192,9739,1,0,0:0:0:0:
448,192,9886,1,0,0:0:0:0:
320,192,10033,1,0,0:0:0:0:
64,192,10033,1,0,0:0:0:0:
192,192,10180,1,0,0:0:0:0:
448,192,10327,1,0,0:0:0:0:
320,192,10474,1,0,0:0:0:0:
64,192,10621,1,0,0:0:0:0:
192,192,10768,1,0,0:0:0:0:
448,192,10915,1,0,0:0:0:0:
448,192,11062,1,0,0:0:0:0:
192,192,11209,1,0,0:0:0:0:
320,192,11209,1,0,0:0:0:0:
64,192,11356,1,0,0:0:0:0:
448,192,11503,1,0,0:0:0:0:
320,192,11650,1,0,0:0:0:0:
448,192,11797,1,0,0:0:0:0:
64,192,11797,1,0,0:0:0:0:
192,192,11945,1,0,0:0:0:0:
320,192,12092,1,0,0:0:0:0:
64,192,12239,1,0,0:0:0:0:
448,192,12386,1,0,0:0:0:0:
192,192,12386,1,0,0:0:0:0:
320,192,12533,1,0,0:0:0:0:
192,192,12680,1,0,0:0:0:0:
448,192,12827,1,0,0:0:0:0:
320,192,12974,1,0,0:0:0:0:
64,192,13121,1,0,0:0:0:0:
192,192,13268,1,0,0:0:0:0:
320,192,13415,1,0,0:0:0:0:
192,192,13562,1,0,0:0:0:0:
64,192,13562,1,0,0:0:0:0:
448,192,13856,1,0,0:0:0:0:
320,192,13856,1,0,0:0:0:0:
64,192,14150,1,0,0:0:0:0:
192,192,14150,1,0,0:0:0:0:
448,192,14297,1,0,0:0:0:0:
320,192,14445,1,0,0:0:0:0:
64,192,14592,1,0,0:0:0:0:
448,192,14739,1,0,0:0:0:0:
192,192,14739,1,0,0:0:0:0:
320,192,14886,1,0,0:0:0:0:
192,192,15033,1,0,0:0:0:0:
448,192,15180,1,0,0:0:0:0:
64,192,15327,1,0,0:0:0:0:
320,192,15474,1,0,0:0:0:0:
192,192,15621,1,0,0:0:0:0:
320,192,15768,1,0,0:0:0:0:
448,192,15915,1,0,0:0:0:0:
64,192,15915,1,0,0:0:0:0:
192,192,16209,1,0,0:0:0:0:
320,192,16209,1,0,0:0:0:0:
448,192,16503,1,0,0:0:0:0:
64,192,16503,1,0,0:0:0:0:
192,192,16797,1,0,0:0:0:0:
448,192,17092,1,0,0:0:0:0:
320,192,17092,1,0,0:0:0:0:
192,192,17386,1,0,0:0:0:0:
448,192,17680,1,0,0:0:0:0:
64,192,17680,1,0,0:0:0:0:
320,192,17974,1,0,0:0:0:0:
64,192,17974,1,0,0:0:0:0:
448,192,18268,5,0,0:0:0:0:
320,192,18268,1,0,0:0:0:0:
448,192,18415,1,0,0:0:0:0:
64,192,18562,1,0,0:0:0:0:
192,192,18562,1,0,0:0:0:0:
64,192,18709,1,0,0:0:0:0:
192,192,18856,1,0,0:0:0:0:
320,192,18856,1,0,0:0:0:0:
320,192,19003,1,0,0:0:0:0:
64,192,19150,1,0,0:0:0:0:
448,192,19297,1,0,0:0:0:0:
320,192,19297,1,0,0:0:0:0:
192,192,19445,1,0,0:0:0:0:
64,192,19445,1,0,0:0:0:0:
448,192,19739,1,0,0:0:0:0:
192,192,19739,1,0,0:0:0:0:
448,192,19886,1,0,0:0:0:0:
320,192,20033,1,0,0:0:0:0:
192,192,20327,1,0,0:0:0:0:
64,192,20327,1,0,0:0:0:0:
192,192,20474,1,0,0:0:0:0:
64,192,20621,1,0,0:0:0:0:
320,192,20621,1,0,0:0:0:0:
320,192,20915,1,0,0:0:0:0:
192,192,20915,1,0,0:0:0:0:
448,192,21209,1,0,0:0:0:0:
64,192,21209,1,0,0:0:0:0:
192,192,21503,1,0,0:0:0:0:
448,192,21650,1,0,0:0:0:0:
320,192,21650,1,0,0:0:0:0:
64,192,21797,1,0,0:0:0:0:
192,192,21797,1,0,0:0:0:0:
64,192,22092,1,0,0:0:0:0:
320,192,22092,1,0,0:0:0:0:
64,192,22239,1,0,0:0:0:0:
448,192,22386,1,0,0:0:0:0:
192,192,22533,1,0,0:0:0:0:
320,192,22680,1,0,0:0:0:0:
64,192,22680,1,0,0:0:0:0:
320,192,22827,1,0,0:0:0:0:
448,192,22974,1,0,0:0:0:0:
192,192,22974,1,0,0:0:0:0:
192,192,23121,1,0,0:0:0:0:
64,192,23268,1,0,0:0:0:0:
448,192,23268,1,0,0:0:0:0:
448,192,23415,1,0,0:0:0:0:
192,192,23562,1,0,0:0:0:0:
64,192,23562,1,0,0:0:0:0:
64,192,23709,1,0,0:0:0:0:
320,192,23856,1,0,0:0:0:0:
448,192,24003,1,0,0:0:0:0:
192,192,24003,1,0,0:0:0:0:
64,192,24150,1,0,0:0:0:0:
320,192,24150,1,0,0:0:0:0:
192,192,24297,1,0,0:0:0:0:
448,192,24445,1,0,0:0:0:0:
320,192,24445,1,0,0:0:0:0:
448,192,24592,1,0,0:0:0:0:
192,192,24739,1,0,0:0:0:0:
64,192,25033,1,0,0:0:0:0:
448,192,25033,1,0,0:0:0:0:
448,192,25327,1,0,0:0:0:0:
64,192,25327,1,0,0:0:0:0:
448,192,25621,1,0,0:0:0:0:
192,192,25621,1,0,0:0:0:0:
192,192,25768,1,0,0:0:0:0:
64,192,25915,1,0,0:0:0:0:
320,192,25915,1,0,0:0:0:0:
320,192,26062,1,0,0:0:0:0:
192,192,26209,1,0,0:0:0:0:
448,192,26356,1,0,0:0:0:0:
64,192,26356,1,0,0:0:0:0:
192,192,26503,1,0,0:0:0:0:
320,192,26503,1,0,0:0:0:0:
192,192,26797,1,0,0:0:0:0:
448,192,26797,1,0,0:0:0:0:
320,192,26945,1,0,0:0:0:0:
64,192,27092,1,0,0:0:0:0:
64,192,27239,1,0,0:0:0:0:
448,192,27386,1,0,0:0:0:0:
192,192,27386,1,0,0:0:0:0:
448,192,27533,1,0,0:0:0:0:
64,192,27680,1,0,0:0:0:0:
320,192,27680,1,0,0:0:0:0:
320,192,27827,1,0,0:0:0:0:
448,192,27974,1,0,0:0:0:0:
64,192,27974,1,0,0:0:0:0:
64,192,28121,1,0,0:0:0:0:
192,192,28268,1,0,0:0:0:0:
320,192,28268,1,0,0:0:0:0:
192,192,28415,1,0,0:0:0:0:
448,192,28562,1,0,0:0:0:0:
320,192,28709,1,0,0:0:0:0:
64,192,28709,1,0,0:0:0:0:
192,192,28856,1,0,0:0:0:0:
448,192,28856,1,0,0:0:0:0:
448,192,29150,1,0,0:0:0:0:
320,192,29150,1,0,0:0:0:0:
320,192,29297,1,0,0:0:0:0:
192,192,29445,1,0,0:0:0:0:
448,192,29739,1,0,0:0:0:0:
64,192,29739,1,0,0:0:0:0:
64,192,29886,1,0,0:0:0:0:
192,192,30033,1,0,0:0:0:0:
320,192,30033,1,0,0:0:0:0:
448,192,30327,1,0,0:0:0:0:
192,192,30327,1,0,0:0:0:0:
320,192,30621,1,0,0:0:0:0:
64,192,30621,1,0,0:0:0:0:
192,192,30915,1,0,0:0:0:0:
448,192,31062,1,0,0:0:0:0:
64,192,31062,1,0,0:0:0:0:
192,192,31209,1,0,0:0:0:0:
320,192,31209,1,0,0:0:0:0:
320,192,31503,1,0,0:0:0:0:
64,192,31503,1,0,0:0:0:0:
320,192,31650,1,0,0:0:0:0:
192,192,31797,1,0,0:0:0:0:
192,192,31944,1,0,0:0:0:0:
448,192,32092,1,0,0:0:0:0:
320,192,32092,1,0,0:0:0:0:
448,192,32239,1,0,0:0:0:0:
64,192,32386,1,0,0:0:0:0:
320,192,32386,1,0,0:0:0:0:
64,192,32533,1,0,0:0:0:0:
448,192,32680,1,0,0:0:0:0:
192,192,32680,1,0,0:0:0:0:
192,192,32827,1,0,0:0:0:0:
448,192,32974,1,0,0:0:0:0:
320,192,32974,1,0,0:0:0:0:
320,192,33121,1,0,0:0:0:0:
64,192,33268,1,0,0:0:0:0:
320,192,33415,1,0,0:0:0:0:
192,192,33415,1,0,0:0:0:0:
64,192,33562,1,0,0:0:0:0:
448,192,33562,1,0,0:0:0:0:
192,192,33709,1,0,0:0:0:0:
448,192,33856,1,0,0:0:0:0:
320,192,33856,1,0,0:0:0:0:
448,192,34003,1,0,0:0:0:0:
192,192,34150,1,0,0:0:0:0:
448,192,34444,1,0,0:0:0:0:
64,192,34444,1,0,0:0:0:0:
64,192,34739,1,0,0:0:0:0:
448,192,34739,1,0,0:0:0:0:
448,192,35033,1,0,0:0:0:0:
320,192,35033,1,0,0:0:0:0:
320,192,35180,1,0,0:0:0:0:
64,192,35327,1,0,0:0:0:0:
192,192,35327,1,0,0:0:0:0:
192,192,35474,1,0,0:0:0:0:
448,192,35621,1,0,0:0:0:0:
64,192,35768,1,0,0:0:0:0:
320,192,35768,1,0,0:0:0:0:
448,192,35915,1,0,0:0:0:0:
192,192,35915,1,0,0:0:0:0:
192,192,36209,1,0,0:0:0:0:
320,192,36209,1,0,0:0:0:0:
64,192,36356,1,0,0:0:0:0:
448,192,36503,1,0,0:0:0:0:
448,192,36650,1,0,0:0:0:0:
192,192,36797,1,0,0:0:0:0:
320,192,36797,1,0,0:0:0:0:
192,192,36944,1,0,0:0:0:0:
448,192,37092,1,0,0:0:0:0:
64,192,37092,1,0,0:0:0:0:
448,192,37239,1,0,0:0:0:0:
64,192,37386,1,0,0:0:0:0:
320,192,37386,1,0,0:0:0:0:
64,192,37533,1,0,0:0:0:0:
192,192,37680,1,0,0:0:0:0:
448,192,39150,1,0,0:0:0:0:
64,192,39150,1,0,0:0:0:0:
448,192,39444,1,0,0:0:0:0:
192,192,39444,1,0,0:0:0:0:
192,192,39739,1,0,0:0:0:0:
320,192,39739,1,0,0:0:0:0:
320,192,40033,1,0,0:0:0:0:
64,192,40033,1,0,0:0:0:0:
448,192,40327,1,0,0:0:0:0:
64,192,40474,1,0,0:0:0:0:
192,192,40474,1,0,0:0:0:0:
448,192,40621,1,0,0:0:0:0:
320,192,40621,1,0,0:0:0:0:
448,192,40915,1,0,0:0:0:0:
64,192,40915,1,0,0:0:0:0:
192,192,41062,1,0,0:0:0:0:
320,192,41209,1,0,0:0:0:0:
64,192,41503,1,0,0:0:0:0:
192,192,41503,1,0,0:0:0:0:
64,192,41650,1,0,0:0:0:0:
448,192,41797,1,0,0:0:0:0:
320,192,41797,1,0,0:0:0:0:
448,192,41944,1,0,0:0:0:0:
192,192,42092,1,0,0:0:0:0:
320,192,42092,1,0,0:0:0:0:
192,192,42239,1,0,0:0:0:0:
448,192,42386,1,0,0:0:0:0:
64,192,42386,1,0,0:0:0:0:
320,192,42533,1,0,0:0:0:0:
192,192,42680,1,0,0:0:0:0:
448,192,42827,1,0,0:0:0:0:
320,192,42827,1,0,0:0:0:0:
64,192,42974,1,0,0:0:0:0:
192,192,42974,1,0,0:0:0:0:
448,192,43121,1,0,0:0:0:0:
64,192,43268,1,0,0:0:0:0:
320,192,43268,1,0,0:0:0:0:
192,192,43415,1,0,0:0:0:0:
320,192,43562,1,0,0:0:0:0:
64,192,43709,1,0,0:0:0:0:
448,192,43856,1,0,0:0:0:0:
192,192,43856,1,0,0:0:0:0:
192,192,44150,1,0,0:0:0:0:
320,192,44150,1,0,0:0:0:0:
64,192,44297,1,0,0:0:0:0:
448,192,44444,1,0,0:0:0:0:
320,192,44444,1,0,0:0:0:0:
192,192,44592,1,0,0:0:0:0:
448,192,44739,1,0,0:0:0:0:
64,192,44739,1,0,0:0:0:0:
320,192,44886,1,0,0:0:0:0:
192,192,45033,1,0,0:0:0:0:
320,192,45180,1,0,0:0:0:0:
64,192,45180,1,0,0:0:0:0:
192,192,45327,1,0,0:0:0:0:
448,192,45327,1,0,0:0:0:0:
320,192,45474,1,0,0:0:0:0:
192,192,45621,1,0,0:0:0:0:
64,192,45621,1,0,0:0:0:0:
448,192,45768,1,0,0:0:0:0:
192,192,45915,1,0,0:0:0:0:
320,192,46062,1,0,0:0:0:0:
448,192,46209,1,0,0:0:0:0:
64,192,46209,1,0,0:0:0:0:
64,192,46356,1,0,0:0:0:0:
448,192,46503,1,0,0:0:0:0:
320,192,46503,1,0,0:0:0:0:
320,192,46650,1,0,0:0:0:0:
448,192,46797,1,0,0:0:0:0:
192,192,46797,1,0,0:0:0:0:
192,192,46944,1,0,0:0:0:0:
448,192,47092,1,0,0:0:0:0:
64,192,47092,1,0,0:0:0:0:
320,192,47239,1,0,0:0:0:0:
192,192,47386,1,0,0:0:0:0:
64,192,47533,1,0,0:0:0:0:
320,192,47533,1,0,0:0:0:0:
448,192,47680,1,0,0:0:0:0:
192,192,47680,1,0,0:0:0:0:
448,192,47974,1,0,0:0:0:0:
320,192,47974,1,0,0:0:0:0:
192,192,48121,1,0,0:0:0:0:
448,192,48268,1,0,0:0:0:0:
64,192,48415,1,0,0:0:0:0:
192,192,48562,1,0,0:0:0:0:
320,192,48562,1,0,0:0:0:0:
448,192,48709,1,0,0:0:0:0:
64,192,48856,1,0,0:0:0:0:
320,192,48856,1,0,0:0:0:0:
448,192,49150,1,0,0:0:0:0:
64,192,49150,1,0,0:0:0:0:
192,192,49297,1,0,0:0:0:0:
448,192,49444,1,0,0:0:0:0:
320,192,49444,1,0,0:0:0:0:
192,192,49592,1,0,0:0:0:0:
448,192,49739,1,0,0:0:0:0:
64,192,49886,1,0,0:0:0:0:
320,192,49886,1,0,0:0:0:0:
192,192,50033,1,0,0:0:0:0:
448,192,50033,1,0,0:0:0:0:
448,192,50327,1,0,0:0:0:0:
64,192,50327,1,0,0:0:0:0:
320,192,50621,1,0,0:0:0:0:
192,192,50768,1,0,0:0:0:0:
448,192,50915,1,0,0:0:0:0:
320,192,50915,1,0,0:0:0:0:
448,192,51062,1,0,0:0:0:0:
64,192,51209,1,0,0:0:0:0:
320,192,51209,1,0,0:0:0:0:
64,192,51356,1,0,0:0:0:0:
192,192,51503,1,0,0:0:0:0:
320,192,51503,1,0,0:0:0:0:
320,192,51650,1,0,0:0:0:0:
448,192,51797,1,0,0:0:0:0:
64,192,51797,1,0,0:0:0:0:
192,192,52092,1,0,0:0:0:0:
448,192,52239,1,0,0:0:0:0:
320,192,52239,1,0,0:0:0:0:
64,192,52386,1,0,0:0:0:0:
192,192,52386,1,0,0:0:0:0:
448,192,52680,1,0,0:0:0:0:
320,192,52680,1,0,0:0:0:0:
64,192,52827,1,0,0:0:0:0:
448,192,52974,1,0,0:0:0:0:
64,192,53121,1,0,0:0:0:0:
192,192,53268,1,0,0:0:0:0:
320,192,53268,1,0,0:0:0:0:
448,192,53562,1,0,0:0:0:0:
320,192,53562,1,0,0:0:0:0:
64,192,53856,1,0,0:0:0:0:
448,192,53856,1,0,0:0:0:0:
192,192,54150,1,0,0:0:0:0:
64,192,54150,1,0,0:0:0:0:
448,192,54444,1,0,0:0:0:0:
192,192,54592,1,0,0:0:0:0:
320,192,54592,1,0,0:0:0:0:
448,192,54739,1,0,0:0:0:0:
64,192,54739,1,0,0:0:0:0:
320,192,55033,1,0,0:0:0:0:
64,192,55033,1,0,0:0:0:0:
192,192,55327,1,0,0:0:0:0:
320,192,55474,1,0,0:0:0:0:
448,192,55621,1,0,0:0:0:0:
64,192,55621,1,0,0:0:0:0:
448,192,55768,1,0,0:0:0:0:
192,192,55915,1,0,0:0:0:0:
320,192,55915,1,0,0:0:0:0:
192,192,56062,1,0,0:0:0:0:
448,192,56209,1,0,0:0:0:0:
320,192,56209,1,0,0:0:0:0:
320,192,56356,1,0,0:0:0:0:
448,192,56503,1,0,0:0:0:0:
64,192,56503,1,0,0:0:0:0:
192,192,56797,1,0,0:0:0:0:
448,192,56944,1,0,0:0:0:0:
320,192,56944,1,0,0:0:0:0:
64,192,57092,1,0,0:0:0:0:
192,192,57092,1,0,0:0:0:0:
448,192,57386,1,0,0:0:0:0:
64,192,57386,1,0,0:0:0:0:
320,192,57680,1,0,0:0:0:0:
448,192,57974,1,0,0:0:0:0:
64,192,57974,1,0,0:0:0:0:
192,192,58121,1,0,0:0:0:0:
448,192,58268,1,0,0:0:0:0:
320,192,58268,1,0,0:0:0:0:
320,192,58562,1,0,0:0:0:0:
64,192,58562,1,0,0:0:0:0:
448,192,58856,1,0,0:0:0:0:
64,192,58856,1,0,0:0:0:0:
192,192,59150,1,0,0:0:0:0:
64,192,59297,1,0,0:0:0:0:
320,192,59297,1,0,0:0:0:0:
448,192,59444,1,0,0:0:0:0:
192,192,59444,1,0,0:0:0:0:
448,192,59739,1,0,0:0:0:0:
320,192,59739,1,0,0:0:0:0:
64,192,60033,1,0,0:0:0:0:
320,192,60327,1,0,0:0:0:0:
192,192,60327,1,0,0:0:0:0:
320,192,60474,1,0,0:0:0:0:
448,192,60621,1,0,0:0:0:0:
64,192,60621,1,0,0:0:0:0:
64,192,60768,1,0,0:0:0:0:
192,192,60915,1,0,0:0:0:0:
448,192,60915,1,0,0:0:0:0:
448,192,61062,1,0,0:0:0:0:
320,192,61209,1,0,0:0:0:0:
64,192,61209,1,0,0:0:0:0:
192,192,61503,1,0,0:0:0:0:
448,192,61650,1,0,0:0:0:0:
64,192,61650,1,0,0:0:0:0:
192,192,61797,1,0,0:0:0:0:
320,192,61797,1,0,0:0:0:0:
64,192,62092,1,0,0:0:0:0:
320,192,62092,1,0,0:0:0:0:
448,192,62386,1,0,0:0:0:0:
192,192,62680,1,0,0:0:0:0:
320,192,62680,1,0,0:0:0:0:
448,192,62974,1,0,0:0:0:0:
192,192,62974,1,0,0:0:0:0:
448,192,63268,1,0,0:0:0:0:
64,192,63268,1,0,0:0:0:0:
320,192,63562,1,0,0:0:0:0:
64,192,63562,1,0,0:0:0:0:
192,192,63856,1,0,0:0:0:0:
448,192,64003,1,0,0:0:0:0:
320,192,64003,1,0,0:0:0:0:
64,192,64150,1,0,0:0:0:0:
192,192,64150,1,0,0:0:0:0:
448,192,64444,1,0,0:0:0:0:
64,192,64444,1,0,0:0:0:0:
320,192,64739,1,0,0:0:0:0:
64,192,65033,1,0,0:0:0:0:
192,192,65033,1,0,0:0:0:0:
64,192,65180,1,0,0:0:0:0:
448,192,65327,1,0,0:0:0:0:
320,192,65327,1,0,0:0:0:0:
320,192,65474,1,0,0:0:0:0:
448,192,65621,1,0,0:0:0:0:
192,192,65621,1,0,0:0:0:0:
192,192,65768,1,0,0:0:0:0:
320,192,65915,1,0,0:0:0:0:
64,192,65915,1,0,0:0:0:0:
192,192,66209,1,0,0:0:0:0:
448,192,66356,1,0,0:0:0:0:
320,192,66356,1,0,0:0:0:0:
64,192,66503,1,0,0:0:0:0:
192,192,66503,1,0,0:0:0:0:
448,192,66797,1,0,0:0:0:0:
64,192,66797,1,0,0:0:0:0:
320,192,67092,1,0,0:0:0:0:
448,192,67386,1,0,0:0:0:0:
192,192,67386,1,0,0:0:0:0:
320,192,67533,1,0,0:0:0:0:
192,192,67680,1,0,0:0:0:0:
64,192,67680,1,0,0:0:0:0:
448,192,67974,1,0,0:0:0:0:
64,192,67974,1,0,0:0:0:0:
448,192,68268,1,0,0:0:0:0:
320,192,68268,1,0,0:0:0:0:
192,192,68562,1,0,0:0:0:0:
448,192,68709,1,0,0:0:0:0:
64,192,68709,1,0,0:0:0:0:
192,192,68856,1,0,0:0:0:0:
320,192,68856,1,0,0:0:0:0:
448,192,69150,1,0,0:0:0:0:
320,192,69150,1,0,0:0:0:0:
64,192,69444,1,0,0:0:0:0:
192,192,69739,1,0,0:0:0:0:
320,192,69739,1,0,0:0:0:0:
320,192,69886,1,0,0:0:0:0:
448,192,70033,1,0,0:0:0:0:
64,192,70033,1,0,0:0:0:0:
64,192,70180,1,0,0:0:0:0:
448,192,70327,1,0,0:0:0:0:
192,192,70327,1,0,0:0:0:0:
448,192,70474,1,0,0:0:0:0:
64,192,70621,1,0,0:0:0:0:
320,192,70621,1,0,0:0:0:0:
192,192,70915,1,0,0:0:0:0:
448,192,71062,1,0,0:0:0:0:
320,192,71062,1,0,0:0:0:0:
64,192,71209,1,0,0:0:0:0:
192,192,71209,1,0,0:0:0:0:
448,192,71503,1,0,0:0:0:0:
64,192,71503,1,0,0:0:0:0:
320,192,71797,1,0,0:0:0:0:
448,192,72092,1,0,0:0:0:0:
64,192,72092,1,0,0:0:0:0:
448,192,72386,1,0,0:0:0:0:
192,192,72386,1,0,0:0:0:0:
192,192,72680,1,0,0:0:0:0:
320,192,72680,1,0,0:0:0:0:
64,192,72974,1,0,0:0:0:0:
192,192,73121,1,0,0:0:0:0:
448,192,73268,1,0,0:0:0:0:
320,192,73415,1,0,0:0:0:0:
192,192,73562,1,0,0:0:0:0:
448,192,73856,1,0,0:0:0:0:
320,192,74003,1,0,0:0:0:0:
64,192,74150,1,0,0:0:0:0:
192,192,74297,1,0,0:0:0:0:
320,192,74444,1,0,0:0:0:0:
64,192,74739,1,0,0:0:0:0:
192,192,74739,1,0,0:0:0:0:
320,192,74886,1,0,0:0:0:0:
64,192,75033,1,0,0:0:0:0:
192,192,75180,1,0,0:0:0:0:
448,192,75327,1,0,0:0:0:0:
320,192,75327,1,0,0:0:0:0:
64,192,75474,1,0,0:0:0:0:
320,192,75621,1,0,0:0:0:0:
192,192,75768,1,0,0:0:0:0:
448,192,75768,1,0,0:0:0:0:
64,192,75915,1,0,0:0:0:0:
320,192,75915,1,0,0:0:0:0:
448,192,76209,1,0,0:0:0:0:
64,192,76209,1,0,0:0:0:0:
320,192,76503,1,0,0:0:0:0:
320,192,76650,1,0,0:0:0:0:
192,192,76797,1,0,0:0:0:0:
64,192,76797,1,0,0:0:0:0:
448,192,76944,1,0,0:0:0:0:
320,192,77092,1,0,0:0:0:0:
64,192,77092,1,0,0:0:0:0:
448,192,77386,1,0,0:0:0:0:
192,192,77386,1,0,0:0:0:0:
448,192,77680,1,0,0:0:0:0:
64,192,77680,1,0,0:0:0:0:
448,192,77827,1,0,0:0:0:0:
320,192,77974,1,0,0:0:0:0:
192,192,78121,1,0,0:0:0:0:
64,192,78121,1,0,0:0:0:0:
448,192,78268,1,0,0:0:0:0:
320,192,78268,1,0,0:0:0:0:
448,192,78562,1,0,0:0:0:0:
64,192,78562,1,0,0:0:0:0:
192,192,78856,1,0,0:0:0:0:
192,192,79003,1,0,0:0:0:0:
320,192,79150,1,0,0:0:0:0:
64,192,79150,1,0,0:0:0:0:
64,192,79297,1,0,0:0:0:0:
448,192,79444,1,0,0:0:0:0:
320,192,79444,1,0,0:0:0:0:
448,192,79592,1,0,0:0:0:0:
192,192,79739,1,0,0:0:0:0:
320,192,79739,1,0,0:0:0:0:
192,192,79886,1,0,0:0:0:0:
320,192,80033,1,0,0:0:0:0:
64,192,80033,1,0,0:0:0:0:
320,192,80180,1,0,0:0:0:0:
448,192,80327,1,0,0:0:0:0:
192,192,80474,1,0,0:0:0:0:
64,192,80474,1,0,0:0:0:0:
448,192,80621,1,0,0:0:0:0:
320,192,80621,1,0,0:0:0:0:
320,192,80915,1,0,0:0:0:0:
64,192,80915,1,0,0:0:0:0:
192,192,81062,1,0,0:0:0:0:
448,192,81209,1,0,0:0:0:0:
448,192,81356,1,0,0:0:0:0:
192,192,81503,1,0,0:0:0:0:
64,192,81503,1,0,0:0:0:0:
320,192,81650,1,0,0:0:0:0:
192,192,81797,1,0,0:0:0:0:
448,192,81797,1,0,0:0:0:0:
448,192,82092,1,0,0:0:0:0:
320,192,82092,1,0,0:0:0:0:
64,192,82239,1,0,0:0:0:0:
192,192,82386,1,0,0:0:0:0:
448,192,82386,1,0,0:0:0:0:
448,192,82533,1,0,0:0:0:0:
320,192,82680,1,0,0:0:0:0:
192,192,82827,1,0,0:0:0:0:
64,192,82827,1,0,0:0:0:0:
320,192,82974,1,0,0:0:0:0:
448,192,82974,1,0,0:0:0:0:
192,192,83121,1,0,0:0:0:0:
448,192,83268,1,0,0:0:0:0:
64,192,83268,1,0,0:0:0:0:
320,192,83415,1,0,0:0:0:0:
192,192,83562,1,0,0:0:0:0:
192,192,83709,1,0,0:0:0:0:
448,192,83856,1,0,0:0:0:0:
320,192,83856,1,0,0:0:0:0:
448,192,84003,1,0,0:0:0:0:
64,192,84150,1,0,0:0:0:0:
320,192,84150,1,0,0:0:0:0:
64,192,84297,1,0,0:0:0:0:
448,192,84444,1,0,0:0:0:0:
192,192,84444,1,0,0:0:0:0:
192,192,84592,1,0,0:0:0:0:
448,192,84739,1,0,0:0:0:0:
320,192,84739,1,0,0:0:0:0:
192,192,85033,1,0,0:0:0:0:
64,192,85180,1,0,0:0:0:0:
320,192,85180,1,0,0:0:0:0:
192,192,85327,1,0,0:0:0:0:
448,192,85327,1,0,0:0:0:0:
448,192,85621,1,0,0:0:0:0:
320,192,85621,1,0,0:0:0:0:
320,192,85768,1,0,0:0:0:0:
192,192,85915,1,0,0:0:0:0:
448,192,86062,1,0,0:0:0:0:
64,192,86209,1,0,0:0:0:0:
320,192,86209,1,0,0:0:0:0:
192,192,86356,1,0,0:0:0:0:
448,192,86503,1,0,0:0:0:0:
320,192,86503,1,0,0:0:0:0:
64,192,86650,1,0,0:0:0:0:
448,192,86797,1,0,0:0:0:0:
192,192,86797,1,0,0:0:0:0:
320,192,86944,1,0,0:0:0:0:
192,192,87092,1,0,0:0:0:0:
64,192,87092,1,0,0:0:0:0:
448,192,87239,1,0,0:0:0:0:
320,192,87386,1,0,0:0:0:0:
448,192,87533,1,0,0:0:0:0:
192,192,87533,1,0,0:0:0:0:
320,192,87680,1,0,0:0:0:0:
64,192,87680,1,0,0:0:0:0:
192,192,87827,1,0,0:0:0:0:
448,192,87974,1,0,0:0:0:0:
320,192,87974,1,0,0:0:0:0:
64,192,88121,1,0,0:0:0:0:
320,192,88268,1,0,0:0:0:0:
448,192,88562,1,0,0:0:0:0:
192,192,88562,1,0,0:0:0:0:
448,192,88709,1,0,0:0:0:0:
64,192,88856,1,0,0:0:0:0:
320,192,88856,1,0,0:0:0:0:
64,192,89003,1,0,0:0:0:0:
448,192,89150,1,0,0:0:0:0:
192,192,89150,1,0,0:0:0:0:
192,192,89297,1,0,0:0:0:0:
448,192,89444,1,0,0:0:0:0:
64,192,89444,1,0,0:0:0:0:
448,192,89592,1,0,0:0:0:0:
320,192,89739,1,0,0:0:0:0:
64,192,89886,1,0,0:0:0:0:
192,192,89886,1,0,0:0:0:0:
448,192,90033,1,0,0:0:0:0:
320,192,90033,1,0,0:0:0:0:
192,192,90180,1,0,0:0:0:0:
448,192,90327,1,0,0:0:0:0:
64,192,90327,1,0,0:0:0:0:
320,192,90474,1,0,0:0:0:0:
192,192,90621,1,0,0:0:0:0:
192,192,90768,1,0,0:0:0:0:
320,192,90915,1,0,0:0:0:0:
448,192,90915,1,0,0:0:0:0:
64,192,91062,1,0,0:0:0:0:
192,192,91209,1,0,0:0:0:0:
320,192,91209,1,0,0:0:0:0:
448,192,91503,1,0,0:0:0:0:
192,192,91503,1,0,0:0:0:0:
64,192,91797,1,0,0:0:0:0:
320,192,91797,1,0,0:0:0:0:
64,192,91944,1,0,0:0:0:0:
448,192,93121,1,0,0:0:0:0:
192,192,93415,1,0,0:0:0:0:
320,192,93709,1,0,0:0:0:0:
64,192,94003,1,0,0:0:0:0:
448,192,94150,1,0,0:0:0:0:
192,192,94150,1,0,0:0:0:0:
448,192,94297,1,0,0:0:0:0:
320,192,94444,1,0,0:0:0:0:
192,192,94592,1,0,0:0:0:0:
64,192,94592,1,0,0:0:0:0:
448,192,94739,1,0,0:0:0:0:
320,192,94739,1,0,0:0:0:0:
448,192,95033,1,0,0:0:0:0:
64,192,95033,1,0,0:0:0:0:
192,192,95327,1,0,0:0:0:0:
192,192,95474,1,0,0:0:0:0:
448,192,95621,1,0,0:0:0:0:
320,192,95621,1,0,0:0:0:0:
64,192,95768,1,0,0:0:0:0:
320,192,95915,1,0,0:0:0:0:
192,192,95915,1,0,0:0:0:0:
448,192,96209,1,0,0:0:0:0:
192,192,96209,1,0,0:0:0:0:
448,192,96356,1,0,0:0:0:0:
64,192,96503,1,0,0:0:0:0:
320,192,96503,1,0,0:0:0:0:
64,192,96650,1,0,0:0:0:0:
192,192,96797,1,0,0:0:0:0:
448,192,96944,1,0,0:0:0:0:
320,192,96944,1,0,0:0:0:0:
64,192,97092,1,0,0:0:0:0:
192,192,97092,1,0,0:0:0:0:
448,192,97386,1,0,0:0:0:0:
64,192,97386,1,0,0:0:0:0:
320,192,97680,1,0,0:0:0:0:
320,192,97827,1,0,0:0:0:0:
448,192,97974,1,0,0:0:0:0:
192,192,97974,1,0,0:0:0:0:
192,192,98121,1,0,0:0:0:0:
448,192,98268,1,0,0:0:0:0:
64,192,98268,1,0,0:0:0:0:
448,192,98415,1,0,0:0:0:0:
64,192,98562,1,0,0:0:0:0:
320,192,98562,1,0,0:0:0:0:
64,192,98709,1,0,0:0:0:0:
448,192,98856,1,0,0:0:0:0:
192,192,98856,1,0,0:0:0:0:
448,192,99003,1,0,0:0:0:0:
320,192,99150,1,0,0:0:0:0:
192,192,99297,1,0,0:0:0:0:
64,192,99297,1,0,0:0:0:0:
448,192,99444,1,0,0:0:0:0:
320,192,99444,1,0,0:0:0:0:
448,192,99739,1,0,0:0:0:0:
64,192,99739,1,0,0:0:0:0:
64,192,99886,1,0,0:0:0:0:
320,192,100033,1,0,0:0:0:0:
192,192,100180,1,0,0:0:0:0:
448,192,100327,1,0,0:0:0:0:
320,192,100327,1,0,0:0:0:0:
64,192,100474,1,0,0:0:0:0:
192,192,100621,1,0,0:0:0:0:
448,192,100621,1,0,0:0:0:0:
192,192,100915,1,0,0:0:0:0:
320,192,100915,1,0,0:0:0:0:
320,192,101209,1,0,0:0:0:0:
64,192,101209,1,0,0:0:0:0:
64,192,101356,1,0,0:0:0:0:
448,192,101503,1,0,0:0:0:0:
64,192,101650,1,0,0:0:0:0:
320,192,101650,1,0,0:0:0:0:
192,192,101797,1,0,0:0:0:0:
448,192,101797,1,0,0:0:0:0:
320,192,102092,1,0,0:0:0:0:
192,192,102092,1,0,0:0:0:0:
64,192,102386,1,0,0:0:0:0:
64,192,102533,1,0,0:0:0:0:
192,192,102680,5,0,0:0:0:0:
320,192,102680,1,0,0:0:0:0:
320,192,102827,1,0,0:0:0:0:
448,192,102974,1,0,0:0:0:0:
192,192,102974,1,0,0:0:0:0:
192,192,103121,1,0,0:0:0:0:
448,192,103268,1,0,0:0:0:0:
64,192,103268,1,0,0:0:0:0:
448,192,103415,1,0,0:0:0:0:
320,192,103562,5,0,0:0:0:0:
192,192,103562,1,0,0:0:0:0:
192,192,103709,1,0,0:0:0:0:
448,192,103856,1,0,0:0:0:0:
64,192,104003,1,0,0:0:0:0:
192,192,104003,1,0,0:0:0:0:
320,192,104150,1,0,0:0:0:0:
448,192,104150,1,0,0:0:0:0:
64,192,104444,1,0,0:0:0:0:
320,192,104444,1,0,0:0:0:0:
64,192,104592,1,0,0:0:0:0:
192,192,104739,1,0,0:0:0:0:
320,192,105033,1,0,0:0:0:0:
448,192,105033,1,0,0:0:0:0:
320,192,105180,1,0,0:0:0:0:
448,192,105327,1,0,0:0:0:0:
192,192,105327,1,0,0:0:0:0:
192,192,105621,1,0,0:0:0:0:
320,192,105621,1,0,0:0:0:0:
64,192,105915,1,0,0:0:0:0:
448,192,105915,1,0,0:0:0:0:
320,192,106209,1,0,0:0:0:0:
64,192,106356,1,0,0:0:0:0:
192,192,106356,1,0,0:0:0:0:
448,192,106503,1,0,0:0:0:0:
320,192,106503,1,0,0:0:0:0:
448,192,106797,1,0,0:0:0:0:
192,192,106797,1,0,0:0:0:0:
448,192,106944,1,0,0:0:0:0:
64,192,107092,1,0,0:0:0:0:
320,192,107239,1,0,0:0:0:0:
192,192,107386,1,0,0:0:0:0:
448,192,107386,1,0,0:0:0:0:
192,192,107533,1,0,0:0:0:0:
64,192,107680,1,0,0:0:0:0:
320,192,107680,1,0,0:0:0:0:
320,192,107827,1,0,0:0:0:0:
448,192,107974,1,0,0:0:0:0:
64,192,107974,1,0,0:0:0:0:
64,192,108121,1,0,0:0:0:0:
320,192,108268,1,0,0:0:0:0:
448,192,108268,1,0,0:0:0:0:
448,192,108415,1,0,0:0:0:0:
192,192,108562,1,0,0:0:0:0:
64,192,108709,1,0,0:0:0:0:
320,192,108709,1,0,0:0:0:0:
448,192,108856,1,0,0:0:0:0:
192,192,108856,1,0,0:0:0:0:
320,192,109003,1,0,0:0:0:0:
64,192,109150,1,0,0:0:0:0:
192,192,109150,1,0,0:0:0:0:
64,192,109297,1,0,0:0:0:0:
320,192,109444,1,0,0:0:0:0:
448,192,109739,1,0,0:0:0:0:
64,192,109739,1,0,0:0:0:0:
64,192,110033,1,0,0:0:0:0:
448,192,110033,1,0,0:0:0:0:
64,192,110327,1,0,0:0:0:0:
320,192,110327,1,0,0:0:0:0:
320,192,110474,1,0,0:0:0:0:
448,192,110621,1,0,0:0:0:0:
192,192,110621,1,0,0:0:0:0:
192,192,110768,1,0,0:0:0:0:
320,192,110915,1,0,0:0:0:0:
64,192,111062,1,0,0:0:0:0:
448,192,111062,1,0,0:0:0:0:
320,192,111209,1,0,0:0:0:0:
192,192,111209,1,0,0:0:0:0:
320,192,111503,1,0,0:0:0:0:
64,192,111503,1,0,0:0:0:0:
192,192,111650,1,0,0:0:0:0:
448,192,111797,1,0,0:0:0:0:
448,192,111944,1,0,0:0:0:0:
64,192,112092,1,0,0:0:0:0:
320,192,112092,1,0,0:0:0:0:
64,192,112239,1,0,0:0:0:0:
448,192,112386,1,0,0:0:0:0:
192,192,112386,1,0,0:0:0:0:
192,192,112533,1,0,0:0:0:0:
64,192,112680,1,0,0:0:0:0:
448,192,112680,1,0,0:0:0:0:
448,192,112827,1,0,0:0:0:0:
320,192,112974,1,0,0:0:0:0:
192,192,112974,1,0,0:0:0:0:
320,192,113121,1,0,0:0:0:0:
64,192,113268,1,0,0:0:0:0:
192,192,113415,1,0,0:0:0:0:
320,192,113562,1,0,0:0:0:0:
448,192,113562,1,0,0:0:0:0:
64,192,113856,1,0,0:0:0:0:
192,192,113856,1,0,0:0:0:0:
192,192,114003,1,0,0:0:0:0:
320,192,114150,1,0,0:0:0:0:
64,192,114444,1,0,0:0:0:0:
448,192,114444,1,0,0:0:0:0:
448,192,114592,1,0,0:0:0:0:
320,192,114739,1,0,0:0:0:0:
192,192,114739,1,0,0:0:0:0:
64,192,115033,1,0,0:0:0:0:
320,192,115033,1,0,0:0:0:0:
192,192,115327,1,0,0:0:0:0:
448,192,115327,1,0,0:0:0:0:
320,192,115621,1,0,0:0:0:0:
64,192,115768,1,0,0:0:0:0:
448,192,115768,1,0,0:0:0:0:
320,192,115915,1,0,0:0:0:0:
192,192,115915,1,0,0:0:0:0:
192,192,116209,1,0,0:0:0:0:
448,192,116209,1,0,0:0:0:0:
192,192,116356,1,0,0:0:0:0:
320,192,116503,1,0,0:0:0:0:
320,192,116650,1,0,0:0:0:0:
64,192,116797,1,0,0:0:0:0:
192,192,116797,1,0,0:0:0:0:
64,192,116944,1,0,0:0:0:0:
448,192,117092,1,0,0:0:0:0:
192,192,117092,1,0,0:0:0:0:
448,192,117239,1,0,0:0:0:0:
64,192,117386,1,0,0:0:0:0:
320,192,117386,1,0,0:0:0:0:
320,192,117533,1,0,0:0:0:0:
64,192,117680,1,0,0:0:0:0:
192,192,117680,1,0,0:0:0:0:
192,192,117827,1,0,0:0:0:0:
448,192,117974,1,0,0:0:0:0:
192,192,118121,1,0,0:0:0:0:
320,192,118121,1,0,0:0:0:0:
448,192,118268,1,0,0:0:0:0:
64,192,118268,1,0,0:0:0:0:
320,192,118415,1,0,0:0:0:0:
64,192,118562,1,0,0:0:0:0:
192,192,118562,1,0,0:0:0:0:
64,192,118709,1,0,0:0:0:0:
320,192,118856,1,0,0:0:0:0:
64,192,119150,1,0,0:0:0:0:
448,192,119150,1,0,0:0:0:0:
448,192,119444,1,0,0:0:0:0:
64,192,119444,1,0,0:0:0:0:
64,192,119739,1,0,0:0:0:0:
192,192,119739,1,0,0:0:0:0:
192,192,119886,1,0,0:0:0:0:
448,192,120033,1,0,0:0:0:0:
320,192,120033,1,0,0:0:0:0:
320,192,120180,1,0,0:0:0:0:
64,192,120327,1,0,0:0:0:0:
448,192,120474,1,0,0:0:0:0:
192,192,120474,1,0,0:0:0:0:
64,192,120621,1,0,0:0:0:0:
320,192,120621,1,0,0:0:0:0:
320,192,120915,1,0,0:0:0:0:
192,192,120915,1,0,0:0:0:0:
448,192,121062,1,0,0:0:0:0:
64,192,121209,1,0,0:0:0:0:
64,192,121356,1,0,0:0:0:0:
320,192,121503,1,0,0:0:0:0:
192,192,121503,1,0,0:0:0:0:
320,192,121650,1,0,0:0:0:0:
64,192,121797,1,0,0:0:0:0:
448,192,121797,1,0,0:0:0:0:
64,192,121944,1,0,0:0:0:0:
448,192,122092,1,0,0:0:0:0:
192,192,122092,1,0,0:0:0:0:
448,192,122239,1,0,0:0:0:0:
320,192,122386,1,0,0:0:0:0:
192,192,122386,1,0,0:0:0:0:
320,192,122533,1,0,0:0:0:0:
64,192,122680,1,0,0:0:0:0:
320,192,122827,1,0,0:0:0:0:
448,192,122827,1,0,0:0:0:0:
64,192,122974,1,0,0:0:0:0:
192,192,122974,1,0,0:0:0:0:
192,192,123268,1,0,0:0:0:0:
448,192,123268,1,0,0:0:0:0:
448,192,123415,1,0,0:0:0:0:
320,192,123562,1,0,0:0:0:0:
64,192,123856,1,0,0:0:0:0:
192,192,123856,1,0,0:0:0:0:
192,192,124003,1,0,0:0:0:0:
320,192,124150,1,0,0:0:0:0:
64,192,124150,1,0,0:0:0:0:
192,192,124444,1,0,0:0:0:0:
320,192,124444,1,0,0:0:0:0:
64,192,124739,1,0,0:0:0:0:
448,192,124739,1,0,0:0:0:0:
192,192,125033,1,0,0:0:0:0:
320,192,125180,1,0,0:0:0:0:
448,192,125180,1,0,0:0:0:0:
192,192,125327,1,0,0:0:0:0:
64,192,125327,1,0,0:0:0:0:
320,192,125621,1,0,0:0:0:0:
64,192,125621,1,0,0:0:0:0:
64,192,125768,1,0,0:0:0:0:
448,192,125915,1,0,0:0:0:0:
192,192,126062,1,0,0:0:0:0:
64,192,126209,1,0,0:0:0:0:
320,192,126209,1,0,0:0:0:0:
320,192,126356,1,0,0:0:0:0:
192,192,126503,1,0,0:0:0:0:
448,192,126503,1,0,0:0:0:0:
192,192,126650,1,0,0:0:0:0:
448,192,126797,1,0,0:0:0:0:
64,192,126797,1,0,0:0:0:0:
448,192,126944,1,0,0:0:0:0:
64,192,127092,1,0,0:0:0:0:
192,192,127092,1,0,0:0:0:0:
64,192,127239,1,0,0:0:0:0:
320,192,127386,1,0,0:0:0:0:
192,192,127533,1,0,0:0:0:0:
448,192,127533,1,0,0:0:0:0:
320,192,127680,1,0,0:0:0:0:
64,192,127680,1,0,0:0:0:0:
192,192,127827,1,0,0:0:0:0:
320,192,127974,1,0,0:0:0:0:
448,192,127974,1,0,0:0:0:0:
448,192,128121,1,0,0:0:0:0:
192,192,128268,1,0,0:0:0:0:
448,192,128562,1,0,0:0:0:0:
64,192,128562,1,0,0:0:0:0:
64,192,128856,1,0,0:0:0:0:
448,192,128856,1,0,0:0:0:0:
192,192,129150,1,0,0:0:0:0:
448,192,129150,1,0,0:0:0:0:
192,192,129297,1,0,0:0:0:0:
320,192,129444,1,0,0:0:0:0:
64,192,129444,1,0,0:0:0:0:
320,192,129592,1,0,0:0:0:0:
192,192,129739,1,0,0:0:0:0:
64,192,129886,1,0,0:0:0:0:
448,192,129886,1,0,0:0:0:0:
320,192,130033,1,0,0:0:0:0:
192,192,130033,1,0,0:0:0:0:
448,192,130327,1,0,0:0:0:0:
192,192,130327,1,0,0:0:0:0:
320,192,130474,1,0,0:0:0:0:
64,192,130621,1,0,0:0:0:0:
64,192,130768,1,0,0:0:0:0:
192,192,130915,1,0,0:0:0:0:
448,192,130915,1,0,0:0:0:0:
448,192,131062,1,0,0:0:0:0:
320,192,131209,1,0,0:0:0:0:
64,192,131209,1,0,0:0:0:0:
320,192,131356,1,0,0:0:0:0:
64,192,131503,1,0,0:0:0:0:
448,192,131503,1,0,0:0:0:0:
64,192,131650,1,0,0:0:0:0:
192,192,131797,1,0,0:0:0:0:
320,192,131797,1,0,0:0:0:0:
448,192,132092,1,0,0:0:0:0:
192,192,132239,1,0,0:0:0:0:
320,192,132239,1,0,0:0:0:0:
448,192,132386,1,0,0:0:0:0:
64,192,132386,1,0,0:0:0:0:
320,192,132680,1,0,0:0:0:0:
64,192,132680,1,0,0:0:0:0:
192,192,132974,1,0,0:0:0:0:
448,192,133268,1,0,0:0:0:0:
320,192,133268,1,0,0:0:0:0:
64,192,133415,1,0,0:0:0:0:
192,192,133562,1,0,0:0:0:0:
320,192,133562,1,0,0:0:0:0:
448,192,133856,1,0,0:0:0:0:
192,192,133856,1,0,0:0:0:0:
448,192,134150,1,0,0:0:0:0:
64,192,134150,1,0,0:0:0:0:
320,192,134444,1,0,0:0:0:0:
448,192,134592,1,0,0:0:0:0:
192,192,134592,1,0,0:0:0:0:
320,192,134739,1,0,0:0:0:0:
64,192,134739,1,0,0:0:0:0:
448,192,135033,1,0,0:0:0:0:
64,192,135033,1,0,0:0:0:0:
192,192,135327,1,0,0:0:0:0:
448,192,135621,1,0,0:0:0:0:
320,192,135621,1,0,0:0:0:0:
448,192,135768,1,0,0:0:0:0:
64,192,135915,1,0,0:0:0:0:
320,192,135915,1,0,0:0:0:0:
64,192,136062,1,0,0:0:0:0:
320,192,136209,1,0,0:0:0:0:
192,192,136209,1,0,0:0:0:0:
320,192,136356,1,0,0:0:0:0:
448,192,136503,1,0,0:0:0:0:
64,192,136503,1,0,0:0:0:0:
192,192,136797,1,0,0:0:0:0:
448,192,136944,1,0,0:0:0:0:
320,192,136944,1,0,0:0:0:0:
64,192,137092,1,0,0:0:0:0:
192,192,137092,1,0,0:0:0:0:
448,192,137386,1,0,0:0:0:0:
64,192,137386,1,0,0:0:0:0:
320,192,137680,1,0,0:0:0:0:
448,192,137974,1,0,0:0:0:0:
192,192,137974,1,0,0:0:0:0:
448,192,138268,1,0,0:0:0:0:
64,192,138268,1,0,0:0:0:0:
64,192,138562,1,0,0:0:0:0:
320,192,138562,1,0,0:0:0:0:
320,192,138856,1,0,0:0:0:0:
192,192,138856,1,0,0:0:0:0:
448,192,139150,1,0,0:0:0:0:
192,192,139297,1,0,0:0:0:0:
320,192,139297,1,0,0:0:0:0:
448,192,139444,1,0,0:0:0:0:
64,192,139444,1,0,0:0:0:0:
320,192,139739,1,0,0:0:0:0:
64,192,139739,1,0,0:0:0:0:
192,192,140033,1,0,0:0:0:0:
448,192,140327,1,0,0:0:0:0:
320,192,140327,1,0,0:0:0:0:
448,192,140474,1,0,0:0:0:0:
64,192,140621,1,0,0:0:0:0:
320,192,140621,1,0,0:0:0:0:
64,192,140768,1,0,0:0:0:0:
320,192,140915,1,0,0:0:0:0:
192,192,140915,1,0,0:0:0:0:
320,192,141062,1,0,0:0:0:0:
448,192,141209,1,0,0:0:0:0:
64,192,141209,1,0,0:0:0:0:
192,192,141503,1,0,0:0:0:0:
64,192,141650,1,0,0:0:0:0:
448,192,141650,1,0,0:0:0:0:
192,192,141797,1,0,0:0:0:0:
320,192,141797,1,0,0:0:0:0:
64,192,142092,1,0,0:0:0:0:
320,192,142092,1,0,0:0:0:0:
448,192,142386,1,0,0:0:0:0:
192,192,142680,1,0,0:0:0:0:
320,192,142680,1,0,0:0:0:0:
448,192,142827,1,0,0:0:0:0:
64,192,142974,1,0,0:0:0:0:
192,192,142974,1,0,0:0:0:0:
320,192,143268,1,0,0:0:0:0:
64,192,143268,1,0,0:0:0:0:
192,192,143562,1,0,0:0:0:0:
320,192,143562,1,0,0:0:0:0:
448,192,143856,1,0,0:0:0:0:
64,192,144003,1,0,0:0:0:0:
320,192,144003,1,0,0:0:0:0:
448,192,144150,1,0,0:0:0:0:
192,192,144150,1,0,0:0:0:0:
320,192,144444,1,0,0:0:0:0:
192,192,144444,1,0,0:0:0:0:
64,192,144739,1,0,0:0:0:0:
192,192,145033,1,0,0:0:0:0:
320,192,145033,1,0,0:0:0:0:
192,192,145180,1,0,0:0:0:0:
448,192,145327,1,0,0:0:0:0:
320,192,145327,1,0,0:0:0:0:
448,192,145474,1,0,0:0:0:0:
64,192,145621,1,0,0:0:0:0:
320,192,145621,1,0,0:0:0:0:
64,192,145768,1,0,0:0:0:0:
448,192,145915,1,0,0:0:0:0:
192,192,145915,1,0,0:0:0:0:
320,192,146209,1,0,0:0:0:0:
448,192,146356,1,0,0:0:0:0:
64,192,146356,1,0,0:0:0:0:
192,192,146503,1,0,0:0:0:0:
320,192,146503,1,0,0:0:0:0:
448,192,146797,1,0,0:0:0:0:
192,192,146797,1,0,0:0:0:0:
320,192,147092,1,0,0:0:0:0:
448,192,147386,1,0,0:0:0:0:
64,192,147386,1,0,0:0:0:0:
448,192,147680,1,0,0:0:0:0:
192,192,147680,1,0,0:0:0:0:
320,192,147974,1,0,0:0:0:0:
192,192,147974,1,0,0:0:0:0:
320,192,148268,1,0,0:0:0:0:
64,192,148268,1,0,0:0:0:0:
448,192,148562,1,0,0:0:0:0:
192,192,148709,1,0,0:0:0:0:
320,192,148709,1,0,0:0:0:0:
448,192,148856,1,0,0:0:0:0:
64,192,148856,1,0,0:0:0:0:
320,192,149150,1,0,0:0:0:0:
64,192,149150,1,0,0:0:0:0:
192,192,149444,1,0,0:0:0:0:
448,192,149739,1,0,0:0:0:0:
64,192,149739,1,0,0:0:0:0:
64,192,149886,1,0,0:0:0:0:
448,192,150033,1,0,0:0:0:0:
320,192,150033,1,0,0:0:0:0:
320,192,150180,1,0,0:0:0:0:
448,192,150327,1,0,0:0:0:0:
192,192,150327,1,0,0:0:0:0:
192,192,150474,1,0,0:0:0:0:
