osu file format v14

[General]
AudioFilename: VIXX-The King.mp3
AudioLeadIn: 0
PreviewTime: 55541
Countdown: 0
SampleSet: Normal
StackLeniency: 0.7
Mode: 0
LetterboxInBreaks: 0
WidescreenStoryboard: 0

[Editor]
DistanceSpacing: 1
BeatDivisor: 4
GridSize: 4
TimelineZoom: 1

[Metadata]
Title:The king
TitleUnicode:The king
Artist:VIXX
ArtistUnicode:VIXX
Creator:HabiHolic
Version:Normal
Source:무림학교
Tags:Moorim School KBS2 jellyfish entertainment 라비 켄 레오 홍빈 엔 혁
BeatmapID:922359
BeatmapSetID:421973

[Difficulty]
HPDrainRate:3.5
CircleSize:3
OverallDifficulty:3.5
ApproachRate:4.5
SliderMultiplier:1.2
SliderTickRate:1

[Events]
//Background and Video events
0,0,"BG.jpg",0,0
//Break Periods
//Storyboard Layer 0 (Background)
//Storyboard Layer 1 (Fail)
//Storyboard Layer 2 (Pass)
//Storyboard Layer 3 (Foreground)
//Storyboard Sound Samples

[TimingPoints]
370,410.958904109589,4,2,0,70,1,0
56260,-100,4,1,0,70,0,1
69205,-100,4,1,0,70,0,0
69411,-100,4,1,0,70,0,1
80917,-100,4,2,0,70,0,0

[Colours]
Combo1 : 108,128,91
Combo2 : 207,210,172
Combo3 : 119,170,146
Combo4 : 228,202,177

[HitObjects]
56,332,2013,6,0,L|40:212,1,120,4|0,1:0|0:0,0:0:0:0:
116,116,2835,2,0,L|176:132,2,60,0|0|0,0:0|0:0|1:0,0:0:0:0:
152,232,3657,2,0,L|280:220,1,120,0|0,0:0|1:0,0:0:0:0:
316,260,4274,1,0,0:0:0:0:
316,260,4479,2,0,P|376:264|420:228,1,120,8|0,1:2|0:0,0:0:0:0:
492,136,5301,6,0,P|432:112|376:124,1,120,0|0,1:0|0:0,0:0:0:0:
268,172,6123,2,0,L|256:108,2,60,0|0|0,0:0|0:0|1:0,0:0:0:0:
364,244,6945,2,0,L|352:368,2,120,0|0|8,0:0|1:0|1:2,0:0:0:0:
456,168,8178,1,0,0:0:0:0:
368,84,8589,6,0,P|316:72|256:100,1,120,4|0,1:0|0:0,0:0:0:0:
187,196,9411,2,0,P|129:202|79:171,1,120,0|0,0:0|1:0,0:0:0:0:
160,80,10233,1,0,0:0:0:0:
187,196,10643,1,0,1:0:0:0:
296,252,11054,2,0,L|416:240,1,120,8|0,1:2|0:0,0:0:0:0:
488,144,11876,5,4,1:0:0:0:
412,48,12287,1,0,0:0:0:0:
304,100,12698,1,8,1:2:0:0:
240,332,13520,5,0,1:0:0:0:
124,356,13931,1,0,1:0:0:0:
72,248,14342,1,0,0:0:0:0:
224,48,15164,6,0,L|236:172,1,120,4|0,1:0|0:0,0:0:0:0:
272,216,15780,1,0,0:0:0:0:
272,216,15986,2,0,P|328:231|380:203,1,120,8|0,0:0|1:0,0:0:0:0:
492,160,16808,2,0,L|480:288,1,120,0|0,0:0|1:0,0:0:0:0:
380,344,17630,2,0,L|316:336,2,60,8|0|0,0:0|0:0|0:0,0:0:0:0:
348,228,18452,6,0,L|224:212,1,120,0|0,1:0|0:0,0:0:0:0:
128,276,19274,2,0,L|140:344,2,60,8|0|0,0:0|0:0|1:0,0:0:0:0:
24,220,20096,2,0,P|12:160|28:104,1,120,0|0,0:0|1:0,0:0:0:0:
80,72,20712,1,0,0:0:0:0:
80,72,20917,2,0,L|204:84,1,120,8|0,0:0|0:0,0:0:0:0:
264,184,21739,6,0,P|324:196|376:172,1,120,4|0,1:0|0:0,0:0:0:0:
416,60,22561,1,8,0:0:0:0:
496,148,22972,1,0,1:0:0:0:
420,240,23383,2,0,P|360:256|304:232,1,120,0|0,0:0|1:0,0:0:0:0:
264,192,24000,1,0,0:0:0:0:
264,192,24205,2,0,L|276:316,1,120,8|0,0:0|0:0,0:0:0:0:
164,356,25027,6,0,P|104:368|48:340,1,120,0|0,1:0|0:0,0:0:0:0:
68,224,25849,2,0,P|128:212|184:240,1,120,8|0,0:0|1:0,0:0:0:0:
228,272,26465,1,0,0:0:0:0:
228,272,26671,2,0,L|216:140,2,120,0|8|8,0:0|0:0|0:0,0:0:0:0:
320,348,27904,1,8,0:0:0:0:
376,244,28315,6,0,P|434:239|483:272,2,120,4|0|8,1:0|0:0|0:0,0:0:0:0:
256,248,29548,2,0,L|264:180,1,60,0|0,1:0|0:0,0:0:0:0:
271,128,29959,2,0,P|213:140|158:120,1,120,0|0,1:0|1:0,0:0:0:0:
48,76,30780,2,0,L|64:204,1,120,8|2,0:0|0:0,0:0:0:0:
28,308,31602,6,0,P|88:316|140:280,1,120,0|0,1:0|0:0,0:0:0:0:
168,236,32219,1,0,0:0:0:0:
168,236,32424,2,0,L|156:360,2,120,8|0|0,0:0|1:0|0:0,0:0:0:0:
128,124,33657,1,0,1:0:0:0:
244,148,34068,2,0,P|308:152|348:196,1,120,8|0,0:0|0:0,0:0:0:0:
448,252,34890,6,0,L|460:124,1,120,4|0,1:0|0:0,0:0:0:0:
428,80,35506,1,0,0:0:0:0:
428,80,35712,2,0,P|368:64|308:80,1,120,8|0,0:0|1:0,0:0:0:0:
251,180,36534,2,0,P|194:193|136:177,1,120,0|0,0:0|1:0,0:0:0:0:
96,132,37150,1,0,0:0:0:0:
96,132,37356,2,0,L|116:260,1,120,8|0,0:0|0:0,0:0:0:0:
196,340,38178,6,0,P|256:352|304:320,1,120,0|0,1:0|0:0,0:0:0:0:
392,244,39000,2,0,L|456:256,2,60,8|0|0,0:0|0:0|1:0,0:0:0:0:
316,148,39822,2,0,L|196:160,1,120,0|2,0:0|0:0,0:0:0:0:
96,224,40643,2,0,L|36:216,2,60,2|0|2,0:0|0:0|0:0,0:0:0:0:
108,343,41465,6,0,P|201:276|197:160,1,240,12|8,0:0|0:0,0:0:0:0:
256,56,42698,1,8,0:0:0:0:
314,160,43109,2,0,P|310:276|403:343,1,240,8|8,0:0|0:0,0:0:0:0:
412,224,44342,1,8,0:0:0:0:
400,104,44753,6,0,P|354:68|295:66,1,120,8|8,0:0|0:0,0:0:0:0:
200,140,45575,2,0,P|144:155|90:133,1,120,8|8,0:0|0:0,0:0:0:0:
52,84,46191,1,0,0:0:0:0:
52,84,46397,2,0,L|68:212,1,120,8|8,0:0|0:0,0:0:0:0:
32,316,47219,2,0,P|96:320|144:292,1,120,8|8,0:0|0:0,0:0:0:0:
228,208,48041,6,0,P|288:196|336:224,1,120,4|8,1:0|0:0,0:0:0:0:
376,272,48657,1,0,0:0:0:0:
376,272,48863,2,0,L|392:140,1,120,8|8,0:0|0:0,0:0:0:0:
348,40,49685,1,8,0:0:0:0:
256,120,50096,1,8,0:0:0:0:
172,36,50506,2,0,P|112:36|60:68,1,120,8|8,0:0|0:0,0:0:0:0:
256,192,51328,12,0,54616,0:0:0:0:
92,148,56260,6,0,L|24:136,2,60,4|0|8,1:0|0:0|0:0,0:0:0:0:
180,236,57082,2,0,L|304:224,1,120,0|8,0:0|0:0,0:0:0:0:
412,276,57904,2,0,P|424:212|404:160,1,120,0|8,0:0|0:0,0:0:0:0:
368,112,58520,1,0,0:0:0:0:
368,112,58726,2,0,L|244:124,1,120,0|8,0:0|0:0,0:0:0:0:
140,184,59548,6,0,P|120:128|140:64,2,120,0|8|0,0:0|0:0|0:0,0:0:0:0:
256,228,60780,1,8,0:0:0:0:
372,184,61191,2,0,P|392:128|372:64,1,120,0|8,0:0|0:0,0:0:0:0:
336,28,61808,1,0,0:0:0:0:
336,28,62013,2,0,L|464:20,2,120,0|8|4,0:0|0:0|0:0,0:0:0:0:
260,120,63246,5,8,0:0:0:0:
168,40,63657,2,0,L|36:48,1,120,0|8,0:0|0:0,0:0:0:0:
12,160,64479,1,0,0:0:0:0:
92,248,64890,1,8,0:0:0:0:
196,188,65301,2,0,P|260:176|312:204,1,120,0|8,0:0|0:0,0:0:0:0:
340,252,65917,1,0,0:0:0:0:
340,252,66123,6,0,L|352:132,2,120,4|8|0,0:0|0:0|0:0,0:0:0:0:
240,320,67356,2,0,L|168:312,1,60,8|0,0:0|0:0,0:0:0:0:
128,340,67767,2,0,P|68:336|28:288,1,120,0|8,0:0|0:0,0:0:0:0:
72,180,68589,2,0,L|60:120,2,60,0|0|8,0:0|0:0|0:0,0:0:0:0:
172,244,69411,6,0,P|232:252|284:224,1,120,4|8,0:0|0:0,0:0:0:0:
312,172,70027,1,0,0:0:0:0:
312,172,70233,2,0,L|328:296,1,120,0|8,0:0|0:0,0:0:0:0:
420,216,71054,2,0,L|404:92,1,120,0|8,0:0|0:0,0:0:0:0:
431,44,71671,1,0,0:0:0:0:
431,44,71876,2,0,P|377:68|318:62,1,120,0|8,0:0|0:0,0:0:0:0:
200,32,72698,6,0,L|216:156,1,120,0|8,0:0|0:0,0:0:0:0:
160,252,73520,2,0,L|96:236,2,60,0|0|8,0:0|0:0|0:0,0:0:0:0:
260,320,74342,2,0,P|320:328|372:300,1,120,0|8,0:0|0:0,0:0:0:0:
408,256,74959,1,0,0:0:0:0:
408,256,75164,2,0,L|424:376,2,120,0|8|4,0:0|0:0|0:0,0:0:0:0:
480,160,76397,6,0,L|428:112,1,60,8|0,0:0|0:0,0:0:0:0:
392,80,76808,2,0,P|332:60|280:84,1,120,0|8,0:0|0:0,0:0:0:0:
192,164,77630,2,0,P|135:176|81:152,1,120,0|8,0:0|0:0,0:0:0:0:
40,108,78246,1,0,0:0:0:0:
40,108,78452,2,0,L|56:236,1,120,0|8,0:0|0:0,0:0:0:0:
124,328,79274,6,0,P|184:344|236:316,1,120,0|8,0:0|0:0,0:0:0:0:
352,320,80096,2,0,P|404:345|461:329,1,120,0|8,0:0|0:0,0:0:0:0:
256,192,80917,12,4,82561,1:0:0:0:
