osu file format v14

[General]
AudioFilename: VIXX-The King.mp3
AudioLeadIn: 0
PreviewTime: 55541
Countdown: 0
SampleSet: Normal
StackLeniency: 0.7
Mode: 0
LetterboxInBreaks: 0
WidescreenStoryboard: 0

[Editor]
DistanceSpacing: 1
BeatDivisor: 4
GridSize: 4
TimelineZoom: 1

[Metadata]
Title:The king
TitleUnicode:The king
Artist:VIXX
ArtistUnicode:VIXX
Creator:HabiHolic
Version:Insane
Source:무림학교
Tags:Moorim School KBS2 jellyfish entertainment 라비 켄 레오 홍빈 엔 혁
BeatmapID:912492
BeatmapSetID:421973

[Difficulty]
HPDrainRate:7
CircleSize:4
OverallDifficulty:7
ApproachRate:8.5
SliderMultiplier:1.8
SliderTickRate:1

[Events]
//Background and Video events
0,0,"BG.jpg",0,0
//Break Periods
//Storyboard Layer 0 (Background)
//Storyboard Layer 1 (Fail)
//Storyboard Layer 2 (Pass)
//Storyboard Layer 3 (Foreground)
//Storyboard Sound Samples

[TimingPoints]
370,410.958904109589,4,2,0,70,1,0
2013,-133.333333333333,4,2,0,70,0,0
15164,-111.111111111111,4,2,0,70,0,0
56260,-100,4,1,0,70,0,1
69205,-100,4,1,0,70,0,0
69411,-100,4,1,0,70,0,1
80917,-100,4,2,0,70,0,0

[Colours]
Combo1 : 108,128,91
Combo2 : 207,210,172
Combo3 : 119,170,146
Combo4 : 228,202,177

[HitObjects]
143,76,2013,6,0,P|208:61|262:97,1,135.000005149842,4|0,1:0|0:0,0:0:0:0:
236,192,2630,1,0,0:0:0:0:
64,128,2835,2,0,P|48:92|52:56,1,67.5000025749208
148,168,3246,2,0,L|136:276,1,101.250003862381,0|0,1:0|0:0,0:0:0:0:
136,268,3657,5,0,0:0:0:0:
228,352,3863,1,0,0:0:0:0:
360,256,4068,2,0,P|312:240|264:256,1,101.250003862381,0|0,1:0|0:0,0:0:0:0:
240,276,4479,2,0,L|228:132,1,135.000005149842,8|0,1:2|0:0,0:0:0:0:
288,56,5096,1,0,0:0:0:0:
140,103,5301,6,0,P|74:107|26:62,1,135.000005149842,0|0,1:0|0:0,0:0:0:0:
104,28,5917,1,0,0:0:0:0:
224,72,6123,2,0,P|232:104|224:136,1,67.5000025749208
172,296,6534,2,0,L|160:192,1,101.250003862381,0|0,1:0|0:0,0:0:0:0:
128,124,6945,6,0,L|116:264,1,135.000005149842,0|0,0:0|1:0,0:0:0:0:
228,356,7561,1,0,0:0:0:0:
300,280,7767,2,0,L|372:288,1,67.5000025749208,8|0,1:2|0:0,0:0:0:0:
480,192,8178,2,0,L|408:200,1,67.5000025749208
260,124,8589,6,0,P|320:136|376:92,1,135.000005149842,4|0,1:0|0:0,0:0:0:0:
168,56,9411,2,0,L|180:192,1,135.000005149842,0|0,0:0|1:0,0:0:0:0:
196,343,10233,6,0,P|131:352|81:310,1,135.000005149842,0|0,0:0|1:0,0:0:0:0:
156,272,10849,1,0,0:0:0:0:
272,296,11054,2,0,P|284:332|280:364,1,67.5000025749208,8|0,1:2|0:0,0:0:0:0:
224,216,11465,2,0,P|221:182|232:151,1,67.5000025749208
312,200,11876,5,4,1:0:0:0:
140,176,12082,1,0,0:0:0:0:
56,236,12287,2,0,L|68:308,1,67.5000025749208
56,328,12596,1,0,0:0:0:0:
56,328,12698,1,8,1:2:0:0:
48,140,12904,1,0,0:0:0:0:
152,276,13109,1,4,1:2:0:0:
236,128,13315,5,0,0:0:0:0:
236,128,13417,1,0,0:0:0:0:
236,128,13520,2,0,L|228:200,1,67.5000025749208,0|0,1:0|0:0,0:0:0:0:
264,296,13931,6,0,L|376:288,1,101.250003862381,0|0,1:0|0:0,0:0:0:0:
384,308,14342,1,0,0:0:0:0:
208,200,15164,6,0,P|129:207|72:153,1,161.999995056153,4|0,1:0|0:0,0:0:0:0:
160,124,15780,1,0,0:0:0:0:
304,188,15986,2,0,L|292:280,1,80.9999975280763,8|0,0:0|0:0,0:0:0:0:
168,352,16397,2,0,L|157:271,1,80.9999975280763,0|0,1:0|0:0,0:0:0:0:
396,152,16808,6,0,L|372:312,1,161.999995056153,0|0,0:0|1:0,0:0:0:0:
224,248,17424,1,0,0:0:0:0:
292,360,17630,1,8,0:0:0:0:
128,284,17835,1,0,0:0:0:0:
128,284,18041,2,0,L|40:292,1,80.9999975280763
208,344,18452,6,0,P|280:328|312:248,1,161.999995056153,0|0,1:0|0:0,0:0:0:0:
268,160,19068,1,0,0:0:0:0:
116,204,19274,2,0,L|128:284,1,80.9999975280763,8|0,0:0|0:0,0:0:0:0:
312,252,19685,6,0,L|440:260,1,121.499996292114,0|0,1:0|0:0,0:0:0:0:
433,259,20096,1,0,0:0:0:0:
248,332,20301,1,0,0:0:0:0:
240,168,20506,1,0,1:0:0:0:
384,180,20712,1,0,0:0:0:0:
384,180,20917,2,0,L|392:96,1,80.9999975280763,8|0,0:0|0:0,0:0:0:0:
324,32,21328,1,0,0:0:0:0:
480,112,21534,1,0,0:0:0:0:
272,132,21739,6,0,P|192:120|132:172,1,161.999995056153,4|0,1:0|0:0,0:0:0:0:
220,208,22356,1,0,0:0:0:0:
360,160,22561,2,0,P|364:116|348:80,1,80.9999975280763,8|0,0:0|0:0,0:0:0:0:
304,244,22972,2,0,P|300:288|316:324,1,80.9999975280763,0|0,1:0|0:0,0:0:0:0:
344,336,23280,1,0,0:0:0:0:
344,336,23383,6,0,L|424:324,1,80.9999975280763
216,284,23794,2,0,L|136:272,1,80.9999975280763,0|0,1:0|0:0,0:0:0:0:
20,184,24205,2,0,P|79:189|129:157,1,121.499996292114,8|0,0:0|0:0,0:0:0:0:
129,157,24616,2,0,L|212:168,1,80.9999975280763
344,72,25027,6,0,L|256:80,1,80.9999975280763,0|0,1:0|0:0,0:0:0:0:
436,120,25438,2,0,P|448:80|440:40,1,80.9999975280763
352,168,25849,2,0,P|345:207|356:245,1,80.9999975280763,8|0,0:0|0:0,0:0:0:0:
428,312,26260,2,0,L|512:304,1,80.9999975280763,0|0,1:0|0:0,0:0:0:0:
344,356,26671,5,0,0:0:0:0:
344,356,26876,2,0,L|260:348,1,80.9999975280763,0|0,0:0|1:0,0:0:0:0:
204,252,27287,1,0,0:0:0:0:
328,200,27493,2,0,L|320:284,1,80.9999975280763,8|0,0:0|0:0,0:0:0:0:
112,324,27904,1,8,0:0:0:0:
112,324,28006,1,0,0:0:0:0:
112,324,28109,1,0,0:0:0:0:
112,324,28212,1,0,0:0:0:0:
112,324,28315,6,0,L|96:240,1,80.9999975280763,4|0,1:0|0:0,0:0:0:0:
252,164,28726,2,0,L|236:243,1,80.9999975280763
184,88,29137,1,8,0:0:0:0:
144,236,29342,1,0,0:0:0:0:
336,204,29548,2,0,L|420:196,1,80.9999975280763,0|0,1:0|0:0,0:0:0:0:
328,108,29959,5,0,1:0:0:0:
260,264,30164,1,0,0:0:0:0:
412,280,30369,2,0,L|496:272,1,80.9999975280763,0|0,1:0|0:0,0:0:0:0:
492,272,30678,1,0,0:0:0:0:
492,272,30780,1,8,0:0:0:0:
352,360,30986,1,0,0:0:0:0:
376,184,31191,1,2,0:0:0:0:
192,200,31397,5,0,0:0:0:0:
192,200,31500,1,0,0:0:0:0:
192,200,31602,2,0,L|208:324,1,121.499996292114,0|0,1:0|0:0,0:0:0:0:
207,320,32013,1,0,0:0:0:0:
104,272,32219,1,0,0:0:0:0:
288,240,32424,6,0,L|372:252,1,80.9999975280763,8|0,0:0|0:0,0:0:0:0:
488,152,32835,2,0,L|404:164,1,80.9999975280763,0|8,1:0|0:0,0:0:0:0:
288,240,33246,5,0,0:0:0:0:
304,92,33452,1,0,1:0:0:0:
180,160,33657,2,0,L|188:240,1,80.9999975280763,0|0,1:0|0:0,0:0:0:0:
176,280,33965,1,0,0:0:0:0:
176,280,34068,2,0,P|136:288|88:272,1,80.9999975280763,8|0,0:0|0:0,0:0:0:0:
268,344,34479,5,0,0:0:0:0:
304,361,34581,1,0,0:0:0:0:
344,362,34684,1,0,0:0:0:0:
381,347,34787,1,0,0:0:0:0:
408,317,34890,6,0,B|400:272|400:272|408:232|408:232|400:192,1,121.499996292114,4|0,1:0|0:0,0:0:0:0:
416,164,35301,1,0,0:0:0:0:
308,240,35506,1,0,0:0:0:0:
260,112,35712,2,0,L|340:120,1,80.9999975280763,8|0,0:0|0:0,0:0:0:0:
488,28,36123,2,0,L|404:36,1,80.9999975280763,0|8,1:0|0:0,0:0:0:0:
168,79,36534,6,0,P|161:119|175:157,1,80.9999975280763,0|0,0:0|1:0,0:0:0:0:
272,320,36945,2,0,P|285:282|279:242,1,80.9999975280763,0|0,1:0|0:0,0:0:0:0:
264,216,37253,1,0,0:0:0:0:
264,216,37356,2,0,L|348:204,1,80.9999975280763,8|0,0:0|0:0,0:0:0:0:
184,284,37767,5,0,0:0:0:0:
149,305,37869,1,0,0:0:0:0:
109,306,37972,1,0,0:0:0:0:
74,287,38075,1,0,0:0:0:0:
52,254,38178,6,0,L|36:88,1,161.999995056153,0|0,1:0|0:0,0:0:0:0:
140,44,38794,1,0,0:0:0:0:
140,44,38897,1,0,0:0:0:0:
140,44,39000,2,0,L|224:56,1,80.9999975280763,8|0,0:0|0:0,0:0:0:0:
352,180,39411,2,0,L|268:192,1,80.9999975280763,0|4,1:0|0:0,0:0:0:0:
172,240,39822,6,0,L|132:232,4,40.4999987640381,0|0|0|0|2,0:0|0:0|0:0|0:0|0:0,0:0:0:0:
236,332,40438,1,0,0:0:0:0:
236,332,40541,1,0,0:0:0:0:
236,332,40643,2,0,P|280:328|316:316,1,80.9999975280763,2|0,0:0|0:0,0:0:0:0:
400,196,41054,5,2,0:0:0:0:
439,189,41156,1,0,0:0:0:0:
476,204,41259,1,0,0:0:0:0:
499,237,41362,1,0,0:0:0:0:
501,277,41464,5,12,0:0:0:0:
356,360,41876,1,8,0:0:0:0:
256,216,42287,1,8,0:0:0:0:
408,112,42698,1,8,0:0:0:0:
188,292,43109,6,0,P|160:264|152:224,1,80.9999975280763,8|0,0:0|0:0,0:0:0:0:
360,224,43520,2,0,P|352:263|324:292,1,80.9999975280763,8|0,0:0|0:0,0:0:0:0:
312,143,43931,2,0,P|390:136|445:191,1,161.999995056153,8|8,0:0|0:0,0:0:0:0:
232,192,44548,5,0,0:0:0:0:
232,192,44650,1,0,0:0:0:0:
232,192,44753,2,0,L|224:112,1,80.9999975280763,8|0,0:0|0:0,0:0:0:0:
284,28,45164,1,8,0:0:0:0:
284,28,45370,1,0,0:0:0:0:
456,88,45575,2,0,L|376:96,1,80.9999975280763,8|0,0:0|0:0,0:0:0:0:
260,208,45986,2,0,L|340:216,1,80.9999975280763,8|0,0:0|0:0,0:0:0:0:
456,252,46397,6,0,L|496:240,2,40.4999987640381,8|0|0,0:0|0:0|0:0,0:0:0:0:
368,352,46808,2,0,L|196:332,2,161.999995056153,8|8|8,0:0|0:0|0:0,0:0:0:0:
376,156,48041,6,0,P|452:136|512:192,1,161.999995056153,4|8,0:0|0:0,0:0:0:0:
432,224,48657,1,0,0:0:0:0:
296,192,48863,2,0,P|284:148|296:104,1,80.9999975280763,8|0,0:0|0:0,0:0:0:0:
348,268,49274,2,0,P|340:312|320:348,1,80.9999975280763,8|0,0:0|0:0,0:0:0:0:
300,368,49582,1,0,0:0:0:0:
300,368,49685,6,0,L|216:360,1,80.9999975280763,8|0,0:0|0:0,0:0:0:0:
132,264,50096,2,0,L|216:256,1,80.9999975280763,8|0,0:0|0:0,0:0:0:0:
60,328,50506,2,0,P|36:272|56:204,1,121.499996292114,8|0,0:0|0:0,0:0:0:0:
84,176,50917,2,0,L|164:184,1,80.9999975280763,8|0,0:0|0:0,0:0:0:0:
256,136,51328,6,0,P|252:92|236:60,1,80.9999975280763,8|0,0:0|0:0,0:0:0:0:
200,252,51739,2,0,P|204:300|224:328,1,80.9999975280763,8|0,0:0|0:0,0:0:0:0:
372,280,52150,2,0,L|292:272,1,80.9999975280763,8|0,0:0|0:0,0:0:0:0:
84,176,52561,2,0,L|164:168,1,80.9999975280763,8|0,0:0|0:0,0:0:0:0:
296,104,52972,6,0,L|340:112,3,40.4999987640381,8|0|0|0,0:0|0:0|0:0|0:0,0:0:0:0:
392,168,53383,2,0,L|436:160,3,40.4999987640381,8|0|0|0,0:0|0:0|0:0|0:0,0:0:0:0:
480,108,53794,2,0,L|464:240,2,121.499996292114,8|0|0,0:0|0:0|0:0,0:0:0:0:
56,216,56260,6,0,P|52:260|72:304,1,90,4|0,1:0|0:0,0:0:0:0:
124,136,56671,2,0,P|128:92|108:48,1,90,8|0,0:0|0:0,0:0:0:0:
36,108,57082,1,0,0:0:0:0:
36,108,57287,1,0,0:0:0:0:
152,252,57493,2,0,L|248:244,1,90,8|0,0:0|0:0,0:0:0:0:
380,128,57904,6,0,L|268:120,1,90
216,40,58315,1,8,0:0:0:0:
240,216,58520,1,0,0:0:0:0:
471,160,58726,2,0,P|477:115|463:73,1,90
396,224,59137,2,0,P|390:268|404:310,1,90,8|0,0:0|0:0,0:0:0:0:
480,364,59548,6,0,L|300:336,1,180,0|8,0:0|0:0,0:0:0:0:
228,256,60164,1,0,0:0:0:0:
316,156,60369,2,0,L|328:260,1,90
128,316,60780,2,0,L|138:226,1,90,8|0,0:0|0:0,0:0:0:0:
262,80,61191,6,0,P|348:69|404:136,1,180,0|8,0:0|0:0,0:0:0:0:
172,136,61808,2,0,P|124:136|84:112,1,90
148,48,62219,1,0,0:0:0:0:
256,176,62424,2,0,L|248:272,1,90,8|0,0:0|0:0,0:0:0:0:
175,336,62835,6,0,P|88:341|24:281,1,180,4|8,0:0|0:0,0:0:0:0:
120,248,63452,1,0,0:0:0:0:
264,292,63657,2,0,P|272:340|260:380,1,90
212,212,64068,2,0,P|211:167|230:126,1,90,8|0,0:0|0:0,0:0:0:0:
472,192,64479,6,0,B|414:198|414:198|362:172|362:172|296:180,1,180,0|8,0:0|0:0,2:0:0:0:
340,264,65096,1,0,0:0:0:0:
496,256,65301,2,0,L|504:112,1,135
480,104,65712,1,8,0:0:0:0:
396,32,65917,1,0,0:0:0:0:
276,139,66123,6,0,P|191:155|128:92,1,180,4|8,0:0|0:0,0:0:0:0:
220,72,66739,1,0,0:0:0:0:
352,82,66945,2,0,P|368:123|364:168,1,90
288,236,67356,2,0,L|196:220,1,90,8|0,0:0|0:0,0:0:0:0:
115,101,67767,1,0,0:0:0:0:
135,286,67972,1,0,0:0:0:0:
24,200,68178,1,8,0:0:0:0:
224,176,68383,1,0,0:0:0:0:
169,328,68589,5,0,0:0:0:0:
190,344,68691,1,0,0:0:0:0:
215,354,68794,1,0,0:0:0:0:
242,355,68897,1,0,0:0:0:0:
268,347,68999,1,8,0:0:0:0:
290,333,69102,1,0,0:0:0:0:
307,312,69205,1,0,0:0:0:0:
316,286,69308,1,0,0:0:0:0:
318,260,69411,6,0,B|306:200|306:200|322:144|322:144|306:80,1,180,4|8,0:0|0:0,0:0:0:0:
224,143,70027,1,0,0:0:0:0:
400,199,70233,1,0,0:0:0:0:
240,323,70438,1,0,0:0:0:0:
404,291,70643,2,0,L|500:279,1,90,8|0,0:0|0:0,0:0:0:0:
279,223,71054,6,0,P|193:234|127:177,1,180,0|8,0:0|0:0,0:0:0:0:
224,143,71671,1,0,0:0:0:0:
380,195,71876,2,0,L|368:295,1,90
292,331,72287,1,8,0:0:0:0:
320,127,72493,1,0,0:0:0:0:
208,275,72698,6,0,L|120:291,1,90
24,179,73109,2,0,L|120:191,1,90,8|0,0:0|0:0,0:0:0:0:
256,183,73520,1,0,0:0:0:0:
216,359,73726,1,0,0:0:0:0:
356,211,73931,2,0,P|360:163|344:123,1,90,8|0,0:0|0:0,0:0:0:0:
276,279,74342,6,0,P|272:327|288:367,1,90
372,311,74753,1,8,0:0:0:0:
176,251,74959,1,0,0:0:0:0:
176,251,75164,2,0,L|80:263,1,90
256,175,75575,2,0,L|352:187,1,90,8|0,0:0|0:0,0:0:0:0:
464,227,75986,6,0,P|488:167|464:99,1,135,4|0,0:0|0:0,0:0:0:0:
466,102,76397,1,8,0:0:0:0:
304,79,76602,1,0,0:0:0:0:
360,231,76808,1,0,0:0:0:0:
396,39,77013,1,0,0:0:0:0:
272,179,77219,2,0,L|180:167,1,90,8|0,0:0|0:0,0:0:0:0:
0,95,77630,6,0,P|60:107|120:67,1,135
118,68,78041,2,0,L|211:78,1,90,8|0,0:0|0:0,0:0:0:0:
332,207,78452,2,0,L|236:219,1,90
144,175,78863,1,8,0:0:0:0:
228,347,79068,1,0,0:0:0:0:
360,231,79274,6,0,L|348:323,1,90
424,127,79685,2,0,L|412:37,1,90,8|0,0:0|0:0,0:0:0:0:
280,167,80096,1,0,0:0:0:0:
476,95,80301,1,0,0:0:0:0:
248,47,80506,1,8,0:0:0:0:
400,131,80712,1,0,0:0:0:0:
272,247,80917,1,4,0:0:0:0:
208,159,81123,5,0,0:0:0:0:
372,227,81328,1,0,0:0:0:0:
180,267,81534,1,0,0:0:0:0:
180,267,81637,1,0,0:0:0:0:
180,267,81739,2,0,L|40:251,2,135,0|0|0,1:0|1:0|1:0,0:0:0:0:
304,167,82561,5,4,1:0:0:0:
