osu file format v14

[General]
AudioFilename: VIXX-The King.mp3
AudioLeadIn: 0
PreviewTime: 55541
Countdown: 0
SampleSet: Normal
StackLeniency: 0.7
Mode: 0
LetterboxInBreaks: 0
WidescreenStoryboard: 0

[Editor]
DistanceSpacing: 1
BeatDivisor: 4
GridSize: 4
TimelineZoom: 1

[Metadata]
Title:The king
TitleUnicode:The king
Artist:VIXX
ArtistUnicode:VIXX
Creator:HabiHolic
Version:Hard
Source:무림학교
Tags:Moorim School KBS2 jellyfish entertainment 라비 켄 레오 홍빈 엔 혁
BeatmapID:922358
BeatmapSetID:421973

[Difficulty]
HPDrainRate:5.5
CircleSize:4
OverallDifficulty:6
ApproachRate:7
SliderMultiplier:1.6
SliderTickRate:1

[Events]
//Background and Video events
0,0,"BG.jpg",0,0
//Break Periods
//Storyboard Layer 0 (Background)
//Storyboard Layer 1 (Fail)
//Storyboard Layer 2 (Pass)
//Storyboard Layer 3 (Foreground)
//Storyboard Sound Samples

[TimingPoints]
370,410.958904109589,4,2,0,70,1,0
2013,-133.333333333333,4,2,0,70,0,0
15164,-111.111111111111,4,2,0,70,0,0
56260,-100,4,1,0,70,0,1
69205,-100,4,1,0,70,0,0
69411,-100,4,1,0,70,0,1
80917,-100,4,2,0,70,0,0

[Colours]
Combo1 : 108,128,91
Combo2 : 207,210,172
Combo3 : 119,170,146
Combo4 : 228,202,177

[HitObjects]
36,344,2013,6,0,L|24:220,1,120.000004577637,4|0,1:0|0:0,0:0:0:0:
152,112,2835,2,0,L|160:176,1,60.0000022888184,0|0,0:0|0:0,0:0:0:0:
220,240,3246,2,0,P|276:256|326:226,1,120.000004577637,0|0,1:0|0:0,0:0:0:0:
392,164,3863,5,0,0:0:0:0:
412,256,4068,2,0,L|476:248,1,60.0000022888184,0|0,1:0|0:0,0:0:0:0:
344,320,4479,2,0,L|284:312,1,60.0000022888184,8|0,1:2|0:0,0:0:0:0:
196,348,4890,1,0,0:0:0:0:
196,348,5096,1,0,0:0:0:0:
212,256,5301,6,0,P|200:196|212:140,1,120.000004577637,0|0,1:0|0:0,0:0:0:0:
280,68,5917,1,0,0:0:0:0:
352,132,6123,2,0,L|412:128,1,60.0000022888184,0|0,0:0|0:0,0:0:0:0:
488,68,6534,1,0,1:0:0:0:
488,68,6945,6,0,L|500:188,1,120.000004577637,0|0,0:0|1:0,0:0:0:0:
436,260,7561,1,0,0:0:0:0:
436,260,7767,2,0,P|380:272|328:240,1,120.000004577637,8|0,1:2|0:0,0:0:0:0:
304,156,8383,1,0,0:0:0:0:
304,156,8589,6,0,L|184:164,1,120.000004577637,4|0,1:0|0:0,0:0:0:0:
116,312,9411,2,0,L|236:304,1,120.000004577637,0|0,0:0|1:0,0:0:0:0:
472,348,10233,6,0,P|484:288|468:224,1,120.000004577637,0|0,0:0|1:0,0:0:0:0:
400,164,10849,1,0,0:0:0:0:
320,220,11054,2,0,L|248:212,1,60.0000022888184,8|0,1:2|0:0,0:0:0:0:
200,152,11465,2,0,L|128:160,1,60.0000022888184,0|0,0:0|0:0,0:0:0:0:
44,112,11876,6,0,L|60:236,1,120.000004577637,4|0,1:0|0:0,0:0:0:0:
24,320,12493,1,0,0:0:0:0:
108,356,12698,2,0,L|176:348,2,60.0000022888184,8|0|4,1:2|0:0|1:2,0:0:0:0:
220,208,13520,6,0,L|340:220,1,120.000004577637,0|0,1:0|1:0,0:0:0:0:
408,284,14137,2,0,L|476:276,1,60.0000022888184,0|0,0:0|0:0,0:0:0:0:
467,276,15164,6,0,P|480:206|468:136,1,143.999995605469,4|0,1:0|0:0,0:0:0:0:
400,64,15780,1,0,0:0:0:0:
320,132,15986,2,0,L|240:128,1,71.9999978027344,8|0,0:0|0:0,0:0:0:0:
180,60,16397,2,0,L|108:63,1,71.9999978027344,0|0,1:0|0:0,0:0:0:0:
40,132,16808,6,0,P|24:200|48:276,1,143.999995605469,0|0,0:0|1:0,0:0:0:0:
120,336,17424,1,0,0:0:0:0:
196,276,17630,2,0,L|268:284,1,71.9999978027344,8|0,0:0|0:0,0:0:0:0:
348,348,18041,1,0,0:0:0:0:
348,348,18246,1,0,0:0:0:0:
444,296,18452,6,0,P|460:224|444:152,1,143.999995605469,0|0,1:0|0:0,0:0:0:0:
372,88,19068,1,0,0:0:0:0:
372,88,19274,2,0,L|292:96,2,71.9999978027344,8|0|0,0:0|0:0|1:0,0:0:0:0:
276,236,20096,6,0,L|132:224,1,143.999995605469,0|0,0:0|1:0,0:0:0:0:
48,280,20712,1,0,0:0:0:0:
48,184,20917,2,0,L|36:108,1,71.9999978027344,8|0,0:0|0:0,0:0:0:0:
100,40,21328,1,0,0:0:0:0:
100,40,21739,6,0,P|172:28|232:64,1,143.999995605469,4|0,1:0|0:0,0:0:0:0:
272,144,22356,1,0,0:0:0:0:
356,112,22561,2,0,L|348:40,1,71.9999978027344,8|0,0:0|0:0,0:0:0:0:
448,96,22972,2,0,L|440:168,1,71.9999978027344,0|0,1:0|0:0,0:0:0:0:
384,248,23383,6,0,P|312:268|256:232,1,143.999995605469,0|0,0:0|1:0,0:0:0:0:
192,164,24000,1,0,0:0:0:0:
112,224,24205,2,0,L|124:296,1,71.9999978027344,8|0,0:0|0:0,0:0:0:0:
216,348,24616,2,0,L|228:276,1,71.9999978027344,0|0,0:0|0:0,0:0:0:0:
304,204,25027,6,0,P|376:188|432:240,1,143.999995605469,0|0,1:0|0:0,0:0:0:0:
468,304,25643,1,0,0:0:0:0:
468,304,25849,2,0,L|480:148,1,143.999995605469,8|0,0:0|1:0,0:0:0:0:
432,80,26465,1,0,0:0:0:0:
352,128,26671,6,0,P|316:136|280:128,1,71.9999978027344,0|0,0:0|0:0,0:0:0:0:
204,88,27082,2,0,P|168:80|134:88,1,71.9999978027344,8|0,0:0|0:0,0:0:0:0:
64,152,27493,2,0,B|76:196|76:196|64:248|64:248|76:296,1,143.999995605469,8|8,0:0|0:0,0:0:0:0:
148,352,28109,1,0,0:0:0:0:
224,295,28315,6,0,P|292:277|356:307,1,143.999995605469,4|0,1:0|0:0,0:0:0:0:
436,360,28931,1,0,0:0:0:0:
492,284,29137,2,0,P|496:248|488:212,1,71.9999978027344,8|0,0:0|0:0,0:0:0:0:
416,156,29548,2,0,P|408:120|412:85,1,71.9999978027344,0|8,1:0|0:0,0:0:0:0:
480,36,29959,6,0,L|332:48,1,143.999995605469,0|0,1:0|1:0,0:0:0:0:
260,112,30575,1,0,0:0:0:0:
260,112,30678,1,0,0:0:0:0:
260,112,30780,2,0,L|180:100,2,71.9999978027344,8|0|2,0:0|0:0|0:0,0:0:0:0:
436,192,31602,6,0,P|452:264|436:336,1,143.999995605469,0|0,1:0|0:0,0:0:0:0:
352,372,32219,1,0,0:0:0:0:
352,372,32424,2,0,L|276:364,1,71.9999978027344,8|0,0:0|0:0,0:0:0:0:
192,364,32835,2,0,L|120:371,1,71.9999978027344,0|8,1:0|0:0,0:0:0:0:
48,320,33246,6,0,P|72:248|56:176,1,143.999995605469,0|0,0:0|1:0,0:0:0:0:
116,112,33863,1,0,0:0:0:0:
116,112,33965,1,0,0:0:0:0:
116,112,34068,2,0,L|192:104,2,71.9999978027344,8|0|0,0:0|0:0|0:0,0:0:0:0:
180,300,34890,6,0,L|324:288,1,143.999995605469,4|0,1:0|0:0,0:0:0:0:
388,360,35506,1,0,0:0:0:0:
412,268,35712,2,0,P|420:232|408:192,1,71.9999978027344,8|0,0:0|0:0,0:0:0:0:
336,156,36123,2,0,P|327:121|335:86,1,71.9999978027344,0|8,1:0|0:0,0:0:0:0:
404,40,36534,6,0,L|256:52,1,143.999995605469,0|0,0:0|1:0,0:0:0:0:
204,120,37150,1,0,0:0:0:0:
124,80,37356,2,0,L|116:0,2,71.9999978027344,8|0|0,0:0|0:0|0:0,0:0:0:0:
148,192,37972,5,0,0:0:0:0:
148,192,38075,1,0,0:0:0:0:
148,192,38178,2,0,P|216:212|276:172,1,143.999995605469,0|0,1:0|0:0,0:0:0:0:
344,108,38794,1,0,0:0:0:0:
344,108,39000,2,0,L|424:116,1,71.9999978027344,8|0,0:0|0:0,0:0:0:0:
416,208,39411,2,0,L|336:216,1,71.9999978027344,0|4,1:0|0:0,0:0:0:0:
276,284,39822,6,0,L|124:268,1,143.999995605469,0|2,0:0|0:0,0:0:0:0:
56,324,40438,1,0,0:0:0:0:
56,232,40643,2,0,L|44:160,1,71.9999978027344,2|0,0:0|0:0,0:0:0:0:
152,112,41054,2,0,L|140:184,1,71.9999978027344,2|0,0:0|0:0,0:0:0:0:
192,268,41465,5,12,0:0:0:0:
320,184,41876,1,8,0:0:0:0:
316,324,42287,1,8,0:0:0:0:
208,140,42698,1,8,0:0:0:0:
396,260,43109,6,0,P|408:188|396:116,1,143.999995605469,8|8,0:0|0:0,0:0:0:0:
324,52,43726,1,0,0:0:0:0:
244,104,43931,2,0,L|164:96,2,71.9999978027344,8|0|8,0:0|0:0|0:0,0:0:0:0:
328,248,44753,6,0,L|476:232,2,143.999995605469,8|8|8,0:0|0:0|0:0,0:0:0:0:
256,304,45780,1,0,0:0:0:0:
244,216,45986,2,0,L|232:144,1,71.9999978027344,8|0,0:0|0:0,0:0:0:0:
288,68,46397,2,0,L|332:76,2,35.9999989013672,8|0|0,0:0|0:0|0:0,0:0:0:0:
204,24,46808,2,0,L|60:32,2,143.999995605469,8|8|8,0:0|0:0|0:0,0:0:0:0:
336,144,48041,6,0,P|352:220|336:284,1,143.999995605469,4|8,0:0|0:0,0:0:0:0:
272,352,48657,1,0,0:0:0:0:
192,304,48863,2,0,L|120:296,1,71.9999978027344,8|0,0:0|0:0,0:0:0:0:
68,216,49274,2,0,L|140:208,1,71.9999978027344,8|0,0:0|0:0,0:0:0:0:
236,228,49685,6,0,P|256:156|236:84,1,143.999995605469,8|8,0:0|0:0,0:0:0:0:
164,40,50301,1,0,0:0:0:0:
96,104,50506,2,0,L|16:96,2,71.9999978027344,8|0|8,0:0|0:0|0:0,0:0:0:0:
144,312,51328,6,0,L|292:300,1,143.999995605469,8|8,0:0|0:0,0:0:0:0:
364,356,51945,1,0,0:0:0:0:
376,264,52150,2,0,P|384:224|376:192,1,71.9999978027344,8|0,0:0|0:0,0:0:0:0:
308,132,52561,2,0,P|300:96|308:62,1,71.9999978027344,8|0,0:0|0:0,0:0:0:0:
380,24,52972,6,0,L|216:36,1,143.999995605469,8|8,0:0|0:0,0:0:0:0:
168,100,53589,1,0,0:0:0:0:
168,100,53794,2,0,L|60:88,2,107.999996704102,8|0|0,0:0|0:0|0:0,0:0:0:0:
472,248,56260,6,0,P|488:176|472:88,1,160,4|8,1:0|0:0,0:0:0:0:
400,28,56876,1,0,0:0:0:0:
316,84,57082,2,0,L|232:76,2,80,0|0|8,0:0|0:0|0:0,0:0:0:0:
284,268,57904,6,0,L|120:248,1,160,0|8,0:0|0:0,0:0:0:0:
48,304,58520,1,0,0:0:0:0:
48,208,58726,2,0,L|40:128,1,80,0|0,0:0|0:0,0:0:0:0:
100,52,59137,1,8,0:0:0:0:
100,52,59342,1,0,0:0:0:0:
180,112,59548,6,0,P|220:124|260:112,1,80
340,72,59959,2,0,P|378:62|416:74,1,80,8|0,0:0|0:0,0:0:0:0:
480,144,60369,2,0,L|472:304,1,160,0|8,0:0|0:0,0:0:0:0:
388,360,60986,1,0,0:0:0:0:
312,292,61191,6,0,L|228:300,1,80,0|0,0:0|0:0,0:0:0:0:
148,344,61602,2,0,L|140:264,1,80,8|0,0:0|0:0,0:0:0:0:
220,204,62013,2,0,L|299:196,1,80
376,264,62424,1,8,0:0:0:0:
376,264,62630,1,0,0:0:0:0:
472,231,62835,6,0,P|488:154|472:76,1,160,4|8,0:0|0:0,0:0:0:0:
384,24,63452,1,0,0:0:0:0:
316,96,63657,2,0,L|228:88,2,80,0|0|8,0:0|0:0|0:0,0:0:0:0:
388,248,64479,6,0,P|464:255|512:195,1,160,0|8,0:0|0:0,0:0:0:0:
436,180,65096,1,0,0:0:0:0:
320,200,65301,2,0,L|340:324,2,120,0|0|0,0:0|0:0|0:0,0:0:0:0:
367,131,66123,6,0,P|292:118|238:174,1,160,4|8,0:0|0:0,0:0:0:0:
192,260,66739,1,0,0:0:0:0:
192,260,66945,2,0,P|152:264|112:260,1,80,0|0,0:0|0:0,0:0:0:0:
32,204,67356,2,0,P|28:164|32:124,1,80,8|0,0:0|0:0,0:0:0:0:
104,56,67767,6,0,B|152:63|152:63|203:47|203:47|264:54,1,160,0|8,0:0|0:0,0:0:0:0:
328,128,68383,1,0,0:0:0:0:
328,128,68589,2,0,L|408:120,2,80,0|0|8,0:0|0:0|0:0,0:0:0:0:
256,208,69205,5,0,0:0:0:0:
256,208,69308,1,0,0:0:0:0:
255,208,69411,2,0,P|180:222|123:170,1,160,4|8,0:0|0:0,0:0:0:0:
207,64,70027,1,0,0:0:0:0:
207,64,70233,2,0,L|204:144,1,80,0|0,0:0|0:0,0:0:0:0:
304,228,70643,2,0,L|300:148,1,80,8|0,0:0|0:0,0:0:0:0:
404,104,71054,6,0,L|412:276,1,160,0|8,0:0|0:0,0:0:0:0:
340,328,71671,1,0,0:0:0:0:
260,264,71876,2,0,L|180:256,2,80,0|0|8,0:0|0:0|0:0,0:0:0:0:
428,356,72698,6,0,P|436:316|428:276,1,80,0|0,0:0|0:0,0:0:0:0:
352,228,73109,2,0,P|344:188|352:149,1,80,8|0,0:0|0:0,0:0:0:0:
424,88,73520,1,0,0:0:0:0:
336,56,73726,2,0,L|252:64,1,80,0|8,0:0|0:0,0:0:0:0:
192,128,74137,1,0,0:0:0:0:
191,128,74342,6,0,P|115:133|68:72,1,160,0|8,0:0|0:0,0:0:0:0:
148,60,74959,1,0,0:0:0:0:
276,104,75164,2,0,L|264:192,1,80
200,268,75575,1,8,0:0:0:0:
200,268,75780,1,0,0:0:0:0:
296,308,75986,6,0,L|460:296,1,160,4|8,0:0|0:0,0:0:0:0:
496,208,76602,1,0,0:0:0:0:
496,208,76808,2,0,L|488:124,2,80,0|0|8,0:0|0:0|0:0,0:0:0:0:
332,48,77630,6,0,L|348:208,1,160,0|8,0:0|0:0,0:0:0:0:
288,280,78246,1,0,0:0:0:0:
208,232,78452,2,0,L|120:224,2,80,0|0|8,0:0|0:0|0:0,0:0:0:0:
456,336,79274,6,0,P|476:256|456:180,1,160,0|8,0:0|0:0,0:0:0:0:
388,116,79890,1,0,0:0:0:0:
312,180,80096,2,0,L|232:172,1,80,0|0,0:0|0:0,0:0:0:0:
168,112,80506,2,0,L|88:120,1,80,8|0,0:0|0:0,0:0:0:0:
24,196,80917,5,4,0:0:0:0:
24,196,81123,1,0,0:0:0:0:
40,296,81328,1,0,0:0:0:0:
108,232,81534,1,0,0:0:0:0:
108,232,81637,1,0,0:0:0:0:
108,232,81739,2,0,L|228:216,2,120,0|0|0,1:0|1:0|1:0,0:0:0:0:
88,119,82561,5,4,1:0:0:0:
