osu file format v14

[General]
AudioFilename: VIXX-The King.mp3
AudioLeadIn: 0
PreviewTime: 55541
Countdown: 0
SampleSet: Normal
StackLeniency: 0.7
Mode: 0
LetterboxInBreaks: 0
WidescreenStoryboard: 0

[Editor]
DistanceSpacing: 1
BeatDivisor: 4
GridSize: 4
TimelineZoom: 1

[Metadata]
Title:The king
TitleUnicode:The king
Artist:VIXX
ArtistUnicode:VIXX
Creator:HabiHolic
Version:Easy
Source:무림학교
Tags:Moorim School KBS2 jellyfish entertainment 라비 켄 레오 홍빈 엔 혁
BeatmapID:922357
BeatmapSetID:421973

[Difficulty]
HPDrainRate:2
CircleSize:3
OverallDifficulty:2
ApproachRate:3
SliderMultiplier:0.9
SliderTickRate:1

[Events]
//Background and Video events
0,0,"BG.jpg",0,0
//Break Periods
//Storyboard Layer 0 (Background)
//Storyboard Layer 1 (Fail)
//Storyboard Layer 2 (Pass)
//Storyboard Layer 3 (Foreground)
//Storyboard Sound Samples

[TimingPoints]
370,410.958904109589,4,2,0,70,1,0
56260,-100,4,1,0,70,0,1
69205,-100,4,1,0,70,0,0
69411,-100,4,1,0,70,0,1
80917,-100,4,2,0,70,0,0

[Colours]
Combo1 : 108,128,91
Combo2 : 207,210,172
Combo3 : 119,170,146
Combo4 : 228,202,177

[HitObjects]
156,48,2013,6,0,B|176:116|176:116|148:164|176:224,1,180,4|0,1:0|0:0,0:0:0:0:
256,264,3246,1,0,1:0:0:0:
337,220,3657,2,0,B|364:164|336:116|336:116|356:48,1,180,0|8,0:0|1:2,0:0:0:0:
484,172,5301,6,0,P|496:216|488:264,1,90,0|0,1:0|0:0,0:0:0:0:
428,324,6123,2,0,L|332:316,1,90,0|0,0:0|1:0,0:0:0:0:
264,259,6945,2,0,P|180:244|121:308,1,180,0|8,0:0|1:2,0:0:0:0:
296,348,8589,6,0,P|348:288|328:196,1,180,4|0,1:0|0:0,0:0:0:0:
256,144,9822,1,0,1:0:0:0:
183,196,10233,2,0,P|161:280|216:348,1,180,2|8,0:0|1:2,0:0:0:0:
384,288,11876,6,0,L|484:280,2,90,4|0|8,1:0|0:0|1:2,0:0:0:0:
320,224,13109,1,4,1:2:0:0:
260,288,13520,2,0,L|160:280,2,90,0|0|2,1:0|1:0|0:0,0:0:0:0:
432,340,15164,6,0,P|456:252|420:168,1,180,4|8,1:0|0:0,0:0:0:0:
348,124,16397,1,0,1:0:0:0:
268,164,16808,2,0,P|224:176|176:160,1,90,0|0,0:0|1:0,0:0:0:0:
96,136,17630,2,0,L|108:228,1,90,8|0,0:0|0:0,0:0:0:0:
168,292,18452,6,0,P|254:296|311:230,1,180,0|8,1:0|0:0,0:0:0:0:
316,140,19685,1,0,1:0:0:0:
392,188,20096,2,0,L|484:180,1,90,0|0,0:0|1:0,0:0:0:0:
472,92,20917,2,0,L|382:84,1,90,8|0,0:0|0:0,0:0:0:0:
303,35,21739,6,0,P|218:19|149:73,1,180,4|8,1:0|0:0,0:0:0:0:
108,152,22972,1,0,1:0:0:0:
188,196,23383,2,0,P|273:212|342:158,1,180,0|8,0:0|0:0,0:0:0:0:
380,76,24616,1,0,0:0:0:0:
436,148,25027,6,0,L|448:244,1,90,0|0,1:0|0:0,0:0:0:0:
372,284,25849,2,0,P|328:296|280:280,1,90,8|0,0:0|1:0,0:0:0:0:
215,231,26671,2,0,P|130:219|68:284,1,180,0|8,0:0|0:0,0:0:0:0:
156,304,27904,1,8,0:0:0:0:
244,315,28315,6,0,P|302:252|278:169,1,180,4|8,1:0|0:0,0:0:0:0:
224,96,29548,1,0,1:0:0:0:
148,144,29959,2,0,L|56:132,2,90,0|0|8,1:0|1:0|0:0,0:0:0:0:
208,212,31191,1,2,0:0:0:0:
280,156,31602,6,0,B|328:164|352:208|352:208|392:192|436:216,1,180,0|8,1:0|0:0,0:0:0:0:
388,292,32835,1,0,1:0:0:0:
476,300,33246,2,0,L|488:116,1,180,0|8,0:0|0:0,0:0:0:0:
432,52,34479,1,0,0:0:0:0:
363,112,34890,6,0,P|280:134|213:79,1,180,4|8,1:0|0:0,0:0:0:0:
132,36,36123,1,0,1:0:0:0:
60,87,36534,2,0,P|47:130|59:173,1,90,0|0,0:0|1:0,0:0:0:0:
136,224,37356,2,0,P|147:266|135:309,1,90,8|0,0:0|0:0,0:0:0:0:
52,348,38178,6,0,L|232:336,1,180,0|8,1:0|0:0,0:0:0:0:
316,360,39411,1,0,1:0:0:0:
296,272,39822,2,0,L|300:176,2,90,0|2|2,0:0|0:0|0:0,0:0:0:0:
384,296,41054,1,2,0:0:0:0:
464,340,41465,6,0,B|488:280|452:236|452:236|464:160,1,180,12|8,0:0|0:0,0:0:0:0:
404,96,42698,1,8,0:0:0:0:
332,148,43109,2,0,P|288:160|244:148,1,90,8|8,0:0|0:0,0:0:0:0:
164,112,43931,2,0,P|120:101|77:113,1,90,8|8,0:0|0:0,0:0:0:0:
27,187,44753,6,0,P|69:264|155:277,1,180,8|8,0:0|0:0,0:0:0:0:
224,216,45986,1,8,0:0:0:0:
288,280,46397,2,0,P|373:266|415:190,1,180,8|8,0:0|0:0,0:0:0:0:
380,108,47630,1,8,0:0:0:0:
304,156,48041,6,0,L|208:148,1,90,4|8,0:0|0:0,0:0:0:0:
140,100,48863,2,0,P|124:144|136:192,1,90,8|8,0:0|0:0,0:0:0:0:
208,232,49685,2,0,L|297:239,1,90,8|8,0:0|0:0,0:0:0:0:
372,192,50506,1,8,0:0:0:0:
436,252,50917,1,8,0:0:0:0:
256,192,51328,12,0,54616,0:0:0:0:
144,344,56260,6,0,B|132:300|132:300|148:252|148:252|192:236|204:192,1,180,4|0,1:0|0:0,0:0:0:0:
256,116,57493,1,8,0:0:0:0:
308,193,57904,2,0,B|320:236|364:252|364:252|380:300|380:300|368:344,1,180,0|0,0:0|0:0,0:0:0:0:
456,352,59137,1,8,0:0:0:0:
460,264,59548,6,0,L|432:176,1,90,0|8,0:0|0:0,0:0:0:0:
372,112,60369,1,0,0:0:0:0:
304,172,60780,1,8,0:0:0:0:
232,116,61191,2,0,L|136:124,1,90,0|8,0:0|0:0,0:0:0:0:
60,91,62013,2,0,P|55:136|71:177,1,90,0|8,0:0|0:0,0:0:0:0:
136,240,62835,6,0,B|196:240|196:240|248:216|248:216|324:216,1,180,4|0,0:0|0:0,0:0:0:0:
356,140,64068,1,8,0:0:0:0:
307,64,64479,2,0,B|247:64|247:64|195:40|195:40|119:40,1,180
60,96,65712,1,8,0:0:0:0:
128,160,66123,6,0,P|136:204|124:256,1,90,4|8,0:0|0:0,0:0:0:0:
212,276,66945,2,0,P|254:263|297:275,1,90,0|8,0:0|0:0,0:0:0:0:
384,247,67767,2,0,P|376:204|384:160,1,90,0|8,0:0|0:0,0:0:0:0:
436,88,68589,1,0,0:0:0:0:
364,32,69000,1,8,0:0:0:0:
288,83,69411,6,0,P|244:91|202:76,1,90,4|8,0:0|0:0,0:0:0:0:
120,36,70233,2,0,P|75:38|38:63,1,90,0|8,0:0|0:0,0:0:0:0:
19,151,71054,2,0,P|74:219|162:222,1,180
228,160,72287,1,8,0:0:0:0:
300,212,72698,6,0,L|288:304,2,90,0|8|0,0:0|0:0|0:0,0:0:0:0:
316,124,73931,1,8,0:0:0:0:
384,184,74342,2,0,P|472:168|500:88,1,180
412,100,75575,1,8,0:0:0:0:
324,124,75986,6,0,L|348:304,1,180,4|0,0:0|0:0,0:0:0:0:
276,356,77219,1,8,0:0:0:0:
200,304,77630,2,0,P|156:296|108:312,1,90,0|8,0:0|0:0,0:0:0:0:
36,356,78452,2,0,L|24:264,1,90,0|8,0:0|0:0,0:0:0:0:
72,188,79274,6,0,B|160:168|160:236|256:208,1,180
308,144,80506,1,8,0:0:0:0:
256,192,80917,12,4,82561,1:0:0:0:
