osu file format v14

[General]
AudioFilename: VIXX Error -Japanese Ver.- Music Video (Short ver.).mp3
AudioLeadIn: 0
PreviewTime: 60615
Countdown: 0
SampleSet: Soft
StackLeniency: 0.7
Mode: 0
LetterboxInBreaks: 0
WidescreenStoryboard: 0

[Editor]
Bookmarks: 87099
DistanceSpacing: 1.5
BeatDivisor: 4
GridSize: 4
TimelineZoom: 1

[Metadata]
Title:Error - Japanese Ver.
TitleUnicode:Error - Japanese Ver.
Artist:VIXX
ArtistUnicode:빅스
Creator:Rose Melody
Version:Normal
Source:
Tags:HongBin N Leo Ken Ravi Hyuk K-pop Kyle Y chaica samplefish
BeatmapID:847066
BeatmapSetID:378243

[Difficulty]
HPDrainRate:3
CircleSize:3.5
OverallDifficulty:3
ApproachRate:5
SliderMultiplier:1
SliderTickRate:1

[Events]
//Background and Video events
0,0,"vixx_error_by_pyongpyonsaeng-d82ok41.jpg",0,0
//Break Periods
2,92690,97149
//Storyboard Layer 0 (Background)
//Storyboard Layer 1 (Fail)
//Storyboard Layer 2 (Pass)
//Storyboard Layer 3 (Foreground)
//Storyboard Sound Samples

[TimingPoints]
615,468.75,4,2,1,50,1,0
30615,-100,4,1,1,50,0,0
62490,-100,4,1,1,50,0,1
92490,-100,4,2,1,50,0,0
106552,-100,4,2,1,5,0,0

[Colours]
Combo1 : 193,193,255
Combo2 : 255,204,230
Combo3 : 179,217,255

[HitObjects]
427,100,615,5,2,0:0:0:0:
292,164,1083,1,2,0:0:0:0:
292,164,1318,2,0,P|232:160|192:116,1,100,2|0,0:0|0:0,0:0:0:0:
265,93,2021,2,0,P|224:64|175:64,1,100,2|0,0:0|0:0,0:0:0:0:
125,119,2724,2,0,L|125:231,1,100,2|0,0:0|0:0,0:0:0:0:
55,247,3427,1,2,0:0:0:0:
162,349,3896,1,2,0:0:0:0:
312,349,4365,5,2,0:0:0:0:
312,199,4833,1,2,0:0:0:0:
312,199,5068,2,0,P|361:205|410:196,1,100,2|0,0:0|0:0,0:0:0:0:
480,169,5771,2,0,P|488:121|468:37,1,100,2|0,0:0|0:0,0:0:0:0:
412,41,6474,2,0,P|372:33|296:45,1,100,2|0,0:0|0:0,0:0:0:0:
266,96,7177,1,2,0:0:0:0:
148,188,7646,1,2,0:0:0:0:
41,81,8115,5,2,0:0:0:0:
186,116,8583,1,0,0:0:0:0:
258,96,8818,2,0,B|269:161|208:187,1,100,2|0,0:0|0:0,0:0:0:0:
148,188,9521,2,0,L|180:284,1,100,2|0,0:0|0:0,0:0:0:0:
110,313,10224,2,0,L|78:217,1,100,2|0,0:0|0:0,0:0:0:0:
63,144,10927,1,2,0:0:0:0:
196,72,11396,1,2,0:0:0:0:
333,132,11865,5,2,0:0:0:0:
188,172,12333,1,0,0:0:0:0:
136,116,12568,2,0,P|112:172|124:212,1,100,2|0,0:0|0:0,0:0:0:0:
182,251,13271,2,0,P|205:294|201:345,1,100,2|0,0:0|0:0,0:0:0:0:
126,311,13974,2,0,L|49:243,1,100,2|0,0:0|0:0,0:0:0:0:
46,169,14677,1,2,0:0:0:0:
190,129,15146,1,0,0:0:0:0:
323,197,15615,5,2,0:0:0:0:
416,79,16083,2,0,P|458:132|476:182,1,100
323,197,17021,6,0,P|297:215|267:222,1,50,2|0,0:0|0:0,0:0:0:0:
206,202,17490,2,0,P|182:210|162:225,1,50
154,300,17958,2,0,P|128:318|98:325,1,50,2|0,0:0|0:0,0:0:0:0:
35,329,18427,2,0,L|36:212,1,100
59,79,19365,6,0,L|104:59,1,50,2|0,0:0|0:0,0:0:0:0:
131,128,19833,2,0,L|230:83,1,100
357,22,20771,1,0,0:0:0:0:
357,169,21240,1,0,0:0:0:0:
264,286,21708,2,0,P|254:321|227:332,1,50
189,277,22177,2,0,P|169:231|190:183,1,100,2|0,0:0|0:0,0:0:0:0:
336,178,23115,6,0,P|360:262|321:328,2,150,2|2|2,0:0|0:0|0:0,0:0:0:0:
192,140,24990,1,0,0:0:0:0:
139,192,25224,2,0,P|113:232|117:296,1,100,2|0,0:0|0:0,0:0:0:0:
165,336,25927,1,2,0:0:0:0:
268,226,26396,1,2,0:0:0:0:
417,234,26865,6,0,P|411:163|356:105,2,150,2|2|2,0:0|0:0|0:0,0:0:0:0:
267,225,28740,1,0,0:0:0:0:
141,143,29208,2,0,L|77:83,2,50,2|0|2,0:0|0:0|0:0,0:0:0:0:
267,225,30146,1,0,0:0:0:0:
417,234,30615,5,4,0:0:0:0:
333,358,31083,1,0,0:0:0:0:
267,225,31552,1,0,0:0:0:0:
266,74,32021,2,0,P|211:89|168:115,1,100
177,257,32958,2,0,P|100:234|35:137,1,200
35,288,34365,6,0,P|75:316|124:327,1,100,2|0,0:0|0:0,0:0:0:0:
273,346,35302,1,0,0:0:0:0:
244,201,35771,1,0,0:0:0:0:
392,201,36240,1,0,0:0:0:0:
244,201,36708,2,0,L|139:147,2,100
394,201,38115,6,0,P|354:304|304:337,2,150,2|2|2,0:0|0:0|0:0,0:0:0:0:
241,201,39990,1,0,0:0:0:0:
135,95,40458,1,0,0:0:0:0:
285,95,40927,1,0,0:0:0:0:
392,200,41396,1,0,0:0:0:0:
285,95,41865,6,0,P|251:158|246:249,2,150,2|2|2,0:0|0:0|0:0,0:0:0:0:
435,95,43740,1,0,0:0:0:0:
487,235,44208,1,0,0:0:0:0:
435,95,44677,1,2,0:0:0:0:
286,117,45146,1,2,0:0:0:0:
151,50,45615,5,0,0:0:0:0:
98,102,45849,2,0,L|152:147,1,50
108,204,46318,2,0,L|152:244,1,50
219,238,46786,1,0,0:0:0:0:
278,291,47021,2,0,L|330:355,1,50
362,276,47490,2,0,L|322:228,1,50
386,188,47958,2,0,L|450:128,1,50
374,96,48427,2,0,L|318:140,2,50
374,20,49130,1,4,0:0:0:0:
224,36,49599,6,0,P|184:72|168:96,1,50
128,116,50068,2,0,L|92:72,1,50
28,116,50536,2,0,L|76:176,1,50
6,208,51005,2,0,L|52:263,1,50
113,246,51474,1,0,0:0:0:0:
188,246,51709,2,0,L|218:285,1,50
227,359,52177,2,0,P|282:329|293:281,1,100
345,242,52880,1,0,0:0:0:0:
304,178,53115,5,2,0:0:0:0:
409,72,53583,1,0,0:0:0:0:
262,38,54052,1,2,0:0:0:0:
304,178,54521,2,0,B|261:208|261:208|210:208,1,100,0|2,0:0|0:0,0:0:0:0:
195,135,55224,2,0,B|156:136|156:136|136:162,1,50
84,106,55693,1,0,0:0:0:0:
84,106,55927,2,0,B|62:138|62:138|72:169,1,50,2|0,0:0|0:0,0:0:0:0:
34,217,56396,1,0,0:0:0:0:
256,192,56865,12,0,59677,0:0:0:0:
256,72,60849,6,0,P|212:56|184:72,2,50,2|0|2,0:0|0:0|0:0,0:0:0:0:
208,132,61552,2,0,P|160:116|149:105,1,50,2|2,0:0|0:0,0:0:0:0:
108,170,62021,1,0,0:0:0:0:
108,170,62490,6,0,P|79:214|39:245,1,100,4|0,0:0|0:0,0:0:0:0:
175,311,63427,2,0,P|208:360|244:386,1,100,2|0,0:0|0:0,0:0:0:0:
313,252,64365,1,0,0:0:0:0:
313,252,64599,2,0,P|341:240|361:218,2,50
294,179,65302,2,0,P|286:150|282:128,1,50
305,58,65771,1,2,0:0:0:0:
234,32,66005,1,0,0:0:0:0:
165,63,66240,6,0,L|117:195,1,100,4|0,0:0|0:0,0:0:0:0:
190,204,66943,1,0,0:0:0:0:
242,256,67177,2,0,L|208:371,2,100
388,272,68583,1,0,0:0:0:0:
316,140,69052,1,0,0:0:0:0:
461,177,69521,2,0,L|426:65,1,100,2|0,0:0|0:0,0:0:0:0:
369,38,70224,6,0,L|313:-2,1,50,4|0,0:0|0:0,0:0:0:0:
284,68,70693,2,0,L|332:104,1,50,4|0,0:0|0:0,0:0:0:0:
276,156,71161,2,0,L|236:196,2,50,2|2|2,0:0|0:0|0:0,0:0:0:0:
136,212,72100,6,0,L|180:248,1,50,4|0,0:0|0:0,0:0:0:0:
124,296,72568,2,0,L|184:344,1,50,4|0,0:0|0:0,0:0:0:0:
231,358,73036,1,0,0:0:0:0:
302,333,73271,2,0,L|350:294,1,50
403,342,73740,5,0,0:0:0:0:
376,196,74208,1,0,0:0:0:0:
480,88,74677,2,0,L|399:12,2,100,2|2|2,0:0|0:0|0:0,0:0:0:0:
431,145,75849,1,2,0:0:0:0:
376,196,76083,2,0,L|289:116,1,100,2|0,0:0|0:0,0:0:0:0:
189,228,77021,1,2,0:0:0:0:
189,228,77490,6,0,P|150:180|141:134,1,100
290,129,78427,2,0,P|266:82|292:20,2,100,4|0|0,0:0|0:0|0:0,0:0:0:0:
390,240,79833,1,2,0:0:0:0:
497,131,80302,2,0,B|454:89|388:92,1,100
300,198,81240,6,0,B|198:138|198:265|97:186,2,200,4|0|0,0:0|0:0|0:0,0:0:0:0:
405,303,83583,1,0,0:0:0:0:
512,197,84052,1,0,0:0:0:0:
405,90,84521,1,0,0:0:0:0:
254,90,84990,5,2,0:0:0:0:
232,164,85224,2,0,L|178:198,1,50,4|0,0:0|0:0,0:0:0:0:
148,124,85693,2,0,L|88:156,1,50,4|0,0:0|0:0,0:0:0:0:
60,208,86161,2,0,L|96:268,2,50,2|0|0,0:0|0:0|0:0,0:0:0:0:
194,276,87099,6,0,L|234:196,1,50,4|0,0:0|0:0,0:0:0:0:
289,229,87568,2,0,L|321:153,1,50,4|0,0:0|0:0,0:0:0:0:
370,141,88036,2,0,L|393:86,2,50
301,108,88740,5,0,0:0:0:0:
163,48,89208,1,0,0:0:0:0:
45,141,89677,1,2,0:0:0:0:
125,267,90146,1,0,0:0:0:0:
242,173,90615,1,2,0:0:0:0:
256,192,90849,12,0,92490,0:0:0:0:
328,112,98349,6,0,P|284:88|208:100,1,100,2|2,0:0|0:0,0:0:0:0:
160,104,99052,2,0,P|110:104|67:80,1,100,2|0,0:0|0:0,0:0:0:0:
69,230,99990,6,0,B|131:217|151:269|151:269|190:309|256:284,1,200,2|10,0:0|0:0,0:0:0:0:
398,132,101630,1,2,0:0:0:0:
173,132,102333,2,0,B|171:174|171:174|209:207|214:232,1,100,2|10,0:0|0:0,0:0:0:0:
256,192,103740,12,0,106552,0:0:0:0:
