osu file format v14

[General]
AudioFilename: audio.mp3
AudioLeadIn: 0
PreviewTime: 106265
Countdown: 0
SampleSet: None
StackLeniency: 0.7
Mode: 3
LetterboxInBreaks: 0
SpecialStyle: 0
WidescreenStoryboard: 1

[Editor]
Bookmarks: 20370,40581,60791,81002,83528,84160,101212,105002,105317,105949,106265,126475,146686,164370,165949,166896,187107,207317,225002,227212
DistanceSpacing: 1.5
BeatDivisor: 4
GridSize: 32
TimelineZoom: 1.6

[Metadata]
Title:Three Times The Original Charm
TitleUnicode:Three Times The Original Charm
Artist:VINXIS
ArtistUnicode:VINXIS
Creator:Leniane
Version:Easy
Source:osu!
Tags:-MysticEyes mishima yurara Featured Artist Mappers' Guild Chillout Chill-out DnB Drum & Bass Electronic Instrumental
BeatmapID:1977710
BeatmapSetID:946394

[Difficulty]
HPDrainRate:7
CircleSize:4
OverallDifficulty:7
ApproachRate:0
SliderMultiplier:1.4
SliderTickRate:1

[Events]
//Background and Video events
0,0,"BG.jpg",0,0
//Break Periods
//Storyboard Layer 0 (Background)
//Storyboard Layer 1 (Fail)
//Storyboard Layer 2 (Pass)
//Storyboard Layer 3 (Foreground)
//Storyboard Sound Samples
Sample,20370,0,"C#5W_s.wav",50
Sample,20686,0,"E5W_s.wav",50
Sample,21002,0,"C#5W_s.wav",50
Sample,21317,0,"B4W_s.wav",50
Sample,21633,0,"C#5W_s.wav",50
Sample,21949,0,"E5W_s.wav",50
Sample,22265,0,"C#5W_s.wav",50
Sample,22896,0,"C#5W_s.wav",50
Sample,23212,0,"E5W_s.wav",50
Sample,23528,0,"C#5W_s.wav",50
Sample,23844,0,"B4W_s.wav",50
Sample,24160,0,"C#5W_s.wav",50
Sample,24475,0,"E5W_s.wav",50
Sample,24791,0,"C#5W_short.wav",60
Sample,25423,0,"C#5W_s.wav",50
Sample,25738,0,"E5W_s.wav",50
Sample,26054,0,"C#5W_s.wav",50
Sample,26370,0,"B4W_s.wav",50
Sample,26686,0,"C#5W_s.wav",50
Sample,27002,0,"E5W_s.wav",50
Sample,27317,0,"C#5W_s.wav",50
Sample,27949,0,"C#5W_s.wav",50
Sample,28265,0,"E5W_s.wav",50
Sample,28581,0,"C#5W_s.wav",50
Sample,28896,0,"B4W_s.wav",50
Sample,29212,0,"C#5W_s.wav",50
Sample,29528,0,"E5W_s.wav",50
Sample,29844,0,"C#5W_short.wav",60
Sample,30475,0,"C#5W_s.wav",50
Sample,30791,0,"E5W_s.wav",50
Sample,31107,0,"C#5W_s.wav",50
Sample,31423,0,"B4W_s.wav",50
Sample,31738,0,"C#5W_s.wav",50
Sample,32054,0,"E5W_s.wav",50
Sample,32370,0,"C#5W_s.wav",50
Sample,33002,0,"C#5W_s.wav",50
Sample,33317,0,"E5W_s.wav",50
Sample,33633,0,"C#5W_s.wav",50
Sample,33949,0,"B4W_s.wav",50
Sample,34265,0,"C#5W_s.wav",50
Sample,34581,0,"E5W_s.wav",50
Sample,34896,0,"C#5W_short.wav",60
Sample,35528,0,"C#5W_s.wav",50
Sample,35844,0,"E5W_s.wav",50
Sample,36160,0,"C#5W_s.wav",50
Sample,36475,0,"B4W_s.wav",50
Sample,36791,0,"C#5W_s.wav",50
Sample,37107,0,"E5W_s.wav",50
Sample,37423,0,"C#5W_s.wav",50
Sample,38054,0,"C#5W_s.wav",50
Sample,38370,0,"E5W_s.wav",50
Sample,38686,0,"C#5W_s.wav",50
Sample,39002,0,"B4W_s.wav",50
Sample,39317,0,"C#5W_s.wav",50
Sample,39633,0,"E5W_s.wav",50
Sample,39949,0,"C#5W_short.wav",60
Sample,41686,0,"E7S_s.wav",100
Sample,41844,0,"F#7S_Gb7S_s.wav",100
Sample,43423,0,"B6S_s.wav",100
Sample,43738,0,"B6S_s.wav",100
Sample,44054,0,"A6S_s.wav",100
Sample,44370,0,"C#7S_Db7S_s.wav",100
Sample,45002,0,"B6S_s.wav",100
Sample,46738,0,"E7S_s.wav",100
Sample,46896,0,"F#7S_Gb7S_s.wav",100
Sample,48475,0,"B6S_s.wav",100
Sample,48791,0,"B6S_s.wav",100
Sample,49107,0,"A6S_s.wav",100
Sample,49423,0,"C#7S_Db7S_s.wav",100
Sample,50054,0,"B6S_s.wav",100
Sample,51791,0,"E7S_s.wav",100
Sample,51949,0,"F#7S_Gb7S_s.wav",100
Sample,53528,0,"B6S_s.wav",100
Sample,53844,0,"B6S_s.wav",100
Sample,54160,0,"A6S_s.wav",100
Sample,54475,0,"C#7S_Db7S_s.wav",100
Sample,55107,0,"B6S_s.wav",100
Sample,56844,0,"E7S_s.wav",100
Sample,57002,0,"F#7S_Gb7S_s.wav",100
Sample,58581,0,"B6S_s.wav",100
Sample,58896,0,"B6S_s.wav",100
Sample,59212,0,"A6S_s.wav",100
Sample,59528,0,"C#7S_Db7S_s.wav",100
Sample,60160,0,"B6S_s.wav",100
Sample,107370,0,"E7S_s.wav",100
Sample,107528,0,"F#7S_Gb7S_s.wav",100
Sample,109423,0,"B6S_s.wav",100
Sample,109738,0,"A6S_s.wav",100
Sample,110054,0,"C#7S_Db7S_s.wav",100
Sample,110686,0,"B6S_s.wav",100
Sample,112423,0,"E7S_s.wav",100
Sample,112581,0,"F#7S_Gb7S_s.wav",100
Sample,114475,0,"B6S_s.wav",100
Sample,114791,0,"A6S_s.wav",100
Sample,115107,0,"C#7S_Db7S_s.wav",100
Sample,115738,0,"B6S_s.wav",100
Sample,117475,0,"E7S_s.wav",100
Sample,117633,0,"F#7S_Gb7S_s.wav",100
Sample,119528,0,"B6S_s.wav",100
Sample,119844,0,"A6S_s.wav",100
Sample,120160,0,"C#7S_Db7S_s.wav",100
Sample,120791,0,"B6S_s.wav",100
Sample,122528,0,"E7S_s.wav",100
Sample,122686,0,"F#7S_Gb7S_s.wav",100
Sample,124581,0,"B6S_s.wav",100
Sample,124896,0,"A6S_s.wav",100
Sample,125212,0,"C#7S_Db7S_s.wav",100
Sample,125844,0,"B6S_s.wav",100
Sample,168002,0,"E7S_s.wav",100
Sample,168160,0,"F#7S_Gb7S_s.wav",100
Sample,170054,0,"B6S_s.wav",100
Sample,170370,0,"A6S_s.wav",100
Sample,170686,0,"C#7S_Db7S_s.wav",100
Sample,171317,0,"B6S_s.wav",100
Sample,171633,0,"A6S_s.wav",100
Sample,173054,0,"E7S_s.wav",100
Sample,173212,0,"F#7S_Gb7S_s.wav",100
Sample,174791,0,"B6S_s.wav",100
Sample,175107,0,"B6S_s.wav",100
Sample,175423,0,"A6S_s.wav",100
Sample,175738,0,"C#7S_Db7S_s.wav",100
Sample,176370,0,"B6S_s.wav",100
Sample,176686,0,"A6S_s.wav",100
Sample,178107,0,"E7S_s.wav",100
Sample,178265,0,"F#7S_Gb7S_s.wav",100
Sample,180160,0,"B6S_s.wav",100
Sample,180475,0,"A6S_s.wav",100
Sample,180791,0,"C#7S_Db7S_s.wav",100
Sample,181423,0,"B6S_s.wav",100
Sample,181738,0,"A6S_s.wav",100
Sample,183160,0,"E7S_s.wav",100
Sample,183317,0,"F#7S_Gb7S_s.wav",100
Sample,185212,0,"B6S_s.wav",100
Sample,185528,0,"A6S_s.wav",100
Sample,185844,0,"C#7S_Db7S_s.wav",100
Sample,186475,0,"B6S_s.wav",100
Sample,186791,0,"A6S_s.wav",100
Sample,188212,0,"E7S_s.wav",100
Sample,188370,0,"F#7S_Gb7S_s.wav",100
Sample,190265,0,"B6S_s.wav",100
Sample,190581,0,"A6S_s.wav",100
Sample,190896,0,"C#7S_Db7S_s.wav",100
Sample,191528,0,"B6S_s.wav",100
Sample,191844,0,"A6S_s.wav",100
Sample,193265,0,"E7S_s.wav",100
Sample,193423,0,"F#7S_Gb7S_s.wav",100
Sample,195002,0,"B6S_s.wav",100
Sample,195317,0,"B6S_s.wav",100
Sample,195633,0,"A6S_s.wav",100
Sample,195949,0,"C#7S_Db7S_s.wav",100
Sample,196581,0,"B6S_s.wav",100
Sample,196896,0,"A6S_s.wav",100
Sample,198317,0,"E7S_s.wav",100
Sample,198475,0,"F#7S_Gb7S_s.wav",100
Sample,200370,0,"B6S_s.wav",100
Sample,200686,0,"A6S_s.wav",100
Sample,201002,0,"C#7S_Db7S_s.wav",100
Sample,201633,0,"B6S_s.wav",100
Sample,201949,0,"A6S_s.wav",100
Sample,203370,0,"E7S_s.wav",100
Sample,203528,0,"F#7S_Gb7S_s.wav",100
Sample,205423,0,"B6S_s.wav",100
Sample,205738,0,"A6S_s.wav",100
Sample,206054,0,"C#7S_Db7S_s.wav",100
Sample,206686,0,"B6S_s.wav",100

[TimingPoints]
160,315.789473684211,4,3,1,80,1,0

[HitObjects]
448,192,160,5,0,0:0:0:30:C#5W_s.wav
320,192,475,1,0,0:0:0:30:E5W_s.wav
192,192,791,1,0,0:0:0:30:C#5W_s.wav
64,192,1107,1,0,0:0:0:30:B4W_s.wav
448,192,1423,1,0,0:0:0:30:C#5W_s.wav
320,192,1738,1,0,0:0:0:30:E5W_s.wav
192,192,2054,1,0,0:0:0:30:C#5W_s.wav
64,192,2370,1,0,0:0:0:30:B4W_s.wav
448,192,2686,1,0,0:0:0:30:C#5W_s.wav
320,192,3002,1,0,0:0:0:30:E5W_s.wav
192,192,3317,1,0,0:0:0:30:C#5W_s.wav
64,192,3633,1,0,0:0:0:30:B4W_s.wav
448,192,3949,1,0,0:0:0:30:C#5W_s.wav
320,192,4265,1,0,0:0:0:30:E5W_s.wav
192,192,4581,128,0,5212:0:0:0:40:C#5W_short.wav
64,192,5212,1,0,0:0:0:30:C#5W_s.wav
192,192,5528,1,0,0:0:0:30:E5W_s.wav
320,192,5844,1,0,0:0:0:30:C#5W_s.wav
448,192,6160,1,0,0:0:0:30:B4W_s.wav
64,192,6475,1,0,0:0:0:30:C#5W_s.wav
192,192,6791,1,0,0:0:0:30:E5W_s.wav
320,192,7107,1,0,0:0:0:30:C#5W_s.wav
448,192,7423,1,0,0:0:0:30:B4W_s.wav
64,192,7738,1,0,0:0:0:30:C#5W_s.wav
192,192,8054,1,0,0:0:0:30:E5W_s.wav
320,192,8370,1,0,0:0:0:30:C#5W_s.wav
448,192,8686,1,0,0:0:0:30:B4W_s.wav
64,192,9002,1,0,0:0:0:30:C#5W_s.wav
192,192,9317,1,0,0:0:0:30:E5W_s.wav
320,192,9633,128,0,10265:0:0:0:40:C#5W_short.wav
448,192,10265,1,0,0:0:0:30:C#5W_s.wav
320,192,10581,1,0,0:0:0:30:E5W_s.wav
192,192,10896,1,0,0:0:0:30:C#5W_s.wav
64,192,11212,1,0,0:0:0:30:B4W_s.wav
448,192,11528,1,0,0:0:0:30:C#5W_s.wav
320,192,11844,1,0,0:0:0:30:E5W_s.wav
192,192,12160,1,0,0:0:0:30:C#5W_s.wav
64,192,12475,1,0,0:0:0:30:B4W_s.wav
448,192,12791,1,0,0:0:0:30:C#5W_s.wav
320,192,13107,1,0,0:0:0:30:E5W_s.wav
192,192,13423,1,0,0:0:0:30:C#5W_s.wav
64,192,13738,1,0,0:0:0:30:B4W_s.wav
448,192,14054,1,0,0:0:0:30:C#5W_s.wav
320,192,14370,1,0,0:0:0:30:E5W_s.wav
192,192,14686,128,0,15317:0:0:0:40:C#5W_short.wav
64,192,15317,1,0,0:0:0:30:C#5W_s.wav
192,192,15633,1,0,0:0:0:30:E5W_s.wav
448,192,15949,1,0,0:0:0:30:C#5W_s.wav
320,192,16265,1,0,0:0:0:30:B4W_s.wav
64,192,16581,1,0,0:0:0:30:C#5W_s.wav
192,192,16896,1,0,0:0:0:30:E5W_s.wav
448,192,17212,1,0,0:0:0:30:C#5W_s.wav
320,192,17528,1,0,0:0:0:30:B4W_s.wav
64,192,17844,1,0,0:0:0:40:C#5W_s.wav
192,192,18160,1,0,0:0:0:40:E5W_s.wav
448,192,18475,1,0,0:0:0:40:C#5W_s.wav
320,192,18791,1,0,0:0:0:40:B4W_s.wav
64,192,19107,1,0,0:0:0:40:C#5W_s.wav
192,192,19423,1,0,0:0:0:40:E5W_s.wav
448,192,19738,128,0,20370:0:0:0:50:C#5W_short.wav
320,192,20370,1,2,0:0:0:0:
192,192,20686,1,0,0:0:0:100:LR_Hat Fast.wav
64,192,20844,1,2,0:0:0:0:
320,192,21002,1,8,0:0:0:0:
448,192,21160,1,2,0:0:0:0:
64,192,21317,1,2,0:0:0:0:
192,192,21475,1,2,0:0:0:0:
320,192,21633,1,2,0:0:0:0:
448,192,21791,1,2,0:0:0:0:
64,192,21949,1,0,0:0:0:60:LR_Clap Reverb.wav
192,192,22265,1,8,0:0:0:0:
448,192,22423,1,2,0:0:0:0:
64,192,22581,1,0,0:0:0:50:B4W_s.wav
320,192,22896,1,2,0:0:0:0:
192,192,23212,1,0,0:0:0:100:LR_Hat Fast.wav
448,192,23370,1,0,0:0:0:60:LR_Clap Reverb.wav
64,192,23528,1,8,0:0:0:0:
192,192,23686,1,8,0:0:0:0:
320,192,23844,1,2,0:0:0:0:
448,192,24160,1,2,0:0:0:0:
320,192,24317,1,2,0:0:0:0:
64,192,24475,1,0,0:0:0:60:LR_Clap Reverb.wav
448,192,24633,1,0,0:0:0:0:
192,192,24791,1,8,0:0:0:0:
64,192,24949,1,2,0:0:0:0:
320,192,25107,1,0,0:0:0:0:
192,192,25423,1,2,0:0:0:0:
320,192,25738,1,0,0:0:0:100:LR_Hat Fast.wav
64,192,25896,1,2,0:0:0:0:
192,192,26054,1,8,0:0:0:0:
320,192,26212,1,2,0:0:0:0:
64,192,26370,1,2,0:0:0:0:
448,192,26528,1,2,0:0:0:0:
192,192,26686,1,2,0:0:0:0:
448,192,26844,1,2,0:0:0:0:
320,192,27002,1,0,0:0:0:60:LR_Clap Reverb.wav
64,192,27317,1,8,0:0:0:0:
320,192,27475,1,2,0:0:0:0:
192,192,27633,1,0,0:0:0:50:B4W_s.wav
448,192,27949,1,2,0:0:0:0:
192,192,28265,1,0,0:0:0:100:LR_Hat Fast.wav
320,192,28423,1,0,0:0:0:60:LR_Clap Reverb.wav
64,192,28581,1,8,0:0:0:0:
192,192,28738,1,8,0:0:0:0:
448,192,28896,1,2,0:0:0:0:
192,192,29212,1,2,0:0:0:0:
320,192,29370,1,2,0:0:0:0:
64,192,29528,1,0,0:0:0:60:LR_Clap Reverb.wav
448,192,29844,1,8,0:0:0:0:
320,192,30002,1,2,0:0:0:0:
192,192,30160,1,0,0:0:0:0:
64,192,30475,1,2,0:0:0:0:
320,192,30791,1,0,0:0:0:100:LR_Hat Fast.wav
448,192,30949,1,2,0:0:0:0:
192,192,31107,1,8,0:0:0:0:
64,192,31265,1,2,0:0:0:0:
448,192,31423,1,2,0:0:0:0:
320,192,31581,1,2,0:0:0:0:
192,192,31738,1,2,0:0:0:0:
64,192,31896,1,2,0:0:0:0:
448,192,32054,1,0,0:0:0:60:LR_Clap Reverb.wav
320,192,32370,1,8,0:0:0:0:
64,192,32528,1,2,0:0:0:0:
448,192,32686,1,0,0:0:0:50:B4W_s.wav
192,192,33002,1,2,0:0:0:0:
320,192,33317,1,0,0:0:0:100:LR_Hat Fast.wav
64,192,33475,1,0,0:0:0:60:LR_Clap Reverb.wav
448,192,33633,1,8,0:0:0:0:
320,192,33791,1,8,0:0:0:0:
192,192,33949,1,2,0:0:0:0:
64,192,34265,1,2,0:0:0:0:
192,192,34423,1,2,0:0:0:0:
448,192,34581,1,0,0:0:0:60:LR_Clap Reverb.wav
64,192,34738,1,0,0:0:0:0:
320,192,34896,1,8,0:0:0:0:
448,192,35054,1,2,0:0:0:0:
192,192,35212,1,0,0:0:0:0:
320,192,35528,1,2,0:0:0:0:
192,192,35844,1,0,0:0:0:100:LR_Hat Fast.wav
448,192,36002,1,2,0:0:0:0:
320,192,36160,1,8,0:0:0:0:
192,192,36317,1,2,0:0:0:0:
448,192,36475,1,2,0:0:0:0:
64,192,36633,1,2,0:0:0:0:
192,192,36791,1,2,0:0:0:0:
64,192,36949,1,2,0:0:0:0:
320,192,37107,1,0,0:0:0:60:LR_Clap Reverb.wav
448,192,37423,1,8,0:0:0:0:
192,192,37581,1,2,0:0:0:0:
320,192,37738,1,0,0:0:0:50:B4W_s.wav
64,192,38054,1,2,0:0:0:0:
320,192,38370,1,0,0:0:0:100:LR_Hat Fast.wav
192,192,38528,1,0,0:0:0:60:LR_Clap Reverb.wav
448,192,38686,1,8,0:0:0:0:
320,192,38844,1,8,0:0:0:0:
64,192,39002,1,2,0:0:0:0:
192,192,39317,1,2,0:0:0:0:
320,192,39475,1,2,0:0:0:0:
448,192,39633,1,0,0:0:0:60:LR_Clap Reverb.wav
192,192,39949,128,8,40265:0:0:0:0:
320,192,40265,128,0,40581:0:0:0:0:
64,192,40581,1,2,0:0:0:0:
320,192,40896,1,0,0:0:0:100:LR_Hat Fast.wav
192,192,41054,1,2,0:0:0:0:
448,192,41212,1,8,0:0:0:0:
64,192,41370,1,2,0:0:0:0:
192,192,41528,1,2,0:0:0:0:
320,192,41686,1,2,0:0:0:0:
64,192,41844,1,2,0:0:0:0:
448,192,42002,1,2,0:0:0:0:
320,192,42160,1,0,0:0:0:60:LR_Clap Reverb.wav
64,192,42475,1,8,0:0:0:0:
192,192,42633,1,2,0:0:0:0:
320,192,43107,1,2,0:0:0:0:
448,192,43423,1,0,0:0:0:100:LR_Hat Fast.wav
64,192,43581,1,0,0:0:0:60:LR_Clap Reverb.wav
192,192,43738,1,8,0:0:0:0:
320,192,43896,1,8,0:0:0:0:
448,192,44054,1,2,0:0:0:0:
192,192,44370,1,2,0:0:0:0:
320,192,44528,1,2,0:0:0:0:
192,192,44686,1,0,0:0:0:60:LR_Clap Reverb.wav
64,192,45002,1,8,0:0:0:0:
448,192,45160,1,2,0:0:0:0:
320,192,45633,1,2,0:0:0:0:
64,192,45949,1,0,0:0:0:100:LR_Hat Fast.wav
320,192,46107,1,2,0:0:0:0:
448,192,46265,1,8,0:0:0:0:
64,192,46423,1,2,0:0:0:0:
192,192,46581,1,2,0:0:0:0:
320,192,46738,1,2,0:0:0:0:
64,192,46896,1,2,0:0:0:0:
448,192,47054,1,2,0:0:0:0:
320,192,47212,1,0,0:0:0:60:LR_Clap Reverb.wav
192,192,47528,1,8,0:0:0:0:
64,192,47686,1,2,0:0:0:0:
320,192,48160,1,2,0:0:0:0:
192,192,48475,1,0,0:0:0:100:LR_Hat Fast.wav
320,192,48633,1,0,0:0:0:60:LR_Clap Reverb.wav
448,192,48791,1,8,0:0:0:0:
64,192,48949,1,8,0:0:0:0:
320,192,49107,1,2,0:0:0:0:
192,192,49423,1,2,0:0:0:0:
64,192,49581,1,2,0:0:0:0:
320,192,49738,1,0,0:0:0:60:LR_Clap Reverb.wav
192,192,49896,1,0,0:0:0:100:C#7S_Db7S_s.wav
448,192,50054,1,8,0:0:0:0:
320,192,50212,1,2,0:0:0:0:
192,192,50686,1,2,0:0:0:0:
320,192,51002,1,0,0:0:0:100:LR_Hat Fast.wav
64,192,51160,1,2,0:0:0:0:
192,192,51317,1,8,0:0:0:0:
448,192,51475,1,2,0:0:0:0:
320,192,51633,1,2,0:0:0:0:
192,192,51791,1,2,0:0:0:0:
64,192,51949,1,2,0:0:0:0:
320,192,52107,1,2,0:0:0:0:
192,192,52265,1,0,0:0:0:60:LR_Clap Reverb.wav
320,192,52581,1,8,0:0:0:0:
448,192,52738,1,2,0:0:0:0:
192,192,53212,1,2,0:0:0:0:
320,192,53528,1,0,0:0:0:100:LR_Hat Fast.wav
64,192,53686,1,0,0:0:0:60:LR_Clap Reverb.wav
192,192,53844,1,8,0:0:0:0:
448,192,54002,1,8,0:0:0:0:
320,192,54160,1,2,0:0:0:0:
192,192,54475,1,2,0:0:0:0:
320,192,54633,1,2,0:0:0:0:
64,192,54791,1,0,0:0:0:60:LR_Clap Reverb.wav
192,192,54949,1,0,0:0:0:100:C#7S_Db7S_s.wav
320,192,55107,1,8,0:0:0:0:
448,192,55265,1,2,0:0:0:0:
192,192,55738,1,2,0:0:0:0:
320,192,56054,1,0,0:0:0:100:LR_Hat Fast.wav
192,192,56212,1,2,0:0:0:0:
64,192,56370,1,8,0:0:0:0:
320,192,56528,1,2,0:0:0:0:
448,192,56686,1,2,0:0:0:0:
192,192,56844,1,2,0:0:0:0:
320,192,57002,1,2,0:0:0:0:
64,192,57160,1,2,0:0:0:0:
192,192,57317,1,0,0:0:0:60:LR_Clap Reverb.wav
320,192,57633,1,8,0:0:0:0:
64,192,57791,1,2,0:0:0:0:
448,192,58265,1,2,0:0:0:0:
192,192,58581,1,0,0:0:0:100:LR_Hat Fast.wav
448,192,58738,1,0,0:0:0:60:LR_Clap Reverb.wav
64,192,58896,1,8,0:0:0:0:
192,192,59054,1,8,0:0:0:0:
320,192,59212,1,2,0:0:0:0:
64,192,59528,1,2,0:0:0:0:
448,192,59686,1,2,0:0:0:0:
192,192,59844,1,0,0:0:0:60:LR_Clap Reverb.wav
320,192,60002,1,0,0:0:0:100:C#7S_Db7S_s.wav
64,192,60160,128,8,60791:0:0:0:0:
320,192,60791,1,2,0:0:0:0:
192,192,61107,1,0,0:0:0:0:
448,192,61738,1,0,0:0:0:0:
320,192,62370,128,0,62686:0:0:0:0:
192,192,62686,128,8,63002:0:0:0:0:
64,192,63002,128,0,63317:0:0:0:0:
320,192,63317,1,2,0:0:0:0:
192,192,63633,128,0,64265:0:0:0:0:
64,192,64265,128,2,64581:0:0:0:0:
192,192,64896,128,0,65528:0:0:0:60:LR_Clap Reverb.wav
320,192,65528,1,0,0:0:0:100:LR_Hat Fast.wav
64,192,65686,1,0,0:0:0:0:
448,192,65844,128,2,66160:0:0:0:0:
192,192,66475,1,8,0:0:0:0:
320,192,66633,1,0,0:0:0:0:
64,192,66949,128,2,67423:0:0:0:0:
192,192,67423,128,0,67738:0:0:0:0:
320,192,67738,1,8,0:0:0:0:
64,192,67896,1,2,0:0:0:0:
448,192,68054,1,0,0:0:0:0:
192,192,68212,1,0,0:0:0:0:
320,192,68370,128,2,68686:0:0:0:0:
64,192,68844,1,0,0:0:0:100:LR_Hat Fast.wav
192,192,69002,1,8,0:0:0:0:
320,192,69160,1,8,0:0:0:0:
64,192,69317,1,2,0:0:0:0:
448,192,69475,128,0,69949:0:0:0:0:
192,192,69949,128,0,70265:0:0:0:60:LR_Clap Reverb.wav
320,192,70265,128,8,70581:0:0:0:0:
64,192,70581,128,0,70896:0:0:0:100:LR_Hat Fast.wav
192,192,70896,1,2,0:0:0:0:
320,192,71212,1,0,0:0:0:0:
448,192,71844,1,0,0:0:0:0:
64,192,72160,1,2,0:0:0:0:
320,192,72317,1,2,0:0:0:0:
192,192,72475,128,0,72791:0:0:0:0:
320,192,72791,128,8,73107:0:0:0:0:
64,192,73107,128,0,73423:0:0:0:0:
448,192,73423,1,2,0:0:0:0:
192,192,73738,128,0,74370:0:0:0:0:
64,192,74370,128,2,74686:0:0:0:0:
192,192,75002,128,0,75633:0:0:0:60:LR_Clap Reverb.wav
320,192,75633,1,0,0:0:0:100:LR_Hat Fast.wav
64,192,75791,1,0,0:0:0:0:
448,192,75949,128,2,76265:0:0:0:0:
192,192,76581,1,8,0:0:0:0:
320,192,76738,1,0,0:0:0:0:
64,192,77054,128,2,77528:0:0:0:0:
192,192,77528,128,0,77844:0:0:0:0:
320,192,77844,1,8,0:0:0:0:
64,192,78002,1,2,0:0:0:0:
448,192,78160,1,0,0:0:0:0:
192,192,78317,1,0,0:0:0:0:
320,192,78475,128,2,78791:0:0:0:0:
64,192,78791,1,0,0:0:0:0:
320,192,79107,128,8,79423:0:0:0:0:
192,192,79423,128,2,79738:0:0:0:0:
448,192,79738,128,2,80054:0:0:0:0:
192,192,80054,128,0,80370:0:0:0:60:LR_Clap Reverb.wav
320,192,80370,128,8,80686:0:0:0:0:
64,192,80686,128,0,81002:0:0:0:100:LR_Hat Fast.wav
320,192,81002,1,2,0:0:0:0:
192,192,81317,1,0,0:0:0:0:
448,192,81949,1,0,0:0:0:0:
320,192,82581,128,0,82896:0:0:0:0:
192,192,82896,128,8,83212:0:0:0:0:
64,192,83212,128,0,83528:0:0:0:0:
192,192,83528,1,0,0:0:0:0:
448,192,83528,1,0,0:0:0:0:
192,192,84160,128,2,84475:0:0:0:0:
320,192,84475,128,2,84791:0:0:0:0:
64,192,84791,128,2,85107:0:0:0:0:
448,192,85107,128,0,85423:0:0:0:60:LR_Clap Reverb.wav
192,192,85423,128,8,85738:0:0:0:0:
64,192,85738,128,0,86054:0:0:0:100:LR_Hat Fast.wav
320,192,86054,1,2,0:0:0:0:
192,192,86370,1,0,0:0:0:0:
448,192,87002,1,0,0:0:0:0:
192,192,87317,1,2,0:0:0:0:
64,192,87475,1,2,0:0:0:0:
320,192,87633,128,0,87949:0:0:0:0:
192,192,87949,128,8,88265:0:0:0:0:
64,192,88265,128,0,88581:0:0:0:0:
320,192,88581,1,2,0:0:0:0:
192,192,88896,128,0,89528:0:0:0:0:
64,192,89528,128,2,89844:0:0:0:0:
192,192,90160,128,0,90791:0:0:0:60:LR_Clap Reverb.wav
320,192,90791,1,0,0:0:0:100:LR_Hat Fast.wav
64,192,90949,1,0,0:0:0:0:
448,192,91107,128,2,91423:0:0:0:0:
192,192,91738,1,8,0:0:0:0:
320,192,91896,1,0,0:0:0:0:
64,192,92212,128,2,92686:0:0:0:0:
192,192,92686,1,0,0:0:0:0:
448,192,92844,1,0,0:0:0:0:
320,192,93002,1,8,0:0:0:0:
64,192,93160,1,2,0:0:0:0:
448,192,93317,1,0,0:0:0:0:
192,192,93475,1,0,0:0:0:0:
320,192,93633,128,2,93949:0:0:0:0:
64,192,93949,128,0,94265:0:0:0:0:
320,192,94265,128,8,94581:0:0:0:0:
192,192,94581,128,2,94896:0:0:0:0:
64,192,94896,128,2,95212:0:0:0:0:
448,192,95212,128,0,95528:0:0:0:60:LR_Clap Reverb.wav
192,192,95528,128,8,95844:0:0:0:0:
320,192,95844,128,0,96160:0:0:0:100:LR_Hat Fast.wav
64,192,96160,1,2,0:0:0:0:
192,192,96475,1,0,0:0:0:0:
448,192,97107,1,0,0:0:0:0:
320,192,97738,128,0,98054:0:0:0:0:
448,192,98054,128,8,98370:0:0:0:0:
64,192,98370,128,0,98686:0:0:0:0:
320,192,98686,1,2,0:0:0:0:
192,192,99002,128,0,99633:0:0:0:0:
64,192,99633,128,2,99949:0:0:0:0:
192,192,100265,128,0,100896:0:0:0:0:
448,192,100896,1,0,0:0:0:0:
64,192,101054,1,2,0:0:0:0:
320,192,101212,128,2,103738:0:0:0:0:
192,192,101528,1,0,0:0:0:0:
448,192,101844,1,0,0:0:0:0:
64,192,102160,1,0,0:0:0:0:
192,192,102475,1,0,0:0:0:0:
64,192,102791,1,0,0:0:0:0:
448,192,103107,1,0,0:0:0:0:
192,192,103423,1,0,0:0:0:0:
64,192,103738,128,0,105002:0:0:0:0:
448,192,104054,1,0,0:0:0:0:
320,192,104370,1,0,0:0:0:0:
192,192,104686,1,0,0:0:0:0:
448,192,105002,128,0,105317:0:0:0:0:
192,192,105317,128,0,106265:0:0:0:0:
320,192,106265,1,2,0:0:0:0:
64,192,106581,1,0,0:0:0:100:LR_Hat Fast.wav
320,192,106738,1,2,0:0:0:0:
192,192,106896,1,8,0:0:0:0:
448,192,107054,1,2,0:0:0:0:
320,192,107212,1,2,0:0:0:0:
192,192,107370,1,2,0:0:0:0:
64,192,107528,1,2,0:0:0:0:
448,192,107686,1,2,0:0:0:0:
320,192,107844,1,0,0:0:0:60:LR_Clap Reverb.wav
64,192,108160,1,8,0:0:0:0:
320,192,108317,1,2,0:0:0:0:
192,192,108791,1,2,0:0:0:0:
448,192,109107,1,0,0:0:0:100:B6S_s.wav
64,192,109265,1,0,0:0:0:0:
192,192,109423,1,8,0:0:0:0:
320,192,109581,1,8,0:0:0:0:
64,192,109738,1,2,0:0:0:0:
448,192,110054,1,2,0:0:0:0:
320,192,110212,1,2,0:0:0:0:
192,192,110370,1,0,0:0:0:60:LR_Clap Reverb.wav
64,192,110686,1,8,0:0:0:0:
192,192,110844,1,2,0:0:0:0:
320,192,111317,1,2,0:0:0:0:
64,192,111633,1,0,0:0:0:100:LR_Hat Fast.wav
320,192,111791,1,2,0:0:0:0:
192,192,111949,1,8,0:0:0:0:
448,192,112107,1,2,0:0:0:0:
320,192,112265,1,2,0:0:0:0:
64,192,112423,1,2,0:0:0:0:
192,192,112581,1,2,0:0:0:0:
448,192,112738,1,2,0:0:0:0:
192,192,112896,1,0,0:0:0:60:LR_Clap Reverb.wav
320,192,113212,1,8,0:0:0:0:
64,192,113370,1,2,0:0:0:0:
320,192,113844,1,2,0:0:0:0:
192,192,114160,1,0,0:0:0:100:B6S_s.wav
320,192,114317,1,0,0:0:0:0:
448,192,114475,1,8,0:0:0:0:
64,192,114633,1,8,0:0:0:0:
320,192,114791,1,2,0:0:0:0:
192,192,115107,1,2,0:0:0:0:
64,192,115265,1,2,0:0:0:0:
320,192,115423,1,0,0:0:0:60:LR_Clap Reverb.wav
192,192,115581,1,0,0:0:0:100:C#7S_Db7S_s.wav
448,192,115738,1,8,0:0:0:0:
64,192,115896,1,2,0:0:0:0:
192,192,116370,1,2,0:0:0:0:
320,192,116686,1,0,0:0:0:100:LR_Hat Fast.wav
64,192,116844,1,2,0:0:0:0:
192,192,117002,1,8,0:0:0:0:
448,192,117160,1,2,0:0:0:0:
320,192,117317,1,2,0:0:0:0:
192,192,117475,1,2,0:0:0:0:
64,192,117633,1,2,0:0:0:0:
320,192,117791,1,2,0:0:0:0:
192,192,117949,1,0,0:0:0:60:LR_Clap Reverb.wav
320,192,118265,1,8,0:0:0:0:
448,192,118423,1,2,0:0:0:0:
192,192,118896,1,2,0:0:0:0:
320,192,119212,1,0,0:0:0:100:B6S_s.wav
64,192,119370,1,0,0:0:0:0:
192,192,119528,1,8,0:0:0:0:
448,192,119686,1,8,0:0:0:0:
64,192,119844,1,2,0:0:0:0:
320,192,120160,1,2,0:0:0:0:
192,192,120317,1,2,0:0:0:0:
64,192,120475,1,0,0:0:0:60:LR_Clap Reverb.wav
192,192,120633,1,0,0:0:0:100:C#7S_Db7S_s.wav
320,192,120791,1,8,0:0:0:0:
448,192,120949,1,2,0:0:0:0:
192,192,121423,1,2,0:0:0:0:
320,192,121738,1,0,0:0:0:100:LR_Hat Fast.wav
192,192,121896,1,2,0:0:0:0:
64,192,122054,1,8,0:0:0:0:
320,192,122212,1,2,0:0:0:0:
448,192,122370,1,2,0:0:0:0:
192,192,122528,1,2,0:0:0:0:
320,192,122686,1,2,0:0:0:0:
64,192,122844,1,2,0:0:0:0:
192,192,123002,1,0,0:0:0:60:LR_Clap Reverb.wav
320,192,123317,1,8,0:0:0:0:
64,192,123475,1,2,0:0:0:0:
448,192,123949,1,2,0:0:0:0:
192,192,124265,1,0,0:0:0:100:B6S_s.wav
448,192,124423,1,0,0:0:0:0:
64,192,124581,1,8,0:0:0:0:
192,192,124738,1,8,0:0:0:0:
320,192,124896,1,2,0:0:0:0:
64,192,125212,1,2,0:0:0:0:
448,192,125370,1,2,0:0:0:0:
192,192,125528,1,0,0:0:0:60:LR_Clap Reverb.wav
320,192,125686,1,0,0:0:0:100:C#7S_Db7S_s.wav
64,192,125844,128,8,126475:0:0:0:0:
448,192,126475,128,2,127107:0:0:0:0:
64,192,126791,128,0,127107:0:0:0:0:
320,192,127107,1,8,0:0:0:0:
192,192,127423,1,0,0:0:0:0:
320,192,127581,1,2,0:0:0:0:
448,192,127738,128,2,128370:0:0:0:0:
320,192,128054,128,0,128370:0:0:0:0:
192,192,128370,1,8,0:0:0:0:
320,192,128686,1,0,0:0:0:0:
192,192,128844,1,0,0:0:0:0:
64,192,129002,128,2,129633:0:0:0:0:
320,192,129317,128,0,129633:0:0:0:0:
192,192,129633,1,8,0:0:0:0:
320,192,129949,1,2,0:0:0:0:
448,192,130107,1,0,0:0:0:0:
64,192,130265,128,2,130896:0:0:0:0:
448,192,130581,128,0,130896:0:0:0:60:LR_Clap Reverb.wav
192,192,130896,1,8,0:0:0:0:
320,192,131212,1,0,0:0:0:100:LR_Hat Fast.wav
192,192,131370,1,0,0:0:0:0:
448,192,131528,128,2,132160:0:0:0:0:
64,192,131844,128,0,132160:0:0:0:0:
320,192,132160,1,8,0:0:0:0:
192,192,132475,1,0,0:0:0:0:
320,192,132633,1,2,0:0:0:0:
448,192,132791,128,2,133423:0:0:0:0:
320,192,133107,128,0,133423:0:0:0:0:
192,192,133423,1,8,0:0:0:0:
320,192,133738,1,0,0:0:0:0:
448,192,133896,1,0,0:0:0:0:
64,192,134054,128,2,134686:0:0:0:0:
448,192,134370,128,0,134686:0:0:0:0:
320,192,134686,1,8,0:0:0:0:
192,192,135002,1,2,0:0:0:0:
448,192,135160,1,0,0:0:0:0:
64,192,135317,128,2,135949:0:0:0:0:
320,192,135633,128,0,135949:0:0:0:60:LR_Clap Reverb.wav
192,192,135949,1,8,0:0:0:0:
320,192,136265,1,0,0:0:0:100:LR_Hat Fast.wav
64,192,136423,1,0,0:0:0:0:
448,192,136581,128,2,137212:0:0:0:0:
192,192,136896,128,0,137212:0:0:0:0:
64,192,137212,1,8,0:0:0:0:
320,192,137528,1,0,0:0:0:0:
192,192,137686,1,2,0:0:0:0:
448,192,137844,128,2,138475:0:0:0:0:
192,192,138160,128,0,138475:0:0:0:0:
320,192,138475,1,8,0:0:0:0:
192,192,138791,1,0,0:0:0:0:
448,192,138949,1,0,0:0:0:0:
64,192,139107,128,2,139738:0:0:0:0:
192,192,139423,128,0,139738:0:0:0:0:
448,192,139738,1,8,0:0:0:0:
192,192,140054,1,2,0:0:0:0:
320,192,140212,1,0,0:0:0:0:
64,192,140370,128,2,141002:0:0:0:0:
448,192,140686,128,0,141002:0:0:0:60:LR_Clap Reverb.wav
192,192,141002,1,8,0:0:0:0:
64,192,141317,1,0,0:0:0:100:LR_Hat Fast.wav
320,192,141475,1,0,0:0:0:0:
448,192,141633,128,2,142265:0:0:0:0:
64,192,141949,128,0,142265:0:0:0:0:
192,192,142265,1,8,0:0:0:0:
320,192,142581,1,0,0:0:0:0:
64,192,142738,1,2,0:0:0:0:
448,192,142896,128,2,143528:0:0:0:0:
192,192,143212,128,0,143528:0:0:0:0:
320,192,143528,1,8,0:0:0:0:
192,192,143844,1,0,0:0:0:0:
320,192,144002,1,0,0:0:0:0:
64,192,144160,128,2,144791:0:0:0:0:
192,192,144475,128,0,144791:0:0:0:0:
448,192,144791,1,8,0:0:0:0:
320,192,145107,1,2,0:0:0:0:
192,192,145265,1,0,0:0:0:0:
64,192,145423,128,2,146054:0:0:0:0:
320,192,145738,128,0,146054:0:0:0:60:LR_Clap Reverb.wav
192,192,146054,1,8,0:0:0:0:
320,192,146370,1,0,0:0:0:100:LR_Hat Fast.wav
64,192,146528,1,0,0:0:0:0:
192,192,146686,128,2,146844:0:0:0:0:
448,192,146844,128,0,147002:0:0:0:0:
320,192,147002,1,0,0:0:0:0:
64,192,147317,1,8,0:0:0:0:
192,192,147475,1,0,0:0:0:0:
320,192,147791,1,2,0:0:0:0:
192,192,147949,128,2,148265:0:0:0:0:
64,192,148265,128,0,148423:0:0:0:0:
320,192,148581,1,8,0:0:0:0:
192,192,148738,1,2,0:0:0:0:
448,192,149054,1,0,0:0:0:0:
64,192,149212,128,2,149370:0:0:0:0:
320,192,149370,128,0,149528:0:0:0:0:
192,192,149528,1,0,0:0:0:0:
448,192,149844,1,8,0:0:0:0:
64,192,150002,1,8,0:0:0:0:
320,192,150317,1,0,0:0:0:0:
448,192,150475,128,2,150791:0:0:0:0:
64,192,150791,128,0,150949:0:0:0:60:LR_Clap Reverb.wav
320,192,151107,1,8,0:0:0:0:
192,192,151265,1,0,0:0:0:0:
448,192,151581,1,0,0:0:0:0:
192,192,151738,128,2,151896:0:0:0:0:
320,192,151896,128,0,152054:0:0:0:0:
64,192,152054,1,0,0:0:0:0:
448,192,152370,1,8,0:0:0:0:
320,192,152528,1,0,0:0:0:0:
192,192,152844,1,2,0:0:0:0:
320,192,153002,128,2,153317:0:0:0:0:
64,192,153317,128,0,153475:0:0:0:0:
192,192,153633,1,8,0:0:0:0:
320,192,153791,1,2,0:0:0:0:
64,192,154107,1,0,0:0:0:0:
320,192,154265,128,2,154581:0:0:0:0:
192,192,154581,128,0,154738:0:0:0:0:
448,192,154896,1,8,0:0:0:0:
320,192,155054,1,8,0:0:0:0:
64,192,155370,1,0,0:0:0:0:
448,192,155528,128,2,155844:0:0:0:0:
192,192,155844,128,0,156002:0:0:0:60:LR_Clap Reverb.wav
320,192,156160,1,8,0:0:0:0:
448,192,156317,1,0,0:0:0:0:
64,192,156633,1,0,0:0:0:0:
192,192,156791,128,2,156949:0:0:0:0:
448,192,156949,128,0,157107:0:0:0:0:
320,192,157107,1,0,0:0:0:0:
64,192,157423,1,8,0:0:0:0:
192,192,157581,1,0,0:0:0:0:
320,192,157896,1,2,0:0:0:0:
192,192,158054,128,2,158370:0:0:0:0:
64,192,158370,128,0,158528:0:0:0:0:
320,192,158686,1,8,0:0:0:0:
192,192,158844,1,2,0:0:0:0:
448,192,159160,1,0,0:0:0:0:
64,192,159317,128,2,159475:0:0:0:0:
320,192,159475,128,0,159633:0:0:0:0:
192,192,159633,1,0,0:0:0:0:
448,192,159949,1,8,0:0:0:0:
64,192,160107,1,8,0:0:0:0:
320,192,160423,1,0,0:0:0:0:
448,192,160581,128,2,160896:0:0:0:0:
64,192,160896,128,0,161054:0:0:0:60:LR_Clap Reverb.wav
320,192,161212,1,8,0:0:0:0:
192,192,161370,1,0,0:0:0:0:
448,192,161686,1,0,0:0:0:0:
192,192,161844,128,2,162002:0:0:0:0:
320,192,162002,128,0,162160:0:0:0:0:
64,192,162160,1,0,0:0:0:0:
448,192,162475,1,8,0:0:0:0:
320,192,162633,1,0,0:0:0:0:
192,192,162949,1,2,0:0:0:0:
320,192,163107,128,2,163423:0:0:0:0:
64,192,163423,128,0,163581:0:0:0:0:
192,192,163738,1,8,0:0:0:0:
320,192,163896,1,2,0:0:0:0:
64,192,164212,1,0,0:0:0:0:
320,192,164370,1,0,0:0:0:0:
448,192,164370,1,0,0:0:0:0:
64,192,164686,1,0,0:0:0:0:
320,192,165002,1,0,0:0:0:0:
192,192,165160,1,0,0:0:0:0:
320,192,165475,1,0,0:0:0:0:
448,192,165633,1,0,0:0:0:0:
192,192,165791,1,0,0:0:0:0:
64,192,165949,128,0,166896:0:0:0:0:
320,192,166265,1,0,0:0:0:0:
448,192,166423,1,0,0:0:0:0:
192,192,166738,1,0,0:0:0:0:
448,192,166896,1,2,0:0:0:0:
192,192,167370,1,2,0:0:0:0:
320,192,167528,1,8,0:0:0:0:
64,192,168002,1,2,0:0:0:0:
192,192,168160,1,2,0:0:0:0:
320,192,168317,1,2,0:0:0:0:
64,192,168633,1,0,0:0:0:100:E7S_s.wav
448,192,168791,1,8,0:0:0:0:
320,192,168949,1,2,0:0:0:0:
192,192,169107,1,0,0:0:0:100:C#7S_Db7S_s.wav
448,192,169423,1,2,0:0:0:0:
192,192,169896,1,0,0:0:0:0:
320,192,170054,1,8,0:0:0:0:
64,192,170212,1,8,0:0:0:0:
192,192,170370,1,2,0:0:0:0:
448,192,170686,1,2,0:0:0:0:
320,192,170844,1,2,0:0:0:0:
192,192,171002,1,0,0:0:0:60:LR_Clap Reverb.wav
448,192,171160,1,0,0:0:0:100:C#7S_Db7S_s.wav
320,192,171317,1,8,0:0:0:0:
64,192,171633,1,0,0:0:0:100:LR_Hat Fast.wav
192,192,171949,1,2,0:0:0:0:
320,192,172423,1,2,0:0:0:0:
192,192,172581,1,8,0:0:0:0:
320,192,173054,1,2,0:0:0:0:
192,192,173212,1,2,0:0:0:0:
448,192,173370,1,2,0:0:0:0:
192,192,173686,1,0,0:0:0:100:E7S_s.wav
64,192,173844,1,8,0:0:0:0:
320,192,174002,1,2,0:0:0:0:
192,192,174160,1,0,0:0:0:100:C#7S_Db7S_s.wav
448,192,174475,1,2,0:0:0:0:
192,192,174949,1,0,0:0:0:0:
320,192,175107,1,8,0:0:0:0:
64,192,175265,1,8,0:0:0:0:
192,192,175423,1,2,0:0:0:0:
320,192,175738,1,2,0:0:0:0:
192,192,175896,1,2,0:0:0:0:
448,192,176054,1,0,0:0:0:60:LR_Clap Reverb.wav
64,192,176212,1,0,0:0:0:100:C#7S_Db7S_s.wav
320,192,176370,1,8,0:0:0:0:
64,192,176686,1,0,0:0:0:100:LR_Hat Fast.wav
192,192,177002,1,2,0:0:0:0:
320,192,177475,1,2,0:0:0:0:
64,192,177633,1,8,0:0:0:0:
192,192,178107,1,2,0:0:0:0:
320,192,178265,1,2,0:0:0:0:
448,192,178423,1,2,0:0:0:0:
192,192,178738,1,0,0:0:0:100:E7S_s.wav
320,192,178896,1,8,0:0:0:0:
64,192,179054,1,2,0:0:0:0:
448,192,179212,1,0,0:0:0:100:C#7S_Db7S_s.wav
320,192,179528,1,2,0:0:0:0:
320,192,180002,1,0,0:0:0:0:
448,192,180160,1,8,0:0:0:0:
64,192,180317,1,8,0:0:0:0:
320,192,180475,1,2,0:0:0:0:
192,192,180791,1,2,0:0:0:0:
64,192,180949,1,2,0:0:0:0:
448,192,181107,1,0,0:0:0:60:LR_Clap Reverb.wav
192,192,181265,1,0,0:0:0:100:C#7S_Db7S_s.wav
320,192,181423,1,8,0:0:0:0:
64,192,181738,1,0,0:0:0:100:LR_Hat Fast.wav
192,192,182054,1,2,0:0:0:0:
448,192,182528,1,2,0:0:0:0:
192,192,182686,1,8,0:0:0:0:
64,192,183160,1,2,0:0:0:0:
320,192,183317,1,2,0:0:0:0:
192,192,183475,1,2,0:0:0:0:
320,192,183791,1,0,0:0:0:100:E7S_s.wav
448,192,183949,1,8,0:0:0:0:
64,192,184107,1,2,0:0:0:0:
192,192,184265,1,0,0:0:0:100:C#7S_Db7S_s.wav
320,192,184581,1,2,0:0:0:0:
192,192,185054,1,0,0:0:0:0:
320,192,185212,1,8,0:0:0:0:
448,192,185370,1,8,0:0:0:0:
64,192,185528,1,2,0:0:0:0:
320,192,185844,1,2,0:0:0:0:
192,192,186002,1,2,0:0:0:0:
448,192,186160,1,0,0:0:0:60:LR_Clap Reverb.wav
64,192,186317,1,0,0:0:0:100:C#7S_Db7S_s.wav
192,192,186475,1,8,0:0:0:0:
320,192,186791,1,0,0:0:0:100:LR_Hat Fast.wav
448,192,187107,1,2,0:0:0:0:
320,192,187581,1,2,0:0:0:0:
64,192,187738,1,8,0:0:0:0:
192,192,188212,1,2,0:0:0:0:
320,192,188370,1,2,0:0:0:0:
448,192,188528,1,2,0:0:0:0:
192,192,188844,1,0,0:0:0:100:E7S_s.wav
64,192,189002,1,8,0:0:0:0:
320,192,189160,1,2,0:0:0:0:
192,192,189317,1,0,0:0:0:100:C#7S_Db7S_s.wav
448,192,189633,1,2,0:0:0:0:
64,192,190107,1,0,0:0:0:0:
192,192,190265,1,8,0:0:0:0:
320,192,190423,1,8,0:0:0:0:
64,192,190581,1,2,0:0:0:0:
192,192,190896,1,2,0:0:0:0:
448,192,191054,1,2,0:0:0:0:
320,192,191212,1,0,0:0:0:60:LR_Clap Reverb.wav
192,192,191370,1,0,0:0:0:100:C#7S_Db7S_s.wav
64,192,191528,1,8,0:0:0:0:
448,192,191844,1,0,0:0:0:100:LR_Hat Fast.wav
192,192,192160,1,2,0:0:0:0:
320,192,192633,1,2,0:0:0:0:
448,192,192791,1,8,0:0:0:0:
320,192,193265,1,2,0:0:0:0:
192,192,193423,1,2,0:0:0:0:
64,192,193581,1,2,0:0:0:0:
192,192,193896,1,0,0:0:0:100:E7S_s.wav
448,192,194054,1,8,0:0:0:0:
320,192,194212,1,2,0:0:0:0:
64,192,194370,1,0,0:0:0:100:C#7S_Db7S_s.wav
192,192,194686,1,2,0:0:0:0:
320,192,195160,1,0,0:0:0:0:
64,192,195317,1,8,0:0:0:0:
192,192,195475,1,8,0:0:0:0:
448,192,195633,1,2,0:0:0:0:
320,192,195949,1,2,0:0:0:0:
192,192,196107,1,2,0:0:0:0:
448,192,196265,1,0,0:0:0:60:LR_Clap Reverb.wav
64,192,196423,1,0,0:0:0:100:C#7S_Db7S_s.wav
192,192,196581,1,8,0:0:0:0:
320,192,196896,1,0,0:0:0:100:LR_Hat Fast.wav
448,192,197212,1,2,0:0:0:0:
192,192,197686,1,2,0:0:0:0:
320,192,197844,1,8,0:0:0:0:
192,192,198317,1,2,0:0:0:0:
64,192,198475,1,2,0:0:0:0:
448,192,198633,1,2,0:0:0:0:
192,192,198949,1,0,0:0:0:100:E7S_s.wav
320,192,199107,1,8,0:0:0:0:
64,192,199265,1,2,0:0:0:0:
192,192,199423,1,0,0:0:0:100:C#7S_Db7S_s.wav
448,192,199738,1,2,0:0:0:0:
64,192,200212,1,0,0:0:0:0:
192,192,200370,1,8,0:0:0:0:
320,192,200528,1,8,0:0:0:0:
64,192,200686,1,2,0:0:0:0:
320,192,201002,1,2,0:0:0:0:
192,192,201160,1,2,0:0:0:0:
64,192,201317,1,0,0:0:0:60:LR_Clap Reverb.wav
320,192,201475,1,0,0:0:0:100:C#7S_Db7S_s.wav
448,192,201633,1,8,0:0:0:0:
320,192,201949,1,0,0:0:0:100:LR_Hat Fast.wav
192,192,202265,1,2,0:0:0:0:
320,192,202738,1,2,0:0:0:0:
448,192,202896,1,8,0:0:0:0:
320,192,203370,1,2,0:0:0:0:
192,192,203528,1,2,0:0:0:0:
64,192,203686,1,2,0:0:0:0:
192,192,204002,1,0,0:0:0:100:E7S_s.wav
448,192,204160,1,8,0:0:0:0:
320,192,204317,1,2,0:0:0:0:
64,192,204475,1,0,0:0:0:100:C#7S_Db7S_s.wav
192,192,204791,1,2,0:0:0:0:
320,192,205265,1,0,0:0:0:0:
64,192,205423,1,8,0:0:0:0:
192,192,205581,1,8,0:0:0:0:
448,192,205738,1,2,0:0:0:0:
320,192,206054,1,2,0:0:0:0:
192,192,206212,1,2,0:0:0:0:
448,192,206370,1,0,0:0:0:60:LR_Clap Reverb.wav
64,192,206528,1,0,0:0:0:100:C#7S_Db7S_s.wav
192,192,206686,1,8,0:0:0:0:
320,192,207002,1,0,0:0:0:100:LR_Hat Fast.wav
64,192,207317,1,0,0:0:0:0:
192,192,207317,1,0,0:0:0:0:
64,192,207949,1,0,0:0:0:100:C#7S_Db7S_s.wav
192,192,208265,1,0,0:0:0:100:B6S_s.wav
448,192,208581,1,0,0:0:0:100:F#7S_Gb7S_s.wav
320,192,209054,1,0,0:0:0:100:E7S_s.wav
64,192,209528,1,0,0:0:0:100:C#7S_Db7S_s.wav
192,192,209844,1,0,0:0:0:0:
448,192,209844,1,0,0:0:0:0:
320,192,210160,1,0,0:0:0:100:B6S_s.wav
192,192,210475,1,0,0:0:0:100:B6S_s.wav
320,192,210791,1,0,0:0:0:100:A6S_s.wav
448,192,211107,1,0,0:0:0:100:C#7S_Db7S_s.wav
320,192,211581,1,0,0:0:0:100:C#7S_Db7S_s.wav
192,192,211738,1,0,0:0:0:100:B6S_s.wav
64,192,212054,1,0,0:0:0:100:A6S_s.wav
320,192,212370,1,0,0:0:0:0:
448,192,212370,1,0,0:0:0:0:
192,192,213002,1,0,0:0:0:100:C#7S_Db7S_s.wav
320,192,213317,1,0,0:0:0:100:B6S_s.wav
448,192,213633,1,0,0:0:0:100:F#7S_Gb7S_s.wav
320,192,214107,1,0,0:0:0:100:E7S_s.wav
192,192,214581,1,0,0:0:0:100:C#7S_Db7S_s.wav
64,192,214896,1,0,0:0:0:0:
320,192,214896,1,0,0:0:0:0:
192,192,215212,1,0,0:0:0:100:B6S_s.wav
320,192,215528,1,0,0:0:0:100:B6S_s.wav
64,192,215844,1,0,0:0:0:100:A6S_s.wav
448,192,216160,1,0,0:0:0:100:C#7S_Db7S_s.wav
448,192,216633,1,0,0:0:0:100:C#7S_Db7S_s.wav
320,192,216791,1,0,0:0:0:100:B6S_s.wav
448,192,217107,1,0,0:0:0:100:A6S_s.wav
64,192,217423,1,0,0:0:0:0:
192,192,217423,1,0,0:0:0:0:
64,192,218054,1,0,0:0:0:100:C#7S_Db7S_s.wav
192,192,218370,1,0,0:0:0:100:B6S_s.wav
448,192,218686,1,0,0:0:0:100:F#7S_Gb7S_s.wav
320,192,219160,1,0,0:0:0:100:E7S_s.wav
64,192,219633,1,0,0:0:0:100:C#7S_Db7S_s.wav
192,192,219949,1,0,0:0:0:0:
448,192,219949,1,0,0:0:0:0:
320,192,220265,1,0,0:0:0:100:B6S_s.wav
64,192,220581,1,0,0:0:0:100:B6S_s.wav
192,192,220896,1,0,0:0:0:100:A6S_s.wav
448,192,221212,1,0,0:0:0:100:C#7S_Db7S_s.wav
320,192,221686,1,0,0:0:0:100:C#7S_Db7S_s.wav
192,192,221844,1,0,0:0:0:100:B6S_s.wav
64,192,222160,1,0,0:0:0:100:A6S_s.wav
320,192,222475,1,0,0:0:0:0:
448,192,222475,1,0,0:0:0:0:
192,192,223107,1,0,0:0:0:100:C#7S_Db7S_s.wav
320,192,223423,1,0,0:0:0:100:B6S_s.wav
448,192,223738,1,0,0:0:0:100:F#7S_Gb7S_s.wav
320,192,224212,1,0,0:0:0:100:E7S_s.wav
192,192,224686,1,0,0:0:0:100:C#7S_Db7S_s.wav
64,192,225002,1,0,0:0:0:0:
448,192,225002,1,0,0:0:0:0:
320,192,225317,1,0,0:0:0:100:C7S_s.wav
192,192,225633,1,0,0:0:0:100:D7S_s.wav
64,192,225949,1,0,0:0:0:100:C7S_s.wav
192,192,226107,1,0,0:0:0:100:D7S_s.wav
320,192,226265,1,0,0:0:0:100:E7S_s.wav
320,192,226738,1,0,0:0:0:100:E7S_s.wav
192,192,226896,1,0,0:0:0:100:D7S_s.wav
448,192,227212,1,0,0:0:0:100:E7S_s.wav
