osu file format v14

[General]
AudioFilename: audio.mp3
AudioLeadIn: 0
PreviewTime: 106265
Countdown: 0
SampleSet: None
StackLeniency: 0.7
Mode: 3
LetterboxInBreaks: 0
SpecialStyle: 0
WidescreenStoryboard: 1

[Editor]
Bookmarks: 20370,40581,60791,81002,83528,84160,101212,105002,105317,105949,106265,126475,146686,164370,165949,166896,187107,207317,225002,227212
DistanceSpacing: 1.5
BeatDivisor: 4
GridSize: 32
TimelineZoom: 2.4

[Metadata]
Title:Three Times The Original Charm
TitleUnicode:Three Times The Original Charm
Artist:VINXIS
ArtistUnicode:VINXIS
Creator:Leniane
Version:Digital World
Source:osu!
Tags:-MysticEyes mishima yurara Featured Artist Mappers' Guild Chillout Chill-out DnB Drum & Bass Electronic Instrumental
BeatmapID:1976091
BeatmapSetID:946394

[Difficulty]
HPDrainRate:9
CircleSize:4
OverallDifficulty:8
ApproachRate:0
SliderMultiplier:1.4
SliderTickRate:1

[Events]
//Background and Video events
0,0,"BG.jpg",0,0
//Break Periods
//Storyboard Layer 0 (Background)
//Storyboard Layer 1 (Fail)
//Storyboard Layer 2 (Pass)
//Storyboard Layer 3 (Foreground)
//Storyboard Sound Samples
Sample,171633,0,"A6S_s.wav",100
Sample,174791,0,"B6S_s.wav",100
Sample,176686,0,"A6S_s.wav",100
Sample,181738,0,"A6S_s.wav",100
Sample,186791,0,"A6S_s.wav",100
Sample,191844,0,"A6S_s.wav",100
Sample,196896,0,"A6S_s.wav",100
Sample,201949,0,"A6S_s.wav",100

[TimingPoints]
160,315.789473684211,4,3,1,80,1,0

[HitObjects]
320,192,160,128,0,475:0:0:0:30:C#5W_s.wav
448,192,475,128,0,791:0:0:0:30:E5W_s.wav
320,192,791,128,0,1107:0:0:0:30:C#5W_s.wav
192,192,1107,128,0,1423:0:0:0:30:B4W_s.wav
320,192,1423,128,0,1738:0:0:0:30:C#5W_s.wav
448,192,1738,128,0,2054:0:0:0:30:E5W_s.wav
320,192,2054,128,0,2370:0:0:0:30:C#5W_s.wav
192,192,2370,128,0,2686:0:0:0:30:B4W_s.wav
320,192,2686,128,0,3002:0:0:0:30:C#5W_s.wav
448,192,3002,128,0,3317:0:0:0:30:E5W_s.wav
320,192,3317,128,0,3633:0:0:0:30:C#5W_s.wav
192,192,3633,128,0,3949:0:0:0:30:B4W_s.wav
320,192,3949,128,0,4265:0:0:0:30:C#5W_s.wav
448,192,4265,128,0,4581:0:0:0:30:E5W_s.wav
320,192,4581,128,0,4817:0:0:0:40:C#5W_short.wav
192,192,4817,128,0,5054:0:0:0:40:B4W_short.wav
64,192,5054,128,0,5212:0:0:0:40:A4W_s.wav
320,192,5212,128,0,5528:0:0:0:30:C#5W_s.wav
448,192,5528,128,0,5844:0:0:0:30:E5W_s.wav
320,192,5844,128,0,6160:0:0:0:30:C#5W_s.wav
192,192,6160,128,0,6475:0:0:0:30:B4W_s.wav
320,192,6475,128,0,6791:0:0:0:30:C#5W_s.wav
448,192,6791,128,0,7107:0:0:0:30:E5W_s.wav
320,192,7107,128,0,7423:0:0:0:30:C#5W_s.wav
192,192,7423,128,0,7738:0:0:0:30:B4W_s.wav
320,192,7738,128,0,8054:0:0:0:30:C#5W_s.wav
448,192,8054,128,0,8370:0:0:0:30:E5W_s.wav
320,192,8370,128,0,8686:0:0:0:30:C#5W_s.wav
192,192,8686,128,0,9002:0:0:0:30:B4W_s.wav
320,192,9002,128,0,9317:0:0:0:30:C#5W_s.wav
448,192,9317,128,0,9633:0:0:0:30:E5W_s.wav
320,192,9633,128,0,9870:0:0:0:40:C#5W_short.wav
192,192,9870,128,0,10107:0:0:0:40:B4W_short.wav
64,192,10107,128,0,10265:0:0:0:40:A4W_s.wav
320,192,10265,128,0,10581:0:0:0:30:C#5W_s.wav
448,192,10581,128,0,10896:0:0:0:30:E5W_s.wav
320,192,10896,128,0,11212:0:0:0:30:C#5W_s.wav
192,192,11212,128,0,11528:0:0:0:30:B4W_s.wav
320,192,11528,128,0,11844:0:0:0:30:C#5W_s.wav
448,192,11844,128,0,12160:0:0:0:30:E5W_s.wav
320,192,12160,128,0,12475:0:0:0:30:C#5W_s.wav
192,192,12475,128,0,12791:0:0:0:30:B4W_s.wav
320,192,12791,128,0,13107:0:0:0:30:C#5W_s.wav
448,192,13107,128,0,13423:0:0:0:30:E5W_s.wav
320,192,13423,128,0,13738:0:0:0:30:C#5W_s.wav
192,192,13738,128,0,14054:0:0:0:30:B4W_s.wav
320,192,14054,128,0,14370:0:0:0:30:C#5W_s.wav
448,192,14370,128,0,14686:0:0:0:30:E5W_s.wav
320,192,14686,128,0,14923:0:0:0:40:C#5W_short.wav
192,192,14923,128,0,15160:0:0:0:40:B4W_short.wav
64,192,15160,128,0,15238:0:0:0:40:A4W_s.wav
64,192,15317,128,0,19738:0:0:0:30:C#5W_s.wav
320,192,15317,128,0,15633:0:0:0:0:
448,192,15633,128,0,15949:0:0:0:30:E5W_s.wav
320,192,15949,128,0,16265:0:0:0:30:C#5W_s.wav
192,192,16265,128,0,16581:0:0:0:30:B4W_s.wav
320,192,16581,128,0,16896:0:0:0:30:C#5W_s.wav
448,192,16896,128,0,17212:0:0:0:30:E5W_s.wav
320,192,17212,128,0,17528:0:0:0:30:C#5W_s.wav
192,192,17528,128,0,17844:0:0:0:30:B4W_s.wav
320,192,17844,128,0,18160:0:0:0:40:C#5W_s.wav
448,192,18160,128,0,18475:0:0:0:40:E5W_s.wav
320,192,18475,128,0,18791:0:0:0:40:C#5W_s.wav
192,192,18791,128,0,19107:0:0:0:40:B4W_s.wav
320,192,19107,128,0,19423:0:0:0:40:C#5W_s.wav
448,192,19423,128,0,19738:0:0:0:40:E5W_s.wav
320,192,19738,128,0,19817:0:0:0:50:C#5W_short.wav
448,192,19817,1,0,0:0:0:0:
64,192,19896,1,0,0:0:0:0:
192,192,19975,128,0,20054:0:0:0:50:B4W_short.wav
320,192,20054,1,0,0:0:0:0:
64,192,20212,128,0,20291:0:0:0:50:A4W_s.wav
192,192,20291,1,0,0:0:0:0:
320,192,20370,128,2,20449:0:0:0:0:
448,192,20370,1,0,0:0:0:50:C#5W_s.wav
192,192,20528,1,0,0:0:0:0:
64,192,20686,128,0,20765:0:0:0:100:LR_Hat Fast.wav
448,192,20686,128,0,20765:0:0:0:50:E5W_s.wav
64,192,20844,1,2,0:0:0:0:
192,192,20844,1,0,0:0:0:0:
64,192,21002,1,8,0:0:0:0:
320,192,21002,128,0,21081:0:0:0:50:C#5W_s.wav
192,192,21081,1,0,0:0:0:0:
320,192,21160,1,2,0:0:0:0:
448,192,21160,1,0,0:0:0:0:
192,192,21317,128,2,21396:0:0:0:0:
64,192,21317,1,0,0:0:0:50:B4W_s.wav
320,192,21475,1,2,0:0:0:0:
448,192,21475,1,0,0:0:0:0:
192,192,21554,1,2,0:0:0:0:
320,192,21633,128,2,21712:0:0:0:0:
448,192,21633,1,0,0:0:0:50:C#5W_s.wav
64,192,21791,1,2,0:0:0:0:
192,192,21791,1,0,0:0:0:0:
320,192,21870,1,0,0:0:0:0:
64,192,21949,1,0,0:0:0:60:LR_Clap Reverb.wav
448,192,21949,128,0,22028:0:0:0:50:E5W_s.wav
320,192,22107,1,0,0:0:0:0:
192,192,22186,1,0,0:0:0:60:LR_Clap Reverb.wav
64,192,22265,1,8,0:0:0:0:
320,192,22265,128,0,22344:0:0:0:50:C#5W_s.wav
64,192,22423,1,2,0:0:0:0:
192,192,22423,1,0,0:0:0:0:
192,192,22581,128,0,22660:0:0:0:50:B4W_s.wav
448,192,22581,128,0,22896:0:0:0:0:
64,192,22738,1,0,0:0:0:0:
192,192,22896,1,2,0:0:0:0:
320,192,22896,128,0,22975:0:0:0:50:C#5W_s.wav
64,192,23054,1,0,0:0:0:0:
64,192,23212,128,0,23291:0:0:0:100:LR_Hat Fast.wav
448,192,23212,128,0,23291:0:0:0:50:E5W_s.wav
192,192,23370,1,0,0:0:0:60:LR_Clap Reverb.wav
320,192,23370,1,0,0:0:0:0:
64,192,23528,1,8,0:0:0:0:
320,192,23528,128,0,23607:0:0:0:50:C#5W_s.wav
192,192,23607,1,0,0:0:0:0:
64,192,23686,1,8,0:0:0:0:
320,192,23686,1,0,0:0:0:0:
448,192,23765,1,0,0:0:0:0:
64,192,23844,1,2,0:0:0:0:
192,192,23844,128,0,23923:0:0:0:50:B4W_s.wav
320,192,24002,1,0,0:0:0:0:
64,192,24081,1,2,0:0:0:0:
320,192,24160,128,2,24238:0:0:0:0:
448,192,24160,1,0,0:0:0:50:C#5W_s.wav
192,192,24238,1,2,0:0:0:0:
320,192,24317,1,2,0:0:0:0:
448,192,24317,1,0,0:0:0:0:
192,192,24396,1,0,0:0:0:0:
64,192,24475,1,0,0:0:0:60:LR_Clap Reverb.wav
448,192,24475,128,0,24554:0:0:0:50:E5W_s.wav
320,192,24554,1,2,0:0:0:0:
448,192,24633,1,0,0:0:0:0:
192,192,24712,1,0,0:0:0:60:LR_Clap Reverb.wav
64,192,24791,1,8,0:0:0:0:
320,192,24791,128,0,24870:0:0:0:60:C#5W_short.wav
320,192,24949,1,2,0:0:0:0:
448,192,24949,1,0,0:0:0:0:
192,192,25028,128,0,25107:0:0:0:60:B4W_short.wav
64,192,25107,1,0,0:0:0:0:
448,192,25107,128,0,25265:0:0:0:0:
64,192,25265,128,0,25344:0:0:0:60:A4W_s.wav
320,192,25423,128,2,25502:0:0:0:0:
448,192,25423,1,0,0:0:0:50:C#5W_s.wav
192,192,25581,1,0,0:0:0:0:
64,192,25738,128,0,25817:0:0:0:100:LR_Hat Fast.wav
448,192,25738,128,0,25817:0:0:0:50:E5W_s.wav
192,192,25896,1,2,0:0:0:0:
320,192,25896,1,0,0:0:0:0:
64,192,26054,1,8,0:0:0:0:
320,192,26054,128,0,26133:0:0:0:50:C#5W_s.wav
448,192,26133,1,0,0:0:0:0:
64,192,26212,1,2,0:0:0:0:
192,192,26212,1,0,0:0:0:0:
192,192,26370,128,2,26449:0:0:0:0:
320,192,26370,1,0,0:0:0:50:B4W_s.wav
64,192,26528,1,2,0:0:0:0:
448,192,26528,1,0,0:0:0:0:
192,192,26607,1,2,0:0:0:0:
320,192,26686,128,2,26765:0:0:0:0:
448,192,26686,1,0,0:0:0:50:C#5W_s.wav
320,192,26844,1,2,0:0:0:0:
448,192,26844,1,0,0:0:0:0:
64,192,27002,1,0,0:0:0:60:LR_Clap Reverb.wav
448,192,27002,128,0,27081:0:0:0:50:E5W_s.wav
192,192,27160,1,0,0:0:0:0:
448,192,27238,1,0,0:0:0:60:LR_Clap Reverb.wav
64,192,27317,1,8,0:0:0:0:
320,192,27317,128,0,27396:0:0:0:50:C#5W_s.wav
192,192,27396,1,0,0:0:0:0:
320,192,27475,1,2,0:0:0:0:
448,192,27475,1,0,0:0:0:0:
64,192,27633,128,0,27949:0:0:0:50:B4W_s.wav
192,192,27633,128,0,27712:0:0:0:0:
320,192,27791,1,0,0:0:0:0:
320,192,27949,128,2,28028:0:0:0:0:
448,192,27949,1,0,0:0:0:50:C#5W_s.wav
192,192,28107,1,0,0:0:0:0:
64,192,28265,128,0,28344:0:0:0:100:LR_Hat Fast.wav
448,192,28265,128,0,28344:0:0:0:50:E5W_s.wav
192,192,28423,1,0,0:0:0:60:LR_Clap Reverb.wav
320,192,28423,1,0,0:0:0:0:
64,192,28581,1,8,0:0:0:0:
320,192,28581,128,0,28660:0:0:0:50:C#5W_s.wav
448,192,28660,1,0,0:0:0:0:
64,192,28738,1,8,0:0:0:0:
320,192,28738,1,0,0:0:0:0:
448,192,28817,1,0,0:0:0:0:
64,192,28896,1,2,0:0:0:0:
192,192,28896,128,0,28975:0:0:0:50:B4W_s.wav
320,192,29054,1,0,0:0:0:0:
192,192,29133,1,2,0:0:0:0:
320,192,29212,128,2,29291:0:0:0:0:
448,192,29212,1,0,0:0:0:50:C#5W_s.wav
64,192,29291,1,2,0:0:0:0:
320,192,29370,1,2,0:0:0:0:
448,192,29370,1,0,0:0:0:0:
192,192,29449,1,0,0:0:0:0:
64,192,29528,1,0,0:0:0:60:LR_Clap Reverb.wav
448,192,29528,128,0,29607:0:0:0:50:E5W_s.wav
320,192,29607,1,2,0:0:0:0:
448,192,29686,1,0,0:0:0:0:
192,192,29765,1,0,0:0:0:60:LR_Clap Reverb.wav
64,192,29844,1,8,0:0:0:0:
320,192,29844,128,0,29923:0:0:0:60:C#5W_short.wav
320,192,30002,1,2,0:0:0:0:
448,192,30002,1,0,0:0:0:0:
192,192,30081,128,0,30160:0:0:0:60:B4W_short.wav
64,192,30160,1,0,0:0:0:0:
448,192,30160,128,0,30317:0:0:0:0:
64,192,30317,128,0,30396:0:0:0:60:A4W_s.wav
192,192,30475,1,2,0:0:0:0:
320,192,30475,128,0,30554:0:0:0:50:C#5W_s.wav
320,192,30633,1,0,0:0:0:0:
64,192,30791,128,0,30870:0:0:0:100:LR_Hat Fast.wav
448,192,30791,128,0,30870:0:0:0:50:E5W_s.wav
320,192,30949,1,2,0:0:0:0:
448,192,30949,1,0,0:0:0:0:
64,192,31107,1,8,0:0:0:0:
320,192,31107,128,0,31186:0:0:0:50:C#5W_s.wav
448,192,31186,1,0,0:0:0:0:
64,192,31265,1,2,0:0:0:0:
192,192,31265,1,0,0:0:0:0:
192,192,31423,128,2,31502:0:0:0:0:
320,192,31423,1,0,0:0:0:50:B4W_s.wav
320,192,31581,1,2,0:0:0:0:
448,192,31581,1,0,0:0:0:0:
64,192,31660,1,2,0:0:0:0:
192,192,31738,1,2,0:0:0:0:
320,192,31738,128,0,31817:0:0:0:50:C#5W_s.wav
64,192,31896,1,2,0:0:0:0:
192,192,31896,1,0,0:0:0:0:
64,192,32054,1,0,0:0:0:60:LR_Clap Reverb.wav
448,192,32054,128,0,32133:0:0:0:50:E5W_s.wav
320,192,32212,1,0,0:0:0:0:
192,192,32291,1,0,0:0:0:60:LR_Clap Reverb.wav
64,192,32370,1,8,0:0:0:0:
320,192,32370,128,0,32449:0:0:0:50:C#5W_s.wav
64,192,32528,1,2,0:0:0:0:
192,192,32528,1,0,0:0:0:0:
192,192,32686,128,0,32765:0:0:0:50:B4W_s.wav
448,192,32686,128,0,33002:0:0:0:0:
64,192,32844,1,0,0:0:0:0:
192,192,33002,1,2,0:0:0:0:
320,192,33002,128,0,33081:0:0:0:50:C#5W_s.wav
320,192,33160,1,0,0:0:0:0:
64,192,33317,128,0,33396:0:0:0:100:LR_Hat Fast.wav
448,192,33317,128,0,33396:0:0:0:50:E5W_s.wav
192,192,33475,1,0,0:0:0:60:LR_Clap Reverb.wav
64,192,33633,1,8,0:0:0:0:
320,192,33633,128,0,33712:0:0:0:50:C#5W_s.wav
192,192,33712,1,0,0:0:0:0:
64,192,33791,1,8,0:0:0:0:
320,192,33791,1,0,0:0:0:0:
448,192,33870,1,0,0:0:0:0:
64,192,33949,1,2,0:0:0:0:
192,192,33949,128,0,34028:0:0:0:50:B4W_s.wav
320,192,34107,1,0,0:0:0:0:
192,192,34186,1,2,0:0:0:0:
320,192,34265,128,2,34344:0:0:0:0:
448,192,34265,1,0,0:0:0:50:C#5W_s.wav
64,192,34344,1,2,0:0:0:0:
320,192,34423,1,2,0:0:0:0:
448,192,34423,1,0,0:0:0:0:
192,192,34502,1,0,0:0:0:0:
64,192,34581,1,0,0:0:0:60:LR_Clap Reverb.wav
448,192,34581,128,0,34660:0:0:0:50:E5W_s.wav
320,192,34660,1,2,0:0:0:0:
448,192,34738,1,0,0:0:0:0:
192,192,34817,1,0,0:0:0:60:LR_Clap Reverb.wav
64,192,34896,1,8,0:0:0:0:
320,192,34896,128,0,34975:0:0:0:60:C#5W_short.wav
320,192,35054,1,2,0:0:0:0:
448,192,35054,1,0,0:0:0:0:
192,192,35133,128,0,35212:0:0:0:60:B4W_short.wav
64,192,35212,1,0,0:0:0:0:
448,192,35212,128,0,35370:0:0:0:0:
64,192,35370,128,0,35449:0:0:0:60:A4W_s.wav
320,192,35528,128,2,35607:0:0:0:0:
448,192,35528,1,0,0:0:0:50:C#5W_s.wav
192,192,35686,1,0,0:0:0:0:
64,192,35844,128,0,35923:0:0:0:100:LR_Hat Fast.wav
448,192,35844,128,0,35923:0:0:0:50:E5W_s.wav
64,192,36002,1,2,0:0:0:0:
192,192,36002,1,0,0:0:0:0:
64,192,36160,1,8,0:0:0:0:
320,192,36160,128,0,36238:0:0:0:50:C#5W_s.wav
192,192,36238,1,0,0:0:0:0:
320,192,36317,1,2,0:0:0:0:
448,192,36317,1,0,0:0:0:0:
192,192,36475,128,2,36554:0:0:0:0:
64,192,36475,1,0,0:0:0:50:B4W_s.wav
320,192,36633,1,2,0:0:0:0:
448,192,36633,1,0,0:0:0:0:
192,192,36712,1,2,0:0:0:0:
320,192,36791,128,2,36870:0:0:0:0:
448,192,36791,1,0,0:0:0:50:C#5W_s.wav
64,192,36949,1,2,0:0:0:0:
192,192,36949,1,0,0:0:0:0:
320,192,37028,1,0,0:0:0:0:
64,192,37107,1,0,0:0:0:60:LR_Clap Reverb.wav
448,192,37107,128,0,37186:0:0:0:50:E5W_s.wav
320,192,37265,1,0,0:0:0:0:
192,192,37344,1,0,0:0:0:60:LR_Clap Reverb.wav
64,192,37423,1,8,0:0:0:0:
320,192,37423,128,0,37502:0:0:0:50:C#5W_s.wav
320,192,37581,1,2,0:0:0:0:
448,192,37581,1,0,0:0:0:0:
64,192,37738,128,0,38054:0:0:0:50:B4W_s.wav
192,192,37738,128,0,37817:0:0:0:0:
448,192,37896,1,0,0:0:0:0:
192,192,38054,1,2,0:0:0:0:
320,192,38054,128,0,38133:0:0:0:50:C#5W_s.wav
320,192,38212,1,0,0:0:0:0:
64,192,38370,128,0,38449:0:0:0:100:LR_Hat Fast.wav
448,192,38370,128,0,38449:0:0:0:50:E5W_s.wav
192,192,38528,1,0,0:0:0:60:LR_Clap Reverb.wav
320,192,38528,1,0,0:0:0:0:
64,192,38686,1,8,0:0:0:0:
320,192,38686,128,0,38765:0:0:0:50:C#5W_s.wav
192,192,38765,1,0,0:0:0:0:
64,192,38844,1,8,0:0:0:0:
320,192,38844,1,0,0:0:0:0:
448,192,38923,1,0,0:0:0:0:
64,192,39002,1,2,0:0:0:0:
192,192,39002,128,0,39081:0:0:0:50:B4W_s.wav
448,192,39160,1,0,0:0:0:0:
192,192,39238,1,2,0:0:0:0:
320,192,39317,128,2,39396:0:0:0:0:
448,192,39317,1,0,0:0:0:50:C#5W_s.wav
192,192,39396,1,2,0:0:0:0:
320,192,39475,1,2,0:0:0:0:
448,192,39475,1,0,0:0:0:0:
64,192,39633,1,0,0:0:0:60:LR_Clap Reverb.wav
448,192,39633,128,0,39712:0:0:0:50:E5W_s.wav
192,192,39712,1,2,0:0:0:0:
320,192,39791,1,0,0:0:0:0:
64,192,39870,1,0,0:0:0:60:LR_Clap Reverb.wav
192,192,39949,128,8,40265:0:0:0:0:
448,192,39949,128,0,40028:0:0:0:60:C#5W_short.wav
448,192,40107,1,2,0:0:0:0:
320,192,40186,128,0,40265:0:0:0:60:B4W_short.wav
64,192,40265,128,0,40581:0:0:0:0:
192,192,40423,128,0,40502:0:0:0:60:A4W_s.wav
320,192,40581,1,2,0:0:0:0:
448,192,40581,1,0,0:0:0:0:
192,192,40660,1,0,0:0:0:0:
64,192,40738,1,0,0:0:0:0:
320,192,40817,1,0,0:0:0:0:
64,192,40896,128,0,40975:0:0:0:100:LR_Hat Fast.wav
448,192,40896,128,0,40975:0:0:0:0:
192,192,40975,1,0,0:0:0:0:
320,192,41054,1,2,0:0:0:0:
448,192,41054,1,0,0:0:0:0:
64,192,41133,1,0,0:0:0:0:
192,192,41212,1,8,0:0:0:0:
448,192,41212,1,0,0:0:0:0:
320,192,41291,1,0,0:0:0:0:
64,192,41370,1,2,0:0:0:0:
192,192,41370,1,0,0:0:0:0:
64,192,41528,1,2,0:0:0:0:
448,192,41528,1,0,0:0:0:0:
64,192,41686,128,2,41765:0:0:0:0:
192,192,41686,1,0,0:0:0:100:E7S_s.wav
320,192,41765,1,2,0:0:0:0:
64,192,41844,1,2,0:0:0:0:
448,192,41844,128,0,41923:0:0:0:100:F#7S_Gb7S_s.wav
192,192,42002,1,2,0:0:0:0:
320,192,42002,1,0,0:0:0:0:
64,192,42160,1,0,0:0:0:60:LR_Clap Reverb.wav
448,192,42160,1,0,0:0:0:0:
320,192,42317,128,0,42396:0:0:0:100:E7S_s.wav
448,192,42396,1,0,0:0:0:60:LR_Clap Reverb.wav
64,192,42475,1,8,0:0:0:0:
320,192,42475,1,0,0:0:0:0:
64,192,42633,1,2,0:0:0:0:
192,192,42633,1,0,0:0:0:0:
192,192,42791,128,0,42870:0:0:0:100:C#7S_Db7S_s.wav
64,192,43107,1,2,0:0:0:0:
192,192,43107,1,0,0:0:0:0:
320,192,43265,1,0,0:0:0:0:
64,192,43423,128,0,43502:0:0:0:100:LR_Hat Fast.wav
448,192,43423,128,0,43502:0:0:0:100:B6S_s.wav
192,192,43581,1,0,0:0:0:60:LR_Clap Reverb.wav
448,192,43581,1,0,0:0:0:0:
64,192,43738,1,8,0:0:0:0:
448,192,43738,1,0,0:0:0:100:B6S_s.wav
320,192,43817,1,0,0:0:0:0:
64,192,43896,1,8,0:0:0:0:
448,192,43896,1,0,0:0:0:0:
320,192,43975,1,0,0:0:0:0:
64,192,44054,128,2,44133:0:0:0:0:
192,192,44054,1,0,0:0:0:100:A6S_s.wav
192,192,44212,128,0,44291:0:0:0:100:B6S_s.wav
320,192,44291,1,2,0:0:0:0:
64,192,44370,1,2,0:0:0:0:
448,192,44370,128,0,44449:0:0:0:100:C#7S_Db7S_s.wav
192,192,44449,1,2,0:0:0:0:
320,192,44528,1,2,0:0:0:0:
448,192,44528,1,0,0:0:0:0:
64,192,44686,1,0,0:0:0:60:LR_Clap Reverb.wav
448,192,44686,1,0,0:0:0:0:
192,192,44765,1,2,0:0:0:0:
320,192,44765,1,0,0:0:0:0:
448,192,44844,128,0,44923:0:0:0:100:C#7S_Db7S_s.wav
64,192,44923,1,0,0:0:0:60:LR_Clap Reverb.wav
192,192,45002,1,8,0:0:0:0:
320,192,45002,128,0,45081:0:0:0:100:B6S_s.wav
320,192,45160,1,2,0:0:0:0:
448,192,45160,1,0,0:0:0:0:
192,192,45317,128,0,45396:0:0:0:100:A6S_s.wav
64,192,45633,1,2,0:0:0:0:
192,192,45633,1,0,0:0:0:0:
320,192,45791,1,0,0:0:0:0:
64,192,45949,128,0,46028:0:0:0:100:LR_Hat Fast.wav
448,192,45949,128,0,46028:0:0:0:0:
192,192,46107,1,2,0:0:0:0:
320,192,46107,1,0,0:0:0:0:
192,192,46265,1,8,0:0:0:0:
448,192,46265,1,0,0:0:0:0:
320,192,46344,1,0,0:0:0:0:
64,192,46423,1,2,0:0:0:0:
192,192,46423,1,0,0:0:0:0:
320,192,46581,1,2,0:0:0:0:
448,192,46581,1,0,0:0:0:0:
64,192,46738,128,2,46817:0:0:0:0:
192,192,46738,1,0,0:0:0:100:E7S_s.wav
320,192,46817,1,2,0:0:0:0:
64,192,46896,1,2,0:0:0:0:
448,192,46896,128,0,46975:0:0:0:100:F#7S_Gb7S_s.wav
320,192,47054,1,2,0:0:0:0:
448,192,47054,1,0,0:0:0:0:
64,192,47212,1,0,0:0:0:60:LR_Clap Reverb.wav
320,192,47212,1,0,0:0:0:0:
320,192,47370,128,0,47449:0:0:0:100:E7S_s.wav
64,192,47449,1,0,0:0:0:60:LR_Clap Reverb.wav
192,192,47528,1,8,0:0:0:0:
448,192,47528,1,0,0:0:0:0:
320,192,47686,1,2,0:0:0:0:
448,192,47686,1,0,0:0:0:0:
192,192,47844,128,0,47923:0:0:0:100:C#7S_Db7S_s.wav
320,192,48160,1,2,0:0:0:0:
448,192,48160,1,0,0:0:0:0:
192,192,48317,1,0,0:0:0:0:
64,192,48475,128,0,48554:0:0:0:100:LR_Hat Fast.wav
448,192,48475,128,0,48554:0:0:0:100:B6S_s.wav
320,192,48633,1,0,0:0:0:60:LR_Clap Reverb.wav
64,192,48791,1,8,0:0:0:0:
320,192,48791,1,0,0:0:0:100:B6S_s.wav
192,192,48870,1,0,0:0:0:0:
64,192,48949,1,8,0:0:0:0:
320,192,48949,1,0,0:0:0:0:
448,192,49028,1,0,0:0:0:0:
64,192,49107,128,2,49186:0:0:0:0:
192,192,49107,1,0,0:0:0:100:A6S_s.wav
192,192,49265,128,0,49344:0:0:0:100:B6S_s.wav
320,192,49344,1,2,0:0:0:0:
64,192,49423,1,2,0:0:0:0:
448,192,49423,128,0,49502:0:0:0:100:C#7S_Db7S_s.wav
192,192,49502,1,2,0:0:0:0:
320,192,49581,1,2,0:0:0:0:
448,192,49581,1,0,0:0:0:0:
192,192,49738,1,0,0:0:0:60:LR_Clap Reverb.wav
448,192,49738,1,0,0:0:0:0:
320,192,49817,1,2,0:0:0:0:
64,192,49896,1,0,0:0:0:100:C#7S_Db7S_s.wav
448,192,49896,128,0,49975:0:0:0:0:
192,192,49975,1,0,0:0:0:60:LR_Clap Reverb.wav
64,192,50054,1,8,0:0:0:0:
320,192,50054,128,0,50133:0:0:0:100:B6S_s.wav
320,192,50212,1,2,0:0:0:0:
448,192,50212,1,0,0:0:0:0:
64,192,50370,128,0,50449:0:0:0:100:A6S_s.wav
320,192,50686,1,2,0:0:0:0:
448,192,50686,1,0,0:0:0:0:
192,192,50844,1,0,0:0:0:0:
64,192,51002,128,0,51081:0:0:0:100:LR_Hat Fast.wav
448,192,51002,128,0,51081:0:0:0:0:
192,192,51160,1,2,0:0:0:0:
320,192,51160,1,0,0:0:0:0:
192,192,51317,1,8,0:0:0:0:
448,192,51317,1,0,0:0:0:0:
320,192,51396,1,0,0:0:0:0:
64,192,51475,1,2,0:0:0:0:
192,192,51475,1,0,0:0:0:0:
320,192,51633,1,2,0:0:0:0:
448,192,51633,1,0,0:0:0:0:
64,192,51791,128,2,51870:0:0:0:0:
192,192,51791,1,0,0:0:0:100:E7S_s.wav
320,192,51870,1,2,0:0:0:0:
64,192,51949,1,2,0:0:0:0:
448,192,51949,128,0,52028:0:0:0:100:F#7S_Gb7S_s.wav
192,192,52107,1,2,0:0:0:0:
320,192,52107,1,0,0:0:0:0:
64,192,52265,1,0,0:0:0:60:LR_Clap Reverb.wav
448,192,52265,1,0,0:0:0:0:
320,192,52423,128,0,52502:0:0:0:100:E7S_s.wav
64,192,52502,1,0,0:0:0:60:LR_Clap Reverb.wav
192,192,52581,1,8,0:0:0:0:
448,192,52581,1,0,0:0:0:0:
320,192,52738,1,2,0:0:0:0:
448,192,52738,1,0,0:0:0:0:
192,192,52896,128,0,52975:0:0:0:100:C#7S_Db7S_s.wav
64,192,53212,1,2,0:0:0:0:
192,192,53212,1,0,0:0:0:0:
320,192,53370,1,0,0:0:0:0:
64,192,53528,128,0,53607:0:0:0:100:LR_Hat Fast.wav
448,192,53528,128,0,53607:0:0:0:100:B6S_s.wav
192,192,53686,1,0,0:0:0:60:LR_Clap Reverb.wav
320,192,53686,1,0,0:0:0:0:
64,192,53844,1,8,0:0:0:0:
320,192,53844,1,0,0:0:0:100:B6S_s.wav
192,192,53923,1,0,0:0:0:0:
64,192,54002,1,8,0:0:0:0:
320,192,54002,1,0,0:0:0:0:
448,192,54081,1,0,0:0:0:0:
64,192,54160,128,2,54238:0:0:0:0:
192,192,54160,1,0,0:0:0:100:A6S_s.wav
192,192,54317,128,0,54396:0:0:0:100:B6S_s.wav
320,192,54396,1,2,0:0:0:0:
64,192,54475,1,2,0:0:0:0:
448,192,54475,128,0,54554:0:0:0:100:C#7S_Db7S_s.wav
192,192,54554,1,2,0:0:0:0:
320,192,54633,1,2,0:0:0:0:
448,192,54633,1,0,0:0:0:0:
64,192,54791,1,0,0:0:0:60:LR_Clap Reverb.wav
448,192,54791,1,0,0:0:0:0:
192,192,54870,1,2,0:0:0:0:
320,192,54870,1,0,0:0:0:0:
448,192,54949,128,0,55028:0:0:0:100:C#7S_Db7S_s.wav
192,192,55028,1,0,0:0:0:60:LR_Clap Reverb.wav
64,192,55107,1,8,0:0:0:0:
320,192,55107,128,0,55186:0:0:0:100:B6S_s.wav
320,192,55265,1,2,0:0:0:0:
448,192,55265,1,0,0:0:0:0:
64,192,55423,128,0,55502:0:0:0:100:A6S_s.wav
64,192,55738,1,2,0:0:0:0:
192,192,55738,1,0,0:0:0:0:
320,192,55896,1,0,0:0:0:0:
64,192,56054,128,0,56133:0:0:0:100:LR_Hat Fast.wav
448,192,56054,128,0,56133:0:0:0:0:
192,192,56212,1,2,0:0:0:0:
320,192,56212,1,0,0:0:0:0:
192,192,56370,1,8,0:0:0:0:
448,192,56370,1,0,0:0:0:0:
64,192,56449,1,0,0:0:0:0:
320,192,56528,1,2,0:0:0:0:
448,192,56528,1,0,0:0:0:0:
64,192,56686,1,2,0:0:0:0:
320,192,56686,1,0,0:0:0:0:
64,192,56844,128,2,56923:0:0:0:0:
448,192,56844,1,0,0:0:0:100:E7S_s.wav
192,192,56923,1,2,0:0:0:0:
320,192,57002,1,2,0:0:0:0:
448,192,57002,128,0,57081:0:0:0:100:F#7S_Gb7S_s.wav
192,192,57160,1,2,0:0:0:0:
320,192,57160,1,0,0:0:0:0:
64,192,57317,1,0,0:0:0:60:LR_Clap Reverb.wav
448,192,57317,1,0,0:0:0:0:
320,192,57475,128,0,57554:0:0:0:100:E7S_s.wav
64,192,57554,1,0,0:0:0:60:LR_Clap Reverb.wav
192,192,57633,1,8,0:0:0:0:
448,192,57633,1,0,0:0:0:0:
320,192,57791,1,2,0:0:0:0:
448,192,57791,1,0,0:0:0:0:
192,192,57949,128,0,58028:0:0:0:100:C#7S_Db7S_s.wav
64,192,58265,1,2,0:0:0:0:
192,192,58265,1,0,0:0:0:0:
320,192,58423,1,0,0:0:0:0:
64,192,58581,128,0,58660:0:0:0:100:LR_Hat Fast.wav
448,192,58581,128,0,58660:0:0:0:100:B6S_s.wav
192,192,58738,1,0,0:0:0:60:LR_Clap Reverb.wav
320,192,58738,1,0,0:0:0:0:
64,192,58896,1,8,0:0:0:0:
320,192,58896,1,0,0:0:0:100:B6S_s.wav
192,192,58975,1,0,0:0:0:0:
64,192,59054,1,8,0:0:0:0:
320,192,59054,1,0,0:0:0:0:
448,192,59133,1,0,0:0:0:0:
64,192,59212,128,2,59291:0:0:0:0:
192,192,59212,1,0,0:0:0:100:A6S_s.wav
192,192,59370,128,0,59449:0:0:0:100:B6S_s.wav
320,192,59449,1,2,0:0:0:0:
64,192,59528,1,2,0:0:0:0:
448,192,59528,128,0,59607:0:0:0:100:C#7S_Db7S_s.wav
192,192,59607,1,2,0:0:0:0:
320,192,59686,1,2,0:0:0:0:
448,192,59686,1,0,0:0:0:0:
64,192,59844,1,0,0:0:0:60:LR_Clap Reverb.wav
448,192,59844,1,0,0:0:0:0:
192,192,59923,1,2,0:0:0:0:
320,192,59923,1,0,0:0:0:0:
448,192,60002,128,0,60081:0:0:0:100:C#7S_Db7S_s.wav
192,192,60081,1,0,0:0:0:60:LR_Clap Reverb.wav
64,192,60160,128,8,60791:0:0:0:0:
320,192,60160,128,0,60238:0:0:0:100:B6S_s.wav
192,192,60317,1,2,0:0:0:0:
448,192,60475,128,0,60791:0:0:0:100:A6S_s.wav
192,192,60791,1,2,0:0:0:0:
320,192,60791,1,0,0:0:0:0:
320,192,61265,1,2,0:0:0:0:
448,192,61265,1,0,0:0:0:0:
64,192,61423,1,8,0:0:0:0:
320,192,61423,1,0,0:0:0:0:
192,192,61502,1,0,0:0:0:0:
64,192,61896,1,2,0:0:0:0:
192,192,61896,1,0,0:0:0:0:
320,192,61975,1,0,0:0:0:0:
64,192,62054,1,2,0:0:0:0:
192,192,62054,1,0,0:0:0:0:
192,192,62212,1,2,0:0:0:0:
320,192,62212,1,0,0:0:0:0:
64,192,62291,1,0,0:0:0:0:
64,192,62528,1,0,0:0:0:0:
448,192,62528,1,0,0:0:0:0:
320,192,62607,1,0,0:0:0:60:LR_Clap Reverb.wav
192,192,62686,1,8,0:0:0:0:
448,192,62686,1,0,0:0:0:0:
192,192,62844,1,2,0:0:0:0:
320,192,62844,1,0,0:0:0:0:
64,192,63002,1,0,0:0:0:0:
448,192,63002,1,0,0:0:0:0:
192,192,63160,1,0,0:0:0:0:
320,192,63317,1,2,0:0:0:0:
448,192,63317,1,0,0:0:0:0:
64,192,63791,1,0,0:0:0:100:LR_Hat Fast.wav
448,192,63791,1,0,0:0:0:0:
192,192,63949,1,8,0:0:0:0:
448,192,63949,1,0,0:0:0:0:
320,192,64028,1,0,0:0:0:0:
192,192,64107,1,8,0:0:0:0:
448,192,64107,1,0,0:0:0:0:
64,192,64186,1,0,0:0:0:0:
192,192,64265,1,2,0:0:0:0:
320,192,64265,1,0,0:0:0:0:
64,192,64581,1,2,0:0:0:0:
192,192,64581,1,0,0:0:0:0:
320,192,64660,1,2,0:0:0:0:
64,192,64738,1,2,0:0:0:0:
192,192,64738,1,0,0:0:0:0:
448,192,64817,1,0,0:0:0:0:
64,192,64896,1,0,0:0:0:60:LR_Clap Reverb.wav
320,192,64896,1,0,0:0:0:0:
192,192,64975,1,2,0:0:0:0:
448,192,65054,1,0,0:0:0:0:
320,192,65133,1,0,0:0:0:60:LR_Clap Reverb.wav
192,192,65212,1,8,0:0:0:0:
448,192,65212,1,0,0:0:0:0:
64,192,65528,1,0,0:0:0:100:LR_Hat Fast.wav
448,192,65528,1,0,0:0:0:0:
192,192,65686,1,0,0:0:0:0:
320,192,65844,1,2,0:0:0:0:
448,192,65844,1,0,0:0:0:0:
320,192,66317,1,2,0:0:0:0:
448,192,66317,1,0,0:0:0:0:
64,192,66475,1,8,0:0:0:0:
320,192,66475,1,0,0:0:0:0:
192,192,66554,1,0,0:0:0:0:
320,192,66949,1,2,0:0:0:0:
448,192,66949,1,0,0:0:0:0:
192,192,67028,1,0,0:0:0:0:
320,192,67107,1,2,0:0:0:0:
448,192,67107,1,0,0:0:0:0:
192,192,67265,1,2,0:0:0:0:
320,192,67265,1,0,0:0:0:0:
64,192,67581,1,0,0:0:0:0:
448,192,67581,1,0,0:0:0:0:
192,192,67660,1,0,0:0:0:60:LR_Clap Reverb.wav
64,192,67738,1,8,0:0:0:0:
320,192,67738,1,0,0:0:0:0:
320,192,67896,1,2,0:0:0:0:
448,192,67896,1,0,0:0:0:0:
64,192,68054,1,0,0:0:0:0:
448,192,68054,1,0,0:0:0:0:
192,192,68212,1,0,0:0:0:0:
320,192,68370,1,2,0:0:0:0:
448,192,68370,1,0,0:0:0:0:
64,192,68844,1,0,0:0:0:100:LR_Hat Fast.wav
448,192,68844,1,0,0:0:0:0:
192,192,69002,1,8,0:0:0:0:
448,192,69002,1,0,0:0:0:0:
320,192,69081,1,0,0:0:0:0:
192,192,69160,1,8,0:0:0:0:
448,192,69160,1,0,0:0:0:0:
64,192,69238,1,0,0:0:0:0:
320,192,69317,1,2,0:0:0:0:
448,192,69317,1,0,0:0:0:0:
64,192,69633,1,2,0:0:0:0:
448,192,69633,128,0,69712:0:0:0:0:
320,192,69712,128,2,69791:0:0:0:0:
192,192,69791,128,2,69870:0:0:0:0:
64,192,69870,128,0,69949:0:0:0:0:
448,192,69949,128,0,70028:0:0:0:60:LR_Clap Reverb.wav
320,192,70028,128,2,70107:0:0:0:0:
192,192,70107,128,0,70186:0:0:0:0:
64,192,70186,128,0,70265:0:0:0:60:LR_Clap Reverb.wav
320,192,70265,128,8,70344:0:0:0:0:
448,192,70265,1,0,0:0:0:0:
192,192,70344,128,0,70423:0:0:0:0:
448,192,70423,128,0,70502:0:0:0:0:
320,192,70502,128,0,70581:0:0:0:0:
64,192,70581,128,0,70660:0:0:0:100:LR_Hat Fast.wav
192,192,70660,128,0,70738:0:0:0:0:
320,192,70738,128,0,70817:0:0:0:0:
448,192,70817,128,0,70896:0:0:0:0:
64,192,70896,1,2,0:0:0:0:
192,192,70896,1,0,0:0:0:0:
192,192,71370,1,2,0:0:0:0:
320,192,71370,1,0,0:0:0:0:
192,192,71528,1,8,0:0:0:0:
448,192,71528,1,0,0:0:0:0:
64,192,71607,1,0,0:0:0:0:
64,192,72002,1,2,0:0:0:0:
192,192,72002,1,0,0:0:0:0:
320,192,72081,1,0,0:0:0:0:
64,192,72160,1,2,0:0:0:0:
192,192,72160,1,0,0:0:0:0:
320,192,72317,1,2,0:0:0:0:
448,192,72317,1,0,0:0:0:0:
192,192,72396,1,0,0:0:0:0:
64,192,72633,1,0,0:0:0:0:
448,192,72633,1,0,0:0:0:0:
192,192,72712,1,0,0:0:0:60:LR_Clap Reverb.wav
64,192,72791,1,8,0:0:0:0:
320,192,72791,1,0,0:0:0:0:
320,192,72949,1,2,0:0:0:0:
448,192,72949,1,0,0:0:0:0:
64,192,73107,1,0,0:0:0:0:
448,192,73107,1,0,0:0:0:0:
192,192,73265,1,0,0:0:0:0:
320,192,73423,1,2,0:0:0:0:
448,192,73423,1,0,0:0:0:0:
64,192,73896,1,0,0:0:0:100:LR_Hat Fast.wav
448,192,73896,1,0,0:0:0:0:
192,192,74054,1,8,0:0:0:0:
448,192,74054,1,0,0:0:0:0:
64,192,74133,1,0,0:0:0:0:
192,192,74212,1,8,0:0:0:0:
448,192,74212,1,0,0:0:0:0:
320,192,74291,1,0,0:0:0:0:
64,192,74370,1,2,0:0:0:0:
192,192,74370,1,0,0:0:0:0:
320,192,74686,1,2,0:0:0:0:
448,192,74686,1,0,0:0:0:0:
192,192,74765,1,2,0:0:0:0:
320,192,74844,1,2,0:0:0:0:
448,192,74844,1,0,0:0:0:0:
64,192,74923,1,0,0:0:0:0:
192,192,75002,1,0,0:0:0:60:LR_Clap Reverb.wav
448,192,75002,1,0,0:0:0:0:
320,192,75081,1,2,0:0:0:0:
64,192,75160,1,0,0:0:0:0:
192,192,75238,1,0,0:0:0:60:LR_Clap Reverb.wav
64,192,75317,1,8,0:0:0:0:
320,192,75317,1,0,0:0:0:0:
64,192,75633,1,0,0:0:0:100:LR_Hat Fast.wav
448,192,75633,1,0,0:0:0:0:
192,192,75791,1,0,0:0:0:0:
320,192,75949,1,2,0:0:0:0:
448,192,75949,1,0,0:0:0:0:
192,192,76423,1,2,0:0:0:0:
320,192,76423,1,0,0:0:0:0:
192,192,76581,1,8,0:0:0:0:
448,192,76581,1,0,0:0:0:0:
320,192,76660,1,0,0:0:0:0:
64,192,77054,1,2,0:0:0:0:
192,192,77054,1,0,0:0:0:0:
320,192,77133,1,0,0:0:0:0:
64,192,77212,1,2,0:0:0:0:
192,192,77212,1,0,0:0:0:0:
320,192,77370,1,2,0:0:0:0:
448,192,77370,1,0,0:0:0:0:
64,192,77686,1,0,0:0:0:0:
448,192,77686,1,0,0:0:0:0:
192,192,77765,1,0,0:0:0:60:LR_Clap Reverb.wav
64,192,77844,1,8,0:0:0:0:
320,192,77844,1,0,0:0:0:0:
192,192,78002,1,2,0:0:0:0:
320,192,78002,1,0,0:0:0:0:
64,192,78160,1,0,0:0:0:0:
448,192,78160,1,0,0:0:0:0:
320,192,78317,1,0,0:0:0:0:
64,192,78475,1,2,0:0:0:0:
192,192,78475,1,0,0:0:0:0:
64,192,78949,1,0,0:0:0:100:LR_Hat Fast.wav
448,192,78949,1,0,0:0:0:0:
192,192,79107,1,8,0:0:0:0:
448,192,79107,1,0,0:0:0:0:
320,192,79186,1,0,0:0:0:0:
192,192,79265,1,8,0:0:0:0:
448,192,79265,1,0,0:0:0:0:
64,192,79344,1,0,0:0:0:0:
320,192,79423,1,2,0:0:0:0:
448,192,79423,1,0,0:0:0:0:
64,192,79738,128,2,79817:0:0:0:0:
448,192,79738,1,0,0:0:0:0:
192,192,79817,128,2,79896:0:0:0:0:
320,192,79896,128,2,79975:0:0:0:0:
448,192,79975,128,0,80054:0:0:0:0:
64,192,80054,128,0,80133:0:0:0:60:LR_Clap Reverb.wav
192,192,80133,128,2,80212:0:0:0:0:
320,192,80212,128,0,80291:0:0:0:0:
448,192,80291,128,0,80370:0:0:0:60:LR_Clap Reverb.wav
64,192,80370,1,8,0:0:0:0:
192,192,80370,128,0,80449:0:0:0:0:
320,192,80449,128,0,80528:0:0:0:0:
64,192,80528,128,0,80607:0:0:0:0:
192,192,80607,128,0,80686:0:0:0:0:
448,192,80686,128,0,80765:0:0:0:100:LR_Hat Fast.wav
320,192,80765,128,0,80844:0:0:0:0:
192,192,80844,128,0,80923:0:0:0:0:
64,192,80923,128,0,81002:0:0:0:0:
320,192,81002,1,2,0:0:0:0:
448,192,81002,1,0,0:0:0:0:
320,192,81475,1,2,0:0:0:0:
448,192,81475,1,0,0:0:0:0:
64,192,81633,1,2,0:0:0:0:
320,192,81633,1,0,0:0:0:0:
192,192,81712,1,0,0:0:0:0:
64,192,81870,1,2,0:0:0:0:
320,192,81870,1,0,0:0:0:0:
64,192,82107,1,2,0:0:0:0:
320,192,82107,1,0,0:0:0:0:
192,192,82186,1,0,0:0:0:0:
320,192,82265,1,2,0:0:0:0:
448,192,82265,1,0,0:0:0:0:
320,192,82423,1,2,0:0:0:0:
448,192,82423,1,0,0:0:0:0:
192,192,82738,1,0,0:0:0:0:
448,192,82817,1,0,0:0:0:60:LR_Clap Reverb.wav
64,192,82896,1,8,0:0:0:0:
320,192,82896,1,0,0:0:0:0:
64,192,83054,1,2,0:0:0:0:
192,192,83054,1,0,0:0:0:0:
64,192,83212,1,0,0:0:0:0:
448,192,83212,1,0,0:0:0:0:
192,192,83528,1,0,0:0:0:0:
320,192,83581,1,0,0:0:0:0:
448,192,83633,1,0,0:0:0:0:
64,192,84160,1,2,0:0:0:0:
192,192,84160,1,0,0:0:0:0:
64,192,84317,1,0,0:0:0:0:
320,192,84317,1,0,0:0:0:0:
192,192,84396,1,0,0:0:0:0:
320,192,84475,1,2,0:0:0:0:
448,192,84475,1,0,0:0:0:0:
320,192,84791,1,2,0:0:0:0:
448,192,84791,1,0,0:0:0:0:
192,192,84870,1,2,0:0:0:0:
320,192,84949,1,2,0:0:0:0:
448,192,84949,1,0,0:0:0:0:
64,192,85107,1,0,0:0:0:60:LR_Clap Reverb.wav
448,192,85107,1,0,0:0:0:0:
320,192,85186,1,2,0:0:0:0:
64,192,85265,1,0,0:0:0:0:
192,192,85344,1,0,0:0:0:60:LR_Clap Reverb.wav
64,192,85423,1,8,0:0:0:0:
320,192,85423,1,0,0:0:0:0:
64,192,85738,1,0,0:0:0:100:LR_Hat Fast.wav
448,192,85738,1,0,0:0:0:0:
64,192,86054,1,2,0:0:0:0:
192,192,86054,1,0,0:0:0:0:
64,192,86528,1,2,0:0:0:0:
192,192,86528,1,0,0:0:0:0:
192,192,86686,1,8,0:0:0:0:
448,192,86686,1,0,0:0:0:0:
320,192,86765,1,0,0:0:0:0:
192,192,87160,1,2,0:0:0:0:
320,192,87160,1,0,0:0:0:0:
448,192,87238,1,0,0:0:0:0:
192,192,87317,1,2,0:0:0:0:
320,192,87317,1,0,0:0:0:0:
64,192,87475,1,2,0:0:0:0:
192,192,87475,1,0,0:0:0:0:
64,192,87791,1,0,0:0:0:0:
448,192,87791,1,0,0:0:0:0:
192,192,87870,1,0,0:0:0:60:LR_Clap Reverb.wav
64,192,87949,1,8,0:0:0:0:
320,192,87949,1,0,0:0:0:0:
320,192,88107,1,2,0:0:0:0:
448,192,88107,1,0,0:0:0:0:
64,192,88265,1,0,0:0:0:0:
448,192,88265,1,0,0:0:0:0:
192,192,88581,1,2,0:0:0:0:
320,192,88581,1,0,0:0:0:0:
64,192,89054,1,0,0:0:0:0:
448,192,89054,1,0,0:0:0:0:
192,192,89212,1,8,0:0:0:0:
448,192,89212,1,0,0:0:0:0:
192,192,89370,1,8,0:0:0:0:
448,192,89370,1,0,0:0:0:0:
64,192,89528,1,2,0:0:0:0:
192,192,89528,1,0,0:0:0:0:
64,192,89844,1,2,0:0:0:0:
192,192,89844,1,0,0:0:0:0:
320,192,89923,1,2,0:0:0:0:
64,192,90002,1,2,0:0:0:0:
192,192,90002,1,0,0:0:0:0:
64,192,90160,1,0,0:0:0:60:LR_Clap Reverb.wav
448,192,90160,1,0,0:0:0:0:
192,192,90238,1,2,0:0:0:0:
448,192,90317,1,0,0:0:0:0:
320,192,90396,1,0,0:0:0:60:LR_Clap Reverb.wav
192,192,90475,1,8,0:0:0:0:
448,192,90475,1,0,0:0:0:0:
64,192,90791,1,0,0:0:0:100:LR_Hat Fast.wav
448,192,90791,1,0,0:0:0:0:
320,192,91107,1,2,0:0:0:0:
448,192,91107,1,0,0:0:0:0:
320,192,91581,1,2,0:0:0:0:
448,192,91581,1,0,0:0:0:0:
64,192,91738,1,8,0:0:0:0:
320,192,91738,1,0,0:0:0:0:
192,192,91817,1,0,0:0:0:0:
64,192,92212,1,2,0:0:0:0:
192,192,92212,1,0,0:0:0:0:
320,192,92291,1,0,0:0:0:0:
64,192,92370,1,2,0:0:0:0:
192,192,92370,1,0,0:0:0:0:
192,192,92528,1,2,0:0:0:0:
320,192,92528,1,0,0:0:0:0:
64,192,92844,1,0,0:0:0:0:
448,192,92844,1,0,0:0:0:0:
320,192,92923,1,0,0:0:0:60:LR_Clap Reverb.wav
192,192,93002,1,8,0:0:0:0:
448,192,93002,1,0,0:0:0:0:
64,192,93160,1,2,0:0:0:0:
192,192,93160,1,0,0:0:0:0:
64,192,93317,1,0,0:0:0:0:
448,192,93317,1,0,0:0:0:0:
320,192,93633,1,2,0:0:0:0:
448,192,93633,1,0,0:0:0:0:
64,192,94107,1,0,0:0:0:0:
448,192,94107,1,0,0:0:0:0:
64,192,94265,1,8,0:0:0:0:
320,192,94265,1,0,0:0:0:0:
64,192,94423,1,8,0:0:0:0:
320,192,94423,1,0,0:0:0:0:
320,192,94581,1,2,0:0:0:0:
448,192,94581,1,0,0:0:0:0:
320,192,94896,1,2,0:0:0:0:
448,192,94896,1,0,0:0:0:0:
192,192,94975,1,2,0:0:0:0:
320,192,95054,1,2,0:0:0:0:
448,192,95054,1,0,0:0:0:0:
64,192,95212,1,0,0:0:0:60:LR_Clap Reverb.wav
448,192,95212,1,0,0:0:0:0:
192,192,95291,1,2,0:0:0:0:
64,192,95370,1,0,0:0:0:0:
320,192,95449,1,0,0:0:0:60:LR_Clap Reverb.wav
192,192,95528,1,8,0:0:0:0:
448,192,95528,1,0,0:0:0:0:
64,192,95844,1,0,0:0:0:100:LR_Hat Fast.wav
448,192,95844,1,0,0:0:0:0:
64,192,96160,1,2,0:0:0:0:
192,192,96160,1,0,0:0:0:0:
64,192,96633,1,2,0:0:0:0:
192,192,96633,1,0,0:0:0:0:
192,192,96791,1,8,0:0:0:0:
448,192,96791,1,0,0:0:0:0:
320,192,96870,1,0,0:0:0:0:
320,192,97265,1,2,0:0:0:0:
448,192,97265,1,0,0:0:0:0:
192,192,97344,1,0,0:0:0:0:
320,192,97423,1,2,0:0:0:0:
448,192,97423,1,0,0:0:0:0:
64,192,97581,1,2,0:0:0:0:
192,192,97581,1,0,0:0:0:0:
64,192,97896,1,0,0:0:0:0:
448,192,97896,1,0,0:0:0:0:
192,192,97975,1,0,0:0:0:60:LR_Clap Reverb.wav
64,192,98054,1,8,0:0:0:0:
320,192,98054,1,0,0:0:0:0:
320,192,98212,1,2,0:0:0:0:
448,192,98212,1,0,0:0:0:0:
64,192,98370,1,0,0:0:0:0:
448,192,98370,1,0,0:0:0:0:
192,192,98686,1,2,0:0:0:0:
320,192,98686,1,0,0:0:0:0:
64,192,99160,1,0,0:0:0:0:
448,192,99160,1,0,0:0:0:0:
192,192,99317,1,8,0:0:0:0:
448,192,99317,1,0,0:0:0:0:
192,192,99475,1,8,0:0:0:0:
448,192,99475,1,0,0:0:0:0:
64,192,99633,1,2,0:0:0:0:
192,192,99633,1,0,0:0:0:0:
64,192,99949,1,2,0:0:0:0:
192,192,99949,1,0,0:0:0:0:
192,192,100423,1,0,0:0:0:0:
320,192,100423,1,0,0:0:0:0:
192,192,100581,1,2,0:0:0:0:
448,192,100581,1,0,0:0:0:0:
192,192,100817,1,2,0:0:0:0:
448,192,100817,1,0,0:0:0:0:
64,192,101054,1,2,0:0:0:0:
320,192,101054,1,0,0:0:0:0:
192,192,101133,1,2,0:0:0:0:
448,192,101212,128,2,101449:0:0:0:0:
320,192,101291,128,0,101370:0:0:0:0:
64,192,101370,128,0,101607:0:0:0:0:
192,192,101449,128,0,101528:0:0:0:0:
448,192,101528,128,0,101765:0:0:0:0:
320,192,101607,128,0,101686:0:0:0:0:
64,192,101686,128,0,101923:0:0:0:0:
192,192,101765,128,0,101844:0:0:0:0:
448,192,101844,128,0,102081:0:0:0:0:
320,192,101923,128,0,102002:0:0:0:0:
64,192,102002,128,0,102238:0:0:0:0:
192,192,102081,128,0,102160:0:0:0:0:
448,192,102160,128,0,102396:0:0:0:0:
320,192,102238,128,0,102317:0:0:0:0:
192,192,102317,128,0,102554:0:0:0:0:
64,192,102396,128,0,102475:0:0:0:0:
320,192,102475,128,0,102712:0:0:0:0:
448,192,102554,128,0,102633:0:0:0:0:
64,192,102633,128,0,102870:0:0:0:0:
192,192,102712,128,0,102791:0:0:0:0:
320,192,102791,128,0,103028:0:0:0:0:
448,192,102870,128,0,102949:0:0:0:0:
64,192,102949,128,0,103186:0:0:0:0:
192,192,103028,128,0,103107:0:0:0:0:
320,192,103107,128,0,103344:0:0:0:0:
448,192,103186,128,0,103265:0:0:0:0:
64,192,103265,128,0,103502:0:0:0:0:
192,192,103344,128,0,103423:0:0:0:0:
320,192,103423,128,0,103660:0:0:0:0:
448,192,103502,128,0,103581:0:0:0:0:
192,192,103581,128,0,103817:0:0:0:0:
64,192,103660,128,0,103738:0:0:0:0:
448,192,103738,128,0,103975:0:0:0:0:
320,192,103817,128,0,103896:0:0:0:0:
192,192,103896,128,0,104133:0:0:0:0:
64,192,103975,128,0,104054:0:0:0:0:
448,192,104054,128,0,104291:0:0:0:0:
320,192,104133,128,0,104212:0:0:0:0:
192,192,104212,128,0,104449:0:0:0:0:
64,192,104291,128,0,104370:0:0:0:0:
448,192,104370,128,0,104607:0:0:0:0:
320,192,104449,128,0,104528:0:0:0:0:
192,192,104528,128,0,104765:0:0:0:0:
64,192,104607,128,0,104686:0:0:0:0:
448,192,104686,128,0,104923:0:0:0:0:
320,192,104765,128,0,104844:0:0:0:0:
64,192,104844,128,0,105081:0:0:0:0:
192,192,104923,128,0,105002:0:0:0:0:
448,192,105002,128,0,105160:0:0:0:0:
320,192,105081,128,0,105238:0:0:0:0:
192,192,105160,128,0,105317:0:0:0:0:
64,192,105238,128,0,105396:0:0:0:0:
448,192,105317,128,0,105396:0:0:0:0:
320,192,105396,128,0,105475:0:0:0:0:
192,192,105475,128,0,105554:0:0:0:0:
64,192,105554,128,0,105633:0:0:0:0:
448,192,105633,1,0,0:0:0:0:
320,192,105712,1,0,0:0:0:0:
192,192,105791,1,0,0:0:0:0:
64,192,105870,1,0,0:0:0:0:
320,192,105949,128,0,106107:0:0:0:0:
192,192,106107,1,0,0:0:0:0:
448,192,106186,1,0,0:0:0:0:
64,192,106265,1,2,0:0:0:0:
192,192,106265,1,0,0:0:0:0:
448,192,106344,1,0,0:0:0:0:
320,192,106423,1,0,0:0:0:0:
192,192,106502,1,0,0:0:0:0:
64,192,106581,128,0,106660:0:0:0:100:LR_Hat Fast.wav
448,192,106581,128,0,106660:0:0:0:0:
320,192,106660,1,0,0:0:0:0:
64,192,106738,1,2,0:0:0:0:
192,192,106738,1,0,0:0:0:0:
448,192,106817,1,0,0:0:0:0:
64,192,106896,1,8,0:0:0:0:
320,192,106896,1,0,0:0:0:0:
192,192,106975,1,0,0:0:0:0:
320,192,107054,1,2,0:0:0:0:
448,192,107054,1,0,0:0:0:0:
64,192,107212,1,2,0:0:0:0:
448,192,107212,1,0,0:0:0:0:
64,192,107370,128,2,107449:0:0:0:0:
192,192,107370,1,0,0:0:0:100:E7S_s.wav
320,192,107449,1,2,0:0:0:0:
64,192,107528,1,2,0:0:0:0:
448,192,107528,128,0,107607:0:0:0:100:F#7S_Gb7S_s.wav
320,192,107686,1,2,0:0:0:0:
448,192,107686,1,0,0:0:0:0:
64,192,107844,1,0,0:0:0:60:LR_Clap Reverb.wav
448,192,107844,1,0,0:0:0:0:
192,192,108002,128,0,108081:0:0:0:100:E7S_s.wav
64,192,108081,1,0,0:0:0:60:LR_Clap Reverb.wav
192,192,108160,1,8,0:0:0:0:
448,192,108160,1,0,0:0:0:0:
320,192,108317,1,2,0:0:0:0:
448,192,108317,1,0,0:0:0:0:
64,192,108475,128,0,108554:0:0:0:100:C#7S_Db7S_s.wav
320,192,108791,1,2,0:0:0:0:
448,192,108791,1,0,0:0:0:0:
192,192,108949,1,0,0:0:0:0:
64,192,109107,128,0,109186:0:0:0:100:B6S_s.wav
448,192,109107,128,0,109186:0:0:0:0:
192,192,109265,1,0,0:0:0:0:
448,192,109265,1,0,0:0:0:0:
64,192,109423,1,8,0:0:0:0:
320,192,109423,1,0,0:0:0:100:B6S_s.wav
192,192,109502,1,0,0:0:0:0:
64,192,109581,1,8,0:0:0:0:
320,192,109581,1,0,0:0:0:0:
448,192,109660,1,0,0:0:0:0:
64,192,109738,128,2,109817:0:0:0:0:
192,192,109738,1,0,0:0:0:100:A6S_s.wav
192,192,109896,128,0,109975:0:0:0:100:B6S_s.wav
320,192,109975,1,2,0:0:0:0:
64,192,110054,1,2,0:0:0:0:
448,192,110054,128,0,110133:0:0:0:100:C#7S_Db7S_s.wav
320,192,110133,1,2,0:0:0:0:
64,192,110212,1,2,0:0:0:0:
192,192,110212,1,0,0:0:0:0:
64,192,110370,1,0,0:0:0:60:LR_Clap Reverb.wav
448,192,110370,1,0,0:0:0:0:
192,192,110449,1,2,0:0:0:0:
320,192,110449,1,0,0:0:0:0:
448,192,110528,128,0,110607:0:0:0:100:C#7S_Db7S_s.wav
64,192,110607,1,0,0:0:0:60:LR_Clap Reverb.wav
192,192,110686,1,8,0:0:0:0:
320,192,110686,128,0,110765:0:0:0:100:B6S_s.wav
320,192,110844,1,2,0:0:0:0:
448,192,110844,1,0,0:0:0:0:
192,192,111002,128,0,111160:0:0:0:100:A6S_s.wav
64,192,111160,128,0,111317:0:0:0:0:
320,192,111317,1,2,0:0:0:0:
448,192,111317,1,0,0:0:0:0:
192,192,111475,1,0,0:0:0:0:
64,192,111633,128,0,111712:0:0:0:100:LR_Hat Fast.wav
448,192,111633,128,0,111712:0:0:0:0:
192,192,111791,1,2,0:0:0:0:
320,192,111791,1,0,0:0:0:0:
64,192,111949,1,8,0:0:0:0:
320,192,111949,1,0,0:0:0:0:
192,192,112028,1,0,0:0:0:0:
320,192,112107,1,2,0:0:0:0:
448,192,112107,1,0,0:0:0:0:
64,192,112265,1,2,0:0:0:0:
192,192,112265,1,0,0:0:0:0:
64,192,112423,128,2,112502:0:0:0:0:
192,192,112423,1,0,0:0:0:100:E7S_s.wav
320,192,112502,1,2,0:0:0:0:
64,192,112581,1,2,0:0:0:0:
448,192,112581,128,0,112660:0:0:0:100:F#7S_Gb7S_s.wav
192,192,112738,1,2,0:0:0:0:
320,192,112738,1,0,0:0:0:0:
64,192,112896,1,0,0:0:0:60:LR_Clap Reverb.wav
448,192,112896,1,0,0:0:0:0:
192,192,113054,128,0,113133:0:0:0:100:E7S_s.wav
448,192,113133,1,0,0:0:0:60:LR_Clap Reverb.wav
64,192,113212,1,8,0:0:0:0:
320,192,113212,1,0,0:0:0:0:
64,192,113370,1,2,0:0:0:0:
192,192,113370,1,0,0:0:0:0:
64,192,113528,128,0,113607:0:0:0:100:C#7S_Db7S_s.wav
192,192,113844,1,2,0:0:0:0:
320,192,113844,1,0,0:0:0:0:
320,192,114002,1,0,0:0:0:0:
64,192,114160,128,0,114238:0:0:0:100:B6S_s.wav
448,192,114160,128,0,114238:0:0:0:0:
320,192,114317,1,0,0:0:0:0:
192,192,114475,1,8,0:0:0:0:
448,192,114475,1,0,0:0:0:100:B6S_s.wav
64,192,114554,1,0,0:0:0:0:
192,192,114633,1,8,0:0:0:0:
448,192,114633,1,0,0:0:0:0:
320,192,114712,1,0,0:0:0:0:
64,192,114791,128,2,114870:0:0:0:0:
192,192,114791,1,0,0:0:0:100:A6S_s.wav
192,192,114949,128,0,115028:0:0:0:100:B6S_s.wav
320,192,115028,1,2,0:0:0:0:
64,192,115107,1,2,0:0:0:0:
448,192,115107,128,0,115186:0:0:0:100:C#7S_Db7S_s.wav
320,192,115186,1,2,0:0:0:0:
64,192,115265,1,2,0:0:0:0:
192,192,115265,1,0,0:0:0:0:
64,192,115423,1,0,0:0:0:60:LR_Clap Reverb.wav
448,192,115423,1,0,0:0:0:0:
320,192,115502,1,2,0:0:0:0:
448,192,115581,128,0,115660:0:0:0:100:C#7S_Db7S_s.wav
192,192,115660,1,0,0:0:0:60:LR_Clap Reverb.wav
64,192,115738,1,8,0:0:0:0:
320,192,115738,128,0,115817:0:0:0:100:B6S_s.wav
192,192,115896,1,2,0:0:0:0:
320,192,115896,1,0,0:0:0:0:
64,192,116054,128,0,116212:0:0:0:100:A6S_s.wav
320,192,116212,128,0,116370:0:0:0:0:
64,192,116370,1,2,0:0:0:0:
192,192,116370,1,0,0:0:0:0:
320,192,116528,1,0,0:0:0:0:
64,192,116686,128,0,116765:0:0:0:100:LR_Hat Fast.wav
448,192,116686,128,0,116765:0:0:0:0:
192,192,116844,1,2,0:0:0:0:
320,192,116844,1,0,0:0:0:0:
64,192,117002,1,8,0:0:0:0:
320,192,117002,1,0,0:0:0:0:
192,192,117081,1,0,0:0:0:0:
320,192,117160,1,2,0:0:0:0:
448,192,117160,1,0,0:0:0:0:
64,192,117317,1,2,0:0:0:0:
192,192,117317,1,0,0:0:0:0:
64,192,117475,128,2,117554:0:0:0:0:
448,192,117475,1,0,0:0:0:100:E7S_s.wav
192,192,117554,1,2,0:0:0:0:
320,192,117633,1,2,0:0:0:0:
448,192,117633,128,0,117712:0:0:0:100:F#7S_Gb7S_s.wav
64,192,117791,1,2,0:0:0:0:
192,192,117791,1,0,0:0:0:0:
64,192,117949,1,0,0:0:0:60:LR_Clap Reverb.wav
448,192,117949,1,0,0:0:0:0:
320,192,118107,128,0,118186:0:0:0:100:E7S_s.wav
192,192,118186,1,0,0:0:0:60:LR_Clap Reverb.wav
64,192,118265,1,8,0:0:0:0:
320,192,118265,1,0,0:0:0:0:
320,192,118423,1,2,0:0:0:0:
448,192,118423,1,0,0:0:0:0:
192,192,118581,128,0,118660:0:0:0:100:C#7S_Db7S_s.wav
320,192,118896,1,2,0:0:0:0:
448,192,118896,1,0,0:0:0:0:
192,192,119054,1,0,0:0:0:0:
64,192,119212,128,0,119291:0:0:0:100:B6S_s.wav
448,192,119212,128,0,119291:0:0:0:0:
192,192,119370,1,0,0:0:0:0:
320,192,119370,1,0,0:0:0:0:
64,192,119528,1,8,0:0:0:0:
320,192,119528,1,0,0:0:0:100:B6S_s.wav
192,192,119607,1,0,0:0:0:0:
64,192,119686,1,8,0:0:0:0:
320,192,119686,1,0,0:0:0:0:
448,192,119765,1,0,0:0:0:0:
64,192,119844,128,2,119923:0:0:0:0:
192,192,119844,1,0,0:0:0:100:A6S_s.wav
192,192,120002,128,0,120081:0:0:0:100:B6S_s.wav
320,192,120081,1,2,0:0:0:0:
64,192,120160,1,2,0:0:0:0:
448,192,120160,128,0,120238:0:0:0:100:C#7S_Db7S_s.wav
320,192,120238,1,2,0:0:0:0:
64,192,120317,1,2,0:0:0:0:
192,192,120317,1,0,0:0:0:0:
64,192,120475,1,0,0:0:0:60:LR_Clap Reverb.wav
448,192,120475,1,0,0:0:0:0:
320,192,120554,1,2,0:0:0:0:
448,192,120633,128,0,120712:0:0:0:100:C#7S_Db7S_s.wav
192,192,120712,1,0,0:0:0:60:LR_Clap Reverb.wav
64,192,120791,1,8,0:0:0:0:
320,192,120791,128,0,120870:0:0:0:100:B6S_s.wav
192,192,120949,1,2,0:0:0:0:
320,192,120949,1,0,0:0:0:0:
64,192,121107,128,0,121265:0:0:0:100:A6S_s.wav
192,192,121265,128,0,121423:0:0:0:0:
320,192,121423,1,2,0:0:0:0:
448,192,121423,1,0,0:0:0:0:
192,192,121581,1,0,0:0:0:0:
64,192,121738,128,0,121817:0:0:0:100:LR_Hat Fast.wav
448,192,121738,128,0,121817:0:0:0:0:
192,192,121896,1,2,0:0:0:0:
320,192,121896,1,0,0:0:0:0:
64,192,122054,1,8,0:0:0:0:
320,192,122054,1,0,0:0:0:0:
448,192,122133,1,0,0:0:0:0:
64,192,122212,1,2,0:0:0:0:
192,192,122212,1,0,0:0:0:0:
192,192,122370,1,2,0:0:0:0:
448,192,122370,1,0,0:0:0:0:
64,192,122528,128,2,122607:0:0:0:0:
448,192,122528,1,0,0:0:0:100:E7S_s.wav
192,192,122607,1,2,0:0:0:0:
320,192,122686,1,2,0:0:0:0:
448,192,122686,128,0,122765:0:0:0:100:F#7S_Gb7S_s.wav
192,192,122844,1,2,0:0:0:0:
320,192,122844,1,0,0:0:0:0:
64,192,123002,1,0,0:0:0:60:LR_Clap Reverb.wav
448,192,123002,1,0,0:0:0:0:
192,192,123160,128,0,123238:0:0:0:100:E7S_s.wav
448,192,123238,1,0,0:0:0:60:LR_Clap Reverb.wav
64,192,123317,1,8,0:0:0:0:
320,192,123317,1,0,0:0:0:0:
320,192,123475,1,2,0:0:0:0:
448,192,123475,1,0,0:0:0:0:
64,192,123633,128,0,123712:0:0:0:100:C#7S_Db7S_s.wav
320,192,123949,1,2,0:0:0:0:
448,192,123949,1,0,0:0:0:0:
192,192,124107,1,0,0:0:0:0:
64,192,124265,128,0,124344:0:0:0:100:B6S_s.wav
448,192,124265,128,0,124344:0:0:0:0:
192,192,124423,1,0,0:0:0:0:
320,192,124423,1,0,0:0:0:0:
64,192,124581,1,8,0:0:0:0:
320,192,124581,1,0,0:0:0:100:B6S_s.wav
448,192,124660,1,0,0:0:0:0:
64,192,124738,1,8,0:0:0:0:
320,192,124738,1,0,0:0:0:0:
192,192,124817,1,0,0:0:0:0:
64,192,124896,128,2,124975:0:0:0:0:
448,192,124896,1,0,0:0:0:100:A6S_s.wav
192,192,125054,128,0,125133:0:0:0:100:B6S_s.wav
320,192,125133,1,2,0:0:0:0:
64,192,125212,1,2,0:0:0:0:
448,192,125212,128,0,125291:0:0:0:100:C#7S_Db7S_s.wav
192,192,125291,1,2,0:0:0:0:
320,192,125370,1,2,0:0:0:0:
448,192,125370,1,0,0:0:0:0:
64,192,125528,1,0,0:0:0:60:LR_Clap Reverb.wav
448,192,125528,1,0,0:0:0:0:
192,192,125607,1,2,0:0:0:0:
320,192,125686,128,0,125765:0:0:0:100:C#7S_Db7S_s.wav
448,192,125765,1,0,0:0:0:60:LR_Clap Reverb.wav
64,192,125844,128,8,126475:0:0:0:0:
192,192,125844,128,0,125923:0:0:0:100:B6S_s.wav
320,192,126002,1,2,0:0:0:0:
448,192,126160,128,0,126475:0:0:0:0:
192,192,126475,128,2,126712:0:0:0:0:
320,192,126554,128,0,126633:0:0:0:0:
448,192,126633,128,0,126870:0:0:0:0:
64,192,126712,128,0,126791:0:0:0:0:
320,192,126791,128,0,127028:0:0:0:0:
192,192,126870,128,0,126949:0:0:0:0:
64,192,126949,128,2,127107:0:0:0:0:
192,192,127028,128,0,127107:0:0:0:0:
320,192,127107,1,8,0:0:0:0:
448,192,127107,1,0,0:0:0:0:
192,192,127186,1,0,0:0:0:0:
320,192,127581,1,2,0:0:0:0:
448,192,127581,1,0,0:0:0:0:
64,192,127660,1,0,0:0:0:0:
320,192,127738,128,2,127975:0:0:0:0:
64,192,127817,128,0,127896:0:0:0:0:
448,192,127896,128,2,128133:0:0:0:0:
192,192,127975,128,0,128054:0:0:0:0:
64,192,128054,128,0,128291:0:0:0:0:
320,192,128133,128,0,128212:0:0:0:0:
192,192,128212,128,0,128370:0:0:0:0:
448,192,128291,128,0,128370:0:0:0:60:LR_Clap Reverb.wav
64,192,128370,1,8,0:0:0:0:
320,192,128370,1,0,0:0:0:0:
320,192,128528,1,2,0:0:0:0:
448,192,128528,1,0,0:0:0:0:
64,192,128686,1,0,0:0:0:0:
448,192,128686,1,0,0:0:0:0:
320,192,128844,1,0,0:0:0:0:
192,192,129002,128,2,129238:0:0:0:0:
448,192,129081,128,0,129160:0:0:0:0:
64,192,129160,128,0,129396:0:0:0:0:
320,192,129238,128,0,129317:0:0:0:0:
448,192,129317,128,0,129554:0:0:0:0:
192,192,129396,128,0,129475:0:0:0:0:
320,192,129475,128,0,129633:0:0:0:0:
192,192,129554,128,0,129633:0:0:0:0:
64,192,129633,1,8,0:0:0:0:
448,192,129633,1,0,0:0:0:0:
320,192,129712,1,0,0:0:0:0:
64,192,129791,1,8,0:0:0:0:
448,192,129791,1,0,0:0:0:0:
192,192,129870,1,0,0:0:0:0:
320,192,129949,1,2,0:0:0:0:
448,192,129949,1,0,0:0:0:0:
320,192,130265,128,2,130502:0:0:0:0:
64,192,130344,128,2,130423:0:0:0:0:
448,192,130423,128,2,130660:0:0:0:0:
192,192,130502,128,0,130581:0:0:0:0:
64,192,130581,128,0,130817:0:0:0:60:LR_Clap Reverb.wav
320,192,130660,128,2,130738:0:0:0:0:
192,192,130738,128,0,130896:0:0:0:0:
448,192,130817,128,0,130896:0:0:0:60:LR_Clap Reverb.wav
64,192,130896,1,8,0:0:0:0:
320,192,130896,1,0,0:0:0:0:
64,192,131212,1,0,0:0:0:100:LR_Hat Fast.wav
448,192,131212,1,0,0:0:0:0:
320,192,131528,128,2,131765:0:0:0:0:
64,192,131607,128,0,131686:0:0:0:0:
192,192,131686,128,0,131923:0:0:0:0:
448,192,131765,128,0,131844:0:0:0:0:
64,192,131844,128,0,132081:0:0:0:0:
320,192,131923,128,0,132002:0:0:0:0:
448,192,132002,128,2,132160:0:0:0:0:
320,192,132081,128,0,132160:0:0:0:0:
64,192,132160,1,8,0:0:0:0:
192,192,132160,1,0,0:0:0:0:
320,192,132238,1,0,0:0:0:0:
320,192,132633,1,2,0:0:0:0:
448,192,132633,1,0,0:0:0:0:
64,192,132712,1,0,0:0:0:0:
192,192,132791,128,2,133028:0:0:0:0:
448,192,132870,128,0,132949:0:0:0:0:
64,192,132949,128,2,133186:0:0:0:0:
320,192,133028,128,0,133107:0:0:0:0:
448,192,133107,128,0,133344:0:0:0:0:
192,192,133186,128,0,133265:0:0:0:0:
320,192,133265,128,0,133423:0:0:0:0:
64,192,133344,128,0,133423:0:0:0:60:LR_Clap Reverb.wav
192,192,133423,1,8,0:0:0:0:
448,192,133423,1,0,0:0:0:0:
64,192,133581,1,2,0:0:0:0:
192,192,133581,1,0,0:0:0:0:
64,192,133738,1,0,0:0:0:0:
448,192,133738,1,0,0:0:0:0:
320,192,133896,1,0,0:0:0:0:
192,192,134054,128,2,134291:0:0:0:0:
448,192,134133,128,0,134212:0:0:0:0:
64,192,134212,128,0,134449:0:0:0:0:
320,192,134291,128,0,134370:0:0:0:0:
448,192,134370,128,0,134607:0:0:0:0:
192,192,134449,128,0,134528:0:0:0:0:
320,192,134528,128,0,134686:0:0:0:0:
192,192,134607,128,0,134686:0:0:0:0:
64,192,134686,1,8,0:0:0:0:
448,192,134686,1,0,0:0:0:0:
320,192,134765,1,0,0:0:0:0:
64,192,134844,1,8,0:0:0:0:
448,192,134844,1,0,0:0:0:0:
192,192,134923,1,0,0:0:0:0:
320,192,135002,1,2,0:0:0:0:
448,192,135002,1,0,0:0:0:0:
320,192,135317,128,2,135554:0:0:0:0:
64,192,135396,128,2,135475:0:0:0:0:
448,192,135475,128,2,135712:0:0:0:0:
192,192,135554,128,0,135633:0:0:0:0:
64,192,135633,128,0,135870:0:0:0:60:LR_Clap Reverb.wav
320,192,135712,128,2,135791:0:0:0:0:
192,192,135791,128,0,135949:0:0:0:0:
448,192,135870,128,0,135949:0:0:0:60:LR_Clap Reverb.wav
64,192,135949,1,8,0:0:0:0:
320,192,135949,1,0,0:0:0:0:
64,192,136265,1,0,0:0:0:100:LR_Hat Fast.wav
448,192,136265,1,0,0:0:0:0:
320,192,136581,128,2,136817:0:0:0:0:
64,192,136660,128,0,136738:0:0:0:0:
192,192,136738,128,0,136975:0:0:0:0:
448,192,136817,128,0,136896:0:0:0:0:
64,192,136896,128,0,137133:0:0:0:0:
320,192,136975,128,0,137054:0:0:0:0:
448,192,137054,128,2,137212:0:0:0:0:
320,192,137133,128,0,137212:0:0:0:0:
64,192,137212,1,8,0:0:0:0:
192,192,137212,1,0,0:0:0:0:
320,192,137291,1,0,0:0:0:0:
320,192,137686,1,2,0:0:0:0:
448,192,137686,1,0,0:0:0:0:
64,192,137765,1,0,0:0:0:0:
192,192,137844,128,2,138081:0:0:0:0:
448,192,137923,128,0,138002:0:0:0:0:
64,192,138002,128,2,138238:0:0:0:0:
320,192,138081,128,0,138160:0:0:0:0:
448,192,138160,128,0,138396:0:0:0:0:
192,192,138238,128,0,138317:0:0:0:0:
320,192,138317,128,0,138475:0:0:0:0:
64,192,138396,128,0,138475:0:0:0:60:LR_Clap Reverb.wav
192,192,138475,1,8,0:0:0:0:
448,192,138475,1,0,0:0:0:0:
64,192,138633,1,2,0:0:0:0:
192,192,138633,1,0,0:0:0:0:
64,192,138791,1,0,0:0:0:0:
448,192,138791,1,0,0:0:0:0:
320,192,138949,1,0,0:0:0:0:
192,192,139107,128,2,139344:0:0:0:0:
448,192,139186,128,0,139265:0:0:0:0:
64,192,139265,128,0,139502:0:0:0:0:
320,192,139344,128,0,139423:0:0:0:0:
448,192,139423,128,0,139660:0:0:0:0:
192,192,139502,128,0,139581:0:0:0:0:
320,192,139581,128,0,139738:0:0:0:0:
192,192,139660,128,0,139738:0:0:0:0:
64,192,139738,1,8,0:0:0:0:
448,192,139738,1,0,0:0:0:0:
320,192,139817,1,0,0:0:0:0:
64,192,139896,1,8,0:0:0:0:
448,192,139896,1,0,0:0:0:0:
192,192,139975,1,0,0:0:0:0:
320,192,140054,1,2,0:0:0:0:
448,192,140054,1,0,0:0:0:0:
320,192,140370,128,2,140607:0:0:0:0:
64,192,140449,128,2,140528:0:0:0:0:
448,192,140528,128,2,140765:0:0:0:0:
192,192,140607,128,0,140686:0:0:0:0:
64,192,140686,128,0,140923:0:0:0:60:LR_Clap Reverb.wav
320,192,140765,128,2,140844:0:0:0:0:
192,192,140844,128,0,141002:0:0:0:0:
448,192,140923,128,0,141002:0:0:0:60:LR_Clap Reverb.wav
64,192,141002,1,8,0:0:0:0:
320,192,141002,1,0,0:0:0:0:
64,192,141317,1,0,0:0:0:100:LR_Hat Fast.wav
448,192,141317,1,0,0:0:0:0:
320,192,141633,128,2,141870:0:0:0:0:
64,192,141712,128,0,141791:0:0:0:0:
192,192,141791,128,0,142028:0:0:0:0:
448,192,141870,128,0,141949:0:0:0:0:
64,192,141949,128,0,142186:0:0:0:0:
320,192,142028,128,0,142107:0:0:0:0:
448,192,142107,128,2,142265:0:0:0:0:
320,192,142186,128,0,142265:0:0:0:0:
64,192,142265,1,8,0:0:0:0:
192,192,142265,1,0,0:0:0:0:
320,192,142344,1,0,0:0:0:0:
320,192,142738,1,2,0:0:0:0:
448,192,142738,1,0,0:0:0:0:
64,192,142817,1,0,0:0:0:0:
192,192,142896,128,2,143133:0:0:0:0:
448,192,142975,128,0,143054:0:0:0:0:
64,192,143054,128,2,143291:0:0:0:0:
320,192,143133,128,0,143212:0:0:0:0:
448,192,143212,128,0,143449:0:0:0:0:
192,192,143291,128,0,143370:0:0:0:0:
320,192,143370,128,0,143528:0:0:0:0:
64,192,143449,128,0,143528:0:0:0:60:LR_Clap Reverb.wav
192,192,143528,1,8,0:0:0:0:
448,192,143528,1,0,0:0:0:0:
64,192,143686,1,2,0:0:0:0:
192,192,143686,1,0,0:0:0:0:
64,192,143844,1,0,0:0:0:0:
448,192,143844,1,0,0:0:0:0:
320,192,144002,1,0,0:0:0:0:
192,192,144160,128,2,144396:0:0:0:0:
448,192,144238,128,0,144317:0:0:0:0:
64,192,144317,128,0,144554:0:0:0:0:
320,192,144396,128,0,144475:0:0:0:0:
448,192,144475,128,0,144712:0:0:0:0:
192,192,144554,128,0,144633:0:0:0:0:
320,192,144633,128,0,144791:0:0:0:0:
192,192,144712,128,0,144791:0:0:0:0:
64,192,144791,1,8,0:0:0:0:
448,192,144791,1,0,0:0:0:0:
192,192,144870,1,0,0:0:0:0:
64,192,144949,1,8,0:0:0:0:
448,192,144949,1,0,0:0:0:0:
320,192,145028,1,0,0:0:0:0:
64,192,145107,1,2,0:0:0:0:
192,192,145107,1,0,0:0:0:0:
192,192,145423,128,2,145660:0:0:0:0:
448,192,145502,128,2,145581:0:0:0:0:
64,192,145581,128,2,145817:0:0:0:0:
320,192,145660,128,0,145738:0:0:0:0:
448,192,145738,128,0,145975:0:0:0:60:LR_Clap Reverb.wav
192,192,145817,128,2,145896:0:0:0:0:
320,192,145896,128,0,146054:0:0:0:0:
64,192,145975,128,0,146054:0:0:0:60:LR_Clap Reverb.wav
192,192,146054,1,8,0:0:0:0:
448,192,146054,1,0,0:0:0:0:
64,192,146370,1,0,0:0:0:100:LR_Hat Fast.wav
448,192,146370,1,0,0:0:0:0:
192,192,146686,128,2,146923:0:0:0:0:
320,192,146765,128,0,146844:0:0:0:0:
448,192,146844,128,0,147081:0:0:0:0:
64,192,146923,128,0,147002:0:0:0:0:
320,192,147002,128,0,147238:0:0:0:0:
192,192,147081,128,0,147160:0:0:0:0:
64,192,147160,128,2,147317:0:0:0:0:
192,192,147238,128,0,147317:0:0:0:0:
320,192,147317,1,8,0:0:0:0:
448,192,147317,1,0,0:0:0:0:
192,192,147396,1,0,0:0:0:0:
320,192,147791,1,2,0:0:0:0:
448,192,147791,1,0,0:0:0:0:
64,192,147870,1,0,0:0:0:0:
192,192,147949,128,2,148186:0:0:0:0:
448,192,148028,128,0,148107:0:0:0:0:
64,192,148107,128,2,148344:0:0:0:0:
320,192,148186,128,0,148265:0:0:0:0:
448,192,148265,128,0,148502:0:0:0:0:
192,192,148344,128,0,148423:0:0:0:0:
320,192,148423,128,0,148581:0:0:0:0:
64,192,148502,128,0,148581:0:0:0:60:LR_Clap Reverb.wav
192,192,148581,1,8,0:0:0:0:
448,192,148581,1,0,0:0:0:0:
64,192,148738,1,2,0:0:0:0:
192,192,148738,1,0,0:0:0:0:
64,192,148896,1,0,0:0:0:0:
448,192,148896,1,0,0:0:0:0:
320,192,149054,1,0,0:0:0:0:
192,192,149212,128,2,149449:0:0:0:0:
448,192,149291,128,0,149370:0:0:0:0:
64,192,149370,128,0,149607:0:0:0:0:
320,192,149449,128,0,149528:0:0:0:0:
448,192,149528,128,0,149765:0:0:0:0:
192,192,149607,128,0,149686:0:0:0:0:
320,192,149686,128,0,149844:0:0:0:0:
192,192,149765,128,0,149844:0:0:0:0:
64,192,149844,1,8,0:0:0:0:
448,192,149844,1,0,0:0:0:0:
320,192,149923,1,0,0:0:0:0:
64,192,150002,1,8,0:0:0:0:
448,192,150002,1,0,0:0:0:0:
192,192,150081,1,0,0:0:0:0:
320,192,150160,1,2,0:0:0:0:
448,192,150160,1,0,0:0:0:0:
320,192,150475,128,2,150712:0:0:0:0:
64,192,150554,128,2,150633:0:0:0:0:
448,192,150633,128,2,150870:0:0:0:0:
192,192,150712,128,0,150791:0:0:0:0:
64,192,150791,128,0,151028:0:0:0:60:LR_Clap Reverb.wav
320,192,150870,128,2,150949:0:0:0:0:
192,192,150949,128,0,151107:0:0:0:0:
448,192,151028,128,0,151107:0:0:0:60:LR_Clap Reverb.wav
64,192,151107,1,8,0:0:0:0:
320,192,151107,1,0,0:0:0:0:
64,192,151423,1,0,0:0:0:100:LR_Hat Fast.wav
448,192,151423,1,0,0:0:0:0:
320,192,151738,128,2,151975:0:0:0:0:
64,192,151817,128,0,151896:0:0:0:0:
192,192,151896,128,0,152133:0:0:0:0:
448,192,151975,128,0,152054:0:0:0:0:
64,192,152054,128,0,152291:0:0:0:0:
320,192,152133,128,0,152212:0:0:0:0:
448,192,152212,128,2,152370:0:0:0:0:
320,192,152291,128,0,152370:0:0:0:0:
64,192,152370,1,8,0:0:0:0:
192,192,152370,1,0,0:0:0:0:
320,192,152449,1,0,0:0:0:0:
320,192,152844,1,2,0:0:0:0:
448,192,152844,1,0,0:0:0:0:
64,192,152923,1,0,0:0:0:0:
192,192,153002,128,2,153238:0:0:0:0:
448,192,153081,128,0,153160:0:0:0:0:
64,192,153160,128,2,153396:0:0:0:0:
320,192,153238,128,0,153317:0:0:0:0:
448,192,153317,128,0,153554:0:0:0:0:
192,192,153396,128,0,153475:0:0:0:0:
320,192,153475,128,0,153633:0:0:0:0:
64,192,153554,128,0,153633:0:0:0:60:LR_Clap Reverb.wav
192,192,153633,1,8,0:0:0:0:
448,192,153633,1,0,0:0:0:0:
64,192,153791,1,2,0:0:0:0:
192,192,153791,1,0,0:0:0:0:
64,192,153949,1,0,0:0:0:0:
448,192,153949,1,0,0:0:0:0:
320,192,154107,1,0,0:0:0:0:
192,192,154265,128,2,154502:0:0:0:0:
448,192,154344,128,0,154423:0:0:0:0:
64,192,154423,128,0,154660:0:0:0:0:
320,192,154502,128,0,154581:0:0:0:0:
448,192,154581,128,0,154817:0:0:0:0:
192,192,154660,128,0,154738:0:0:0:0:
320,192,154738,128,0,154896:0:0:0:0:
192,192,154817,128,0,154896:0:0:0:0:
64,192,154896,1,8,0:0:0:0:
448,192,154896,1,0,0:0:0:0:
320,192,154975,1,0,0:0:0:0:
64,192,155054,1,8,0:0:0:0:
448,192,155054,1,0,0:0:0:0:
192,192,155133,1,0,0:0:0:0:
320,192,155212,1,2,0:0:0:0:
448,192,155212,1,0,0:0:0:0:
320,192,155528,128,2,155765:0:0:0:0:
64,192,155607,128,2,155686:0:0:0:0:
448,192,155686,128,2,155923:0:0:0:0:
192,192,155765,128,0,155844:0:0:0:0:
64,192,155844,128,0,156081:0:0:0:60:LR_Clap Reverb.wav
320,192,155923,128,2,156002:0:0:0:0:
192,192,156002,128,0,156160:0:0:0:0:
448,192,156081,128,0,156160:0:0:0:60:LR_Clap Reverb.wav
64,192,156160,1,8,0:0:0:0:
320,192,156160,1,0,0:0:0:0:
64,192,156475,1,0,0:0:0:100:LR_Hat Fast.wav
448,192,156475,1,0,0:0:0:0:
320,192,156791,128,2,157028:0:0:0:0:
64,192,156870,128,0,156949:0:0:0:0:
192,192,156949,128,0,157186:0:0:0:0:
448,192,157028,128,0,157107:0:0:0:0:
64,192,157107,128,0,157344:0:0:0:0:
320,192,157186,128,0,157265:0:0:0:0:
448,192,157265,128,2,157423:0:0:0:0:
320,192,157344,128,0,157423:0:0:0:0:
64,192,157423,1,8,0:0:0:0:
192,192,157423,1,0,0:0:0:0:
320,192,157502,1,0,0:0:0:0:
320,192,157896,1,2,0:0:0:0:
448,192,157896,1,0,0:0:0:0:
64,192,157975,1,0,0:0:0:0:
192,192,158054,128,2,158291:0:0:0:0:
448,192,158133,128,0,158212:0:0:0:0:
64,192,158212,128,2,158449:0:0:0:0:
320,192,158291,128,0,158370:0:0:0:0:
448,192,158370,128,0,158607:0:0:0:0:
192,192,158449,128,0,158528:0:0:0:0:
320,192,158528,128,0,158686:0:0:0:0:
64,192,158607,128,0,158686:0:0:0:60:LR_Clap Reverb.wav
192,192,158686,1,8,0:0:0:0:
448,192,158686,1,0,0:0:0:0:
64,192,158844,1,2,0:0:0:0:
192,192,158844,1,0,0:0:0:0:
64,192,159002,1,0,0:0:0:0:
448,192,159002,1,0,0:0:0:0:
320,192,159160,1,0,0:0:0:0:
192,192,159317,128,2,159554:0:0:0:0:
448,192,159396,128,0,159475:0:0:0:0:
64,192,159475,128,0,159712:0:0:0:0:
320,192,159554,128,0,159633:0:0:0:0:
448,192,159633,128,0,159870:0:0:0:0:
192,192,159712,128,0,159791:0:0:0:0:
320,192,159791,128,0,159949:0:0:0:0:
192,192,159870,128,0,159949:0:0:0:0:
64,192,159949,1,8,0:0:0:0:
448,192,159949,1,0,0:0:0:0:
320,192,160028,1,0,0:0:0:0:
64,192,160107,1,8,0:0:0:0:
448,192,160107,1,0,0:0:0:0:
192,192,160186,1,0,0:0:0:0:
320,192,160265,1,2,0:0:0:0:
448,192,160265,1,0,0:0:0:0:
320,192,160581,128,2,160817:0:0:0:0:
64,192,160660,128,2,160738:0:0:0:0:
448,192,160738,128,2,160975:0:0:0:0:
192,192,160817,128,0,160896:0:0:0:0:
64,192,160896,128,0,161133:0:0:0:60:LR_Clap Reverb.wav
320,192,160975,128,2,161054:0:0:0:0:
192,192,161054,128,0,161212:0:0:0:0:
448,192,161133,128,0,161212:0:0:0:60:LR_Clap Reverb.wav
64,192,161212,1,8,0:0:0:0:
320,192,161212,1,0,0:0:0:0:
64,192,161528,1,0,0:0:0:100:LR_Hat Fast.wav
448,192,161528,1,0,0:0:0:0:
320,192,161844,128,2,162081:0:0:0:0:
64,192,161923,128,0,162002:0:0:0:0:
192,192,162002,128,0,162238:0:0:0:0:
448,192,162081,128,0,162160:0:0:0:0:
64,192,162160,128,0,162396:0:0:0:0:
320,192,162238,128,0,162317:0:0:0:0:
448,192,162317,128,2,162475:0:0:0:0:
320,192,162396,128,0,162475:0:0:0:0:
64,192,162475,1,8,0:0:0:0:
192,192,162475,1,0,0:0:0:0:
320,192,162554,1,0,0:0:0:0:
320,192,162949,1,2,0:0:0:0:
448,192,162949,1,0,0:0:0:0:
64,192,163028,1,0,0:0:0:0:
192,192,163107,128,2,163344:0:0:0:0:
448,192,163186,128,0,163265:0:0:0:0:
64,192,163265,128,2,163502:0:0:0:0:
320,192,163344,128,0,163423:0:0:0:0:
448,192,163423,128,0,163660:0:0:0:0:
192,192,163502,128,0,163581:0:0:0:0:
320,192,163581,128,0,163738:0:0:0:0:
64,192,163660,128,0,163738:0:0:0:60:LR_Clap Reverb.wav
192,192,163738,1,8,0:0:0:0:
448,192,163738,1,0,0:0:0:0:
64,192,163896,1,2,0:0:0:0:
192,192,163896,1,0,0:0:0:0:
64,192,164054,1,0,0:0:0:0:
448,192,164054,1,0,0:0:0:0:
320,192,164212,1,0,0:0:0:0:
64,192,164370,1,0,0:0:0:0:
192,192,164423,1,0,0:0:0:0:
320,192,164475,1,0,0:0:0:0:
64,192,164686,1,0,0:0:0:0:
192,192,165002,1,0,0:0:0:0:
192,192,165160,1,0,0:0:0:0:
192,192,165475,1,0,0:0:0:0:
448,192,165633,1,0,0:0:0:0:
448,192,165791,1,0,0:0:0:0:
64,192,165949,1,0,0:0:0:0:
320,192,166265,1,0,0:0:0:0:
320,192,166423,1,0,0:0:0:0:
320,192,166738,1,0,0:0:0:0:
64,192,166896,1,2,0:0:0:0:
192,192,166896,1,0,0:0:0:0:
448,192,166975,1,0,0:0:0:0:
320,192,167054,1,0,0:0:0:0:
192,192,167133,1,0,0:0:0:0:
448,192,167212,1,0,0:0:0:0:
320,192,167291,1,0,0:0:0:0:
64,192,167370,1,2,0:0:0:0:
192,192,167370,1,0,0:0:0:0:
320,192,167449,1,0,0:0:0:0:
192,192,167528,1,8,0:0:0:0:
448,192,167528,1,0,0:0:0:0:
64,192,167607,1,0,0:0:0:0:
64,192,168002,128,2,168081:0:0:0:0:
192,192,168002,1,0,0:0:0:100:E7S_s.wav
320,192,168081,1,0,0:0:0:0:
64,192,168160,1,2,0:0:0:0:
448,192,168160,128,0,168238:0:0:0:100:F#7S_Gb7S_s.wav
192,192,168317,1,2,0:0:0:0:
320,192,168317,1,0,0:0:0:0:
320,192,168633,128,0,168712:0:0:0:100:E7S_s.wav
448,192,168712,1,0,0:0:0:60:LR_Clap Reverb.wav
64,192,168791,1,8,0:0:0:0:
320,192,168791,1,0,0:0:0:0:
64,192,168949,1,2,0:0:0:0:
192,192,168949,1,0,0:0:0:0:
192,192,169107,128,0,169186:0:0:0:100:C#7S_Db7S_s.wav
192,192,169265,1,0,0:0:0:0:
64,192,169423,1,2,0:0:0:0:
192,192,169423,1,0,0:0:0:0:
320,192,169738,1,0,0:0:0:100:B6S_s.wav
64,192,169896,1,0,0:0:0:0:
448,192,169896,1,0,0:0:0:0:
192,192,170054,1,8,0:0:0:0:
448,192,170054,1,0,0:0:0:100:B6S_s.wav
64,192,170133,1,0,0:0:0:0:
192,192,170212,1,8,0:0:0:0:
448,192,170212,1,0,0:0:0:0:
320,192,170291,1,0,0:0:0:0:
64,192,170370,128,2,170449:0:0:0:0:
192,192,170370,1,0,0:0:0:100:A6S_s.wav
192,192,170528,128,0,170607:0:0:0:100:B6S_s.wav
320,192,170607,1,0,0:0:0:0:
64,192,170686,1,2,0:0:0:0:
448,192,170686,128,0,170765:0:0:0:100:C#7S_Db7S_s.wav
192,192,170765,1,2,0:0:0:0:
320,192,170844,1,2,0:0:0:0:
448,192,170844,1,0,0:0:0:0:
64,192,171002,1,0,0:0:0:60:LR_Clap Reverb.wav
448,192,171002,1,0,0:0:0:0:
192,192,171081,1,2,0:0:0:0:
320,192,171081,1,0,0:0:0:0:
448,192,171160,128,0,171238:0:0:0:100:C#7S_Db7S_s.wav
64,192,171238,1,0,0:0:0:60:LR_Clap Reverb.wav
192,192,171317,1,8,0:0:0:0:
320,192,171317,128,0,171396:0:0:0:100:B6S_s.wav
320,192,171475,1,0,0:0:0:0:
192,192,171633,128,0,171791:0:0:0:100:LR_Hat Fast.wav
448,192,171791,128,0,171949:0:0:0:0:
64,192,171949,1,2,0:0:0:0:
192,192,171949,1,0,0:0:0:0:
192,192,172423,1,2,0:0:0:0:
320,192,172423,1,0,0:0:0:0:
192,192,172581,1,8,0:0:0:0:
448,192,172581,1,0,0:0:0:0:
320,192,172660,1,0,0:0:0:0:
64,192,173054,128,2,173133:0:0:0:0:
192,192,173054,1,0,0:0:0:100:E7S_s.wav
320,192,173133,1,0,0:0:0:0:
64,192,173212,1,2,0:0:0:0:
448,192,173212,128,0,173291:0:0:0:100:F#7S_Gb7S_s.wav
320,192,173370,1,2,0:0:0:0:
448,192,173370,1,0,0:0:0:0:
320,192,173686,128,0,173765:0:0:0:100:E7S_s.wav
64,192,173765,1,0,0:0:0:60:LR_Clap Reverb.wav
192,192,173844,1,8,0:0:0:0:
448,192,173844,1,0,0:0:0:0:
320,192,174002,1,2,0:0:0:0:
448,192,174002,1,0,0:0:0:0:
192,192,174160,128,0,174238:0:0:0:100:C#7S_Db7S_s.wav
448,192,174475,1,0,0:0:0:0:
320,192,174475,128,2,174633:0:0:0:0:
320,192,174712,1,0,0:0:0:0:
192,192,174791,128,0,174949:0:0:0:0:
64,192,174949,1,0,0:0:0:0:
448,192,174949,1,0,0:0:0:0:
64,192,175107,1,8,0:0:0:0:
320,192,175107,1,0,0:0:0:100:B6S_s.wav
192,192,175186,1,0,0:0:0:0:
64,192,175265,1,8,0:0:0:0:
320,192,175265,1,0,0:0:0:0:
448,192,175344,1,0,0:0:0:0:
64,192,175423,128,2,175502:0:0:0:0:
192,192,175423,1,0,0:0:0:100:A6S_s.wav
192,192,175581,128,0,175660:0:0:0:100:B6S_s.wav
320,192,175660,1,0,0:0:0:0:
64,192,175738,1,2,0:0:0:0:
448,192,175738,128,0,175817:0:0:0:100:C#7S_Db7S_s.wav
192,192,175817,1,2,0:0:0:0:
320,192,175896,1,2,0:0:0:0:
448,192,175896,1,0,0:0:0:0:
64,192,176054,1,0,0:0:0:60:LR_Clap Reverb.wav
448,192,176054,1,0,0:0:0:0:
320,192,176133,1,2,0:0:0:0:
448,192,176212,128,0,176291:0:0:0:100:C#7S_Db7S_s.wav
192,192,176291,1,0,0:0:0:60:LR_Clap Reverb.wav
64,192,176370,1,8,0:0:0:0:
320,192,176370,128,0,176449:0:0:0:100:B6S_s.wav
64,192,176686,128,0,176844:0:0:0:100:LR_Hat Fast.wav
192,192,176844,128,0,177002:0:0:0:0:
320,192,177002,1,2,0:0:0:0:
448,192,177002,1,0,0:0:0:0:
192,192,177475,1,2,0:0:0:0:
320,192,177475,1,0,0:0:0:0:
192,192,177633,1,8,0:0:0:0:
448,192,177633,1,0,0:0:0:0:
320,192,177712,1,0,0:0:0:0:
64,192,178107,128,2,178186:0:0:0:0:
192,192,178107,1,0,0:0:0:100:E7S_s.wav
320,192,178186,1,0,0:0:0:0:
64,192,178265,1,2,0:0:0:0:
448,192,178265,128,0,178344:0:0:0:100:F#7S_Gb7S_s.wav
64,192,178423,1,2,0:0:0:0:
192,192,178423,1,0,0:0:0:0:
320,192,178738,128,0,178817:0:0:0:100:E7S_s.wav
64,192,178817,1,0,0:0:0:60:LR_Clap Reverb.wav
192,192,178896,1,8,0:0:0:0:
448,192,178896,1,0,0:0:0:0:
320,192,179054,1,2,0:0:0:0:
448,192,179054,1,0,0:0:0:0:
192,192,179212,128,0,179291:0:0:0:100:C#7S_Db7S_s.wav
192,192,179370,1,0,0:0:0:0:
64,192,179528,1,2,0:0:0:0:
192,192,179528,1,0,0:0:0:0:
448,192,179844,1,0,0:0:0:100:B6S_s.wav
192,192,180002,1,0,0:0:0:0:
320,192,180002,1,0,0:0:0:0:
64,192,180160,1,8,0:0:0:0:
320,192,180160,1,0,0:0:0:100:B6S_s.wav
192,192,180238,1,0,0:0:0:0:
64,192,180317,1,8,0:0:0:0:
320,192,180317,1,0,0:0:0:0:
448,192,180396,1,0,0:0:0:0:
64,192,180475,128,2,180554:0:0:0:0:
192,192,180475,1,0,0:0:0:100:A6S_s.wav
192,192,180633,128,0,180712:0:0:0:100:B6S_s.wav
320,192,180712,1,0,0:0:0:0:
64,192,180791,1,2,0:0:0:0:
448,192,180791,128,0,180870:0:0:0:100:C#7S_Db7S_s.wav
192,192,180870,1,2,0:0:0:0:
320,192,180949,1,2,0:0:0:0:
448,192,180949,1,0,0:0:0:0:
64,192,181107,1,0,0:0:0:60:LR_Clap Reverb.wav
448,192,181107,1,0,0:0:0:0:
320,192,181186,1,2,0:0:0:0:
448,192,181265,128,0,181344:0:0:0:100:C#7S_Db7S_s.wav
192,192,181344,1,0,0:0:0:60:LR_Clap Reverb.wav
64,192,181423,1,8,0:0:0:0:
320,192,181423,128,0,181502:0:0:0:100:B6S_s.wav
192,192,181620,1,0,0:0:0:0:
64,192,181738,128,0,181896:0:0:0:100:LR_Hat Fast.wav
320,192,181896,128,0,182054:0:0:0:0:
64,192,182054,1,2,0:0:0:0:
192,192,182054,1,0,0:0:0:0:
64,192,182528,1,2,0:0:0:0:
192,192,182528,1,0,0:0:0:0:
192,192,182686,1,8,0:0:0:0:
448,192,182686,1,0,0:0:0:0:
64,192,182765,1,0,0:0:0:0:
64,192,183160,128,2,183238:0:0:0:0:
448,192,183160,1,0,0:0:0:100:E7S_s.wav
192,192,183238,1,0,0:0:0:0:
320,192,183317,1,2,0:0:0:0:
448,192,183317,128,0,183396:0:0:0:100:F#7S_Gb7S_s.wav
64,192,183475,1,2,0:0:0:0:
192,192,183475,1,0,0:0:0:0:
320,192,183791,128,0,183870:0:0:0:100:E7S_s.wav
64,192,183870,1,0,0:0:0:60:LR_Clap Reverb.wav
192,192,183949,1,8,0:0:0:0:
448,192,183949,1,0,0:0:0:0:
320,192,184107,1,2,0:0:0:0:
448,192,184107,1,0,0:0:0:0:
192,192,184265,128,0,184344:0:0:0:100:C#7S_Db7S_s.wav
64,192,184581,1,2,0:0:0:0:
192,192,184581,128,0,184738:0:0:0:0:
448,192,184738,128,0,184896:0:0:0:0:
192,192,185054,1,0,0:0:0:0:
320,192,185054,1,0,0:0:0:0:
64,192,185212,1,8,0:0:0:0:
320,192,185212,1,0,0:0:0:100:B6S_s.wav
192,192,185291,1,0,0:0:0:0:
64,192,185370,1,8,0:0:0:0:
320,192,185370,1,0,0:0:0:0:
448,192,185449,1,0,0:0:0:0:
64,192,185528,128,2,185607:0:0:0:0:
192,192,185528,1,0,0:0:0:100:A6S_s.wav
192,192,185686,128,0,185765:0:0:0:100:B6S_s.wav
320,192,185765,1,0,0:0:0:0:
64,192,185844,1,2,0:0:0:0:
448,192,185844,128,0,185923:0:0:0:100:C#7S_Db7S_s.wav
192,192,185923,1,2,0:0:0:0:
320,192,186002,1,2,0:0:0:0:
448,192,186002,1,0,0:0:0:0:
64,192,186160,1,0,0:0:0:60:LR_Clap Reverb.wav
448,192,186160,1,0,0:0:0:0:
320,192,186238,1,2,0:0:0:0:
448,192,186317,128,0,186396:0:0:0:100:C#7S_Db7S_s.wav
192,192,186396,1,0,0:0:0:60:LR_Clap Reverb.wav
64,192,186475,1,8,0:0:0:0:
320,192,186475,128,0,186554:0:0:0:100:B6S_s.wav
64,192,186791,128,0,186949:0:0:0:100:LR_Hat Fast.wav
192,192,186949,128,0,187107:0:0:0:0:
320,192,187107,1,2,0:0:0:0:
448,192,187107,1,0,0:0:0:0:
320,192,187581,1,2,0:0:0:0:
448,192,187581,1,0,0:0:0:0:
192,192,187738,1,8,0:0:0:0:
448,192,187738,1,0,0:0:0:0:
64,192,187817,1,0,0:0:0:0:
64,192,188212,128,2,188291:0:0:0:0:
192,192,188212,1,0,0:0:0:100:E7S_s.wav
320,192,188370,1,2,0:0:0:0:
448,192,188370,128,0,188449:0:0:0:100:F#7S_Gb7S_s.wav
192,192,188528,1,2,0:0:0:0:
320,192,188528,1,0,0:0:0:0:
64,192,188607,1,0,0:0:0:0:
320,192,188844,128,0,188923:0:0:0:100:E7S_s.wav
64,192,188923,1,0,0:0:0:60:LR_Clap Reverb.wav
192,192,189002,1,8,0:0:0:0:
448,192,189002,1,0,0:0:0:0:
192,192,189160,1,2,0:0:0:0:
320,192,189160,1,0,0:0:0:0:
192,192,189317,128,0,189396:0:0:0:100:C#7S_Db7S_s.wav
448,192,189475,1,0,0:0:0:0:
64,192,189633,1,2,0:0:0:0:
192,192,189633,1,0,0:0:0:0:
448,192,189949,1,0,0:0:0:100:B6S_s.wav
64,192,190107,1,0,0:0:0:0:
320,192,190107,1,0,0:0:0:0:
192,192,190265,1,8,0:0:0:0:
448,192,190265,1,0,0:0:0:100:B6S_s.wav
320,192,190344,1,0,0:0:0:0:
64,192,190423,1,8,0:0:0:0:
448,192,190423,1,0,0:0:0:0:
320,192,190502,1,0,0:0:0:0:
64,192,190581,128,2,190660:0:0:0:0:
192,192,190581,1,0,0:0:0:100:A6S_s.wav
192,192,190738,128,0,190817:0:0:0:100:B6S_s.wav
64,192,190896,1,2,0:0:0:0:
448,192,190896,128,0,190975:0:0:0:100:C#7S_Db7S_s.wav
192,192,190975,1,2,0:0:0:0:
320,192,191054,1,2,0:0:0:0:
448,192,191054,1,0,0:0:0:0:
64,192,191212,1,0,0:0:0:60:LR_Clap Reverb.wav
448,192,191212,1,0,0:0:0:0:
192,192,191291,1,2,0:0:0:0:
320,192,191291,1,0,0:0:0:0:
448,192,191370,128,0,191449:0:0:0:100:C#7S_Db7S_s.wav
192,192,191449,1,0,0:0:0:60:LR_Clap Reverb.wav
64,192,191528,1,8,0:0:0:0:
320,192,191528,128,0,191607:0:0:0:100:B6S_s.wav
448,192,191686,1,0,0:0:0:0:
192,192,191844,128,0,192002:0:0:0:100:LR_Hat Fast.wav
64,192,191923,128,0,192002:0:0:0:0:
448,192,192002,128,0,192160:0:0:0:0:
320,192,192081,128,0,192160:0:0:0:0:
64,192,192160,1,2,0:0:0:0:
192,192,192160,1,0,0:0:0:0:
192,192,192633,1,2,0:0:0:0:
320,192,192633,1,0,0:0:0:0:
192,192,192791,1,8,0:0:0:0:
448,192,192791,1,0,0:0:0:0:
320,192,192870,1,0,0:0:0:0:
64,192,193265,128,2,193344:0:0:0:0:
192,192,193265,1,0,0:0:0:100:E7S_s.wav
320,192,193344,1,0,0:0:0:0:
64,192,193423,1,2,0:0:0:0:
448,192,193423,128,0,193502:0:0:0:100:F#7S_Gb7S_s.wav
320,192,193581,1,2,0:0:0:0:
448,192,193581,1,0,0:0:0:0:
320,192,193896,128,0,193975:0:0:0:100:E7S_s.wav
192,192,193975,1,0,0:0:0:60:LR_Clap Reverb.wav
64,192,194054,1,8,0:0:0:0:
320,192,194054,1,0,0:0:0:0:
64,192,194212,1,2,0:0:0:0:
192,192,194212,1,0,0:0:0:0:
192,192,194370,128,0,194449:0:0:0:100:C#7S_Db7S_s.wav
448,192,194686,1,0,0:0:0:0:
320,192,194686,128,2,194844:0:0:0:0:
320,192,194923,1,0,0:0:0:0:
192,192,195002,128,0,195160:0:0:0:100:B6S_s.wav
64,192,195160,1,0,0:0:0:0:
448,192,195160,1,0,0:0:0:0:
64,192,195317,1,8,0:0:0:0:
320,192,195317,1,0,0:0:0:100:B6S_s.wav
192,192,195396,1,0,0:0:0:0:
64,192,195475,1,8,0:0:0:0:
320,192,195475,1,0,0:0:0:0:
448,192,195554,1,0,0:0:0:0:
64,192,195633,128,2,195712:0:0:0:0:
192,192,195633,1,0,0:0:0:100:A6S_s.wav
192,192,195791,128,0,195870:0:0:0:100:B6S_s.wav
64,192,195949,1,2,0:0:0:0:
448,192,195949,128,0,196028:0:0:0:100:C#7S_Db7S_s.wav
192,192,196028,1,2,0:0:0:0:
320,192,196107,1,2,0:0:0:0:
448,192,196107,1,0,0:0:0:0:
64,192,196265,1,0,0:0:0:60:LR_Clap Reverb.wav
448,192,196265,1,0,0:0:0:0:
320,192,196344,1,2,0:0:0:0:
448,192,196423,128,0,196502:0:0:0:100:C#7S_Db7S_s.wav
192,192,196502,1,0,0:0:0:60:LR_Clap Reverb.wav
64,192,196581,1,8,0:0:0:0:
320,192,196581,128,0,196660:0:0:0:100:B6S_s.wav
64,192,196896,128,0,197054:0:0:0:100:LR_Hat Fast.wav
448,192,196896,128,0,197054:0:0:0:0:
192,192,197054,128,0,197212:0:0:0:0:
320,192,197212,1,2,0:0:0:0:
448,192,197212,1,0,0:0:0:0:
192,192,197686,1,2,0:0:0:0:
320,192,197686,1,0,0:0:0:0:
64,192,197844,1,8,0:0:0:0:
320,192,197844,1,0,0:0:0:0:
192,192,197923,1,0,0:0:0:0:
64,192,198317,128,2,198396:0:0:0:0:
192,192,198317,1,0,0:0:0:100:E7S_s.wav
320,192,198396,1,0,0:0:0:0:
64,192,198475,1,2,0:0:0:0:
448,192,198475,128,0,198554:0:0:0:100:F#7S_Gb7S_s.wav
192,192,198633,1,2,0:0:0:0:
320,192,198633,1,0,0:0:0:0:
64,192,198712,1,0,0:0:0:0:
320,192,198949,128,0,199028:0:0:0:100:E7S_s.wav
64,192,199028,1,0,0:0:0:60:LR_Clap Reverb.wav
192,192,199107,1,8,0:0:0:0:
448,192,199107,1,0,0:0:0:0:
320,192,199265,1,2,0:0:0:0:
448,192,199265,1,0,0:0:0:0:
192,192,199423,128,0,199502:0:0:0:100:C#7S_Db7S_s.wav
64,192,199738,1,2,0:0:0:0:
192,192,199738,1,0,0:0:0:0:
448,192,200054,1,0,0:0:0:100:B6S_s.wav
192,192,200212,1,0,0:0:0:0:
320,192,200212,1,0,0:0:0:0:
64,192,200370,1,8,0:0:0:0:
320,192,200370,1,0,0:0:0:100:B6S_s.wav
192,192,200449,1,0,0:0:0:0:
64,192,200528,1,8,0:0:0:0:
320,192,200528,1,0,0:0:0:0:
448,192,200607,1,0,0:0:0:0:
64,192,200686,128,2,200765:0:0:0:0:
192,192,200686,1,0,0:0:0:100:A6S_s.wav
192,192,200844,128,0,200923:0:0:0:100:B6S_s.wav
64,192,201002,1,2,0:0:0:0:
448,192,201002,128,0,201081:0:0:0:100:C#7S_Db7S_s.wav
192,192,201081,1,2,0:0:0:0:
320,192,201160,1,2,0:0:0:0:
448,192,201160,1,0,0:0:0:0:
64,192,201317,1,0,0:0:0:60:LR_Clap Reverb.wav
448,192,201317,1,0,0:0:0:0:
320,192,201396,1,2,0:0:0:0:
448,192,201475,128,0,201554:0:0:0:100:C#7S_Db7S_s.wav
192,192,201554,1,0,0:0:0:60:LR_Clap Reverb.wav
64,192,201633,1,8,0:0:0:0:
320,192,201633,128,0,201712:0:0:0:100:B6S_s.wav
192,192,201831,1,0,0:0:0:0:
64,192,201949,128,0,202107:0:0:0:100:LR_Hat Fast.wav
320,192,202107,128,0,202265:0:0:0:0:
64,192,202265,1,2,0:0:0:0:
192,192,202265,1,0,0:0:0:0:
192,192,202738,1,2,0:0:0:0:
320,192,202738,1,0,0:0:0:0:
192,192,202896,1,8,0:0:0:0:
448,192,202896,1,0,0:0:0:0:
64,192,202975,1,0,0:0:0:0:
64,192,203370,128,2,203449:0:0:0:0:
448,192,203370,1,0,0:0:0:100:E7S_s.wav
192,192,203449,1,0,0:0:0:0:
320,192,203528,1,2,0:0:0:0:
448,192,203528,128,0,203607:0:0:0:100:F#7S_Gb7S_s.wav
64,192,203686,1,2,0:0:0:0:
192,192,203686,1,0,0:0:0:0:
320,192,204002,128,0,204081:0:0:0:100:E7S_s.wav
64,192,204081,1,0,0:0:0:60:LR_Clap Reverb.wav
192,192,204160,1,8,0:0:0:0:
448,192,204160,1,0,0:0:0:0:
320,192,204317,1,2,0:0:0:0:
448,192,204317,1,0,0:0:0:0:
192,192,204475,128,0,204554:0:0:0:100:C#7S_Db7S_s.wav
64,192,204791,1,2,0:0:0:0:
192,192,204791,1,0,0:0:0:0:
192,192,205107,1,0,0:0:0:100:B6S_s.wav
320,192,205265,1,0,0:0:0:0:
448,192,205265,1,0,0:0:0:0:
64,192,205423,1,8,0:0:0:0:
320,192,205423,1,0,0:0:0:100:B6S_s.wav
192,192,205502,1,0,0:0:0:0:
64,192,205581,1,8,0:0:0:0:
320,192,205581,1,0,0:0:0:0:
448,192,205660,1,0,0:0:0:0:
64,192,205738,128,2,205817:0:0:0:0:
192,192,205738,1,0,0:0:0:100:A6S_s.wav
192,192,205896,128,0,205975:0:0:0:100:B6S_s.wav
64,192,206054,1,2,0:0:0:0:
448,192,206054,128,0,206133:0:0:0:100:C#7S_Db7S_s.wav
192,192,206133,1,2,0:0:0:0:
320,192,206212,1,2,0:0:0:0:
448,192,206212,1,0,0:0:0:0:
64,192,206370,1,0,0:0:0:60:LR_Clap Reverb.wav
448,192,206370,1,0,0:0:0:0:
320,192,206449,1,2,0:0:0:0:
448,192,206528,128,0,206607:0:0:0:100:C#7S_Db7S_s.wav
192,192,206607,1,0,0:0:0:60:LR_Clap Reverb.wav
64,192,206686,128,8,207317:0:0:0:0:
320,192,206686,128,0,206765:0:0:0:100:B6S_s.wav
448,192,207002,128,0,207317:0:0:0:100:LR_Hat Fast.wav
192,192,207317,1,0,0:0:0:0:
64,192,207633,1,0,0:0:0:0:
64,192,207949,128,0,208028:0:0:0:100:C#7S_Db7S_s.wav
320,192,207949,128,0,208028:0:0:0:0:
64,192,208265,128,0,208344:0:0:0:100:B6S_s.wav
320,192,208265,1,0,0:0:0:0:
192,192,208423,128,0,208502:0:0:0:100:E7S_s.wav
448,192,208423,1,0,0:0:0:0:
320,192,208581,1,0,0:0:0:100:F#7S_Gb7S_s.wav
448,192,208581,128,0,208660:0:0:0:0:
320,192,209054,128,0,209133:0:0:0:100:E7S_s.wav
192,192,209054,1,0,0:0:0:0:
64,192,209528,128,0,209607:0:0:0:100:C#7S_Db7S_s.wav
320,192,209528,1,0,0:0:0:0:
64,192,209844,1,0,0:0:0:0:
192,192,209896,1,0,0:0:0:0:
320,192,209949,1,0,0:0:0:0:
192,192,210160,128,0,210238:0:0:0:100:B6S_s.wav
448,192,210160,1,0,0:0:0:0:
192,192,210475,128,0,210554:0:0:0:100:B6S_s.wav
320,192,210475,128,0,210554:0:0:0:0:
64,192,210791,128,0,210870:0:0:0:100:A6S_s.wav
320,192,210791,1,0,0:0:0:0:
192,192,210949,128,0,211028:0:0:0:100:B6S_s.wav
448,192,210949,1,0,0:0:0:0:
320,192,211107,1,0,0:0:0:100:C#7S_Db7S_s.wav
448,192,211107,128,0,211186:0:0:0:0:
448,192,211581,128,0,211660:0:0:0:100:C#7S_Db7S_s.wav
192,192,211581,1,0,0:0:0:0:
320,192,211738,128,0,211817:0:0:0:100:B6S_s.wav
64,192,211738,1,0,0:0:0:0:
64,192,212054,128,0,212133:0:0:0:100:A6S_s.wav
192,192,212054,1,0,0:0:0:0:
192,192,212370,1,0,0:0:0:0:
320,192,212423,1,0,0:0:0:0:
448,192,212475,1,0,0:0:0:0:
64,192,212686,1,0,0:0:0:0:
64,192,213002,128,0,213081:0:0:0:100:C#7S_Db7S_s.wav
320,192,213002,128,0,213081:0:0:0:0:
64,192,213317,128,0,213396:0:0:0:100:B6S_s.wav
320,192,213317,1,0,0:0:0:0:
192,192,213475,128,0,213554:0:0:0:100:E7S_s.wav
448,192,213475,1,0,0:0:0:0:
320,192,213633,1,0,0:0:0:100:F#7S_Gb7S_s.wav
448,192,213633,128,0,213712:0:0:0:0:
320,192,214107,128,0,214186:0:0:0:100:E7S_s.wav
192,192,214107,1,0,0:0:0:0:
64,192,214581,128,0,214660:0:0:0:100:C#7S_Db7S_s.wav
320,192,214581,1,0,0:0:0:0:
64,192,214896,1,0,0:0:0:0:
192,192,214949,1,0,0:0:0:0:
320,192,215002,1,0,0:0:0:0:
192,192,215212,128,0,215291:0:0:0:100:B6S_s.wav
448,192,215212,1,0,0:0:0:0:
192,192,215528,128,0,215607:0:0:0:100:B6S_s.wav
320,192,215528,128,0,215607:0:0:0:0:
64,192,215844,128,0,215923:0:0:0:100:A6S_s.wav
320,192,215844,1,0,0:0:0:0:
192,192,216002,128,0,216081:0:0:0:100:B6S_s.wav
448,192,216002,1,0,0:0:0:0:
320,192,216160,1,0,0:0:0:100:C#7S_Db7S_s.wav
448,192,216160,128,0,216238:0:0:0:0:
448,192,216633,128,0,216712:0:0:0:100:C#7S_Db7S_s.wav
192,192,216633,1,0,0:0:0:0:
320,192,216791,128,0,216870:0:0:0:100:B6S_s.wav
64,192,216791,1,0,0:0:0:0:
448,192,217107,128,0,217186:0:0:0:100:A6S_s.wav
64,192,217107,1,0,0:0:0:0:
192,192,217423,1,0,0:0:0:0:
320,192,217475,1,0,0:0:0:0:
448,192,217528,1,0,0:0:0:0:
64,192,217738,1,0,0:0:0:0:
64,192,218054,128,0,218133:0:0:0:100:C#7S_Db7S_s.wav
320,192,218054,128,0,218133:0:0:0:0:
64,192,218370,128,0,218449:0:0:0:100:B6S_s.wav
320,192,218370,1,0,0:0:0:0:
192,192,218528,128,0,218607:0:0:0:100:E7S_s.wav
448,192,218528,1,0,0:0:0:0:
320,192,218686,1,0,0:0:0:100:F#7S_Gb7S_s.wav
448,192,218686,128,0,218765:0:0:0:0:
320,192,219160,128,0,219238:0:0:0:100:E7S_s.wav
192,192,219160,1,0,0:0:0:0:
64,192,219633,128,0,219712:0:0:0:100:C#7S_Db7S_s.wav
192,192,219633,1,0,0:0:0:0:
64,192,219949,1,0,0:0:0:0:
192,192,220002,1,0,0:0:0:0:
320,192,220054,1,0,0:0:0:0:
192,192,220265,128,0,220344:0:0:0:100:B6S_s.wav
448,192,220265,1,0,0:0:0:0:
192,192,220581,128,0,220660:0:0:0:100:B6S_s.wav
320,192,220581,128,0,220660:0:0:0:0:
64,192,220896,128,0,220975:0:0:0:100:A6S_s.wav
320,192,220896,1,0,0:0:0:0:
192,192,221054,128,0,221133:0:0:0:100:B6S_s.wav
448,192,221054,1,0,0:0:0:0:
320,192,221212,1,0,0:0:0:100:C#7S_Db7S_s.wav
448,192,221212,128,0,221291:0:0:0:0:
448,192,221686,128,0,221765:0:0:0:100:C#7S_Db7S_s.wav
192,192,221686,1,0,0:0:0:0:
320,192,221844,128,0,221923:0:0:0:100:B6S_s.wav
64,192,221844,1,0,0:0:0:0:
64,192,222160,128,0,222238:0:0:0:100:A6S_s.wav
192,192,222160,1,0,0:0:0:0:
192,192,222475,1,0,0:0:0:0:
320,192,222528,1,0,0:0:0:0:
448,192,222581,1,0,0:0:0:0:
64,192,222791,1,0,0:0:0:0:
64,192,223107,128,0,223186:0:0:0:100:C#7S_Db7S_s.wav
320,192,223107,128,0,223186:0:0:0:0:
64,192,223423,128,0,223502:0:0:0:100:B6S_s.wav
320,192,223423,1,0,0:0:0:0:
192,192,223581,128,0,223660:0:0:0:100:E7S_s.wav
448,192,223581,1,0,0:0:0:0:
320,192,223738,1,0,0:0:0:100:F#7S_Gb7S_s.wav
448,192,223738,128,0,223817:0:0:0:0:
320,192,224212,128,0,224291:0:0:0:100:E7S_s.wav
192,192,224212,1,0,0:0:0:0:
64,192,224686,128,0,224765:0:0:0:100:C#7S_Db7S_s.wav
320,192,224686,1,0,0:0:0:0:
64,192,225002,1,0,0:0:0:0:
448,192,225054,1,0,0:0:0:0:
320,192,225107,1,0,0:0:0:0:
192,192,225317,1,0,0:0:0:100:C7S_s.wav
64,192,225633,1,0,0:0:0:100:D7S_s.wav
64,192,225949,128,0,226028:0:0:0:100:C7S_s.wav
192,192,225949,1,0,0:0:0:0:
192,192,226107,128,0,226186:0:0:0:100:D7S_s.wav
320,192,226107,1,0,0:0:0:0:
320,192,226265,1,0,0:0:0:100:E7S_s.wav
448,192,226265,128,0,226344:0:0:0:0:
448,192,226738,128,0,226817:0:0:0:100:E7S_s.wav
192,192,226738,1,0,0:0:0:0:
64,192,226896,1,0,0:0:0:100:D7S_s.wav
320,192,226896,128,0,226975:0:0:0:0:
448,192,227212,128,0,227291:0:0:0:100:E7S_s.wav
64,192,227212,1,0,0:0:0:0:
