osu file format v14

[General]
AudioFilename: audio.mp3
AudioLeadIn: 0
PreviewTime: -1
Countdown: 1
SampleSet: Soft
StackLeniency: 0.7
Mode: 1
LetterboxInBreaks: 0
WidescreenStoryboard: 0

[Editor]
DistanceSpacing: 1.5
BeatDivisor: 4
GridSize: 32
TimelineZoom: 3.399999

[Metadata]
Title:Take
TitleUnicode:Take
Artist:VINXIS
ArtistUnicode:VINXIS
Creator:worst player
Version:take me away
Source:
Tags:
BeatmapID:1678513
BeatmapSetID:799443

[Difficulty]
HPDrainRate:5
CircleSize:5
OverallDifficulty:6
ApproachRate:5
SliderMultiplier:1.4
SliderTickRate:1

[Events]
//Background and Video events
0,0,"rooftops.jpg",0,0
//Break Periods
//Storyboard Layer 0 (Background)
//Storyboard Layer 1 (Fail)
//Storyboard Layer 2 (Pass)
//Storyboard Layer 3 (Foreground)
//Storyboard Sound Samples

[TimingPoints]
5022,315.789473684211,4,2,0,100,1,0
5022,-133.333333333333,4,2,0,5,0,0
22706,-133.333333333333,4,2,0,30,0,0
23969,-133.333333333333,4,2,0,60,0,0
25390,-200,4,2,0,5,0,0
35495,-133.333333333333,4,2,0,30,0,0
45127,-114.942528735632,4,2,0,30,0,0
45443,-100,4,2,0,60,0,0
65653,-100,4,2,0,60,0,1
70074,-100,4,2,0,60,0,0
70706,-100,4,2,0,60,0,1
75127,-100,4,2,0,60,0,0
75758,-100,4,2,0,60,0,1
80179,-100,4,2,0,60,0,0
80811,-100,4,2,0,60,0,1
85074,-100,4,2,0,60,0,0
85232,-100,4,2,0,5,0,0
85864,-100,4,2,0,60,0,1
104811,-100,4,2,0,60,0,0
106074,-133.333333333333,4,2,0,60,0,1
124864,-114.942528735632,4,2,0,60,0,0
125022,-100,4,2,0,5,0,0
126916,-133.333333333333,4,2,0,5,0,0
145232,-114.942528735632,4,2,0,30,0,0
145864,-100,4,2,0,60,0,0
145943,-103.092783505155,4,2,0,60,0,0
146022,-106.382978723404,4,2,0,60,0,0
146100,-109.89010989011,4,2,0,60,0,0
146179,-114.942528735632,4,2,0,30,0,0
146258,-119.047619047619,4,2,0,30,0,0
146337,-123.456790123457,4,2,0,30,0,0
146416,-128.205128205128,4,2,0,30,0,0
146495,-133.333333333333,4,2,0,5,0,0
166706,-133.333333333333,4,2,0,30,0,0
186600,-123.456790123457,4,2,0,30,0,0
186916,-114.942528735632,4,2,0,30,0,0
227969,-133.333333333333,4,2,0,5,0,0
229864,-114.942528735632,4,2,0,30,0,0
230495,-133.333333333333,4,2,0,5,0,0
232390,-114.942528735632,4,2,0,30,0,0
233022,-133.333333333333,4,2,0,5,0,0
234916,-114.942528735632,4,2,0,30,0,0
235548,-133.333333333333,4,2,0,5,0,0
237443,-114.942528735632,4,2,0,30,0,0
238074,-133.333333333333,4,2,0,5,0,0
238706,-114.942528735632,4,2,0,30,0,0
239337,-133.333333333333,4,2,0,5,0,0
239969,-114.942528735632,4,2,0,30,0,0
240600,-133.333333333333,4,2,0,5,0,0
241232,-114.942528735632,4,2,0,30,0,0
241864,-133.333333333333,4,2,0,5,0,0
242495,-114.942528735632,4,2,0,30,0,0
247548,-114.942528735632,4,2,0,5,0,0
248811,-133.333333333333,4,2,0,5,0,0
249600,-133.333333333333,4,2,0,30,0,0
249916,-114.942528735632,4,2,0,30,0,0
250074,-100,4,2,0,60,0,1
269022,-100,4,2,0,5,0,0
270285,-100,4,2,0,60,0,1
289232,-100,4,2,0,5,0,0
290022,-100,4,2,0,30,0,0
290495,-100,4,2,0,60,0,1
309285,-90.9090909090909,4,2,0,60,0,1
309443,-83.3333333333333,4,2,0,60,0,1
309600,-76.9230769230769,4,2,0,60,0,1
309758,-71.4285714285714,4,2,0,60,0,1
309916,-66.6666666666667,4,2,0,60,0,0
310074,-133.333333333333,4,2,0,5,0,0
310706,-100,4,2,0,60,0,0
331074,-133.333333333333,4,2,0,60,0,0
349864,-133.333333333333,4,2,0,5,0,0

[HitObjects]
412,300,5022,5,0,0:0:0:0:
412,300,5179,1,8,0:0:0:0:
338,328,5337,1,0,0:0:0:0:
412,303,5495,1,8,0:0:0:0:
340,336,5653,1,0,0:0:0:0:
497,327,5969,1,8,0:0:0:0:
460,360,6285,1,0,0:0:0:0:
460,360,6443,1,8,0:0:0:0:
460,360,6600,1,0,0:0:0:0:
460,360,6758,1,8,0:0:0:0:
460,360,6916,1,0,0:0:0:0:
460,360,7232,1,8,0:0:0:0:
460,360,7548,1,0,0:0:0:0:
460,360,7706,1,8,0:0:0:0:
460,360,7864,1,0,0:0:0:0:
460,360,8022,1,8,0:0:0:0:
460,360,8179,1,0,0:0:0:0:
460,360,8495,1,8,0:0:0:0:
460,360,8811,1,0,0:0:0:0:
460,360,8969,1,8,0:0:0:0:
460,360,9127,1,0,0:0:0:0:
460,360,9285,1,8,0:0:0:0:
460,360,9443,1,0,0:0:0:0:
460,360,9758,1,8,0:0:0:0:
460,360,10074,1,0,0:0:0:0:
460,360,10232,1,8,0:0:0:0:
460,360,10390,1,0,0:0:0:0:
460,360,10548,1,8,0:0:0:0:
460,360,10706,1,0,0:0:0:0:
460,360,11021,1,8,0:0:0:0:
460,360,11337,1,0,0:0:0:0:
460,360,11495,1,8,0:0:0:0:
460,360,11653,1,0,0:0:0:0:
460,360,11811,1,8,0:0:0:0:
460,360,11969,1,0,0:0:0:0:
460,360,12284,1,8,0:0:0:0:
460,360,12600,1,0,0:0:0:0:
460,360,12758,1,8,0:0:0:0:
460,360,12916,1,0,0:0:0:0:
460,360,13074,1,8,0:0:0:0:
460,360,13232,1,0,0:0:0:0:
460,360,13547,1,8,0:0:0:0:
460,360,13864,1,0,0:0:0:0:
460,360,14022,1,8,0:0:0:0:
460,360,14180,1,0,0:0:0:0:
460,360,14338,1,8,0:0:0:0:
460,360,14496,1,0,0:0:0:0:
319,290,14811,1,0,0:0:0:0:
273,225,14969,1,0,0:0:0:0:
250,192,15048,1,0,0:0:0:0:
227,159,15127,1,0,0:0:0:0:
288,208,15285,1,8,0:0:0:0:
350,256,15443,1,0,0:0:0:0:
410,305,15600,1,8,0:0:0:0:
463,362,15758,1,0,0:0:0:0:
350,251,16074,1,8,0:0:0:0:
460,360,16390,1,0,0:0:0:0:
460,360,16548,1,8,0:0:0:0:
460,360,16706,1,0,0:0:0:0:
460,360,16864,1,8,0:0:0:0:
460,360,17022,1,0,0:0:0:0:
460,360,17337,1,8,0:0:0:0:
460,360,17653,1,0,0:0:0:0:
460,360,17811,1,8,0:0:0:0:
460,360,17969,1,0,0:0:0:0:
460,360,18127,1,8,0:0:0:0:
460,360,18285,1,0,0:0:0:0:
460,360,18600,1,8,0:0:0:0:
460,360,18916,1,0,0:0:0:0:
460,360,19074,1,8,0:0:0:0:
460,360,19232,1,0,0:0:0:0:
460,360,19390,1,8,0:0:0:0:
460,360,19548,1,0,0:0:0:0:
460,360,19863,1,8,0:0:0:0:
311,306,20179,1,8,0:0:0:0:
273,293,20258,1,0,0:0:0:0:
235,282,20337,1,0,0:0:0:0:
196,272,20416,1,0,0:0:0:0:
157,264,20495,1,0,0:0:0:0:
157,264,20574,1,0,0:0:0:0:
194,274,20653,1,0,0:0:0:0:
232,281,20732,1,0,0:0:0:0:
270,289,20811,1,0,0:0:0:0:
308,298,20890,1,0,0:0:0:0:
346,307,20969,1,0,0:0:0:0:
384,316,21048,1,0,0:0:0:0:
416,357,21127,1,8,0:0:0:0:
493,345,21285,1,0,0:0:0:0:
419,317,21443,1,0,0:0:0:0:
486,356,21600,1,0,0:0:0:0:
448,342,21679,1,0,0:0:0:0:
448,342,21758,1,8,0:0:0:0:
462,368,21916,1,0,0:0:0:0:
398,321,22074,1,0,0:0:0:0:
458,371,22232,1,0,0:0:0:0:
458,371,22390,1,8,0:0:0:0:
404,222,22706,1,0,0:0:0:0:
418,299,22864,1,8,0:0:0:0:
426,337,22943,1,8,0:0:0:0:
439,374,23022,1,0,0:0:0:0:
439,374,23100,1,0,0:0:0:0:
439,374,23179,1,0,0:0:0:0:
439,374,23337,1,0,0:0:0:0:
439,374,23495,1,0,0:0:0:0:
439,374,23653,1,8,0:0:0:0:
370,232,23969,1,0,0:0:0:0:
401,304,24127,1,8,0:0:0:0:
415,340,24206,1,0,0:0:0:0:
415,340,24285,1,8,0:0:0:0:
415,340,24364,1,0,0:0:0:0:
415,340,24443,1,0,0:0:0:0:
421,358,24600,1,0,0:0:0:0:
421,358,24758,1,0,0:0:0:0:
421,358,24916,1,8,0:0:0:0:
485,312,25074,1,0,0:0:0:0:
449,328,25153,1,0,0:0:0:0:
425,363,25232,1,0,0:0:0:0:
376,343,25390,1,0,0:0:0:0:
318,289,25706,1,0,0:0:0:0:
278,254,25864,1,8,0:0:0:0:
416,179,26337,1,8,0:0:0:0:
451,277,26653,1,8,0:0:0:0:
450,303,26969,1,0,0:0:0:0:
450,303,27127,1,8,0:0:0:0:
294,280,27600,1,0,0:0:0:0:
398,290,27916,1,0,0:0:0:0:
470,366,28232,1,0,0:0:0:0:
426,336,28390,1,8,0:0:0:0:
453,328,28864,1,0,0:0:0:0:
453,328,29179,1,0,0:0:0:0:
456,363,29495,1,0,0:0:0:0:
456,363,29653,1,8,0:0:0:0:
332,264,30127,1,0,0:0:0:0:
412,331,30443,1,0,0:0:0:0:
456,365,30916,1,8,0:0:0:0:
456,365,31390,1,0,0:0:0:0:
456,365,31706,1,0,0:0:0:0:
478,352,32179,1,8,0:0:0:0:
478,352,32653,1,0,0:0:0:0:
478,352,32969,1,0,0:0:0:0:
478,352,33443,1,0,0:0:0:0:
478,352,33916,1,0,0:0:0:0:
478,352,34232,1,0,0:0:0:0:
446,362,34706,1,8,0:0:0:0:
446,362,35179,1,0,0:0:0:0:
446,362,35495,1,0,0:0:0:0:
369,341,35653,1,0,0:0:0:0:
331,329,35732,1,0,0:0:0:0:
294,314,35811,1,8,0:0:0:0:
445,356,36127,1,0,0:0:0:0:
445,356,36285,1,8,0:0:0:0:
445,356,36600,1,0,0:0:0:0:
445,356,36758,1,8,0:0:0:0:
445,356,37074,1,8,0:0:0:0:
445,356,37390,1,0,0:0:0:0:
445,356,37548,1,8,0:0:0:0:
445,356,38022,1,0,0:0:0:0:
406,356,38100,1,8,0:0:0:0:
406,356,38179,1,0,0:0:0:0:
406,356,38337,1,0,0:0:0:0:
406,356,38495,1,8,0:0:0:0:
458,352,38811,1,8,0:0:0:0:
459,380,38969,1,0,0:0:0:0:
450,222,39285,1,8,0:0:0:0:
461,378,39600,1,0,0:0:0:0:
461,378,39758,1,8,0:0:0:0:
461,378,40074,1,8,0:0:0:0:
483,142,40548,1,0,0:0:0:0:
472,179,40627,1,8,0:0:0:0:
461,216,40706,1,8,0:0:0:0:
466,298,40864,1,0,0:0:0:0:
459,376,41022,1,8,0:0:0:0:
306,339,41337,1,8,0:0:0:0:
229,321,41495,1,0,0:0:0:0:
381,361,41811,1,0,0:0:0:0:
452,359,42127,1,0,0:0:0:0:
452,359,42285,1,8,0:0:0:0:
452,359,42600,1,8,0:0:0:0:
452,359,43074,1,0,0:0:0:0:
453,319,43153,1,0,0:0:0:0:
454,279,43232,1,8,0:0:0:0:
414,205,43390,1,0,0:0:0:0:
431,281,43548,1,8,0:0:0:0:
443,317,43864,1,8,0:0:0:0:
443,317,44022,1,0,0:0:0:0:
468,364,44337,1,0,0:0:0:0:
468,364,44653,1,0,0:0:0:0:
468,364,44811,1,8,0:0:0:0:
420,213,45127,1,8,0:0:0:0:
417,338,45443,1,0,0:0:0:0:
417,338,45600,1,0,0:0:0:0:
417,338,45679,1,0,0:0:0:0:
417,338,45758,1,8,0:0:0:0:
417,338,45916,1,0,0:0:0:0:
417,338,46074,1,0,0:0:0:0:
441,235,46232,1,0,0:0:0:0:
442,287,46311,1,0,0:0:0:0:
426,339,46390,1,8,0:0:0:0:
474,319,46469,1,0,0:0:0:0:
457,363,46548,1,0,0:0:0:0:
457,363,46706,1,0,0:0:0:0:
457,363,46864,1,8,0:0:0:0:
457,363,46943,1,8,0:0:0:0:
457,363,47022,1,0,0:0:0:0:
457,363,47179,1,8,0:0:0:0:
457,363,47337,1,0,0:0:0:0:
457,363,47495,1,8,0:0:0:0:
457,363,47574,1,0,0:0:0:0:
457,363,47653,1,8,0:0:0:0:
457,363,47732,1,8,0:0:0:0:
457,363,47811,1,0,0:0:0:0:
379,291,47969,1,0,0:0:0:0:
379,291,48127,1,0,0:0:0:0:
399,242,48206,1,8,0:0:0:0:
399,242,48285,1,0,0:0:0:0:
302,240,48443,1,0,0:0:0:0:
389,296,48600,1,8,0:0:0:0:
466,366,48758,1,0,0:0:0:0:
425,332,48837,1,0,0:0:0:0:
425,332,48916,1,8,0:0:0:0:
425,332,48995,1,8,0:0:0:0:
425,332,49074,1,0,0:0:0:0:
456,350,49232,1,0,0:0:0:0:
456,350,49390,1,8,0:0:0:0:
456,350,49469,1,0,0:0:0:0:
463,369,49548,1,0,0:0:0:0:
456,350,49706,1,8,0:0:0:0:
456,350,49864,1,0,0:0:0:0:
456,350,50022,1,0,0:0:0:0:
436,247,50179,1,8,0:0:0:0:
456,350,50337,1,8,0:0:0:0:
456,350,50495,1,8,0:0:0:0:
456,350,50574,1,0,0:0:0:0:
456,350,50653,1,0,0:0:0:0:
456,350,50732,1,0,0:0:0:0:
456,350,50811,1,8,0:0:0:0:
456,350,50969,1,0,0:0:0:0:
456,350,51127,1,8,0:0:0:0:
456,350,51206,1,0,0:0:0:0:
456,350,51285,1,0,0:0:0:0:
456,350,51364,1,8,0:0:0:0:
456,350,51443,1,8,0:0:0:0:
456,350,51600,1,0,0:0:0:0:
456,350,51758,1,8,0:0:0:0:
456,350,51837,1,0,0:0:0:0:
456,350,51916,1,8,0:0:0:0:
456,350,51995,1,0,0:0:0:0:
456,350,52074,1,8,0:0:0:0:
456,350,52232,1,0,0:0:0:0:
456,350,52390,1,8,0:0:0:0:
456,297,52469,1,8,0:0:0:0:
460,349,52548,1,0,0:0:0:0:
457,296,52627,1,0,0:0:0:0:
469,347,52706,1,8,0:0:0:0:
469,347,52864,1,0,0:0:0:0:
370,310,53022,1,8,0:0:0:0:
421,312,53100,1,0,0:0:0:0:
267,288,53179,1,8,0:0:0:0:
317,301,53258,1,8,0:0:0:0:
161,273,53337,1,8,0:0:0:0:
263,298,53495,1,0,0:0:0:0:
364,323,53653,1,8,0:0:0:0:
414,337,53732,1,8,0:0:0:0:
462,356,53811,1,0,0:0:0:0:
462,356,53890,1,0,0:0:0:0:
412,338,53969,1,8,0:0:0:0:
362,320,54048,1,8,0:0:0:0:
440,307,54127,1,0,0:0:0:0:
440,307,54206,1,0,0:0:0:0:
453,357,54285,1,8,0:0:0:0:
386,275,54443,1,0,0:0:0:0:
406,329,54522,1,0,0:0:0:0:
374,288,54600,1,8,0:0:0:0:
343,245,54679,1,8,0:0:0:0:
373,287,54758,1,0,0:0:0:0:
285,228,54916,1,8,0:0:0:0:
361,299,55074,1,0,0:0:0:0:
317,269,55153,1,8,0:0:0:0:
359,299,55232,1,8,0:0:0:0:
312,274,55311,1,8,0:0:0:0:
359,299,55390,1,0,0:0:0:0:
359,299,55548,1,8,0:0:0:0:
265,251,55706,1,0,0:0:0:0:
218,226,55785,1,0,0:0:0:0:
218,226,55864,1,8,0:0:0:0:
296,261,56022,1,0,0:0:0:0:
394,294,56179,1,0,0:0:0:0:
449,220,56337,1,0,0:0:0:0:
389,307,56416,1,8,0:0:0:0:
389,307,56495,1,0,0:0:0:0:
389,307,56574,1,0,0:0:0:0:
389,307,56653,1,8,0:0:0:0:
492,325,56811,1,0,0:0:0:0:
387,331,56969,1,8,0:0:0:0:
434,309,57048,1,8,0:0:0:0:
439,323,57127,1,8,0:0:0:0:
434,309,57285,1,0,0:0:0:0:
456,353,57443,1,8,0:0:0:0:
456,353,57600,1,0,0:0:0:0:
456,353,57679,1,0,0:0:0:0:
456,353,57758,1,8,0:0:0:0:
456,353,57837,1,8,0:0:0:0:
456,353,57916,1,0,0:0:0:0:
456,353,58074,1,0,0:0:0:0:
465,248,58232,1,8,0:0:0:0:
456,353,58311,1,8,0:0:0:0:
456,353,58390,1,0,0:0:0:0:
413,256,58548,1,0,0:0:0:0:
454,352,58706,1,8,0:0:0:0:
403,259,58864,1,0,0:0:0:0:
429,304,58943,1,8,0:0:0:0:
456,348,59022,1,8,0:0:0:0:
429,304,59100,1,0,0:0:0:0:
456,348,59179,1,0,0:0:0:0:
456,348,59337,1,8,0:0:0:0:
456,348,59495,1,0,0:0:0:0:
406,330,59574,1,8,0:0:0:0:
453,352,59653,1,8,0:0:0:0:
426,250,59811,1,8,0:0:0:0:
453,352,59969,1,0,0:0:0:0:
394,264,60127,1,0,0:0:0:0:
481,321,60285,1,8,0:0:0:0:
452,351,60443,1,8,0:0:0:0:
452,351,60600,1,8,0:0:0:0:
402,332,60679,1,8,0:0:0:0:
351,317,60758,1,0,0:0:0:0:
300,302,60837,1,0,0:0:0:0:
249,288,60916,1,8,0:0:0:0:
347,323,61074,1,0,0:0:0:0:
450,340,61232,1,8,0:0:0:0:
450,340,61311,1,0,0:0:0:0:
450,340,61390,1,8,0:0:0:0:
460,356,61469,1,8,0:0:0:0:
460,356,61548,1,0,0:0:0:0:
460,356,61706,1,8,0:0:0:0:
460,356,61864,1,0,0:0:0:0:
460,356,61943,1,8,0:0:0:0:
460,356,62022,1,8,0:0:0:0:
460,356,62100,1,0,0:0:0:0:
447,373,62179,1,8,0:0:0:0:
424,270,62337,1,0,0:0:0:0:
453,370,62495,1,8,0:0:0:0:
453,370,62574,1,0,0:0:0:0:
453,370,62653,1,0,0:0:0:0:
453,370,62732,1,0,0:0:0:0:
453,370,62811,1,8,0:0:0:0:
453,370,62969,1,0,0:0:0:0:
358,325,63127,1,0,0:0:0:0:
147,319,63443,1,0,0:0:0:0:
147,319,63758,1,8,0:0:0:0:
164,330,64074,1,8,0:0:0:0:
373,337,64390,1,8,0:0:0:0:
452,354,64706,1,8,0:0:0:0:
452,354,64864,1,0,0:0:0:0:
452,354,65022,1,0,0:0:0:0:
452,354,65179,1,0,0:0:0:0:
408,324,65258,1,0,0:0:0:0:
452,354,65337,1,8,0:0:0:0:
452,354,65495,1,0,0:0:0:0:
357,307,65653,1,8,0:0:0:0:
308,287,65732,1,0,0:0:0:0:
258,268,65811,1,0,0:0:0:0:
208,250,65890,1,0,0:0:0:0:
158,233,65969,1,8,0:0:0:0:
107,219,66048,1,8,0:0:0:0:
107,219,66127,1,0,0:0:0:0:
107,219,66206,1,0,0:0:0:0:
107,219,66285,1,8,0:0:0:0:
107,219,66364,1,0,0:0:0:0:
107,219,66443,1,8,0:0:0:0:
126,267,66522,1,8,0:0:0:0:
107,218,66600,1,0,0:0:0:0:
204,257,66758,1,0,0:0:0:0:
302,292,66916,1,8,0:0:0:0:
351,309,66995,1,0,0:0:0:0:
398,330,67074,1,8,0:0:0:0:
442,357,67153,1,8,0:0:0:0:
393,336,67232,1,0,0:0:0:0:
439,360,67311,1,0,0:0:0:0:
439,360,67390,1,8,0:0:0:0:
439,360,67469,1,8,0:0:0:0:
426,309,67548,1,8,0:0:0:0:
446,357,67627,1,0,0:0:0:0:
446,357,67706,1,8,0:0:0:0:
426,309,67785,1,8,0:0:0:0:
391,348,67864,1,0,0:0:0:0:
495,341,68022,1,0,0:0:0:0:
399,298,68179,1,0,0:0:0:0:
350,277,68258,1,0,0:0:0:0:
301,257,68337,1,8,0:0:0:0:
250,241,68416,1,0,0:0:0:0:
201,220,68495,1,0,0:0:0:0:
148,224,68574,1,0,0:0:0:0:
197,240,68653,1,8,0:0:0:0:
197,240,68732,1,0,0:0:0:0:
144,242,68811,1,0,0:0:0:0:
196,245,68890,1,8,0:0:0:0:
196,245,68969,1,0,0:0:0:0:
145,258,69048,1,0,0:0:0:0:
196,247,69127,1,8,0:0:0:0:
108,188,69285,1,0,0:0:0:0:
201,236,69443,1,8,0:0:0:0:
247,259,69522,1,0,0:0:0:0:
293,282,69600,1,0,0:0:0:0:
339,306,69679,1,0,0:0:0:0:
385,330,69758,1,8,0:0:0:0:
477,380,69916,1,0,0:0:0:0:
395,313,70074,1,8,0:0:0:0:
449,343,70390,1,8,0:0:0:0:
252,268,70706,1,0,0:0:0:0:
301,285,70785,1,8,0:0:0:0:
348,308,70864,1,8,0:0:0:0:
392,335,70943,1,8,0:0:0:0:
344,312,71022,1,0,0:0:0:0:
391,333,71100,1,8,0:0:0:0:
338,326,71179,1,8,0:0:0:0:
389,338,71258,1,8,0:0:0:0:
354,298,71337,1,0,0:0:0:0:
354,298,71416,1,0,0:0:0:0:
354,298,71495,1,8,0:0:0:0:
354,298,71574,1,8,0:0:0:0:
354,298,71653,1,0,0:0:0:0:
437,362,71811,1,8,0:0:0:0:
437,362,71969,1,0,0:0:0:0:
437,362,72048,1,0,0:0:0:0:
437,362,72127,1,8,0:0:0:0:
437,362,72206,1,8,0:0:0:0:
437,362,72285,1,0,0:0:0:0:
437,362,72364,1,0,0:0:0:0:
437,362,72443,1,8,0:0:0:0:
437,362,72522,1,0,0:0:0:0:
437,362,72600,1,8,0:0:0:0:
437,362,72679,1,8,0:0:0:0:
437,362,72758,1,0,0:0:0:0:
437,362,72837,1,8,0:0:0:0:
424,311,72916,1,0,0:0:0:0:
437,362,73074,1,0,0:0:0:0:
437,362,73232,1,8,0:0:0:0:
437,362,73311,1,8,0:0:0:0:
437,362,73390,1,8,0:0:0:0:
437,362,73469,1,8,0:0:0:0:
489,362,73548,1,0,0:0:0:0:
436,365,73627,1,0,0:0:0:0:
384,368,73706,1,0,0:0:0:0:
436,368,73785,1,0,0:0:0:0:
487,375,73864,1,8,0:0:0:0:
434,371,73943,1,8,0:0:0:0:
454,377,74022,1,0,0:0:0:0:
454,377,74100,1,0,0:0:0:0:
454,377,74179,1,8,0:0:0:0:
412,280,74337,1,0,0:0:0:0:
448,378,74495,1,8,0:0:0:0:
430,328,74574,1,0,0:0:0:0:
430,328,74653,1,8,0:0:0:0:
430,328,74732,1,8,0:0:0:0:
334,284,74811,1,0,0:0:0:0:
244,229,74969,1,0,0:0:0:0:
341,267,75127,1,8,0:0:0:0:
446,311,75443,1,8,0:0:0:0:
243,259,75758,1,0,0:0:0:0:
191,248,75837,1,0,0:0:0:0:
138,254,75916,1,8,0:0:0:0:
85,237,75995,1,8,0:0:0:0:
120,275,76074,1,0,0:0:0:0:
120,275,76153,1,0,0:0:0:0:
120,275,76232,1,8,0:0:0:0:
120,275,76311,1,0,0:0:0:0:
120,275,76390,1,0,0:0:0:0:
120,275,76469,1,0,0:0:0:0:
143,321,76548,1,8,0:0:0:0:
117,275,76627,1,0,0:0:0:0:
140,321,76706,1,0,0:0:0:0:
140,215,76864,1,8,0:0:0:0:
240,246,77022,1,8,0:0:0:0:
287,267,77100,1,0,0:0:0:0:
328,298,77179,1,8,0:0:0:0:
302,251,77258,1,8,0:0:0:0:
302,251,77337,1,0,0:0:0:0:
323,298,77416,1,0,0:0:0:0:
323,298,77495,1,8,0:0:0:0:
323,298,77574,1,0,0:0:0:0:
323,298,77653,1,0,0:0:0:0:
323,298,77732,1,0,0:0:0:0:
323,298,77811,1,8,0:0:0:0:
323,298,77890,1,8,0:0:0:0:
323,298,77969,1,0,0:0:0:0:
408,359,78127,1,0,0:0:0:0:
416,254,78285,1,0,0:0:0:0:
406,305,78364,1,8,0:0:0:0:
358,282,78443,1,0,0:0:0:0:
358,282,78522,1,0,0:0:0:0:
358,282,78600,1,8,0:0:0:0:
410,284,78679,1,0,0:0:0:0:
357,288,78758,1,8,0:0:0:0:
409,289,78837,1,8,0:0:0:0:
410,284,78916,1,0,0:0:0:0:
409,289,78995,1,0,0:0:0:0:
409,289,79074,1,8,0:0:0:0:
409,289,79153,1,8,0:0:0:0:
409,289,79232,1,0,0:0:0:0:
485,360,79390,1,0,0:0:0:0:
485,360,79548,1,0,0:0:0:0:
433,347,79627,1,0,0:0:0:0:
483,360,79706,1,8,0:0:0:0:
430,362,79785,1,0,0:0:0:0:
459,318,79864,1,8,0:0:0:0:
450,342,80022,1,0,0:0:0:0:
450,342,80179,1,8,0:0:0:0:
450,342,80495,1,8,0:0:0:0:
246,291,80811,1,0,0:0:0:0:
141,277,80969,1,0,0:0:0:0:
192,285,81048,1,0,0:0:0:0:
192,285,81127,1,8,0:0:0:0:
294,306,81285,1,0,0:0:0:0:
396,326,81443,1,0,0:0:0:0:
495,356,81600,1,0,0:0:0:0:
443,344,81679,1,0,0:0:0:0:
443,344,81758,1,8,0:0:0:0:
443,344,81916,1,0,0:0:0:0:
387,254,82074,1,0,0:0:0:0:
309,181,82232,1,0,0:0:0:0:
341,221,82311,1,0,0:0:0:0:
373,262,82390,1,8,0:0:0:0:
438,343,82548,1,0,0:0:0:0:
438,343,82706,1,0,0:0:0:0:
448,363,82864,1,0,0:0:0:0:
448,363,82943,1,0,0:0:0:0:
448,363,83022,1,8,0:0:0:0:
448,363,83179,1,0,0:0:0:0:
448,363,83337,1,0,0:0:0:0:
463,344,83495,1,8,0:0:0:0:
463,344,83574,1,8,0:0:0:0:
463,344,83653,1,0,0:0:0:0:
463,344,83811,1,8,0:0:0:0:
463,344,83890,1,8,0:0:0:0:
463,344,83969,1,0,0:0:0:0:
463,344,84127,1,8,0:0:0:0:
463,344,84206,1,8,0:0:0:0:
467,365,84285,1,0,0:0:0:0:
467,365,84443,1,8,0:0:0:0:
467,365,84522,1,8,0:0:0:0:
467,365,84600,1,0,0:0:0:0:
467,365,84758,1,8,0:0:0:0:
467,365,84916,1,8,0:0:0:0:
467,365,85074,1,8,0:0:0:0:
377,309,85232,1,8,0:0:0:0:
333,279,85311,1,0,0:0:0:0:
289,249,85390,1,0,0:0:0:0:
247,216,85469,1,0,0:0:0:0:
247,216,85548,1,8,0:0:0:0:
247,216,85627,1,0,0:0:0:0:
247,216,85706,1,0,0:0:0:0:
247,216,85785,1,0,0:0:0:0:
289,246,85864,1,8,0:0:0:0:
237,235,85943,1,8,0:0:0:0:
185,223,86022,1,0,0:0:0:0:
133,219,86100,1,0,0:0:0:0:
84,239,86179,1,8,0:0:0:0:
135,227,86258,1,8,0:0:0:0:
93,259,86337,1,0,0:0:0:0:
136,229,86416,1,0,0:0:0:0:
186,243,86495,1,8,0:0:0:0:
236,257,86574,1,0,0:0:0:0:
286,272,86653,1,0,0:0:0:0:
336,287,86732,1,0,0:0:0:0:
385,305,86811,1,8,0:0:0:0:
432,326,86890,1,0,0:0:0:0:
432,326,86969,1,0,0:0:0:0:
432,326,87048,1,0,0:0:0:0:
470,361,87127,1,8,0:0:0:0:
470,361,87206,1,0,0:0:0:0:
470,361,87285,1,8,0:0:0:0:
423,337,87364,1,0,0:0:0:0:
467,364,87443,1,8,0:0:0:0:
467,364,87522,1,0,0:0:0:0:
467,364,87600,1,0,0:0:0:0:
426,330,87679,1,0,0:0:0:0:
426,330,87758,1,8,0:0:0:0:
426,330,87837,1,0,0:0:0:0:
426,330,87916,1,8,0:0:0:0:
404,281,87995,1,8,0:0:0:0:
426,330,88074,1,8,0:0:0:0:
399,284,88153,1,0,0:0:0:0:
426,330,88232,1,8,0:0:0:0:
426,330,88311,1,8,0:0:0:0:
426,330,88390,1,0,0:0:0:0:
467,361,88469,1,0,0:0:0:0:
427,326,88548,1,8,0:0:0:0:
465,361,88627,1,8,0:0:0:0:
425,326,88706,1,0,0:0:0:0:
462,362,88785,1,0,0:0:0:0:
462,362,88864,1,8,0:0:0:0:
462,362,88943,1,8,0:0:0:0:
462,362,89022,1,0,0:0:0:0:
462,362,89100,1,8,0:0:0:0:
462,362,89179,1,8,0:0:0:0:
462,362,89258,1,8,0:0:0:0:
428,321,89337,1,0,0:0:0:0:
428,321,89416,1,8,0:0:0:0:
408,272,89495,1,0,0:0:0:0:
428,321,89574,1,8,0:0:0:0:
428,321,89653,1,0,0:0:0:0:
396,278,89732,1,8,0:0:0:0:
427,320,89811,1,8,0:0:0:0:
392,280,89890,1,8,0:0:0:0:
423,321,89969,1,0,0:0:0:0:
423,321,90048,1,8,0:0:0:0:
423,321,90127,1,0,0:0:0:0:
423,321,90206,1,8,0:0:0:0:
423,321,90285,1,0,0:0:0:0:
464,353,90364,1,0,0:0:0:0:
464,353,90443,1,0,0:0:0:0:
464,353,90522,1,0,0:0:0:0:
415,335,90600,1,0,0:0:0:0:
365,317,90679,1,0,0:0:0:0:
464,353,90758,1,0,0:0:0:0:
422,321,90837,1,0,0:0:0:0:
422,321,90916,1,8,0:0:0:0:
422,321,90995,1,8,0:0:0:0:
452,363,91074,1,8,0:0:0:0:
414,325,91153,1,0,0:0:0:0:
459,350,91232,1,8,0:0:0:0:
412,326,91311,1,0,0:0:0:0:
458,350,91390,1,8,0:0:0:0:
408,331,91469,1,0,0:0:0:0:
475,339,91548,1,0,0:0:0:0:
422,339,91627,1,8,0:0:0:0:
473,351,91706,1,0,0:0:0:0:
420,345,91785,1,0,0:0:0:0:
470,360,91864,1,8,0:0:0:0:
420,345,91943,1,8,0:0:0:0:
420,345,92022,1,0,0:0:0:0:
420,345,92100,1,0,0:0:0:0:
420,345,92179,1,8,0:0:0:0:
420,345,92258,1,8,0:0:0:0:
420,345,92337,1,0,0:0:0:0:
420,345,92416,1,0,0:0:0:0:
420,345,92495,1,8,0:0:0:0:
420,345,92574,1,8,0:0:0:0:
472,347,92653,1,0,0:0:0:0:
419,345,92732,1,0,0:0:0:0:
472,347,92811,1,8,0:0:0:0:
472,347,92890,1,8,0:0:0:0:
422,328,92969,1,0,0:0:0:0:
372,309,93048,1,0,0:0:0:0:
322,291,93127,1,8,0:0:0:0:
272,273,93206,1,8,0:0:0:0:
472,347,93285,1,0,0:0:0:0:
472,347,93364,1,0,0:0:0:0:
476,367,93443,1,8,0:0:0:0:
476,367,93522,1,0,0:0:0:0:
476,367,93600,1,0,0:0:0:0:
476,367,93679,1,0,0:0:0:0:
476,367,93758,1,8,0:0:0:0:
476,367,93837,1,0,0:0:0:0:
476,367,93916,1,0,0:0:0:0:
476,367,93995,1,0,0:0:0:0:
476,367,94074,1,8,0:0:0:0:
428,345,94153,1,8,0:0:0:0:
379,324,94232,1,0,0:0:0:0:
330,304,94311,1,0,0:0:0:0:
280,287,94390,1,8,0:0:0:0:
229,271,94469,1,8,0:0:0:0:
177,258,94548,1,0,0:0:0:0:
125,248,94627,1,0,0:0:0:0:
174,264,94706,1,0,0:0:0:0:
224,279,94785,1,0,0:0:0:0:
274,294,94864,1,8,0:0:0:0:
323,311,94943,1,8,0:0:0:0:
380,322,95022,1,0,0:0:0:0:
425,297,95100,1,0,0:0:0:0:
452,341,95179,1,8,0:0:0:0:
420,298,95258,1,0,0:0:0:0:
451,340,95337,1,8,0:0:0:0:
416,300,95416,1,8,0:0:0:0:
366,281,95495,1,0,0:0:0:0:
316,263,95574,1,0,0:0:0:0:
366,280,95653,1,8,0:0:0:0:
315,264,95732,1,8,0:0:0:0:
332,239,95811,1,0,0:0:0:0:
361,282,95890,1,0,0:0:0:0:
325,242,95969,1,8,0:0:0:0:
410,298,96048,1,8,0:0:0:0:
371,262,96127,1,0,0:0:0:0:
435,343,96206,1,0,0:0:0:0:
397,306,96285,1,8,0:0:0:0:
435,343,96364,1,8,0:0:0:0:
397,306,96443,1,0,0:0:0:0:
435,343,96522,1,0,0:0:0:0:
396,308,96600,1,8,0:0:0:0:
479,314,96679,1,8,0:0:0:0:
278,246,96758,1,0,0:0:0:0:
356,282,96837,1,8,0:0:0:0:
356,282,96916,1,8,0:0:0:0:
356,282,96995,1,8,0:0:0:0:
439,348,97074,1,0,0:0:0:0:
392,253,97153,1,0,0:0:0:0:
392,253,97232,1,8,0:0:0:0:
392,253,97311,1,8,0:0:0:0:
455,364,97390,1,0,0:0:0:0:
430,317,97469,1,0,0:0:0:0:
367,303,97548,1,8,0:0:0:0:
405,267,97627,1,8,0:0:0:0:
278,246,97706,1,0,0:0:0:0:
327,263,97785,1,0,0:0:0:0:
426,294,97864,1,8,0:0:0:0:
426,294,97943,1,8,0:0:0:0:
462,332,98022,1,0,0:0:0:0:
415,308,98100,1,0,0:0:0:0:
366,288,98179,1,8,0:0:0:0:
460,334,98258,1,8,0:0:0:0:
460,334,98337,1,8,0:0:0:0:
460,334,98416,1,8,0:0:0:0:
412,311,98495,1,0,0:0:0:0:
460,334,98574,1,0,0:0:0:0:
412,312,98653,1,8,0:0:0:0:
432,289,98732,1,8,0:0:0:0:
383,269,98811,1,0,0:0:0:0:
432,289,98890,1,0,0:0:0:0:
411,236,98969,1,8,0:0:0:0:
433,288,99048,1,8,0:0:0:0:
393,253,99127,1,0,0:0:0:0:
402,321,99206,1,0,0:0:0:0:
404,268,99285,1,8,0:0:0:0:
433,288,99364,1,8,0:0:0:0:
433,340,99443,1,8,0:0:0:0:
425,287,99522,1,8,0:0:0:0:
425,287,99600,1,0,0:0:0:0:
411,236,99679,1,0,0:0:0:0:
425,287,99758,1,8,0:0:0:0:
336,159,99837,1,8,0:0:0:0:
425,287,99916,1,0,0:0:0:0:
358,236,99995,1,0,0:0:0:0:
425,287,100074,1,8,0:0:0:0:
379,284,100153,1,8,0:0:0:0:
425,287,100232,1,0,0:0:0:0:
425,287,100311,1,8,0:0:0:0:
425,287,100390,1,0,0:0:0:0:
425,287,100469,1,8,0:0:0:0:
425,287,100548,1,0,0:0:0:0:
425,287,100627,1,8,0:0:0:0:
457,352,100706,1,8,0:0:0:0:
457,352,100785,1,8,0:0:0:0:
425,287,100864,1,0,0:0:0:0:
420,313,100943,1,0,0:0:0:0:
425,287,101022,1,8,0:0:0:0:
420,313,101100,1,8,0:0:0:0:
425,287,101179,1,0,0:0:0:0:
420,313,101258,1,0,0:0:0:0:
420,313,101337,1,8,0:0:0:0:
445,358,101416,1,8,0:0:0:0:
420,313,101495,1,0,0:0:0:0:
444,357,101574,1,0,0:0:0:0:
420,313,101653,1,8,0:0:0:0:
444,357,101732,1,8,0:0:0:0:
444,357,101811,1,8,0:0:0:0:
445,358,101890,1,8,0:0:0:0:
424,308,101969,1,0,0:0:0:0:
408,317,102048,1,0,0:0:0:0:
424,308,102127,1,8,0:0:0:0:
450,304,102206,1,8,0:0:0:0:
408,317,102285,1,0,0:0:0:0:
450,356,102364,1,0,0:0:0:0:
408,317,102443,1,8,0:0:0:0:
450,355,102522,1,8,0:0:0:0:
408,317,102600,1,0,0:0:0:0:
450,355,102679,1,0,0:0:0:0:
445,302,102758,1,0,0:0:0:0:
450,355,102837,1,0,0:0:0:0:
416,314,102916,1,8,0:0:0:0:
450,355,102995,1,8,0:0:0:0:
414,316,103074,1,0,0:0:0:0:
424,308,103153,1,0,0:0:0:0:
428,360,103232,1,8,0:0:0:0:
451,340,103311,1,8,0:0:0:0:
436,304,103390,1,8,0:0:0:0:
418,353,103469,1,0,0:0:0:0:
437,304,103548,1,8,0:0:0:0:
466,260,103627,1,8,0:0:0:0:
448,309,103706,1,8,0:0:0:0:
414,349,103785,1,0,0:0:0:0:
414,349,103864,1,8,0:0:0:0:
445,309,103943,1,8,0:0:0:0:
394,294,104022,1,0,0:0:0:0:
420,334,104100,1,0,0:0:0:0:
471,353,104179,1,0,0:0:0:0:
442,308,104258,1,0,0:0:0:0:
469,353,104337,1,0,0:0:0:0:
445,320,104416,1,0,0:0:0:0:
453,305,104495,1,0,0:0:0:0:
446,357,104574,1,0,0:0:0:0:
445,357,104653,1,0,0:0:0:0:
446,357,104732,1,0,0:0:0:0:
446,357,104811,1,8,0:0:0:0:
476,256,104969,1,0,0:0:0:0:
445,320,105285,1,0,0:0:0:0:
429,111,105600,1,0,0:0:0:0:
435,215,105758,1,8,0:0:0:0:
441,319,105916,1,0,0:0:0:0:
338,297,106074,1,12,0:0:0:0:
430,346,106232,1,0,0:0:0:0:
430,346,106390,1,0,0:0:0:0:
466,318,106706,1,0,0:0:0:0:
466,318,106758,1,0,0:0:0:0:
466,318,106811,1,0,0:0:0:0:
449,352,106864,1,8,0:0:0:0:
361,284,107022,1,0,0:0:0:0:
258,265,107179,1,8,0:0:0:0:
449,352,107495,1,8,0:0:0:0:
354,305,107653,1,0,0:0:0:0:
451,343,107811,1,0,0:0:0:0:
451,343,107969,1,8,0:0:0:0:
451,343,108022,1,8,0:0:0:0:
451,343,108074,1,8,0:0:0:0:
451,343,108127,1,0,0:0:0:0:
451,343,108285,1,8,0:0:0:0:
451,343,108337,1,8,0:0:0:0:
478,364,108390,1,8,0:0:0:0:
478,364,108443,1,0,0:0:0:0:
396,298,108600,1,0,0:0:0:0:
458,343,108916,1,0,0:0:0:0:
458,343,109232,1,8,0:0:0:0:
458,343,109285,1,8,0:0:0:0:
458,343,109337,1,8,0:0:0:0:
470,375,109390,1,8,0:0:0:0:
470,375,109548,1,0,0:0:0:0:
470,375,109706,1,8,0:0:0:0:
470,375,110022,1,8,0:0:0:0:
470,375,110179,1,0,0:0:0:0:
470,375,110337,1,0,0:0:0:0:
470,375,110495,1,0,0:0:0:0:
470,375,110548,1,0,0:0:0:0:
470,375,110600,1,0,0:0:0:0:
470,375,110653,1,0,0:0:0:0:
368,347,110811,1,8,0:0:0:0:
263,340,110969,1,8,0:0:0:0:
470,375,111127,1,0,0:0:0:0:
324,315,111443,1,0,0:0:0:0:
480,330,111758,1,8,0:0:0:0:
480,330,111811,1,8,0:0:0:0:
480,330,111864,1,8,0:0:0:0:
480,330,111916,1,0,0:0:0:0:
402,314,112074,1,0,0:0:0:0:
472,348,112232,1,8,0:0:0:0:
472,348,112548,1,8,0:0:0:0:
462,365,112706,1,0,0:0:0:0:
458,286,112864,1,0,0:0:0:0:
458,364,113022,1,8,0:0:0:0:
458,364,113074,1,0,0:0:0:0:
458,364,113127,1,0,0:0:0:0:
458,364,113179,1,8,0:0:0:0:
458,364,113337,1,8,0:0:0:0:
458,364,113390,1,0,0:0:0:0:
458,364,113443,1,0,0:0:0:0:
445,341,113495,1,0,0:0:0:0:
445,341,113653,1,0,0:0:0:0:
482,339,113969,1,0,0:0:0:0:
382,216,114285,1,0,0:0:0:0:
349,340,114337,1,8,0:0:0:0:
376,342,114390,1,8,0:0:0:0:
402,338,114443,1,8,0:0:0:0:
480,344,114600,1,8,0:0:0:0:
480,344,114758,1,0,0:0:0:0:
480,344,115074,1,8,0:0:0:0:
480,344,115232,1,0,0:0:0:0:
480,344,115390,1,0,0:0:0:0:
401,341,115548,1,8,0:0:0:0:
453,346,115600,1,8,0:0:0:0:
453,346,115653,1,8,0:0:0:0:
453,346,115706,1,0,0:0:0:0:
505,287,115864,1,0,0:0:0:0:
459,351,116022,1,0,0:0:0:0:
459,351,116179,1,8,0:0:0:0:
459,351,116495,1,8,0:0:0:0:
466,318,116811,1,0,0:0:0:0:
466,318,116863,1,0,0:0:0:0:
466,318,116916,1,0,0:0:0:0:
449,352,116969,1,8,0:0:0:0:
361,284,117127,1,0,0:0:0:0:
258,265,117284,1,8,0:0:0:0:
449,352,117600,1,8,0:0:0:0:
354,305,117758,1,0,0:0:0:0:
451,343,117916,1,0,0:0:0:0:
451,343,118074,1,8,0:0:0:0:
451,343,118127,1,8,0:0:0:0:
451,343,118179,1,8,0:0:0:0:
451,343,118232,1,0,0:0:0:0:
451,343,118390,1,8,0:0:0:0:
451,343,118442,1,8,0:0:0:0:
478,364,118495,1,8,0:0:0:0:
478,364,118548,1,0,0:0:0:0:
396,298,118705,1,0,0:0:0:0:
458,343,119021,1,0,0:0:0:0:
458,343,119337,1,8,0:0:0:0:
458,343,119390,1,8,0:0:0:0:
458,343,119442,1,8,0:0:0:0:
470,375,119495,1,8,0:0:0:0:
470,375,119653,1,0,0:0:0:0:
470,375,119811,1,8,0:0:0:0:
470,375,120127,1,8,0:0:0:0:
470,375,120284,1,0,0:0:0:0:
470,375,120442,1,0,0:0:0:0:
470,375,120600,1,0,0:0:0:0:
470,375,120653,1,0,0:0:0:0:
470,375,120705,1,0,0:0:0:0:
470,375,120758,1,0,0:0:0:0:
368,347,120916,1,8,0:0:0:0:
263,340,121074,1,8,0:0:0:0:
470,375,121232,1,0,0:0:0:0:
324,315,121548,1,0,0:0:0:0:
480,330,121863,1,8,0:0:0:0:
480,330,121916,1,8,0:0:0:0:
480,330,121969,1,8,0:0:0:0:
480,330,122021,1,0,0:0:0:0:
402,314,122179,1,0,0:0:0:0:
472,348,122337,1,8,0:0:0:0:
472,348,122653,1,8,0:0:0:0:
462,365,122811,1,0,0:0:0:0:
458,286,122969,1,0,0:0:0:0:
458,364,123127,1,8,0:0:0:0:
458,364,123179,1,0,0:0:0:0:
458,364,123232,1,0,0:0:0:0:
458,364,123284,1,8,0:0:0:0:
458,364,123442,1,8,0:0:0:0:
458,364,123495,1,0,0:0:0:0:
458,364,123548,1,0,0:0:0:0:
445,341,123600,1,0,0:0:0:0:
445,341,123758,1,0,0:0:0:0:
482,339,124074,1,0,0:0:0:0:
382,216,124390,1,0,0:0:0:0:
349,340,124442,1,8,0:0:0:0:
376,342,124495,1,8,0:0:0:0:
402,338,124548,1,8,0:0:0:0:
480,344,124705,1,8,0:0:0:0:
480,344,124863,1,0,0:0:0:0:
380,307,125022,1,8,0:0:0:0:
364,257,125100,1,0,0:0:0:0:
345,207,125179,1,0,0:0:0:0:
325,158,125258,1,0,0:0:0:0:
307,108,125337,1,8,0:0:0:0:
307,108,125416,1,0,0:0:0:0:
307,108,125495,1,0,0:0:0:0:
299,159,125574,1,0,0:0:0:0:
311,107,125653,1,8,0:0:0:0:
344,147,125732,1,0,0:0:0:0:
376,188,125811,1,8,0:0:0:0:
407,230,125890,1,0,0:0:0:0:
435,273,125969,1,8,0:0:0:0:
460,318,126048,1,0,0:0:0:0:
429,274,126127,1,8,0:0:0:0:
457,317,126206,1,0,0:0:0:0:
404,318,126285,1,12,0:0:0:0:
454,332,126916,1,8,0:0:0:0:
454,332,127548,1,0,0:0:0:0:
454,332,128179,1,8,0:0:0:0:
149,42,128811,1,0,0:0:0:0:
447,338,129443,1,8,0:0:0:0:
447,338,130074,1,0,0:0:0:0:
447,338,130706,1,8,0:0:0:0:
462,356,131337,1,8,0:0:0:0:
447,338,131495,1,0,0:0:0:0:
447,312,131969,1,8,0:0:0:0:
450,333,132600,1,0,0:0:0:0:
450,333,133232,1,8,0:0:0:0:
490,323,133864,1,8,0:0:0:0:
490,323,134022,1,0,0:0:0:0:
177,300,134495,1,8,0:0:0:0:
470,328,135127,1,0,0:0:0:0:
484,347,135758,1,8,0:0:0:0:
63,336,136390,1,8,0:0:0:0:
167,340,136548,1,0,0:0:0:0:
481,357,137022,1,8,0:0:0:0:
481,357,137653,1,0,0:0:0:0:
102,175,138285,1,8,0:0:0:0:
474,364,138916,1,0,0:0:0:0:
474,364,139548,1,8,0:0:0:0:
474,364,140179,1,0,0:0:0:0:
474,364,140811,1,8,0:0:0:0:
474,364,141443,1,8,0:0:0:0:
474,364,141600,1,0,0:0:0:0:
474,364,142074,1,8,0:0:0:0:
474,364,142706,1,0,0:0:0:0:
474,364,143337,1,8,0:0:0:0:
474,364,143969,1,8,0:0:0:0:
474,364,144127,1,0,0:0:0:0:
474,364,144600,1,8,0:0:0:0:
474,364,145232,1,0,0:0:0:0:
474,364,145864,1,8,0:0:0:0:
426,342,145943,1,0,0:0:0:0:
378,319,146022,1,8,0:0:0:0:
330,297,146100,1,0,0:0:0:0:
282,275,146179,1,8,0:0:0:0:
233,253,146258,1,0,0:0:0:0:
184,232,146337,1,8,0:0:0:0:
135,212,146416,1,0,0:0:0:0:
86,192,146495,1,8,0:0:0:0:
22,192,146811,1,0,0:0:0:0:
154,277,147127,1,8,0:0:0:0:
389,294,147600,1,8,0:0:0:0:
467,305,147758,1,0,0:0:0:0:
388,301,147916,1,8,0:0:0:0:
428,313,148232,1,0,0:0:0:0:
428,313,148390,1,8,0:0:0:0:
422,348,148864,1,8,0:0:0:0:
500,338,149022,1,0,0:0:0:0:
342,338,149337,1,8,0:0:0:0:
491,289,149653,1,8,0:0:0:0:
262,348,150127,1,0,0:0:0:0:
337,326,150285,1,8,0:0:0:0:
493,341,150600,1,8,0:0:0:0:
414,330,150758,1,0,0:0:0:0:
343,295,150916,1,8,0:0:0:0:
469,321,151390,1,8,0:0:0:0:
401,360,151548,1,0,0:0:0:0:
367,206,151864,1,0,0:0:0:0:
410,356,152179,1,8,0:0:0:0:
446,305,152653,1,8,0:0:0:0:
446,305,152811,1,0,0:0:0:0:
446,305,152969,1,8,0:0:0:0:
446,305,153285,1,0,0:0:0:0:
392,362,153443,1,8,0:0:0:0:
437,343,153916,1,8,0:0:0:0:
467,337,154074,1,0,0:0:0:0:
467,337,154390,1,0,0:0:0:0:
460,363,154706,1,8,0:0:0:0:
460,363,155179,1,0,0:0:0:0:
460,363,155337,1,8,0:0:0:0:
331,271,155653,1,8,0:0:0:0:
395,316,155811,1,0,0:0:0:0:
316,311,155969,1,8,0:0:0:0:
97,220,156443,1,0,0:0:0:0:
108,142,156600,1,8,0:0:0:0:
367,206,156917,1,0,0:0:0:0:
410,356,157232,1,8,0:0:0:0:
446,305,157706,1,8,0:0:0:0:
446,305,157864,1,0,0:0:0:0:
446,305,158022,1,8,0:0:0:0:
446,305,158338,1,0,0:0:0:0:
392,362,158496,1,8,0:0:0:0:
437,343,158969,1,8,0:0:0:0:
467,337,159127,1,0,0:0:0:0:
467,337,159443,1,0,0:0:0:0:
460,363,159759,1,8,0:0:0:0:
460,363,160232,1,0,0:0:0:0:
460,363,160390,1,8,0:0:0:0:
331,271,160706,1,8,0:0:0:0:
395,316,160864,1,0,0:0:0:0:
316,311,161022,1,8,0:0:0:0:
469,321,161495,1,8,0:0:0:0:
401,360,161653,1,0,0:0:0:0:
367,206,161969,1,0,0:0:0:0:
410,356,162284,1,8,0:0:0:0:
446,305,162758,1,8,0:0:0:0:
446,305,162916,1,0,0:0:0:0:
446,305,163074,1,8,0:0:0:0:
446,305,163390,1,0,0:0:0:0:
392,362,163548,1,8,0:0:0:0:
437,343,164021,1,8,0:0:0:0:
213,266,164495,1,0,0:0:0:0:
368,303,164811,1,8,0:0:0:0:
413,317,165127,1,8,0:0:0:0:
413,317,165285,1,8,0:0:0:0:
413,317,165443,1,0,0:0:0:0:
452,341,165758,1,0,0:0:0:0:
452,341,165916,1,8,0:0:0:0:
466,363,166232,1,8,0:0:0:0:
466,363,166548,1,0,0:0:0:0:
388,349,166706,1,0,0:0:0:0:
447,344,167022,1,0,0:0:0:0:
447,344,167179,1,0,0:0:0:0:
447,344,167337,1,8,0:0:0:0:
447,344,167495,1,0,0:0:0:0:
481,323,167653,1,0,0:0:0:0:
447,344,167969,1,0,0:0:0:0:
472,333,168127,1,0,0:0:0:0:
314,257,168285,1,0,0:0:0:0:
439,351,168600,1,8,0:0:0:0:
464,347,168916,1,0,0:0:0:0:
464,347,169232,1,0,0:0:0:0:
310,311,169548,1,0,0:0:0:0:
388,318,169706,1,0,0:0:0:0:
388,318,169864,1,8,0:0:0:0:
462,342,170022,1,0,0:0:0:0:
388,318,170179,1,0,0:0:0:0:
456,325,170495,1,0,0:0:0:0:
396,339,170653,1,0,0:0:0:0:
396,339,170811,1,0,0:0:0:0:
427,339,171127,1,8,0:0:0:0:
436,362,171443,1,0,0:0:0:0:
436,204,171758,1,0,0:0:0:0:
310,311,172074,1,0,0:0:0:0:
388,318,172232,1,0,0:0:0:0:
388,318,172390,1,8,0:0:0:0:
462,342,172548,1,0,0:0:0:0:
388,318,172705,1,0,0:0:0:0:
456,325,173021,1,0,0:0:0:0:
396,339,173179,1,0,0:0:0:0:
396,339,173337,1,0,0:0:0:0:
427,339,173653,1,8,0:0:0:0:
436,362,173969,1,0,0:0:0:0:
436,204,174284,1,0,0:0:0:0:
310,311,174600,1,0,0:0:0:0:
388,318,174758,1,0,0:0:0:0:
388,318,174916,1,8,0:0:0:0:
462,342,175074,1,0,0:0:0:0:
388,318,175231,1,0,0:0:0:0:
456,325,175547,1,0,0:0:0:0:
396,339,175705,1,0,0:0:0:0:
396,339,175863,1,0,0:0:0:0:
472,318,176022,1,8,0:0:0:0:
315,332,176337,1,8,0:0:0:0:
467,312,176653,1,8,0:0:0:0:
396,347,176811,1,0,0:0:0:0:
310,311,177127,1,0,0:0:0:0:
388,318,177285,1,0,0:0:0:0:
388,318,177443,1,8,0:0:0:0:
462,342,177601,1,0,0:0:0:0:
388,318,177758,1,0,0:0:0:0:
456,325,178074,1,0,0:0:0:0:
396,339,178232,1,0,0:0:0:0:
396,339,178390,1,0,0:0:0:0:
427,339,178706,1,8,0:0:0:0:
436,362,179022,1,0,0:0:0:0:
436,204,179337,1,0,0:0:0:0:
310,311,179653,1,0,0:0:0:0:
388,318,179811,1,0,0:0:0:0:
388,318,179969,1,8,0:0:0:0:
462,342,180127,1,0,0:0:0:0:
388,318,180284,1,0,0:0:0:0:
456,325,180600,1,0,0:0:0:0:
396,339,180758,1,0,0:0:0:0:
396,339,180916,1,0,0:0:0:0:
427,339,181232,1,8,0:0:0:0:
436,362,181548,1,0,0:0:0:0:
436,204,181863,1,0,0:0:0:0:
310,311,182179,1,0,0:0:0:0:
388,318,182337,1,0,0:0:0:0:
388,318,182495,1,8,0:0:0:0:
462,342,182653,1,0,0:0:0:0:
388,318,182810,1,0,0:0:0:0:
456,325,183126,1,0,0:0:0:0:
396,339,183284,1,0,0:0:0:0:
396,339,183442,1,0,0:0:0:0:
427,339,183758,1,8,0:0:0:0:
436,362,184074,1,0,0:0:0:0:
436,204,184389,1,0,0:0:0:0:
310,311,184706,1,0,0:0:0:0:
388,318,184864,1,0,0:0:0:0:
388,318,185022,1,8,0:0:0:0:
462,342,185180,1,0,0:0:0:0:
388,318,185337,1,0,0:0:0:0:
456,325,185653,1,0,0:0:0:0:
396,339,185811,1,0,0:0:0:0:
396,339,185969,1,0,0:0:0:0:
427,339,186285,1,8,0:0:0:0:
436,362,186601,1,0,0:0:0:0:
436,204,186916,1,0,0:0:0:0:
345,194,187074,1,0,0:0:0:0:
253,197,187232,1,0,0:0:0:0:
162,210,187390,1,0,0:0:0:0:
162,210,187548,1,8,0:0:0:0:
249,236,187706,1,0,0:0:0:0:
336,262,187864,1,0,0:0:0:0:
423,288,188022,1,0,0:0:0:0:
506,322,188179,1,0,0:0:0:0:
417,299,188337,1,0,0:0:0:0:
505,323,188495,1,0,0:0:0:0:
414,307,188653,1,0,0:0:0:0:
502,331,188811,1,8,0:0:0:0:
415,300,188969,1,0,0:0:0:0:
329,268,189127,1,0,0:0:0:0:
243,235,189285,1,0,0:0:0:0:
436,204,189443,1,0,0:0:0:0:
345,194,189601,1,0,0:0:0:0:
253,197,189759,1,0,0:0:0:0:
162,210,189917,1,0,0:0:0:0:
162,210,190075,1,8,0:0:0:0:
249,236,190233,1,0,0:0:0:0:
336,262,190391,1,0,0:0:0:0:
423,288,190549,1,0,0:0:0:0:
506,322,190706,1,0,0:0:0:0:
417,299,190864,1,0,0:0:0:0:
505,323,191022,1,0,0:0:0:0:
414,307,191180,1,0,0:0:0:0:
502,331,191338,1,8,0:0:0:0:
415,300,191496,1,0,0:0:0:0:
329,268,191654,1,0,0:0:0:0:
243,235,191812,1,0,0:0:0:0:
157,203,191970,1,0,0:0:0:0:
436,204,192127,1,0,0:0:0:0:
345,194,192285,1,0,0:0:0:0:
253,197,192443,1,0,0:0:0:0:
162,210,192600,1,8,0:0:0:0:
249,236,192758,1,0,0:0:0:0:
336,262,192916,1,0,0:0:0:0:
423,288,193074,1,0,0:0:0:0:
506,322,193231,1,0,0:0:0:0:
417,299,193389,1,0,0:0:0:0:
505,323,193547,1,0,0:0:0:0:
414,307,193705,1,0,0:0:0:0:
502,331,193863,1,8,0:0:0:0:
415,300,194021,1,0,0:0:0:0:
329,268,194179,1,0,0:0:0:0:
243,235,194337,1,0,0:0:0:0:
436,204,194495,1,0,0:0:0:0:
345,194,194653,1,0,0:0:0:0:
253,197,194811,1,0,0:0:0:0:
162,210,194969,1,0,0:0:0:0:
162,210,195127,1,8,0:0:0:0:
249,236,195285,1,0,0:0:0:0:
336,262,195443,1,0,0:0:0:0:
423,288,195601,1,0,0:0:0:0:
506,322,195758,1,0,0:0:0:0:
417,299,195916,1,0,0:0:0:0:
505,323,196074,1,0,0:0:0:0:
416,299,196232,1,8,0:0:0:0:
296,160,196548,1,8,0:0:0:0:
173,24,196864,1,8,0:0:0:0:
436,204,197022,1,0,0:0:0:0:
345,194,197180,1,0,0:0:0:0:
253,197,197338,1,0,0:0:0:0:
162,210,197496,1,0,0:0:0:0:
162,210,197654,1,8,0:0:0:0:
249,236,197812,1,0,0:0:0:0:
336,262,197970,1,0,0:0:0:0:
423,288,198128,1,0,0:0:0:0:
506,322,198285,1,0,0:0:0:0:
417,299,198443,1,0,0:0:0:0:
505,323,198601,1,0,0:0:0:0:
414,307,198759,1,0,0:0:0:0:
502,331,198917,1,8,0:0:0:0:
415,300,199075,1,0,0:0:0:0:
329,268,199233,1,0,0:0:0:0:
243,235,199391,1,0,0:0:0:0:
436,204,199548,1,0,0:0:0:0:
345,194,199706,1,0,0:0:0:0:
253,197,199864,1,0,0:0:0:0:
162,210,200022,1,0,0:0:0:0:
162,210,200180,1,8,0:0:0:0:
249,236,200338,1,0,0:0:0:0:
336,262,200496,1,0,0:0:0:0:
423,288,200654,1,0,0:0:0:0:
506,322,200811,1,0,0:0:0:0:
417,299,200969,1,0,0:0:0:0:
505,323,201127,1,0,0:0:0:0:
414,307,201285,1,0,0:0:0:0:
502,331,201443,1,8,0:0:0:0:
415,300,201601,1,0,0:0:0:0:
329,268,201759,1,0,0:0:0:0:
243,235,201917,1,0,0:0:0:0:
436,204,202074,1,0,0:0:0:0:
345,194,202232,1,0,0:0:0:0:
253,197,202390,1,0,0:0:0:0:
162,210,202548,1,0,0:0:0:0:
162,210,202706,1,8,0:0:0:0:
249,236,202864,1,0,0:0:0:0:
336,262,203022,1,0,0:0:0:0:
423,288,203180,1,0,0:0:0:0:
506,322,203337,1,0,0:0:0:0:
417,299,203495,1,0,0:0:0:0:
505,323,203653,1,0,0:0:0:0:
414,307,203811,1,0,0:0:0:0:
502,331,203969,1,8,0:0:0:0:
415,300,204127,1,0,0:0:0:0:
329,268,204285,1,0,0:0:0:0:
243,235,204443,1,0,0:0:0:0:
436,204,204600,1,0,0:0:0:0:
345,194,204758,1,0,0:0:0:0:
253,197,204916,1,0,0:0:0:0:
162,210,205074,1,0,0:0:0:0:
162,210,205232,1,8,0:0:0:0:
249,236,205390,1,0,0:0:0:0:
336,262,205548,1,0,0:0:0:0:
423,288,205706,1,0,0:0:0:0:
506,322,205863,1,0,0:0:0:0:
417,299,206021,1,0,0:0:0:0:
505,323,206179,1,0,0:0:0:0:
502,331,206337,1,8,0:0:0:0:
327,275,206653,1,8,0:0:0:0:
150,226,206969,1,8,0:0:0:0:
436,204,207127,1,0,0:0:0:0:
345,194,207285,1,0,0:0:0:0:
253,197,207443,1,0,0:0:0:0:
162,210,207601,1,0,0:0:0:0:
162,210,207759,1,8,0:0:0:0:
249,236,207917,1,0,0:0:0:0:
336,262,208075,1,0,0:0:0:0:
423,288,208233,1,0,0:0:0:0:
506,322,208390,1,0,0:0:0:0:
417,299,208548,1,0,0:0:0:0:
505,323,208706,1,0,0:0:0:0:
414,307,208864,1,0,0:0:0:0:
502,331,209022,1,8,0:0:0:0:
415,300,209180,1,0,0:0:0:0:
329,268,209338,1,0,0:0:0:0:
243,235,209496,1,0,0:0:0:0:
436,204,209653,1,0,0:0:0:0:
345,194,209811,1,0,0:0:0:0:
253,197,209969,1,0,0:0:0:0:
162,210,210127,1,0,0:0:0:0:
162,210,210285,1,8,0:0:0:0:
249,236,210443,1,0,0:0:0:0:
336,262,210601,1,0,0:0:0:0:
423,288,210759,1,0,0:0:0:0:
506,322,210916,1,0,0:0:0:0:
417,299,211074,1,0,0:0:0:0:
505,323,211232,1,0,0:0:0:0:
414,307,211390,1,0,0:0:0:0:
502,331,211548,1,8,0:0:0:0:
415,300,211706,1,0,0:0:0:0:
329,268,211864,1,0,0:0:0:0:
243,235,212022,1,0,0:0:0:0:
436,204,212179,1,0,0:0:0:0:
345,194,212337,1,0,0:0:0:0:
253,197,212495,1,0,0:0:0:0:
162,210,212653,1,0,0:0:0:0:
162,210,212811,1,8,0:0:0:0:
249,236,212969,1,0,0:0:0:0:
336,262,213127,1,0,0:0:0:0:
423,288,213285,1,0,0:0:0:0:
506,322,213442,1,0,0:0:0:0:
417,299,213600,1,0,0:0:0:0:
505,323,213758,1,0,0:0:0:0:
414,307,213916,1,0,0:0:0:0:
502,331,214074,1,8,0:0:0:0:
415,300,214232,1,0,0:0:0:0:
329,268,214390,1,0,0:0:0:0:
243,235,214548,1,0,0:0:0:0:
436,204,214706,1,0,0:0:0:0:
345,194,214864,1,0,0:0:0:0:
253,197,215022,1,0,0:0:0:0:
162,210,215180,1,0,0:0:0:0:
162,210,215338,1,8,0:0:0:0:
249,236,215496,1,0,0:0:0:0:
336,262,215654,1,0,0:0:0:0:
423,288,215812,1,0,0:0:0:0:
506,322,215969,1,0,0:0:0:0:
417,299,216127,1,0,0:0:0:0:
505,323,216285,1,0,0:0:0:0:
429,271,216443,1,8,0:0:0:0:
276,170,216758,1,8,0:0:0:0:
113,85,217074,1,8,0:0:0:0:
115,130,217153,1,0,0:0:0:0:
436,204,217232,1,0,0:0:0:0:
345,194,217390,1,0,0:0:0:0:
253,197,217548,1,0,0:0:0:0:
162,210,217706,1,0,0:0:0:0:
162,210,217864,1,8,0:0:0:0:
249,236,218022,1,0,0:0:0:0:
336,262,218180,1,0,0:0:0:0:
423,288,218338,1,0,0:0:0:0:
506,322,218495,1,0,0:0:0:0:
417,299,218653,1,0,0:0:0:0:
505,323,218811,1,0,0:0:0:0:
414,307,218969,1,0,0:0:0:0:
502,331,219127,1,8,0:0:0:0:
415,300,219285,1,0,0:0:0:0:
329,268,219443,1,0,0:0:0:0:
243,235,219601,1,0,0:0:0:0:
436,204,219758,1,0,0:0:0:0:
345,194,219916,1,0,0:0:0:0:
253,197,220074,1,0,0:0:0:0:
162,210,220232,1,0,0:0:0:0:
162,210,220390,1,8,0:0:0:0:
249,236,220548,1,0,0:0:0:0:
336,262,220706,1,0,0:0:0:0:
423,288,220864,1,0,0:0:0:0:
506,322,221021,1,0,0:0:0:0:
417,299,221179,1,0,0:0:0:0:
505,323,221337,1,0,0:0:0:0:
414,307,221495,1,0,0:0:0:0:
502,331,221653,1,8,0:0:0:0:
415,300,221811,1,0,0:0:0:0:
329,268,221969,1,0,0:0:0:0:
243,235,222127,1,0,0:0:0:0:
436,204,222285,1,0,0:0:0:0:
345,194,222443,1,0,0:0:0:0:
253,197,222601,1,0,0:0:0:0:
162,210,222759,1,0,0:0:0:0:
162,210,222917,1,8,0:0:0:0:
249,236,223075,1,0,0:0:0:0:
336,262,223233,1,0,0:0:0:0:
423,288,223391,1,0,0:0:0:0:
506,322,223548,1,0,0:0:0:0:
417,299,223706,1,0,0:0:0:0:
505,323,223864,1,0,0:0:0:0:
414,307,224022,1,0,0:0:0:0:
502,331,224180,1,8,0:0:0:0:
415,300,224338,1,0,0:0:0:0:
329,268,224496,1,0,0:0:0:0:
243,235,224654,1,0,0:0:0:0:
436,204,224811,1,0,0:0:0:0:
345,194,224969,1,0,0:0:0:0:
253,197,225127,1,0,0:0:0:0:
162,210,225285,1,0,0:0:0:0:
162,210,225443,1,8,0:0:0:0:
249,236,225601,1,0,0:0:0:0:
336,262,225759,1,0,0:0:0:0:
423,288,225917,1,0,0:0:0:0:
506,322,226074,1,0,0:0:0:0:
417,299,226232,1,0,0:0:0:0:
505,323,226390,1,0,0:0:0:0:
420,288,226548,1,8,0:0:0:0:
262,195,226864,1,8,0:0:0:0:
421,282,227179,1,8,0:0:0:0:
434,325,227258,1,0,0:0:0:0:
333,256,227337,1,0,0:0:0:0:
393,332,227969,1,8,0:0:0:0:
440,330,228600,1,0,0:0:0:0:
440,330,229232,1,8,0:0:0:0:
229,95,229864,1,0,0:0:0:0:
427,339,230495,1,8,0:0:0:0:
177,146,231127,1,0,0:0:0:0:
397,370,231758,1,8,0:0:0:0:
64,217,232390,1,0,0:0:0:0:
379,221,233022,1,8,0:0:0:0:
64,227,233653,1,0,0:0:0:0:
379,224,234285,1,8,0:0:0:0:
459,352,234916,1,0,0:0:0:0:
459,352,235548,1,8,0:0:0:0:
491,335,236179,1,0,0:0:0:0:
491,335,236811,1,8,0:0:0:0:
163,172,237443,1,0,0:0:0:0:
469,370,238074,1,8,0:0:0:0:
214,107,238706,1,0,0:0:0:0:
229,167,239337,1,8,0:0:0:0:
481,355,239969,1,0,0:0:0:0:
178,151,240600,1,8,0:0:0:0:
209,128,241232,1,0,0:0:0:0:
484,368,241864,1,8,0:0:0:0:
336,34,242495,1,0,0:0:0:0:
473,372,243127,1,0,0:0:0:0:
336,33,243758,1,0,0:0:0:0:
472,372,244390,1,0,0:0:0:0:
331,34,245022,1,0,0:0:0:0:
396,204,245337,1,0,0:0:0:0:
461,374,245653,1,0,0:0:0:0:
461,374,245969,1,0,0:0:0:0:
461,374,246285,1,0,0:0:0:0:
444,284,246443,1,0,0:0:0:0:
461,373,246600,1,0,0:0:0:0:
444,283,246758,1,0,0:0:0:0:
459,373,246916,1,0,0:0:0:0:
459,373,246995,1,0,0:0:0:0:
459,373,247074,1,0,0:0:0:0:
459,373,247153,1,0,0:0:0:0:
459,373,247232,1,0,0:0:0:0:
459,373,247311,1,0,0:0:0:0:
459,373,247390,1,0,0:0:0:0:
459,373,247469,1,0,0:0:0:0:
459,373,247548,1,8,0:0:0:0:
439,338,248811,1,8,0:0:0:0:
439,338,249443,1,0,0:0:0:0:
401,269,249600,1,0,0:0:0:0:
236,278,249916,1,0,0:0:0:0:
289,246,250074,1,8,0:0:0:0:
237,235,250153,1,8,0:0:0:0:
185,223,250232,1,0,0:0:0:0:
133,219,250310,1,0,0:0:0:0:
84,239,250389,1,8,0:0:0:0:
135,227,250468,1,8,0:0:0:0:
93,259,250547,1,0,0:0:0:0:
136,229,250626,1,0,0:0:0:0:
186,243,250705,1,8,0:0:0:0:
236,257,250784,1,0,0:0:0:0:
286,272,250863,1,0,0:0:0:0:
336,287,250942,1,0,0:0:0:0:
385,305,251021,1,8,0:0:0:0:
432,326,251100,1,0,0:0:0:0:
432,326,251179,1,0,0:0:0:0:
432,326,251258,1,0,0:0:0:0:
470,361,251337,1,8,0:0:0:0:
470,361,251416,1,0,0:0:0:0:
470,361,251495,1,8,0:0:0:0:
423,337,251574,1,0,0:0:0:0:
467,364,251653,1,8,0:0:0:0:
467,364,251732,1,0,0:0:0:0:
467,364,251810,1,0,0:0:0:0:
426,330,251889,1,0,0:0:0:0:
426,330,251968,1,8,0:0:0:0:
426,330,252047,1,0,0:0:0:0:
426,330,252126,1,8,0:0:0:0:
404,281,252205,1,8,0:0:0:0:
426,330,252284,1,8,0:0:0:0:
399,284,252363,1,0,0:0:0:0:
426,330,252442,1,8,0:0:0:0:
426,330,252521,1,8,0:0:0:0:
426,330,252600,1,0,0:0:0:0:
467,361,252679,1,0,0:0:0:0:
427,326,252758,1,8,0:0:0:0:
465,361,252837,1,8,0:0:0:0:
425,326,252916,1,0,0:0:0:0:
462,362,252995,1,0,0:0:0:0:
462,362,253074,1,8,0:0:0:0:
462,362,253153,1,8,0:0:0:0:
462,362,253232,1,0,0:0:0:0:
462,362,253310,1,8,0:0:0:0:
462,362,253389,1,8,0:0:0:0:
462,362,253468,1,8,0:0:0:0:
428,321,253547,1,0,0:0:0:0:
428,321,253626,1,8,0:0:0:0:
408,272,253705,1,0,0:0:0:0:
428,321,253784,1,8,0:0:0:0:
428,321,253863,1,0,0:0:0:0:
396,278,253942,1,8,0:0:0:0:
427,320,254021,1,8,0:0:0:0:
392,280,254100,1,8,0:0:0:0:
423,321,254179,1,0,0:0:0:0:
423,321,254258,1,8,0:0:0:0:
423,321,254337,1,0,0:0:0:0:
423,321,254416,1,8,0:0:0:0:
423,321,254495,1,0,0:0:0:0:
464,353,254574,1,0,0:0:0:0:
464,353,254653,1,0,0:0:0:0:
464,353,254732,1,0,0:0:0:0:
415,335,254810,1,0,0:0:0:0:
365,317,254889,1,0,0:0:0:0:
464,353,254968,1,0,0:0:0:0:
422,321,255047,1,0,0:0:0:0:
422,321,255126,1,8,0:0:0:0:
422,321,255205,1,8,0:0:0:0:
452,363,255284,1,8,0:0:0:0:
414,325,255363,1,0,0:0:0:0:
459,350,255442,1,8,0:0:0:0:
412,326,255521,1,0,0:0:0:0:
458,350,255600,1,8,0:0:0:0:
408,331,255679,1,0,0:0:0:0:
475,339,255758,1,0,0:0:0:0:
422,339,255837,1,8,0:0:0:0:
473,351,255916,1,0,0:0:0:0:
420,345,255995,1,0,0:0:0:0:
470,360,256074,1,8,0:0:0:0:
420,345,256153,1,8,0:0:0:0:
420,345,256232,1,0,0:0:0:0:
420,345,256310,1,0,0:0:0:0:
420,345,256389,1,8,0:0:0:0:
420,345,256468,1,8,0:0:0:0:
420,345,256547,1,0,0:0:0:0:
420,345,256626,1,0,0:0:0:0:
420,345,256705,1,8,0:0:0:0:
420,345,256784,1,8,0:0:0:0:
472,347,256863,1,0,0:0:0:0:
419,345,256942,1,0,0:0:0:0:
472,347,257021,1,8,0:0:0:0:
472,347,257100,1,8,0:0:0:0:
422,328,257179,1,0,0:0:0:0:
372,309,257258,1,0,0:0:0:0:
322,291,257337,1,8,0:0:0:0:
272,273,257416,1,8,0:0:0:0:
472,347,257495,1,0,0:0:0:0:
472,347,257574,1,0,0:0:0:0:
476,367,257653,1,8,0:0:0:0:
476,367,257732,1,0,0:0:0:0:
476,367,257810,1,0,0:0:0:0:
476,367,257889,1,0,0:0:0:0:
476,367,257968,1,8,0:0:0:0:
476,367,258047,1,0,0:0:0:0:
476,367,258126,1,0,0:0:0:0:
476,367,258205,1,0,0:0:0:0:
476,367,258284,1,8,0:0:0:0:
428,345,258363,1,8,0:0:0:0:
379,324,258442,1,0,0:0:0:0:
330,304,258521,1,0,0:0:0:0:
280,287,258600,1,8,0:0:0:0:
229,271,258679,1,8,0:0:0:0:
177,258,258758,1,0,0:0:0:0:
125,248,258837,1,0,0:0:0:0:
174,264,258916,1,0,0:0:0:0:
224,279,258995,1,0,0:0:0:0:
274,294,259074,1,8,0:0:0:0:
323,311,259153,1,8,0:0:0:0:
380,322,259232,1,0,0:0:0:0:
425,297,259310,1,0,0:0:0:0:
452,341,259389,1,8,0:0:0:0:
420,298,259468,1,0,0:0:0:0:
451,340,259547,1,8,0:0:0:0:
416,300,259626,1,8,0:0:0:0:
366,281,259705,1,0,0:0:0:0:
316,263,259784,1,0,0:0:0:0:
366,280,259863,1,8,0:0:0:0:
315,264,259942,1,8,0:0:0:0:
290,216,260022,1,8,0:0:0:0:
266,169,260100,1,8,0:0:0:0:
325,242,260179,1,8,0:0:0:0:
410,298,260258,1,8,0:0:0:0:
371,262,260337,1,0,0:0:0:0:
435,343,260416,1,0,0:0:0:0:
397,306,260495,1,8,0:0:0:0:
435,343,260574,1,8,0:0:0:0:
397,306,260653,1,0,0:0:0:0:
435,343,260732,1,0,0:0:0:0:
396,308,260810,1,8,0:0:0:0:
479,314,260889,1,8,0:0:0:0:
278,246,260968,1,0,0:0:0:0:
356,282,261047,1,8,0:0:0:0:
356,282,261126,1,8,0:0:0:0:
356,282,261205,1,8,0:0:0:0:
439,348,261284,1,0,0:0:0:0:
392,253,261363,1,0,0:0:0:0:
392,253,261442,1,8,0:0:0:0:
392,253,261521,1,8,0:0:0:0:
455,364,261600,1,0,0:0:0:0:
430,317,261679,1,0,0:0:0:0:
367,303,261758,1,8,0:0:0:0:
405,267,261837,1,8,0:0:0:0:
278,246,261916,1,0,0:0:0:0:
327,263,261995,1,0,0:0:0:0:
426,294,262074,1,8,0:0:0:0:
426,294,262153,1,8,0:0:0:0:
462,332,262232,1,0,0:0:0:0:
415,308,262310,1,0,0:0:0:0:
366,288,262389,1,8,0:0:0:0:
460,334,262468,1,8,0:0:0:0:
460,334,262547,1,8,0:0:0:0:
460,334,262626,1,8,0:0:0:0:
412,311,262705,1,0,0:0:0:0:
460,334,262784,1,0,0:0:0:0:
412,312,262863,1,8,0:0:0:0:
432,289,262942,1,8,0:0:0:0:
383,269,263021,1,0,0:0:0:0:
432,289,263100,1,0,0:0:0:0:
411,236,263179,1,8,0:0:0:0:
433,288,263258,1,8,0:0:0:0:
393,253,263337,1,0,0:0:0:0:
402,321,263416,1,0,0:0:0:0:
404,268,263495,1,8,0:0:0:0:
433,288,263574,1,8,0:0:0:0:
433,340,263653,1,8,0:0:0:0:
425,287,263732,1,8,0:0:0:0:
425,287,263810,1,0,0:0:0:0:
411,236,263889,1,0,0:0:0:0:
425,287,263968,1,8,0:0:0:0:
336,159,264047,1,8,0:0:0:0:
425,287,264126,1,0,0:0:0:0:
358,236,264205,1,0,0:0:0:0:
425,287,264284,1,8,0:0:0:0:
379,284,264363,1,8,0:0:0:0:
425,287,264442,1,0,0:0:0:0:
425,287,264521,1,8,0:0:0:0:
425,287,264600,1,0,0:0:0:0:
425,287,264679,1,8,0:0:0:0:
425,287,264758,1,0,0:0:0:0:
425,287,264837,1,8,0:0:0:0:
457,352,264916,1,8,0:0:0:0:
457,352,264995,1,8,0:0:0:0:
425,287,265074,1,0,0:0:0:0:
420,313,265153,1,0,0:0:0:0:
425,287,265232,1,8,0:0:0:0:
420,313,265310,1,8,0:0:0:0:
425,287,265389,1,0,0:0:0:0:
420,313,265468,1,0,0:0:0:0:
420,313,265547,1,8,0:0:0:0:
445,358,265626,1,8,0:0:0:0:
420,313,265705,1,0,0:0:0:0:
444,357,265784,1,0,0:0:0:0:
420,313,265863,1,8,0:0:0:0:
444,357,265942,1,8,0:0:0:0:
444,357,266021,1,8,0:0:0:0:
445,358,266100,1,8,0:0:0:0:
424,308,266179,1,0,0:0:0:0:
408,317,266258,1,0,0:0:0:0:
424,308,266337,1,8,0:0:0:0:
450,304,266416,1,8,0:0:0:0:
408,317,266495,1,0,0:0:0:0:
450,356,266574,1,0,0:0:0:0:
408,317,266653,1,8,0:0:0:0:
450,355,266732,1,8,0:0:0:0:
408,317,266810,1,0,0:0:0:0:
450,355,266889,1,0,0:0:0:0:
445,302,266968,1,0,0:0:0:0:
450,355,267047,1,0,0:0:0:0:
416,314,267126,1,8,0:0:0:0:
450,355,267205,1,8,0:0:0:0:
414,316,267284,1,0,0:0:0:0:
424,308,267363,1,0,0:0:0:0:
428,360,267442,1,8,0:0:0:0:
451,340,267521,1,8,0:0:0:0:
436,304,267600,1,8,0:0:0:0:
418,353,267679,1,0,0:0:0:0:
437,304,267758,1,8,0:0:0:0:
466,260,267837,1,8,0:0:0:0:
448,309,267916,1,8,0:0:0:0:
414,349,267995,1,0,0:0:0:0:
414,349,268074,1,8,0:0:0:0:
445,309,268153,1,8,0:0:0:0:
394,294,268232,1,0,0:0:0:0:
420,334,268310,1,0,0:0:0:0:
471,353,268389,1,0,0:0:0:0:
442,308,268468,1,0,0:0:0:0:
469,353,268547,1,0,0:0:0:0:
445,320,268626,1,0,0:0:0:0:
453,305,268705,1,0,0:0:0:0:
446,357,268784,1,0,0:0:0:0:
445,357,268863,1,0,0:0:0:0:
446,357,268942,1,0,0:0:0:0:
446,357,269021,1,8,0:0:0:0:
349,314,269179,1,0,0:0:0:0:
423,322,269495,1,0,0:0:0:0:
423,322,269811,1,0,0:0:0:0:
423,322,269969,1,8,0:0:0:0:
436,348,270127,1,0,0:0:0:0:
357,307,270285,1,8,0:0:0:0:
308,287,270364,1,0,0:0:0:0:
258,268,270443,1,0,0:0:0:0:
208,250,270522,1,0,0:0:0:0:
158,233,270601,1,8,0:0:0:0:
107,219,270680,1,8,0:0:0:0:
107,219,270759,1,0,0:0:0:0:
107,219,270838,1,0,0:0:0:0:
107,219,270917,1,8,0:0:0:0:
107,219,270996,1,0,0:0:0:0:
107,219,271075,1,8,0:0:0:0:
126,267,271154,1,8,0:0:0:0:
107,218,271232,1,0,0:0:0:0:
204,257,271390,1,0,0:0:0:0:
302,292,271548,1,8,0:0:0:0:
351,309,271627,1,0,0:0:0:0:
398,330,271706,1,8,0:0:0:0:
442,357,271785,1,8,0:0:0:0:
393,336,271864,1,0,0:0:0:0:
439,360,271943,1,0,0:0:0:0:
439,360,272022,1,8,0:0:0:0:
439,360,272101,1,8,0:0:0:0:
426,309,272180,1,8,0:0:0:0:
446,357,272259,1,0,0:0:0:0:
446,357,272338,1,8,0:0:0:0:
426,309,272417,1,8,0:0:0:0:
391,348,272496,1,0,0:0:0:0:
495,341,272654,1,0,0:0:0:0:
399,298,272811,1,0,0:0:0:0:
350,277,272890,1,0,0:0:0:0:
301,257,272969,1,8,0:0:0:0:
250,241,273048,1,0,0:0:0:0:
201,220,273127,1,0,0:0:0:0:
148,224,273206,1,0,0:0:0:0:
197,240,273285,1,8,0:0:0:0:
197,240,273364,1,0,0:0:0:0:
144,242,273443,1,0,0:0:0:0:
196,245,273522,1,8,0:0:0:0:
196,245,273601,1,0,0:0:0:0:
145,258,273680,1,0,0:0:0:0:
196,247,273759,1,8,0:0:0:0:
108,188,273917,1,0,0:0:0:0:
201,236,274075,1,8,0:0:0:0:
247,259,274154,1,0,0:0:0:0:
293,282,274232,1,0,0:0:0:0:
339,306,274311,1,0,0:0:0:0:
385,330,274390,1,8,0:0:0:0:
293,278,274548,1,8,0:0:0:0:
108,176,274864,1,8,0:0:0:0:
293,272,275179,1,8,0:0:0:0:
252,268,275338,1,0,0:0:0:0:
301,285,275417,1,8,0:0:0:0:
348,308,275496,1,8,0:0:0:0:
392,335,275575,1,8,0:0:0:0:
344,312,275654,1,0,0:0:0:0:
391,333,275732,1,8,0:0:0:0:
338,326,275811,1,8,0:0:0:0:
389,338,275890,1,8,0:0:0:0:
354,298,275969,1,0,0:0:0:0:
354,298,276048,1,0,0:0:0:0:
354,298,276127,1,8,0:0:0:0:
354,298,276206,1,8,0:0:0:0:
354,298,276285,1,0,0:0:0:0:
437,362,276443,1,8,0:0:0:0:
437,362,276601,1,0,0:0:0:0:
437,362,276680,1,0,0:0:0:0:
437,362,276759,1,8,0:0:0:0:
437,362,276838,1,8,0:0:0:0:
437,362,276917,1,0,0:0:0:0:
437,362,276996,1,0,0:0:0:0:
437,362,277075,1,8,0:0:0:0:
437,362,277154,1,0,0:0:0:0:
437,362,277232,1,8,0:0:0:0:
437,362,277311,1,8,0:0:0:0:
437,362,277390,1,0,0:0:0:0:
437,362,277469,1,8,0:0:0:0:
424,311,277548,1,0,0:0:0:0:
437,362,277706,1,0,0:0:0:0:
437,362,277864,1,8,0:0:0:0:
437,362,277943,1,8,0:0:0:0:
437,362,278022,1,8,0:0:0:0:
437,362,278101,1,8,0:0:0:0:
489,362,278180,1,0,0:0:0:0:
436,365,278259,1,0,0:0:0:0:
384,368,278338,1,0,0:0:0:0:
436,368,278417,1,0,0:0:0:0:
487,375,278496,1,8,0:0:0:0:
434,371,278575,1,8,0:0:0:0:
454,377,278654,1,0,0:0:0:0:
454,377,278732,1,0,0:0:0:0:
454,377,278811,1,8,0:0:0:0:
412,280,278969,1,0,0:0:0:0:
448,378,279127,1,8,0:0:0:0:
430,328,279206,1,0,0:0:0:0:
430,328,279285,1,8,0:0:0:0:
430,328,279364,1,8,0:0:0:0:
334,284,279443,1,0,0:0:0:0:
241,236,279600,1,8,0:0:0:0:
172,32,279916,1,8,0:0:0:0:
269,218,280232,1,8,0:0:0:0:
243,259,280390,1,0,0:0:0:0:
191,248,280469,1,0,0:0:0:0:
138,254,280548,1,8,0:0:0:0:
85,237,280627,1,8,0:0:0:0:
120,275,280706,1,0,0:0:0:0:
120,275,280785,1,0,0:0:0:0:
120,275,280864,1,8,0:0:0:0:
120,275,280943,1,0,0:0:0:0:
120,275,281022,1,0,0:0:0:0:
120,275,281101,1,0,0:0:0:0:
143,321,281180,1,8,0:0:0:0:
117,275,281259,1,0,0:0:0:0:
140,321,281338,1,0,0:0:0:0:
140,215,281496,1,8,0:0:0:0:
240,246,281654,1,8,0:0:0:0:
287,267,281732,1,0,0:0:0:0:
328,298,281811,1,8,0:0:0:0:
302,251,281890,1,8,0:0:0:0:
302,251,281969,1,0,0:0:0:0:
323,298,282048,1,0,0:0:0:0:
323,298,282127,1,8,0:0:0:0:
323,298,282206,1,0,0:0:0:0:
323,298,282285,1,0,0:0:0:0:
323,298,282364,1,0,0:0:0:0:
323,298,282443,1,8,0:0:0:0:
323,298,282522,1,8,0:0:0:0:
323,298,282601,1,0,0:0:0:0:
408,359,282759,1,0,0:0:0:0:
416,254,282917,1,0,0:0:0:0:
406,305,282996,1,8,0:0:0:0:
358,282,283075,1,0,0:0:0:0:
358,282,283154,1,0,0:0:0:0:
358,282,283232,1,8,0:0:0:0:
410,284,283311,1,0,0:0:0:0:
357,288,283390,1,8,0:0:0:0:
409,289,283469,1,8,0:0:0:0:
410,284,283548,1,0,0:0:0:0:
409,289,283627,1,0,0:0:0:0:
409,289,283706,1,8,0:0:0:0:
409,289,283785,1,8,0:0:0:0:
409,289,283864,1,0,0:0:0:0:
485,360,284022,1,0,0:0:0:0:
485,360,284180,1,0,0:0:0:0:
433,347,284259,1,0,0:0:0:0:
483,360,284338,1,8,0:0:0:0:
430,362,284417,1,0,0:0:0:0:
459,318,284496,1,8,0:0:0:0:
379,250,284653,1,8,0:0:0:0:
206,129,284969,1,8,0:0:0:0:
206,129,285285,1,0,0:0:0:0:
104,155,285443,1,0,0:0:0:0:
58,181,285522,1,8,0:0:0:0:
19,216,285600,1,8,0:0:0:0:
64,190,285679,1,8,0:0:0:0:
29,229,285758,1,0,0:0:0:0:
69,195,285837,1,8,0:0:0:0:
34,234,285916,1,8,0:0:0:0:
34,234,285995,1,8,0:0:0:0:
34,234,286074,1,0,0:0:0:0:
34,234,286153,1,0,0:0:0:0:
34,234,286232,1,8,0:0:0:0:
72,269,286311,1,0,0:0:0:0:
28,239,286390,1,8,0:0:0:0:
131,255,286548,1,0,0:0:0:0:
150,151,286706,1,8,0:0:0:0:
165,201,286785,1,8,0:0:0:0:
195,243,286864,1,0,0:0:0:0:
195,243,286943,1,0,0:0:0:0:
239,270,287022,1,8,0:0:0:0:
239,270,287100,1,8,0:0:0:0:
239,270,287179,1,8,0:0:0:0:
288,287,287258,1,0,0:0:0:0:
236,277,287337,1,8,0:0:0:0:
287,287,287416,1,0,0:0:0:0:
287,287,287495,1,8,0:0:0:0:
287,287,287574,1,0,0:0:0:0:
287,287,287653,1,0,0:0:0:0:
249,188,287811,1,0,0:0:0:0:
322,260,287969,1,0,0:0:0:0:
354,301,288048,1,8,0:0:0:0:
354,301,288127,1,0,0:0:0:0:
354,301,288206,1,0,0:0:0:0:
392,336,288285,1,8,0:0:0:0:
353,299,288364,1,0,0:0:0:0:
390,335,288443,1,8,0:0:0:0:
392,336,288522,1,8,0:0:0:0:
390,335,288600,1,0,0:0:0:0:
390,335,288679,1,8,0:0:0:0:
423,294,288758,1,8,0:0:0:0:
423,294,288837,1,8,0:0:0:0:
423,294,288916,1,0,0:0:0:0:
478,382,289074,1,0,0:0:0:0:
431,287,289232,1,8,0:0:0:0:
454,340,289548,1,0,0:0:0:0:
454,340,289706,1,8,0:0:0:0:
473,345,290022,1,8,0:0:0:0:
473,345,290179,1,0,0:0:0:0:
473,345,290337,1,0,0:0:0:0:
468,384,290495,1,8,0:0:0:0:
323,292,290574,1,0,0:0:0:0:
273,273,290653,1,0,0:0:0:0:
223,255,290732,1,0,0:0:0:0:
173,238,290811,1,8,0:0:0:0:
122,224,290890,1,8,0:0:0:0:
122,224,290969,1,0,0:0:0:0:
122,224,291048,1,0,0:0:0:0:
122,224,291127,1,8,0:0:0:0:
122,224,291206,1,0,0:0:0:0:
122,224,291285,1,8,0:0:0:0:
141,272,291364,1,8,0:0:0:0:
122,223,291442,1,0,0:0:0:0:
219,262,291600,1,0,0:0:0:0:
317,297,291758,1,8,0:0:0:0:
366,314,291837,1,0,0:0:0:0:
413,335,291916,1,8,0:0:0:0:
457,362,291995,1,8,0:0:0:0:
408,341,292074,1,0,0:0:0:0:
454,365,292153,1,0,0:0:0:0:
454,365,292232,1,8,0:0:0:0:
454,365,292311,1,8,0:0:0:0:
441,314,292390,1,8,0:0:0:0:
461,362,292469,1,0,0:0:0:0:
461,362,292548,1,8,0:0:0:0:
441,314,292627,1,8,0:0:0:0:
406,353,292706,1,0,0:0:0:0:
510,346,292864,1,0,0:0:0:0:
414,303,293021,1,0,0:0:0:0:
365,282,293100,1,0,0:0:0:0:
316,262,293179,1,8,0:0:0:0:
265,246,293258,1,0,0:0:0:0:
216,225,293337,1,0,0:0:0:0:
163,229,293416,1,0,0:0:0:0:
212,245,293495,1,8,0:0:0:0:
212,245,293574,1,0,0:0:0:0:
159,247,293653,1,0,0:0:0:0:
211,250,293732,1,8,0:0:0:0:
211,250,293811,1,0,0:0:0:0:
160,263,293890,1,0,0:0:0:0:
211,252,293969,1,8,0:0:0:0:
123,193,294127,1,0,0:0:0:0:
216,241,294285,1,8,0:0:0:0:
262,264,294364,1,0,0:0:0:0:
308,287,294442,1,0,0:0:0:0:
354,311,294521,1,0,0:0:0:0:
400,335,294600,1,8,0:0:0:0:
308,282,294758,1,0,0:0:0:0:
213,235,294916,1,8,0:0:0:0:
205,24,295232,1,8,0:0:0:0:
267,273,295548,1,0,0:0:0:0:
316,290,295627,1,8,0:0:0:0:
363,313,295706,1,8,0:0:0:0:
407,340,295785,1,8,0:0:0:0:
359,317,295864,1,0,0:0:0:0:
406,338,295942,1,8,0:0:0:0:
353,331,296021,1,8,0:0:0:0:
404,343,296100,1,8,0:0:0:0:
369,303,296179,1,0,0:0:0:0:
369,303,296258,1,0,0:0:0:0:
369,303,296337,1,8,0:0:0:0:
369,303,296416,1,8,0:0:0:0:
369,303,296495,1,0,0:0:0:0:
452,367,296653,1,8,0:0:0:0:
452,367,296811,1,0,0:0:0:0:
452,367,296890,1,0,0:0:0:0:
452,367,296969,1,8,0:0:0:0:
452,367,297048,1,8,0:0:0:0:
452,367,297127,1,0,0:0:0:0:
452,367,297206,1,0,0:0:0:0:
452,367,297285,1,8,0:0:0:0:
452,367,297364,1,0,0:0:0:0:
452,367,297442,1,8,0:0:0:0:
452,367,297521,1,8,0:0:0:0:
452,367,297600,1,0,0:0:0:0:
452,367,297679,1,8,0:0:0:0:
439,316,297758,1,0,0:0:0:0:
452,367,297916,1,0,0:0:0:0:
452,367,298074,1,8,0:0:0:0:
452,367,298153,1,8,0:0:0:0:
452,367,298232,1,8,0:0:0:0:
452,367,298311,1,8,0:0:0:0:
504,367,298390,1,0,0:0:0:0:
451,370,298469,1,0,0:0:0:0:
399,373,298548,1,0,0:0:0:0:
451,373,298627,1,0,0:0:0:0:
502,380,298706,1,8,0:0:0:0:
449,376,298785,1,8,0:0:0:0:
469,382,298864,1,0,0:0:0:0:
469,382,298942,1,0,0:0:0:0:
469,382,299021,1,8,0:0:0:0:
427,285,299179,1,0,0:0:0:0:
463,383,299337,1,8,0:0:0:0:
445,333,299416,1,0,0:0:0:0:
445,333,299495,1,8,0:0:0:0:
445,333,299574,1,8,0:0:0:0:
349,289,299653,1,0,0:0:0:0:
295,198,299811,5,0,0:0:0:0:
246,104,299969,1,8,0:0:0:0:
237,79,300285,1,8,0:0:0:0:
258,264,300600,1,0,0:0:0:0:
206,253,300679,1,0,0:0:0:0:
153,259,300758,1,8,0:0:0:0:
100,242,300837,1,8,0:0:0:0:
135,280,300916,1,0,0:0:0:0:
135,280,300995,1,0,0:0:0:0:
135,280,301074,1,8,0:0:0:0:
135,280,301153,1,0,0:0:0:0:
135,280,301232,1,0,0:0:0:0:
135,280,301311,1,0,0:0:0:0:
158,326,301390,1,8,0:0:0:0:
132,280,301469,1,0,0:0:0:0:
155,326,301548,1,0,0:0:0:0:
155,220,301706,1,8,0:0:0:0:
255,251,301864,1,8,0:0:0:0:
302,272,301942,1,0,0:0:0:0:
343,303,302021,1,8,0:0:0:0:
317,256,302100,1,8,0:0:0:0:
317,256,302179,1,0,0:0:0:0:
338,303,302258,1,0,0:0:0:0:
338,303,302337,1,8,0:0:0:0:
338,303,302416,1,0,0:0:0:0:
338,303,302495,1,0,0:0:0:0:
338,303,302574,1,0,0:0:0:0:
338,303,302653,1,8,0:0:0:0:
338,303,302732,1,8,0:0:0:0:
338,303,302811,1,0,0:0:0:0:
423,364,302969,1,0,0:0:0:0:
431,259,303127,1,0,0:0:0:0:
421,310,303206,1,8,0:0:0:0:
373,287,303285,1,0,0:0:0:0:
373,287,303364,1,0,0:0:0:0:
373,287,303442,1,8,0:0:0:0:
425,289,303521,1,0,0:0:0:0:
372,293,303600,1,8,0:0:0:0:
424,294,303679,1,8,0:0:0:0:
425,289,303758,1,0,0:0:0:0:
424,294,303837,1,0,0:0:0:0:
424,294,303916,1,8,0:0:0:0:
424,294,303995,1,8,0:0:0:0:
424,294,304074,1,0,0:0:0:0:
500,365,304232,1,0,0:0:0:0:
500,365,304390,1,0,0:0:0:0:
448,352,304469,1,0,0:0:0:0:
498,365,304548,1,8,0:0:0:0:
445,367,304627,1,0,0:0:0:0:
474,323,304706,1,8,0:0:0:0:
387,263,304864,1,0,0:0:0:0:
316,184,305022,1,8,0:0:0:0:
249,103,305179,1,8,0:0:0:0:
249,103,305337,1,8,0:0:0:0:
119,160,305653,1,0,0:0:0:0:
73,186,305732,1,8,0:0:0:0:
34,221,305810,1,8,0:0:0:0:
79,195,305889,1,8,0:0:0:0:
44,234,305968,1,0,0:0:0:0:
84,200,306047,1,8,0:0:0:0:
49,239,306126,1,8,0:0:0:0:
49,239,306205,1,8,0:0:0:0:
49,239,306284,1,0,0:0:0:0:
49,239,306363,1,0,0:0:0:0:
49,239,306442,1,8,0:0:0:0:
87,274,306521,1,0,0:0:0:0:
43,244,306600,1,8,0:0:0:0:
146,260,306758,1,0,0:0:0:0:
165,156,306916,1,8,0:0:0:0:
180,206,306995,1,8,0:0:0:0:
210,248,307074,1,0,0:0:0:0:
210,248,307153,1,0,0:0:0:0:
254,275,307232,1,8,0:0:0:0:
254,275,307310,1,8,0:0:0:0:
254,275,307389,1,8,0:0:0:0:
303,292,307468,1,0,0:0:0:0:
251,282,307547,1,8,0:0:0:0:
302,292,307626,1,0,0:0:0:0:
302,292,307705,1,8,0:0:0:0:
302,292,307784,1,0,0:0:0:0:
302,292,307863,1,0,0:0:0:0:
264,193,308021,1,0,0:0:0:0:
337,265,308179,5,0,0:0:0:0:
369,306,308258,1,8,0:0:0:0:
369,306,308337,1,0,0:0:0:0:
369,306,308416,1,0,0:0:0:0:
407,341,308495,1,8,0:0:0:0:
368,304,308574,1,0,0:0:0:0:
405,340,308653,1,8,0:0:0:0:
407,341,308732,1,8,0:0:0:0:
405,340,308810,1,0,0:0:0:0:
405,340,308889,1,8,0:0:0:0:
438,299,308968,1,8,0:0:0:0:
438,299,309047,1,8,0:0:0:0:
438,299,309126,1,0,0:0:0:0:
456,368,309285,5,8,0:0:0:0:
456,368,309443,1,8,0:0:0:0:
456,368,309600,1,8,0:0:0:0:
456,368,309758,1,8,0:0:0:0:
456,368,309916,1,8,0:0:0:0:
475,373,310074,1,8,0:0:0:0:
335,299,310390,5,8,0:0:0:0:
468,384,310706,1,8,0:0:0:0:
418,338,310785,1,0,0:0:0:0:
418,338,310864,1,8,0:0:0:0:
418,338,311022,1,0,0:0:0:0:
418,338,311180,1,0,0:0:0:0:
442,235,311338,1,0,0:0:0:0:
443,287,311417,1,0,0:0:0:0:
427,339,311496,1,8,0:0:0:0:
475,319,311575,1,0,0:0:0:0:
458,363,311654,1,0,0:0:0:0:
458,363,311812,1,0,0:0:0:0:
458,363,311970,1,8,0:0:0:0:
458,363,312049,1,8,0:0:0:0:
458,363,312128,1,0,0:0:0:0:
458,363,312285,1,8,0:0:0:0:
458,363,312443,1,0,0:0:0:0:
458,363,312601,1,8,0:0:0:0:
458,363,312680,1,0,0:0:0:0:
458,363,312759,1,8,0:0:0:0:
458,363,312838,1,8,0:0:0:0:
458,363,312917,1,0,0:0:0:0:
380,291,313075,1,0,0:0:0:0:
380,291,313233,1,0,0:0:0:0:
400,242,313312,1,8,0:0:0:0:
400,242,313391,1,0,0:0:0:0:
303,240,313549,1,0,0:0:0:0:
390,296,313706,1,8,0:0:0:0:
467,366,313864,1,0,0:0:0:0:
426,332,313943,1,0,0:0:0:0:
426,332,314022,1,8,0:0:0:0:
426,332,314101,1,8,0:0:0:0:
426,332,314180,1,0,0:0:0:0:
457,350,314338,1,0,0:0:0:0:
457,350,314496,1,8,0:0:0:0:
457,350,314575,1,0,0:0:0:0:
464,369,314654,1,0,0:0:0:0:
457,350,314812,1,8,0:0:0:0:
391,268,314969,1,0,0:0:0:0:
328,183,315127,1,8,0:0:0:0:
386,270,315285,1,0,0:0:0:0:
462,344,315443,1,8,0:0:0:0:
447,330,315601,1,0,0:0:0:0:
457,350,315680,1,0,0:0:0:0:
457,350,315759,1,0,0:0:0:0:
457,350,315838,1,0,0:0:0:0:
457,350,315917,1,8,0:0:0:0:
457,350,316075,1,0,0:0:0:0:
457,350,316233,1,8,0:0:0:0:
457,350,316312,1,0,0:0:0:0:
457,350,316391,1,0,0:0:0:0:
457,350,316470,1,8,0:0:0:0:
457,350,316549,1,8,0:0:0:0:
457,350,316706,1,0,0:0:0:0:
457,350,316864,1,8,0:0:0:0:
457,350,316943,1,0,0:0:0:0:
457,350,317022,1,8,0:0:0:0:
457,350,317101,1,0,0:0:0:0:
457,350,317180,1,8,0:0:0:0:
457,350,317338,1,0,0:0:0:0:
457,350,317496,1,8,0:0:0:0:
457,297,317575,1,8,0:0:0:0:
461,349,317654,1,0,0:0:0:0:
458,296,317733,1,0,0:0:0:0:
470,347,317812,1,8,0:0:0:0:
470,347,317970,1,0,0:0:0:0:
371,310,318128,1,8,0:0:0:0:
422,312,318206,1,0,0:0:0:0:
268,288,318285,1,8,0:0:0:0:
318,301,318364,1,8,0:0:0:0:
162,273,318443,1,8,0:0:0:0:
264,298,318601,1,0,0:0:0:0:
365,323,318759,1,8,0:0:0:0:
415,337,318838,1,8,0:0:0:0:
463,356,318917,1,0,0:0:0:0:
463,356,318996,1,0,0:0:0:0:
413,338,319075,1,8,0:0:0:0:
363,320,319154,1,8,0:0:0:0:
441,307,319233,1,0,0:0:0:0:
441,307,319312,1,0,0:0:0:0:
454,357,319391,1,8,0:0:0:0:
387,275,319549,1,0,0:0:0:0:
407,329,319628,1,0,0:0:0:0:
375,288,319706,1,8,0:0:0:0:
344,245,319785,1,8,0:0:0:0:
374,287,319864,1,0,0:0:0:0:
286,228,320022,1,8,0:0:0:0:
362,299,320180,1,0,0:0:0:0:
318,269,320259,1,8,0:0:0:0:
360,299,320338,1,8,0:0:0:0:
313,274,320417,1,8,0:0:0:0:
360,299,320496,1,0,0:0:0:0:
360,299,320654,1,8,0:0:0:0:
266,251,320812,1,0,0:0:0:0:
219,226,320891,1,0,0:0:0:0:
219,226,320970,1,8,0:0:0:0:
297,261,321128,1,0,0:0:0:0:
450,220,321285,1,0,0:0:0:0:
390,307,321364,1,8,0:0:0:0:
390,307,321443,1,0,0:0:0:0:
390,307,321522,1,0,0:0:0:0:
390,307,321601,1,8,0:0:0:0:
493,325,321759,1,0,0:0:0:0:
388,331,321917,1,8,0:0:0:0:
435,309,321996,1,8,0:0:0:0:
440,323,322075,1,8,0:0:0:0:
435,309,322233,1,0,0:0:0:0:
457,353,322391,1,8,0:0:0:0:
457,353,322548,1,0,0:0:0:0:
457,353,322627,1,0,0:0:0:0:
457,353,322706,1,8,0:0:0:0:
457,353,322785,1,8,0:0:0:0:
457,353,322864,1,0,0:0:0:0:
457,353,323022,1,0,0:0:0:0:
466,248,323180,1,8,0:0:0:0:
457,353,323259,1,8,0:0:0:0:
457,353,323338,1,0,0:0:0:0:
414,256,323496,1,0,0:0:0:0:
455,352,323654,1,8,0:0:0:0:
404,259,323812,1,0,0:0:0:0:
430,304,323891,1,8,0:0:0:0:
457,348,323970,1,8,0:0:0:0:
430,304,324048,1,0,0:0:0:0:
457,348,324127,1,0,0:0:0:0:
457,348,324285,1,8,0:0:0:0:
457,348,324443,1,0,0:0:0:0:
407,330,324522,1,8,0:0:0:0:
454,352,324601,1,8,0:0:0:0:
427,250,324759,1,8,0:0:0:0:
454,352,324917,1,0,0:0:0:0:
378,279,325075,1,8,0:0:0:0:
482,321,325233,1,8,0:0:0:0:
453,351,325391,1,8,0:0:0:0:
354,316,325548,1,8,0:0:0:0:
454,352,325706,1,8,0:0:0:0:
404,333,325785,1,8,0:0:0:0:
353,318,325864,1,0,0:0:0:0:
302,303,325943,1,0,0:0:0:0:
251,289,326022,1,8,0:0:0:0:
349,324,326180,1,0,0:0:0:0:
452,341,326338,1,8,0:0:0:0:
452,341,326417,1,0,0:0:0:0:
452,341,326496,1,8,0:0:0:0:
462,357,326575,1,8,0:0:0:0:
462,357,326654,1,0,0:0:0:0:
462,357,326812,1,8,0:0:0:0:
462,357,326970,1,0,0:0:0:0:
462,357,327049,1,8,0:0:0:0:
462,357,327128,1,8,0:0:0:0:
462,357,327206,1,0,0:0:0:0:
449,374,327285,1,8,0:0:0:0:
426,271,327443,1,0,0:0:0:0:
455,371,327601,1,8,0:0:0:0:
455,371,327680,1,0,0:0:0:0:
455,371,327759,1,0,0:0:0:0:
455,371,327838,1,0,0:0:0:0:
455,371,327917,1,8,0:0:0:0:
440,267,328074,1,8,0:0:0:0:
455,370,328232,1,0,0:0:0:0:
446,318,328311,1,0,0:0:0:0:
446,318,328390,1,8,0:0:0:0:
446,318,328469,1,8,0:0:0:0:
446,318,328548,1,0,0:0:0:0:
446,318,328706,1,8,0:0:0:0:
464,342,328864,1,0,0:0:0:0:
464,342,328943,1,8,0:0:0:0:
464,342,329022,1,8,0:0:0:0:
464,342,329100,1,8,0:0:0:0:
464,342,329179,1,0,0:0:0:0:
464,342,329337,1,8,0:0:0:0:
464,342,329495,1,0,0:0:0:0:
464,342,329574,1,0,0:0:0:0:
472,366,329653,1,8,0:0:0:0:
464,342,329732,1,0,0:0:0:0:
464,342,329811,1,0,0:0:0:0:
464,342,329890,1,0,0:0:0:0:
464,342,329969,1,8,0:0:0:0:
487,344,330127,1,0,0:0:0:0:
487,344,330206,1,0,0:0:0:0:
487,344,330285,1,8,0:0:0:0:
472,357,330443,1,0,0:0:0:0:
472,357,330600,1,8,0:0:0:0:
472,357,330758,1,0,0:0:0:0:
472,357,330916,1,12,0:0:0:0:
472,357,331074,1,0,0:0:0:0:
420,347,331153,1,0,0:0:0:0:
471,356,331232,1,0,0:0:0:0:
472,357,331390,1,8,0:0:0:0:
463,374,331548,1,0,0:0:0:0:
436,272,331706,1,0,0:0:0:0:
330,272,331864,1,8,0:0:0:0:
436,272,332179,1,0,0:0:0:0:
436,272,332337,1,0,0:0:0:0:
436,272,332416,1,0,0:0:0:0:
446,323,332495,1,8,0:0:0:0:
436,272,332653,1,8,0:0:0:0:
436,272,332811,1,0,0:0:0:0:
436,272,332969,1,0,0:0:0:0:
381,361,333127,1,8,0:0:0:0:
465,369,333443,1,0,0:0:0:0:
465,369,333600,1,8,0:0:0:0:
465,369,333679,1,8,0:0:0:0:
465,369,333758,1,0,0:0:0:0:
465,369,333916,1,8,0:0:0:0:
465,369,334074,1,0,0:0:0:0:
465,369,334232,1,0,0:0:0:0:
465,369,334390,1,8,0:0:0:0:
465,369,334706,1,0,0:0:0:0:
459,290,334864,1,8,0:0:0:0:
460,329,334943,1,0,0:0:0:0:
460,329,335022,1,8,0:0:0:0:
460,329,335179,1,8,0:0:0:0:
460,329,335337,1,0,0:0:0:0:
451,349,335495,1,0,0:0:0:0:
451,349,335653,1,8,0:0:0:0:
465,369,335969,1,0,0:0:0:0:
451,349,336127,1,0,0:0:0:0:
451,349,336206,1,8,0:0:0:0:
451,349,336285,1,0,0:0:0:0:
451,349,336443,1,8,0:0:0:0:
451,349,336600,1,0,0:0:0:0:
465,369,336758,1,0,0:0:0:0:
465,369,336916,1,8,0:0:0:0:
465,369,337232,1,0,0:0:0:0:
451,349,337390,1,8,0:0:0:0:
451,349,337469,1,0,0:0:0:0:
451,349,337548,1,0,0:0:0:0:
451,349,337706,1,8,0:0:0:0:
451,349,337864,1,0,0:0:0:0:
451,349,338022,1,0,0:0:0:0:
451,349,338179,1,8,0:0:0:0:
465,369,338495,1,0,0:0:0:0:
465,369,338653,1,0,0:0:0:0:
465,369,338732,1,0,0:0:0:0:
451,349,338811,1,0,0:0:0:0:
465,369,338969,1,8,0:0:0:0:
451,349,339127,1,0,0:0:0:0:
465,369,339285,1,0,0:0:0:0:
465,369,339443,1,8,0:0:0:0:
453,329,339758,1,0,0:0:0:0:
466,342,339916,1,0,0:0:0:0:
451,349,339995,1,8,0:0:0:0:
451,349,340074,1,8,0:0:0:0:
466,342,340232,1,8,0:0:0:0:
466,342,340390,1,0,0:0:0:0:
466,342,340548,1,0,0:0:0:0:
466,342,340706,1,8,0:0:0:0:
320,282,341022,1,0,0:0:0:0:
472,357,341179,1,0,0:0:0:0:
420,347,341258,1,0,0:0:0:0:
471,356,341337,1,0,0:0:0:0:
472,357,341495,1,8,0:0:0:0:
463,374,341653,1,0,0:0:0:0:
436,272,341811,1,0,0:0:0:0:
330,272,341969,1,8,0:0:0:0:
436,272,342284,1,0,0:0:0:0:
436,272,342442,1,0,0:0:0:0:
436,272,342521,1,0,0:0:0:0:
446,323,342600,1,8,0:0:0:0:
436,272,342758,1,8,0:0:0:0:
436,272,342916,1,0,0:0:0:0:
436,272,343074,1,0,0:0:0:0:
381,361,343232,1,8,0:0:0:0:
465,369,343548,1,0,0:0:0:0:
465,369,343705,1,8,0:0:0:0:
465,369,343784,1,8,0:0:0:0:
465,369,343863,1,0,0:0:0:0:
465,369,344021,1,8,0:0:0:0:
465,369,344179,1,0,0:0:0:0:
465,369,344337,1,0,0:0:0:0:
465,369,344495,1,8,0:0:0:0:
465,369,344811,1,0,0:0:0:0:
459,290,344969,1,8,0:0:0:0:
460,329,345048,1,0,0:0:0:0:
460,329,345127,1,8,0:0:0:0:
460,329,345284,1,8,0:0:0:0:
460,329,345442,1,0,0:0:0:0:
451,349,345600,1,0,0:0:0:0:
451,349,345758,1,8,0:0:0:0:
465,369,346074,1,0,0:0:0:0:
451,349,346232,1,0,0:0:0:0:
451,349,346311,1,8,0:0:0:0:
451,349,346390,1,0,0:0:0:0:
451,349,346548,1,8,0:0:0:0:
451,349,346705,1,0,0:0:0:0:
465,369,346863,1,0,0:0:0:0:
465,369,347021,1,8,0:0:0:0:
465,369,347337,1,0,0:0:0:0:
451,349,347495,1,8,0:0:0:0:
451,349,347574,1,0,0:0:0:0:
451,349,347653,1,0,0:0:0:0:
451,349,347811,1,8,0:0:0:0:
451,349,347969,1,0,0:0:0:0:
451,349,348127,1,0,0:0:0:0:
451,349,348284,1,8,0:0:0:0:
465,369,348600,1,0,0:0:0:0:
465,369,348758,1,0,0:0:0:0:
465,369,348837,1,0,0:0:0:0:
451,349,348916,1,0,0:0:0:0:
465,369,349074,1,8,0:0:0:0:
451,349,349232,1,0,0:0:0:0:
465,369,349390,1,0,0:0:0:0:
465,369,349548,1,8,0:0:0:0:
476,348,349864,1,8,0:0:0:0:
476,348,350022,1,0,0:0:0:0:
476,348,350337,1,0,0:0:0:0:
476,348,350653,1,0,0:0:0:0:
476,348,350811,1,8,0:0:0:0:
476,348,350969,1,0,0:0:0:0:
