osu file format v14

[General]
AudioFilename: audio.mp3
AudioLeadIn: 0
PreviewTime: 274987
Countdown: 1
SampleSet: Normal
StackLeniency: 0.7
Mode: 1
LetterboxInBreaks: 0
WidescreenStoryboard: 0

[Editor]
Bookmarks: 21094,26146,41462,51409,61514,71619,81724,91830,101935,112040,122145,132251,152461,162566,172672,182777,192882,202987,213093,223198,233303,243409,256040,276251,316672,326777,336882,346987,357093
DistanceSpacing: 1.2
BeatDivisor: 4
GridSize: 8
TimelineZoom: 2.3

[Metadata]
Title:Take
TitleUnicode:Take
Artist:VINXIS
ArtistUnicode:VINXIS
Creator:vrnl
Version:Inner Oni
Source:osu!
Tags:drum and bass dnb drumstep featured artist fa
BeatmapID:1736173
BeatmapSetID:828670

[Difficulty]
HPDrainRate:4
CircleSize:5
OverallDifficulty:6
ApproachRate:5
SliderMultiplier:1.4
SliderTickRate:1

[Events]
//Background and Video events
0,0,"bg.jpg",0,0
//Break Periods
//Storyboard Layer 0 (Background)
//Storyboard Layer 1 (Fail)
//Storyboard Layer 2 (Pass)
//Storyboard Layer 3 (Foreground)
//Storyboard Sound Samples

[TimingPoints]
7199,315.789473684211,4,1,0,15,1,0
23620,-100,4,1,0,20,0,0
24883,-100,4,1,0,25,0,0
26146,-100,4,1,0,30,0,0
67829,-100,4,1,0,50,0,0
88041,-100,4,1,0,80,0,1
106988,-100,4,1,0,80,0,0
108251,-100,4,1,0,80,0,1
128462,-100,4,1,0,80,0,0
128619,-100,4,1,0,40,0,0
252251,-100,4,1,0,80,0,1
271199,-100,4,1,0,80,0,0
272462,-100,4,1,0,80,0,1
291409,-100,4,1,0,80,0,0
292672,-100,4,1,0,80,0,1
312251,-100,4,1,0,80,0,0
313040,-100,4,1,0,60,0,0

[HitObjects]
312,177,7199,5,0,0:0:0:0:
297,194,7356,1,2,0:0:0:0:
297,194,7435,1,2,0:0:0:0:
297,194,7514,1,2,0:0:0:0:
297,194,7672,1,2,0:0:0:0:
297,194,7988,1,0,0:0:0:0:
297,194,8146,1,2,0:0:0:0:
129,158,8462,1,0,0:0:0:0:
129,158,8620,1,2,0:0:0:0:
129,158,8699,1,0,0:0:0:0:
88,172,8777,1,2,0:0:0:0:
88,172,8935,1,2,0:0:0:0:
88,172,9014,1,2,0:0:0:0:
129,158,9251,1,0,0:0:0:0:
129,158,9409,1,2,0:0:0:0:
88,172,9725,1,0,0:0:0:0:
129,158,9883,1,2,0:0:0:0:
143,144,9962,1,2,0:0:0:0:
143,144,10041,1,2,0:0:0:0:
129,158,10199,1,2,0:0:0:0:
143,144,10514,1,0,0:0:0:0:
129,158,10672,1,2,0:0:0:0:
143,144,10988,1,0,0:0:0:0:
129,158,11146,1,2,0:0:0:0:
143,144,11225,1,0,0:0:0:0:
143,144,11304,1,2,0:0:0:0:
129,158,11462,1,2,0:0:0:0:
143,144,11541,1,0,0:0:0:0:
143,144,11777,1,0,0:0:0:0:
129,158,11935,1,2,0:0:0:0:
312,177,12251,1,0,0:0:0:0:
297,194,12409,1,2,0:0:0:0:
297,194,12488,1,2,0:0:0:0:
297,194,12567,1,2,0:0:0:0:
297,194,12725,1,2,0:0:0:0:
62,166,12962,1,0,0:0:0:0:
297,194,13041,1,0,0:0:0:0:
297,194,13199,1,2,0:0:0:0:
129,158,13514,1,0,0:0:0:0:
129,158,13672,1,2,0:0:0:0:
129,158,13751,1,0,0:0:0:0:
88,172,13830,1,2,0:0:0:0:
88,172,13988,1,2,0:0:0:0:
155,181,14225,1,0,0:0:0:0:
129,158,14304,1,0,0:0:0:0:
129,158,14462,1,2,0:0:0:0:
88,172,14777,1,0,0:0:0:0:
129,158,14935,1,2,0:0:0:0:
143,144,15014,1,2,0:0:0:0:
143,144,15093,1,2,0:0:0:0:
129,158,15251,1,2,0:0:0:0:
155,181,15330,1,0,0:0:0:0:
143,144,15567,1,0,0:0:0:0:
155,181,15646,1,0,0:0:0:0:
129,158,15725,1,2,0:0:0:0:
143,144,16041,1,0,0:0:0:0:
129,158,16199,1,2,0:0:0:0:
143,144,16277,1,0,0:0:0:0:
143,144,16356,1,2,0:0:0:0:
129,158,16514,1,2,0:0:0:0:
143,144,16593,1,0,0:0:0:0:
155,181,16751,1,0,0:0:0:0:
143,144,16830,1,0,0:0:0:0:
129,158,16988,1,0,0:0:0:0:
312,177,17304,1,0,0:0:0:0:
297,194,17462,1,2,0:0:0:0:
297,194,17541,1,2,0:0:0:0:
297,194,17620,1,2,0:0:0:0:
297,194,17777,1,2,0:0:0:0:
111,205,17856,1,2,0:0:0:0:
297,194,18093,1,0,0:0:0:0:
297,194,18251,1,2,0:0:0:0:
129,158,18567,1,0,0:0:0:0:
129,158,18725,1,2,0:0:0:0:
129,158,18804,1,0,0:0:0:0:
88,172,18883,1,2,0:0:0:0:
88,172,19041,1,2,0:0:0:0:
88,172,19120,1,2,0:0:0:0:
129,158,19356,1,0,0:0:0:0:
129,158,19514,1,2,0:0:0:0:
194,128,19672,1,0,0:0:0:0:
88,172,19830,1,0,0:0:0:0:
129,158,19988,1,2,0:0:0:0:
143,144,20067,1,2,0:0:0:0:
143,144,20146,1,2,0:0:0:0:
129,158,20304,1,2,0:0:0:0:
155,181,20383,1,0,0:0:0:0:
143,144,20620,1,0,0:0:0:0:
155,181,20699,1,0,0:0:0:0:
129,158,20777,1,2,0:0:0:0:
143,144,21093,1,0,0:0:0:0:
129,158,21251,1,2,0:0:0:0:
143,144,21330,1,0,0:0:0:0:
143,144,21409,1,2,0:0:0:0:
129,158,21567,1,2,0:0:0:0:
143,144,21646,1,0,0:0:0:0:
155,181,21804,1,0,0:0:0:0:
143,144,21883,1,0,0:0:0:0:
155,181,21962,1,0,0:0:0:0:
129,158,22041,1,2,0:0:0:0:
75,118,22199,1,0,0:0:0:0:
214,194,22356,1,0,0:0:0:0:
129,158,22514,1,2,0:0:0:0:
129,158,22593,1,0,0:0:0:0:
131,160,22672,1,2,0:0:0:0:
131,160,22830,1,0,0:0:0:0:
129,158,22988,1,0,0:0:0:0:
129,158,23067,1,0,0:0:0:0:
129,158,23146,1,0,0:0:0:0:
129,158,23304,1,2,0:0:0:0:
129,158,23462,1,0,0:0:0:0:
216,194,23620,1,0,0:0:0:0:
216,194,23777,1,0,0:0:0:0:
216,194,23856,1,0,0:0:0:0:
216,194,23935,1,2,0:0:0:0:
216,194,24014,1,0,0:0:0:0:
216,194,24093,1,0,0:0:0:0:
216,194,24251,1,0,0:0:0:0:
216,194,24330,1,2,0:0:0:0:
216,194,24409,1,0,0:0:0:0:
216,194,24567,1,2,0:0:0:0:
179,103,24883,1,0,0:0:0:0:
186,179,25041,1,0,0:0:0:0:
186,179,25120,1,0,0:0:0:0:
186,179,25199,1,2,0:0:0:0:
186,179,25277,1,2,0:0:0:0:
186,179,25435,1,0,0:0:0:0:
186,179,25593,1,0,0:0:0:0:
186,179,25672,1,0,0:0:0:0:
186,179,25830,1,2,0:0:0:0:
267,186,25988,1,0,0:0:0:0:
120,166,26146,1,0,0:0:0:0:
120,166,26304,1,0,0:0:0:0:
120,166,26383,1,0,0:0:0:0:
120,166,26462,1,2,0:0:0:0:
120,166,26541,1,2,0:0:0:0:
120,166,26620,1,0,0:0:0:0:
120,166,26699,1,0,0:0:0:0:
120,166,26935,1,0,0:0:0:0:
120,166,27093,1,2,0:0:0:0:
120,166,27251,1,0,0:0:0:0:
120,166,27330,1,0,0:0:0:0:
120,166,27409,1,0,0:0:0:0:
207,224,27567,1,0,0:0:0:0:
207,224,27883,1,0,0:0:0:0:
207,224,28041,1,2,0:0:0:0:
207,224,28356,1,2,0:0:0:0:
207,224,28830,1,2,0:0:0:0:
207,224,29146,1,0,0:0:0:0:
207,224,29304,1,2,0:0:0:0:
207,224,29620,1,2,0:0:0:0:
207,224,30093,1,0,0:0:0:0:
207,224,30409,1,0,0:0:0:0:
207,224,30567,1,2,0:0:0:0:
207,224,30883,1,2,0:0:0:0:
207,224,31356,1,2,0:0:0:0:
207,224,31672,1,0,0:0:0:0:
207,224,31830,1,2,0:0:0:0:
207,224,32146,1,2,0:0:0:0:
207,224,32620,1,0,0:0:0:0:
207,224,32935,1,0,0:0:0:0:
207,224,33093,1,2,0:0:0:0:
207,224,33409,1,2,0:0:0:0:
196,115,33567,1,0,0:0:0:0:
158,110,33883,1,2,0:0:0:0:
207,224,34199,1,0,0:0:0:0:
207,224,34356,1,2,0:0:0:0:
207,224,34672,1,2,0:0:0:0:
139,132,34830,1,2,0:0:0:0:
207,224,35146,1,0,0:0:0:0:
207,224,35462,1,0,0:0:0:0:
139,132,35620,1,2,0:0:0:0:
207,224,35935,1,0,0:0:0:0:
102,124,36093,1,0,0:0:0:0:
207,224,36409,1,2,0:0:0:0:
207,224,36725,1,0,0:0:0:0:
207,224,36883,1,2,0:0:0:0:
207,224,37199,1,2,0:0:0:0:
109,188,37356,1,2,0:0:0:0:
109,188,37514,1,0,0:0:0:0:
109,188,37672,1,2,0:0:0:0:
251,88,37830,1,2,0:0:0:0:
251,88,37909,1,2,0:0:0:0:
251,88,37988,1,2,0:0:0:0:
53,181,38146,1,0,0:0:0:0:
53,181,38304,1,2,0:0:0:0:
53,181,38462,1,2,0:0:0:0:
53,181,38620,1,0,0:0:0:0:
197,175,38935,1,2,0:0:0:0:
197,175,39093,1,0,0:0:0:0:
197,175,39172,1,0,0:0:0:0:
197,175,39251,1,2,0:0:0:0:
197,175,39409,1,2,0:0:0:0:
197,175,39567,1,0,0:0:0:0:
197,175,39725,1,2,0:0:0:0:
197,175,39804,1,2,0:0:0:0:
140,133,39883,1,2,0:0:0:0:
109,188,40199,1,2,0:0:0:0:
251,88,40356,1,2,0:0:0:0:
251,88,40435,1,2,0:0:0:0:
251,88,40514,1,2,0:0:0:0:
53,181,40672,1,0,0:0:0:0:
53,181,40830,1,2,0:0:0:0:
53,181,40988,1,2,0:0:0:0:
53,181,41146,1,0,0:0:0:0:
197,175,41462,1,2,0:0:0:0:
197,175,41620,1,0,0:0:0:0:
197,175,41699,1,0,0:0:0:0:
197,175,41777,1,2,0:0:0:0:
197,175,41935,1,2,0:0:0:0:
197,175,42093,1,0,0:0:0:0:
197,175,42251,1,2,0:0:0:0:
197,175,42330,1,2,0:0:0:0:
127,143,42409,1,2,0:0:0:0:
127,143,42567,1,0,0:0:0:0:
109,188,42725,1,0,0:0:0:0:
251,88,42883,1,2,0:0:0:0:
251,88,42962,1,0,0:0:0:0:
251,88,43041,1,2,0:0:0:0:
53,181,43199,1,0,0:0:0:0:
53,181,43356,1,2,0:0:0:0:
53,181,43514,1,2,0:0:0:0:
53,181,43672,1,0,0:0:0:0:
197,175,43988,1,2,0:0:0:0:
197,175,44146,1,0,0:0:0:0:
197,175,44225,1,0,0:0:0:0:
197,175,44304,1,2,0:0:0:0:
197,175,44462,1,2,0:0:0:0:
197,175,44620,1,0,0:0:0:0:
197,175,44777,1,2,0:0:0:0:
197,175,44856,1,2,0:0:0:0:
167,128,44935,1,2,0:0:0:0:
109,188,45251,1,0,0:0:0:0:
251,88,45409,1,2,0:0:0:0:
251,88,45488,1,0,0:0:0:0:
251,88,45567,1,2,0:0:0:0:
53,181,45725,1,0,0:0:0:0:
53,181,45883,1,2,0:0:0:0:
53,181,46041,1,2,0:0:0:0:
59,108,46120,1,2,0:0:0:0:
53,181,46199,1,0,0:0:0:0:
71,107,46356,1,2,0:0:0:0:
197,175,46514,1,2,0:0:0:0:
197,175,46672,1,0,0:0:0:0:
197,175,46751,1,0,0:0:0:0:
197,175,46830,1,2,0:0:0:0:
197,175,46988,1,2,0:0:0:0:
197,175,47146,1,0,0:0:0:0:
197,175,47304,1,2,0:0:0:0:
197,175,47383,1,2,0:0:0:0:
149,137,47462,1,2,0:0:0:0:
149,137,47620,1,0,0:0:0:0:
226,178,47777,1,2,0:0:0:0:
226,178,47856,1,0,0:0:0:0:
226,178,47935,1,0,0:0:0:0:
226,178,48014,1,2,0:0:0:0:
226,178,48093,1,0,0:0:0:0:
68,128,48251,1,0,0:0:0:0:
169,113,48409,1,0,0:0:0:0:
211,63,48567,1,2,0:0:0:0:
93,110,48725,1,2,0:0:0:0:
150,68,48883,1,0,0:0:0:0:
150,68,48962,1,0,0:0:0:0:
150,68,49041,1,2,0:0:0:0:
126,289,49199,1,0,0:0:0:0:
150,68,49356,1,0,0:0:0:0:
150,68,49514,1,2,0:0:0:0:
150,68,49593,1,0,0:0:0:0:
150,68,49672,1,2,0:0:0:0:
150,68,49751,1,2,0:0:0:0:
150,68,49830,1,0,0:0:0:0:
150,68,49988,1,2,0:0:0:0:
167,180,50146,1,0,0:0:0:0:
167,180,50304,1,0,0:0:0:0:
167,180,50383,1,0,0:0:0:0:
167,180,50462,1,2,0:0:0:0:
128,164,50777,1,2,0:0:0:0:
128,164,50856,1,0,0:0:0:0:
122,165,50935,1,2,0:0:0:0:
223,144,51093,1,2,0:0:0:0:
223,144,51172,1,2,0:0:0:0:
223,144,51251,1,2,0:0:0:0:
223,144,51330,1,0,0:0:0:0:
223,144,51409,1,2,0:0:0:0:
76,113,51567,1,0,0:0:0:0:
223,144,51725,1,2,0:0:0:0:
223,144,51804,1,0,0:0:0:0:
223,144,51883,1,0,0:0:0:0:
223,144,52041,1,2,0:0:0:0:
223,144,52120,1,0,0:0:0:0:
223,144,52199,1,2,0:0:0:0:
223,144,52277,1,0,0:0:0:0:
223,144,52356,1,2,0:0:0:0:
149,137,52672,1,0,0:0:0:0:
226,178,52830,1,2,0:0:0:0:
226,178,52909,1,0,0:0:0:0:
226,178,52988,1,0,0:0:0:0:
226,178,53067,1,2,0:0:0:0:
226,178,53146,1,0,0:0:0:0:
68,128,53304,1,0,0:0:0:0:
211,63,53462,1,0,0:0:0:0:
211,63,53620,1,2,0:0:0:0:
93,110,53777,1,2,0:0:0:0:
150,68,53935,1,0,0:0:0:0:
150,68,54014,1,0,0:0:0:0:
150,68,54093,1,2,0:0:0:0:
169,113,54251,1,0,0:0:0:0:
150,68,54409,1,0,0:0:0:0:
150,68,54567,1,2,0:0:0:0:
150,68,54646,1,0,0:0:0:0:
150,68,54725,1,2,0:0:0:0:
150,68,54804,1,2,0:0:0:0:
150,68,54883,1,0,0:0:0:0:
150,68,55041,1,2,0:0:0:0:
167,180,55199,1,0,0:0:0:0:
167,180,55356,1,0,0:0:0:0:
167,180,55435,1,0,0:0:0:0:
167,180,55514,1,2,0:0:0:0:
128,164,55830,1,2,0:0:0:0:
128,164,55909,1,0,0:0:0:0:
122,165,55988,1,2,0:0:0:0:
223,144,56146,1,2,0:0:0:0:
223,144,56225,1,2,0:0:0:0:
223,144,56304,1,2,0:0:0:0:
223,144,56383,1,0,0:0:0:0:
223,144,56462,1,2,0:0:0:0:
81,116,56620,1,2,0:0:0:0:
223,144,56777,1,2,0:0:0:0:
223,144,56856,1,0,0:0:0:0:
223,144,56935,1,0,0:0:0:0:
223,144,57093,1,2,0:0:0:0:
223,144,57172,1,0,0:0:0:0:
223,144,57251,1,2,0:0:0:0:
223,144,57330,1,0,0:0:0:0:
223,144,57409,1,2,0:0:0:0:
223,144,57567,1,0,0:0:0:0:
149,137,57725,1,2,0:0:0:0:
226,178,58041,1,0,0:0:0:0:
226,178,58120,1,2,0:0:0:0:
226,178,58199,1,0,0:0:0:0:
113,105,58277,1,2,0:0:0:0:
68,128,58356,1,0,0:0:0:0:
126,289,58514,1,0,0:0:0:0:
211,63,58672,1,2,0:0:0:0:
93,110,58830,1,2,0:0:0:0:
150,68,58988,1,0,0:0:0:0:
150,68,59067,1,0,0:0:0:0:
150,68,59146,1,2,0:0:0:0:
126,289,59304,1,0,0:0:0:0:
150,68,59462,1,0,0:0:0:0:
150,68,59620,1,2,0:0:0:0:
150,68,59699,1,0,0:0:0:0:
150,68,59777,1,2,0:0:0:0:
150,68,59856,1,2,0:0:0:0:
150,68,59935,1,0,0:0:0:0:
150,68,60093,1,2,0:0:0:0:
167,180,60251,1,0,0:0:0:0:
167,180,60409,1,0,0:0:0:0:
167,180,60488,1,0,0:0:0:0:
167,180,60567,1,2,0:0:0:0:
128,164,60883,1,2,0:0:0:0:
128,164,60962,1,0,0:0:0:0:
122,165,61041,1,2,0:0:0:0:
223,144,61199,1,2,0:0:0:0:
223,144,61277,1,2,0:0:0:0:
223,144,61356,1,2,0:0:0:0:
223,144,61435,1,0,0:0:0:0:
223,144,61514,1,2,0:0:0:0:
76,113,61672,1,0,0:0:0:0:
223,144,61830,1,2,0:0:0:0:
223,144,61909,1,0,0:0:0:0:
223,144,61988,1,0,0:0:0:0:
223,144,62146,1,2,0:0:0:0:
223,144,62225,1,0,0:0:0:0:
223,144,62304,1,2,0:0:0:0:
223,144,62383,1,0,0:0:0:0:
223,144,62462,1,2,0:0:0:0:
149,137,62777,1,0,0:0:0:0:
226,178,62935,1,2,0:0:0:0:
226,178,63014,1,0,0:0:0:0:
226,178,63093,1,0,0:0:0:0:
226,178,63172,1,2,0:0:0:0:
226,178,63251,1,0,0:0:0:0:
68,128,63409,1,0,0:0:0:0:
211,63,63567,1,0,0:0:0:0:
211,63,63725,1,2,0:0:0:0:
93,110,63883,1,2,0:0:0:0:
150,68,64041,1,0,0:0:0:0:
150,68,64120,1,0,0:0:0:0:
150,68,64199,1,2,0:0:0:0:
126,289,64356,1,0,0:0:0:0:
150,68,64514,1,0,0:0:0:0:
150,68,64672,1,2,0:0:0:0:
150,68,64751,1,0,0:0:0:0:
150,68,64830,1,2,0:0:0:0:
150,68,64909,1,2,0:0:0:0:
150,68,64988,1,0,0:0:0:0:
150,68,65146,1,2,0:0:0:0:
167,180,65304,1,0,0:0:0:0:
167,180,65620,1,2,0:0:0:0:
128,164,65935,1,2,0:0:0:0:
176,62,66093,1,0,0:0:0:0:
223,144,66251,1,2,0:0:0:0:
223,144,66330,1,0,0:0:0:0:
223,144,66409,1,2,0:0:0:0:
223,144,66567,1,2,0:0:0:0:
81,116,66725,1,0,0:0:0:0:
223,144,66883,1,2,0:0:0:0:
223,144,66962,1,0,0:0:0:0:
223,144,67041,1,0,0:0:0:0:
223,144,67199,1,2,0:0:0:0:
223,144,67277,1,0,0:0:0:0:
223,144,67356,1,2,0:0:0:0:
223,144,67435,1,0,0:0:0:0:
223,144,67514,1,2,0:0:0:0:
223,144,67593,1,2,0:0:0:0:
223,144,67672,1,0,0:0:0:0:
116,90,67830,1,6,0:0:0:0:
216,148,67988,1,0,0:0:0:0:
216,148,68067,1,0,0:0:0:0:
216,148,68146,1,2,0:0:0:0:
216,148,68225,1,2,0:0:0:0:
216,148,68383,1,0,0:0:0:0:
192,47,68462,1,2,0:0:0:0:
216,148,68620,1,0,0:0:0:0:
216,148,68699,1,0,0:0:0:0:
216,148,68777,1,2,0:0:0:0:
216,148,68935,1,0,0:0:0:0:
229,112,69093,1,0,0:0:0:0:
230,118,69251,1,2,0:0:0:0:
230,118,69330,1,0,0:0:0:0:
230,118,69409,1,2,0:0:0:0:
230,118,69488,1,2,0:0:0:0:
230,118,69646,1,0,0:0:0:0:
230,118,69725,1,2,0:0:0:0:
109,165,69883,1,2,0:0:0:0:
109,165,69962,1,0,0:0:0:0:
109,165,70041,1,2,0:0:0:0:
116,90,70356,1,2,0:0:0:0:
216,148,70514,1,0,0:0:0:0:
216,148,70593,1,0,0:0:0:0:
216,148,70672,1,2,0:0:0:0:
216,148,70751,1,2,0:0:0:0:
216,148,70909,1,0,0:0:0:0:
192,47,70988,1,2,0:0:0:0:
216,148,71146,1,0,0:0:0:0:
216,148,71225,1,0,0:0:0:0:
216,148,71304,1,2,0:0:0:0:
216,148,71462,1,0,0:0:0:0:
229,112,71620,1,0,0:0:0:0:
230,118,71777,1,2,0:0:0:0:
230,118,71856,1,0,0:0:0:0:
230,118,71935,1,2,0:0:0:0:
230,118,72014,1,2,0:0:0:0:
230,118,72172,1,0,0:0:0:0:
230,118,72251,1,2,0:0:0:0:
109,165,72567,1,2,0:0:0:0:
116,90,72883,1,0,0:0:0:0:
216,148,73041,1,0,0:0:0:0:
216,148,73120,1,0,0:0:0:0:
216,148,73199,1,2,0:0:0:0:
216,148,73277,1,2,0:0:0:0:
216,148,73435,1,0,0:0:0:0:
192,47,73514,1,2,0:0:0:0:
63,138,73593,1,0,0:0:0:0:
216,148,73751,1,0,0:0:0:0:
216,148,73830,1,2,0:0:0:0:
216,148,73988,1,0,0:0:0:0:
229,112,74146,1,0,0:0:0:0:
230,118,74304,1,2,0:0:0:0:
230,118,74383,1,0,0:0:0:0:
230,118,74462,1,2,0:0:0:0:
230,118,74541,1,2,0:0:0:0:
230,118,74699,1,0,0:0:0:0:
230,118,74777,1,2,0:0:0:0:
197,27,74856,1,2,0:0:0:0:
109,165,75014,1,0,0:0:0:0:
109,165,75093,1,2,0:0:0:0:
116,90,75409,1,0,0:0:0:0:
216,148,75567,1,0,0:0:0:0:
216,148,75646,1,0,0:0:0:0:
216,148,75725,1,2,0:0:0:0:
216,148,75804,1,2,0:0:0:0:
216,148,75962,1,0,0:0:0:0:
192,47,76041,1,2,0:0:0:0:
63,138,76120,1,0,0:0:0:0:
216,148,76277,1,0,0:0:0:0:
216,148,76356,1,2,0:0:0:0:
216,148,76514,1,0,0:0:0:0:
229,112,76672,1,0,0:0:0:0:
230,118,76830,1,2,0:0:0:0:
230,118,76909,1,0,0:0:0:0:
230,118,76988,1,2,0:0:0:0:
230,118,77067,1,2,0:0:0:0:
230,118,77225,1,0,0:0:0:0:
230,118,77304,1,2,0:0:0:0:
109,165,77620,1,2,0:0:0:0:
116,90,77935,1,2,0:0:0:0:
216,148,78093,1,0,0:0:0:0:
216,148,78172,1,0,0:0:0:0:
216,148,78251,1,2,0:0:0:0:
216,148,78330,1,2,0:0:0:0:
216,148,78488,1,0,0:0:0:0:
192,47,78567,1,2,0:0:0:0:
186,204,78646,1,2,0:0:0:0:
216,148,78725,1,0,0:0:0:0:
216,148,78883,1,2,0:0:0:0:
216,148,79041,1,0,0:0:0:0:
229,112,79199,1,0,0:0:0:0:
230,118,79356,1,2,0:0:0:0:
230,118,79435,1,0,0:0:0:0:
230,118,79514,1,2,0:0:0:0:
230,118,79593,1,2,0:0:0:0:
230,118,79751,1,0,0:0:0:0:
230,118,79830,1,2,0:0:0:0:
186,204,79909,1,2,0:0:0:0:
109,165,79988,1,2,0:0:0:0:
109,165,80146,1,2,0:0:0:0:
116,90,80462,1,2,0:0:0:0:
216,148,80620,1,0,0:0:0:0:
216,148,80699,1,0,0:0:0:0:
216,148,80777,1,2,0:0:0:0:
216,148,80856,1,2,0:0:0:0:
216,148,81014,1,0,0:0:0:0:
192,47,81093,1,2,0:0:0:0:
186,204,81172,1,0,0:0:0:0:
216,148,81251,1,0,0:0:0:0:
216,148,81409,1,2,0:0:0:0:
216,148,81567,1,0,0:0:0:0:
229,112,81725,1,0,0:0:0:0:
230,118,81883,1,2,0:0:0:0:
230,118,81962,1,0,0:0:0:0:
230,118,82041,1,2,0:0:0:0:
230,118,82120,1,2,0:0:0:0:
186,204,82199,1,0,0:0:0:0:
230,118,82277,1,0,0:0:0:0:
230,118,82356,1,2,0:0:0:0:
109,165,82672,1,2,0:0:0:0:
116,90,82988,1,0,0:0:0:0:
216,148,83146,1,0,0:0:0:0:
216,148,83225,1,0,0:0:0:0:
216,148,83304,1,2,0:0:0:0:
216,148,83383,1,2,0:0:0:0:
216,148,83541,1,2,0:0:0:0:
192,47,83620,1,0,0:0:0:0:
93,91,83777,1,0,0:0:0:0:
63,138,83856,1,0,0:0:0:0:
216,148,83935,1,2,0:0:0:0:
216,148,84014,1,0,0:0:0:0:
44,124,84172,1,0,0:0:0:0:
229,112,84251,1,0,0:0:0:0:
230,118,84409,1,2,0:0:0:0:
230,118,84488,1,0,0:0:0:0:
230,118,84567,1,2,0:0:0:0:
230,118,84646,1,2,0:0:0:0:
230,118,84804,1,0,0:0:0:0:
230,118,84883,1,0,0:0:0:0:
149,173,85041,1,2,0:0:0:0:
109,165,85120,1,0,0:0:0:0:
109,165,85199,1,2,0:0:0:0:
197,27,85277,1,2,0:0:0:0:
87,186,85356,1,0,0:0:0:0:
116,90,85514,1,0,0:0:0:0:
216,148,85672,1,0,0:0:0:0:
216,148,85751,1,2,0:0:0:0:
216,148,85830,1,0,0:0:0:0:
216,148,85988,1,0,0:0:0:0:
192,47,86067,1,2,0:0:0:0:
63,138,86146,1,0,0:0:0:0:
155,107,86304,1,0,0:0:0:0:
155,107,86383,1,0,0:0:0:0:
155,107,86462,1,2,0:0:0:0:
155,107,86620,1,2,0:0:0:0:
155,107,86699,1,2,0:0:0:0:
155,107,86777,1,0,0:0:0:0:
155,107,86935,1,0,0:0:0:0:
155,107,87093,1,2,0:0:0:0:
155,107,87251,1,2,0:0:0:0:
230,140,87409,1,2,0:0:0:0:
230,140,87488,1,2,0:0:0:0:
230,140,87567,1,0,0:0:0:0:
230,140,87646,1,0,0:0:0:0:
230,140,87725,1,2,0:0:0:0:
230,140,87804,1,0,0:0:0:0:
230,140,87883,1,0,0:0:0:0:
214,158,88041,1,6,0:0:0:0:
145,154,88199,1,0,0:0:0:0:
145,154,88277,1,0,0:0:0:0:
145,154,88356,1,2,0:0:0:0:
145,154,88435,1,2,0:0:0:0:
145,154,88514,1,0,0:0:0:0:
170,85,88672,1,2,0:0:0:0:
170,85,88751,1,2,0:0:0:0:
170,85,88830,1,0,0:0:0:0:
174,84,88988,1,0,0:0:0:0:
174,84,89146,1,2,0:0:0:0:
59,156,89225,1,0,0:0:0:0:
59,156,89304,1,2,0:0:0:0:
155,172,89462,1,2,0:0:0:0:
155,172,89541,1,0,0:0:0:0:
155,172,89620,1,2,0:0:0:0:
183,172,89699,1,2,0:0:0:0:
183,172,89777,1,0,0:0:0:0:
183,172,89935,1,2,0:0:0:0:
183,172,90014,1,2,0:0:0:0:
183,172,90093,1,0,0:0:0:0:
183,172,90251,1,2,0:0:0:0:
183,172,90330,1,2,0:0:0:0:
183,172,90409,1,0,0:0:0:0:
218,218,90567,1,0,0:0:0:0:
218,218,90725,1,0,0:0:0:0:
218,218,90804,1,0,0:0:0:0:
218,218,90883,1,2,0:0:0:0:
218,218,90962,1,0,0:0:0:0:
218,218,91041,1,2,0:0:0:0:
218,218,91199,1,0,0:0:0:0:
218,218,91277,1,2,0:0:0:0:
218,218,91356,1,0,0:0:0:0:
218,218,91514,1,2,0:0:0:0:
218,218,91672,1,2,0:0:0:0:
218,218,91751,1,0,0:0:0:0:
218,218,91830,1,0,0:0:0:0:
218,218,91988,1,2,0:0:0:0:
218,218,92067,1,0,0:0:0:0:
218,218,92146,1,0,0:0:0:0:
218,218,92225,1,2,0:0:0:0:
218,218,92304,1,0,0:0:0:0:
218,218,92462,1,2,0:0:0:0:
218,218,92541,1,2,0:0:0:0:
218,218,92620,1,2,0:0:0:0:
218,218,92699,1,2,0:0:0:0:
218,218,92777,1,0,0:0:0:0:
218,218,92935,1,0,0:0:0:0:
138,194,93093,1,0,0:0:0:0:
153,194,93409,1,2,0:0:0:0:
153,194,93567,1,0,0:0:0:0:
166,194,93725,1,2,0:0:0:0:
166,194,93804,1,0,0:0:0:0:
166,194,93883,1,0,0:0:0:0:
166,194,94041,1,2,0:0:0:0:
166,194,94199,1,0,0:0:0:0:
166,194,94277,1,0,0:0:0:0:
166,194,94356,1,0,0:0:0:0:
166,194,94514,1,2,0:0:0:0:
166,194,94593,1,2,0:0:0:0:
166,194,94672,1,0,0:0:0:0:
166,194,94751,1,0,0:0:0:0:
166,194,94830,1,2,0:0:0:0:
166,194,94988,1,0,0:0:0:0:
166,194,95067,1,0,0:0:0:0:
166,194,95146,1,2,0:0:0:0:
166,194,95304,1,2,0:0:0:0:
166,194,95383,1,0,0:0:0:0:
166,194,95462,1,2,0:0:0:0:
246,171,95620,1,0,0:0:0:0:
262,160,95777,1,0,0:0:0:0:
262,160,95856,1,0,0:0:0:0:
262,160,95935,1,2,0:0:0:0:
262,160,96014,1,2,0:0:0:0:
262,160,96093,1,0,0:0:0:0:
262,160,96251,1,0,0:0:0:0:
262,160,96330,1,2,0:0:0:0:
76,179,96409,1,0,0:0:0:0:
262,160,96488,1,0,0:0:0:0:
262,160,96567,1,2,0:0:0:0:
181,169,96725,1,2,0:0:0:0:
181,169,96804,1,2,0:0:0:0:
181,169,96883,1,0,0:0:0:0:
181,169,97041,1,2,0:0:0:0:
181,169,97120,1,2,0:0:0:0:
181,169,97199,1,0,0:0:0:0:
181,169,97277,1,0,0:0:0:0:
181,169,97356,1,2,0:0:0:0:
181,169,97514,1,0,0:0:0:0:
181,169,97593,1,0,0:0:0:0:
181,169,97672,1,2,0:0:0:0:
181,169,97751,1,2,0:0:0:0:
181,169,97830,1,0,0:0:0:0:
231,84,97909,1,0,0:0:0:0:
231,84,97988,1,2,0:0:0:0:
231,84,98067,1,0,0:0:0:0:
231,84,98146,1,2,0:0:0:0:
145,154,98462,1,2,0:0:0:0:
145,154,98620,1,0,0:0:0:0:
170,85,98777,1,2,0:0:0:0:
170,85,98856,1,0,0:0:0:0:
170,85,98935,1,2,0:0:0:0:
174,84,99093,1,0,0:0:0:0:
174,84,99251,1,2,0:0:0:0:
59,156,99330,1,2,0:0:0:0:
59,156,99409,1,0,0:0:0:0:
155,172,99567,1,2,0:0:0:0:
155,172,99646,1,2,0:0:0:0:
155,172,99725,1,0,0:0:0:0:
183,172,99804,1,2,0:0:0:0:
183,172,99883,1,0,0:0:0:0:
183,172,100041,1,2,0:0:0:0:
183,172,100120,1,2,0:0:0:0:
183,172,100199,1,0,0:0:0:0:
183,172,100356,1,2,0:0:0:0:
183,172,100435,1,2,0:0:0:0:
183,172,100514,1,0,0:0:0:0:
218,218,100672,1,0,0:0:0:0:
218,218,100830,1,0,0:0:0:0:
218,218,100909,1,0,0:0:0:0:
218,218,100988,1,2,0:0:0:0:
218,218,101067,1,0,0:0:0:0:
218,218,101146,1,2,0:0:0:0:
218,218,101304,1,0,0:0:0:0:
218,218,101383,1,2,0:0:0:0:
218,218,101462,1,0,0:0:0:0:
218,218,101620,1,2,0:0:0:0:
218,218,101777,1,2,0:0:0:0:
218,218,101856,1,0,0:0:0:0:
218,218,101935,1,0,0:0:0:0:
218,218,102093,1,2,0:0:0:0:
218,218,102172,1,2,0:0:0:0:
218,218,102251,1,2,0:0:0:0:
218,218,102330,1,0,0:0:0:0:
218,218,102409,1,0,0:0:0:0:
218,218,102567,1,2,0:0:0:0:
218,218,102646,1,0,0:0:0:0:
218,218,102725,1,2,0:0:0:0:
218,218,102804,1,0,0:0:0:0:
218,218,102883,1,2,0:0:0:0:
109,114,102962,1,2,0:0:0:0:
218,218,103041,1,0,0:0:0:0:
138,194,103199,1,0,0:0:0:0:
153,194,103514,1,2,0:0:0:0:
153,194,103672,1,0,0:0:0:0:
166,194,103830,1,0,0:0:0:0:
166,194,103909,1,2,0:0:0:0:
166,194,103988,1,2,0:0:0:0:
166,194,104146,1,2,0:0:0:0:
166,194,104304,1,0,0:0:0:0:
166,194,104383,1,0,0:0:0:0:
166,194,104462,1,0,0:0:0:0:
166,194,104620,1,2,0:0:0:0:
166,194,104699,1,0,0:0:0:0:
166,194,104777,1,2,0:0:0:0:
166,194,104856,1,2,0:0:0:0:
166,194,104935,1,0,0:0:0:0:
166,194,105093,1,0,0:0:0:0:
166,194,105172,1,0,0:0:0:0:
166,194,105251,1,2,0:0:0:0:
166,194,105409,1,2,0:0:0:0:
166,194,105488,1,0,0:0:0:0:
166,194,105567,1,2,0:0:0:0:
246,171,105725,1,0,0:0:0:0:
262,160,105883,1,0,0:0:0:0:
262,160,105962,1,0,0:0:0:0:
262,160,106041,1,2,0:0:0:0:
262,160,106120,1,2,0:0:0:0:
262,160,106199,1,0,0:0:0:0:
262,160,106356,1,0,0:0:0:0:
262,160,106435,1,0,0:0:0:0:
76,179,106514,1,2,0:0:0:0:
262,160,106593,1,0,0:0:0:0:
262,160,106672,1,2,0:0:0:0:
181,169,106830,1,2,0:0:0:0:
181,169,106909,1,2,0:0:0:0:
181,169,106988,1,0,0:0:0:0:
157,102,107146,1,0,0:0:0:0:
157,102,107462,1,2,0:0:0:0:
157,102,107777,1,0,0:0:0:0:
161,62,107856,1,0,0:0:0:0:
157,102,107935,1,2,0:0:0:0:
157,102,108093,1,0,0:0:0:0:
214,158,108251,5,6,0:0:0:0:
145,154,108409,1,0,0:0:0:0:
145,154,108488,1,0,0:0:0:0:
145,154,108567,1,2,0:0:0:0:
145,154,108725,1,0,0:0:0:0:
170,85,108883,1,2,0:0:0:0:
170,85,108962,1,0,0:0:0:0:
170,85,109041,1,2,0:0:0:0:
128,84,109120,1,0,0:0:0:0:
174,84,109199,1,2,0:0:0:0:
174,84,109356,1,2,0:0:0:0:
59,156,109435,1,0,0:0:0:0:
59,156,109514,1,0,0:0:0:0:
155,172,109672,1,2,0:0:0:0:
155,172,109751,1,2,0:0:0:0:
155,172,109830,1,0,0:0:0:0:
183,172,109988,1,0,0:0:0:0:
183,172,110146,1,2,0:0:0:0:
183,172,110225,1,2,0:0:0:0:
183,172,110304,1,0,0:0:0:0:
183,172,110462,1,2,0:0:0:0:
183,172,110541,1,2,0:0:0:0:
183,172,110620,1,2,0:0:0:0:
127,152,110699,1,2,0:0:0:0:
127,152,110777,1,0,0:0:0:0:
218,218,111093,1,2,0:0:0:0:
218,218,111251,1,0,0:0:0:0:
218,218,111409,1,2,0:0:0:0:
218,218,111488,1,2,0:0:0:0:
218,218,111567,1,0,0:0:0:0:
54,120,111646,1,0,0:0:0:0:
218,218,111725,1,2,0:0:0:0:
218,218,111883,1,2,0:0:0:0:
218,218,111962,1,0,0:0:0:0:
218,218,112041,1,0,0:0:0:0:
218,218,112199,1,0,0:0:0:0:
218,218,112277,1,2,0:0:0:0:
218,218,112356,1,0,0:0:0:0:
218,218,112514,1,0,0:0:0:0:
218,218,112672,1,2,0:0:0:0:
218,218,112751,1,0,0:0:0:0:
218,218,112830,1,2,0:0:0:0:
218,218,112909,1,0,0:0:0:0:
218,218,112988,1,2,0:0:0:0:
71,138,113067,1,0,0:0:0:0:
218,218,113146,1,2,0:0:0:0:
71,138,113225,1,0,0:0:0:0:
138,194,113304,1,0,0:0:0:0:
153,194,113620,1,0,0:0:0:0:
153,194,113777,1,0,0:0:0:0:
155,105,113935,1,2,0:0:0:0:
166,194,114014,1,0,0:0:0:0:
166,194,114093,1,0,0:0:0:0:
57,108,114172,1,0,0:0:0:0:
166,194,114251,1,2,0:0:0:0:
166,194,114409,1,0,0:0:0:0:
166,194,114488,1,0,0:0:0:0:
166,194,114567,1,0,0:0:0:0:
166,194,114725,1,2,0:0:0:0:
166,194,114804,1,2,0:0:0:0:
166,194,114883,1,0,0:0:0:0:
166,194,115041,1,2,0:0:0:0:
166,194,115199,1,0,0:0:0:0:
166,194,115277,1,0,0:0:0:0:
166,194,115356,1,2,0:0:0:0:
166,194,115514,1,2,0:0:0:0:
166,194,115593,1,0,0:0:0:0:
166,194,115672,1,2,0:0:0:0:
246,171,115830,1,0,0:0:0:0:
262,160,116146,1,2,0:0:0:0:
262,160,116304,1,0,0:0:0:0:
262,160,116462,1,2,0:0:0:0:
262,160,116541,1,2,0:0:0:0:
76,179,116620,1,0,0:0:0:0:
262,160,116699,1,0,0:0:0:0:
262,160,116777,1,2,0:0:0:0:
181,169,116935,1,2,0:0:0:0:
181,169,117014,1,0,0:0:0:0:
181,169,117093,1,0,0:0:0:0:
181,169,117251,1,0,0:0:0:0:
181,169,117330,1,2,0:0:0:0:
181,169,117409,1,0,0:0:0:0:
181,169,117488,1,0,0:0:0:0:
181,169,117567,1,2,0:0:0:0:
181,169,117725,1,0,0:0:0:0:
181,169,117804,1,0,0:0:0:0:
181,169,117883,1,0,0:0:0:0:
181,169,117962,1,0,0:0:0:0:
181,169,118041,1,2,0:0:0:0:
231,84,118120,1,0,0:0:0:0:
231,84,118199,1,2,0:0:0:0:
231,84,118277,1,2,0:0:0:0:
214,158,118356,1,0,0:0:0:0:
145,154,118672,1,2,0:0:0:0:
145,154,118830,1,0,0:0:0:0:
170,85,118988,1,2,0:0:0:0:
170,85,119067,1,2,0:0:0:0:
170,85,119146,1,2,0:0:0:0:
128,84,119225,1,2,0:0:0:0:
174,84,119304,1,0,0:0:0:0:
174,84,119462,1,2,0:0:0:0:
59,156,119541,1,0,0:0:0:0:
59,156,119620,1,0,0:0:0:0:
155,172,119777,1,0,0:0:0:0:
155,172,119856,1,2,0:0:0:0:
155,172,119935,1,0,0:0:0:0:
183,172,120093,1,0,0:0:0:0:
183,172,120251,1,2,0:0:0:0:
183,172,120330,1,2,0:0:0:0:
183,172,120409,1,0,0:0:0:0:
183,172,120567,1,2,0:0:0:0:
183,172,120646,1,2,0:0:0:0:
183,172,120725,1,2,0:0:0:0:
127,152,120804,1,2,0:0:0:0:
127,152,120883,1,0,0:0:0:0:
218,218,121199,1,2,0:0:0:0:
218,218,121356,1,0,0:0:0:0:
165,74,121435,1,0,0:0:0:0:
218,218,121514,1,2,0:0:0:0:
218,218,121593,1,2,0:0:0:0:
218,218,121672,1,2,0:0:0:0:
54,120,121751,1,2,0:0:0:0:
218,218,121830,1,0,0:0:0:0:
218,218,121988,1,2,0:0:0:0:
218,218,122067,1,0,0:0:0:0:
218,218,122146,1,0,0:0:0:0:
218,218,122304,1,0,0:0:0:0:
218,218,122383,1,2,0:0:0:0:
218,218,122462,1,0,0:0:0:0:
218,218,122620,1,0,0:0:0:0:
218,218,122777,1,2,0:0:0:0:
218,218,122856,1,0,0:0:0:0:
218,218,122935,1,2,0:0:0:0:
218,218,123014,1,0,0:0:0:0:
218,218,123093,1,2,0:0:0:0:
71,138,123172,1,0,0:0:0:0:
218,218,123251,1,2,0:0:0:0:
71,138,123330,1,0,0:0:0:0:
138,194,123409,1,0,0:0:0:0:
153,194,123725,1,2,0:0:0:0:
153,194,123883,1,0,0:0:0:0:
155,105,124041,1,2,0:0:0:0:
166,194,124120,1,0,0:0:0:0:
166,194,124199,1,0,0:0:0:0:
57,108,124277,1,0,0:0:0:0:
166,194,124356,1,2,0:0:0:0:
166,194,124514,1,0,0:0:0:0:
166,194,124593,1,0,0:0:0:0:
166,194,124672,1,0,0:0:0:0:
166,194,124830,1,2,0:0:0:0:
166,194,124909,1,2,0:0:0:0:
166,194,124988,1,0,0:0:0:0:
166,194,125146,1,2,0:0:0:0:
166,194,125304,1,0,0:0:0:0:
166,194,125383,1,0,0:0:0:0:
166,194,125462,1,2,0:0:0:0:
166,194,125620,1,2,0:0:0:0:
166,194,125699,1,0,0:0:0:0:
166,194,125777,1,2,0:0:0:0:
246,171,125935,1,0,0:0:0:0:
262,160,126251,1,2,0:0:0:0:
262,160,126409,1,0,0:0:0:0:
262,160,126567,1,2,0:0:0:0:
262,160,126646,1,2,0:0:0:0:
76,179,126725,1,0,0:0:0:0:
262,160,126804,1,0,0:0:0:0:
262,160,126883,1,2,0:0:0:0:
181,169,127041,1,2,0:0:0:0:
181,169,127199,1,0,0:0:0:0:
181,169,127356,1,0,0:0:0:0:
181,169,127435,1,0,0:0:0:0:
181,169,127514,1,2,0:0:0:0:
181,169,127672,1,0,0:0:0:0:
92,127,127830,1,2,0:0:0:0:
92,127,127909,1,0,0:0:0:0:
92,127,127988,1,2,0:0:0:0:
243,141,128067,1,0,0:0:0:0:
92,127,128146,1,2,0:0:0:0:
243,141,128304,1,0,0:0:0:0:
163,199,128462,1,6,0:0:0:0:
165,211,128620,1,0,0:0:0:0:
165,211,128935,1,0,0:0:0:0:
165,211,129093,1,2,0:0:0:0:
116,189,129409,1,2,0:0:0:0:
116,189,129567,1,0,0:0:0:0:
95,151,129725,1,0,0:0:0:0:
116,189,129883,1,2,0:0:0:0:
116,189,130199,1,2,0:0:0:0:
116,189,130356,1,2,0:0:0:0:
116,189,130672,1,2,0:0:0:0:
116,189,130830,1,2,0:0:0:0:
116,189,130988,1,0,0:0:0:0:
116,189,131146,1,0,0:0:0:0:
116,189,131462,1,2,0:0:0:0:
116,189,131620,1,2,0:0:0:0:
116,189,131935,1,2,0:0:0:0:
139,194,132093,1,0,0:0:0:0:
116,189,132251,1,2,0:0:0:0:
116,189,132409,1,2,0:0:0:0:
116,189,132725,1,2,0:0:0:0:
113,73,132883,2,0,L|214:119,2,105
214,292,133514,1,0,0:0:0:0:
116,189,133672,1,2,0:0:0:0:
116,189,133988,1,2,0:0:0:0:
116,189,134146,1,0,0:0:0:0:
139,194,134304,1,0,0:0:0:0:
116,189,134462,1,2,0:0:0:0:
220,279,134777,1,0,0:0:0:0:
116,189,134935,1,2,0:0:0:0:
116,189,135251,1,2,0:0:0:0:
116,189,135409,1,2,0:0:0:0:
139,194,135567,1,0,0:0:0:0:
116,189,135725,1,2,0:0:0:0:
220,279,136041,1,0,0:0:0:0:
116,189,136199,1,2,0:0:0:0:
139,194,136356,1,0,0:0:0:0:
116,189,136514,1,2,0:0:0:0:
116,189,136672,1,2,0:0:0:0:
110,154,136830,1,0,0:0:0:0:
116,189,136988,1,2,0:0:0:0:
139,194,137304,1,0,0:0:0:0:
116,189,137462,1,2,0:0:0:0:
129,125,137620,1,0,0:0:0:0:
116,189,137777,1,2,0:0:0:0:
157,60,137935,2,0,L|255:109,2,105
139,194,138567,1,0,0:0:0:0:
116,189,138725,1,2,0:0:0:0:
116,189,139041,1,2,0:0:0:0:
116,189,139199,1,2,0:0:0:0:
146,161,139356,1,0,0:0:0:0:
116,189,139514,1,2,0:0:0:0:
139,194,139672,1,0,0:0:0:0:
67,142,139830,1,0,0:0:0:0:
67,142,139988,1,2,0:0:0:0:
116,189,140304,1,2,0:0:0:0:
116,189,140462,1,2,0:0:0:0:
53,146,140620,1,0,0:0:0:0:
116,189,140777,1,2,0:0:0:0:
139,194,141093,1,0,0:0:0:0:
116,189,141251,1,2,0:0:0:0:
116,189,141567,1,2,0:0:0:0:
116,189,141725,1,2,0:0:0:0:
154,165,141883,1,0,0:0:0:0:
116,189,142041,1,2,0:0:0:0:
139,194,142199,1,0,0:0:0:0:
154,165,142356,1,0,0:0:0:0:
154,165,142514,1,2,0:0:0:0:
116,189,142830,1,2,0:0:0:0:
145,66,142988,2,0,L|222:135,3,70
116,189,143620,1,2,0:0:0:0:
120,121,143777,1,0,0:0:0:0:
139,194,143935,1,0,0:0:0:0:
116,189,144093,1,2,0:0:0:0:
116,189,144251,1,2,0:0:0:0:
135,121,144409,1,0,0:0:0:0:
116,189,144567,1,2,0:0:0:0:
139,194,144883,1,0,0:0:0:0:
116,189,145041,1,2,0:0:0:0:
148,168,145199,1,2,0:0:0:0:
148,168,145356,1,0,0:0:0:0:
116,189,145514,1,2,0:0:0:0:
134,168,145672,1,2,0:0:0:0:
116,189,145830,1,2,0:0:0:0:
139,194,146146,1,0,0:0:0:0:
116,189,146304,1,2,0:0:0:0:
144,92,146462,1,0,0:0:0:0:
116,189,146620,1,2,0:0:0:0:
116,189,146777,1,2,0:0:0:0:
144,92,146935,1,0,0:0:0:0:
116,189,147093,1,2,0:0:0:0:
139,194,147251,1,0,0:0:0:0:
204,98,147409,1,0,0:0:0:0:
116,189,147567,1,2,0:0:0:0:
219,138,147725,1,0,0:0:0:0:
116,189,147883,1,2,0:0:0:0:
207,109,148041,1,0,0:0:0:0:
207,109,148199,1,0,0:0:0:0:
207,109,148277,1,0,0:0:0:0:
116,189,148356,1,2,0:0:0:0:
207,109,148514,1,2,0:0:0:0:
139,194,148593,1,2,0:0:0:0:
116,189,148672,1,0,0:0:0:0:
168,159,148988,1,0,0:0:0:0:
168,159,149146,1,0,0:0:0:0:
170,149,149304,1,2,0:0:0:0:
168,159,149777,1,2,0:0:0:0:
168,159,149935,1,0,0:0:0:0:
168,159,150093,1,2,0:0:0:0:
168,159,150409,1,0,0:0:0:0:
168,159,150567,1,2,0:0:0:0:
168,159,151041,1,0,0:0:0:0:
168,159,151199,1,2,0:0:0:0:
88,190,151277,1,0,0:0:0:0:
88,190,151356,1,0,0:0:0:0:
168,159,151514,1,0,0:0:0:0:
168,159,151830,1,2,0:0:0:0:
168,159,152304,1,0,0:0:0:0:
168,159,152462,1,2,0:0:0:0:
168,159,152777,1,2,0:0:0:0:
168,159,152935,1,0,0:0:0:0:
168,159,153093,1,2,0:0:0:0:
168,159,153567,1,2,0:0:0:0:
168,159,153725,1,0,0:0:0:0:
152,144,153883,1,2,0:0:0:0:
152,144,153962,1,2,0:0:0:0:
168,159,154041,1,0,0:0:0:0:
168,159,154356,1,2,0:0:0:0:
168,159,154830,1,2,0:0:0:0:
168,159,154988,1,0,0:0:0:0:
168,159,155146,1,2,0:0:0:0:
168,159,155462,1,0,0:0:0:0:
168,159,155620,1,2,0:0:0:0:
168,159,156093,1,2,0:0:0:0:
168,159,156251,1,0,0:0:0:0:
85,110,156330,1,0,0:0:0:0:
85,110,156409,1,0,0:0:0:0:
168,159,156567,1,0,0:0:0:0:
168,159,156883,1,2,0:0:0:0:
168,159,157356,1,2,0:0:0:0:
168,159,157514,1,0,0:0:0:0:
93,171,157593,1,2,0:0:0:0:
93,171,157672,1,0,0:0:0:0:
168,159,157830,1,2,0:0:0:0:
168,159,157988,1,0,0:0:0:0:
168,159,158146,1,2,0:0:0:0:
168,159,158620,1,0,0:0:0:0:
116,189,158777,1,2,0:0:0:0:
68,142,158935,1,0,0:0:0:0:
168,159,159093,1,0,0:0:0:0:
168,159,159251,1,0,0:0:0:0:
170,149,159409,1,2,0:0:0:0:
168,159,159883,1,2,0:0:0:0:
168,159,160041,1,0,0:0:0:0:
168,159,160199,1,2,0:0:0:0:
68,142,160356,1,0,0:0:0:0:
168,159,160514,1,0,0:0:0:0:
168,159,160672,1,2,0:0:0:0:
168,159,161146,1,0,0:0:0:0:
168,159,161304,1,2,0:0:0:0:
88,190,161383,1,0,0:0:0:0:
88,190,161462,1,0,0:0:0:0:
168,159,161620,1,0,0:0:0:0:
68,142,161777,1,0,0:0:0:0:
168,159,161935,1,2,0:0:0:0:
168,159,162409,1,0,0:0:0:0:
168,159,162567,1,2,0:0:0:0:
68,142,162725,1,0,0:0:0:0:
168,159,162883,1,2,0:0:0:0:
168,159,163041,1,0,0:0:0:0:
168,159,163199,1,2,0:0:0:0:
168,159,163672,1,2,0:0:0:0:
168,159,163830,1,0,0:0:0:0:
152,144,163988,1,2,0:0:0:0:
152,144,164067,1,2,0:0:0:0:
168,159,164146,1,0,0:0:0:0:
68,142,164304,1,0,0:0:0:0:
168,159,164462,1,2,0:0:0:0:
168,159,164935,1,2,0:0:0:0:
168,159,165093,1,0,0:0:0:0:
168,159,165251,1,2,0:0:0:0:
68,142,165409,1,0,0:0:0:0:
168,159,165567,1,0,0:0:0:0:
168,159,165725,1,2,0:0:0:0:
168,159,166199,1,2,0:0:0:0:
85,110,166514,1,0,0:0:0:0:
168,159,166672,1,2,0:0:0:0:
68,142,166830,1,0,0:0:0:0:
168,159,166988,1,2,0:0:0:0:
144,135,167304,1,2,0:0:0:0:
168,159,167462,1,2,0:0:0:0:
168,159,167620,1,0,0:0:0:0:
168,159,167935,1,0,0:0:0:0:
168,159,168093,1,2,0:0:0:0:
168,159,168409,1,0,0:0:0:0:
168,159,168725,1,0,0:0:0:0:
168,159,168883,1,4,0:0:0:0:
62,196,169199,1,0,0:0:0:0:
62,196,169356,1,0,0:0:0:0:
62,196,169514,1,2,0:0:0:0:
204,267,169830,1,2,0:0:0:0:
155,229,169988,1,0,0:0:0:0:
141,136,170304,1,2,0:0:0:0:
155,229,170462,1,0,0:0:0:0:
141,136,170620,1,2,0:0:0:0:
155,229,170777,1,2,0:0:0:0:
149,136,170935,1,0,0:0:0:0:
149,136,171093,1,2,0:0:0:0:
149,136,171251,1,0,0:0:0:0:
155,229,171409,1,0,0:0:0:0:
155,229,171725,1,0,0:0:0:0:
155,229,171883,1,0,0:0:0:0:
155,229,172041,1,2,0:0:0:0:
149,136,172356,1,2,0:0:0:0:
155,229,172514,1,0,0:0:0:0:
149,136,172672,1,0,0:0:0:0:
155,229,172988,1,0,0:0:0:0:
149,136,173146,1,2,0:0:0:0:
155,229,173304,1,2,0:0:0:0:
149,136,173462,1,0,0:0:0:0:
149,136,173620,1,2,0:0:0:0:
155,229,173777,1,0,0:0:0:0:
116,154,173935,1,0,0:0:0:0:
155,229,174251,1,2,0:0:0:0:
155,229,174409,1,0,0:0:0:0:
155,229,174567,1,2,0:0:0:0:
100,161,174883,1,2,0:0:0:0:
155,229,175041,1,0,0:0:0:0:
103,189,175356,1,2,0:0:0:0:
103,189,175514,1,0,0:0:0:0:
103,189,175672,1,0,0:0:0:0:
155,229,175830,1,2,0:0:0:0:
103,189,175988,1,0,0:0:0:0:
103,189,176146,1,2,0:0:0:0:
56,157,176304,1,2,0:0:0:0:
155,229,176462,1,0,0:0:0:0:
155,229,176777,1,0,0:0:0:0:
155,229,176935,1,0,0:0:0:0:
155,229,177093,1,2,0:0:0:0:
155,229,177409,1,0,0:0:0:0:
92,166,177567,1,2,0:0:0:0:
92,166,177725,1,0,0:0:0:0:
92,166,177883,1,0,0:0:0:0:
155,229,178041,1,0,0:0:0:0:
155,229,178199,1,2,0:0:0:0:
51,175,178356,1,0,0:0:0:0:
51,175,178435,1,0,0:0:0:0:
51,175,178514,1,2,0:0:0:0:
51,175,178830,1,2,0:0:0:0:
168,159,178988,1,0,0:0:0:0:
168,159,179304,1,2,0:0:0:0:
168,159,179383,1,2,0:0:0:0:
62,196,179462,1,0,0:0:0:0:
62,196,179620,1,2,0:0:0:0:
204,267,179935,1,2,0:0:0:0:
155,229,180093,1,0,0:0:0:0:
141,136,180409,1,2,0:0:0:0:
155,229,180567,1,0,0:0:0:0:
141,136,180725,1,2,0:0:0:0:
155,229,180883,1,2,0:0:0:0:
149,136,181041,1,0,0:0:0:0:
164,161,181120,1,0,0:0:0:0:
149,136,181199,1,2,0:0:0:0:
149,136,181356,1,0,0:0:0:0:
155,229,181514,1,0,0:0:0:0:
155,229,181830,1,0,0:0:0:0:
155,229,181988,1,0,0:0:0:0:
155,229,182146,1,2,0:0:0:0:
149,136,182462,1,2,0:0:0:0:
155,229,182620,1,0,0:0:0:0:
149,136,182777,1,0,0:0:0:0:
155,229,183093,1,0,0:0:0:0:
149,136,183251,1,2,0:0:0:0:
155,229,183409,1,2,0:0:0:0:
149,136,183567,1,0,0:0:0:0:
164,161,183646,1,0,0:0:0:0:
149,136,183725,1,2,0:0:0:0:
155,229,183883,1,0,0:0:0:0:
116,154,184041,1,2,0:0:0:0:
155,229,184356,1,2,0:0:0:0:
146,166,184435,1,2,0:0:0:0:
155,229,184514,1,0,0:0:0:0:
155,229,184672,1,2,0:0:0:0:
100,161,184988,1,2,0:0:0:0:
155,229,185146,1,0,0:0:0:0:
103,189,185462,1,2,0:0:0:0:
103,189,185620,1,0,0:0:0:0:
103,189,185777,1,0,0:0:0:0:
155,229,185935,1,2,0:0:0:0:
103,189,186093,1,0,0:0:0:0:
103,189,186251,1,2,0:0:0:0:
133,150,186330,1,0,0:0:0:0:
56,157,186409,1,2,0:0:0:0:
155,229,186567,1,0,0:0:0:0:
155,229,186883,1,0,0:0:0:0:
155,229,187041,1,0,0:0:0:0:
155,229,187199,1,2,0:0:0:0:
155,229,187514,1,0,0:0:0:0:
92,166,187672,1,2,0:0:0:0:
92,166,187830,1,0,0:0:0:0:
92,166,187988,1,0,0:0:0:0:
155,229,188146,1,0,0:0:0:0:
155,229,188304,1,2,0:0:0:0:
51,175,188462,1,0,0:0:0:0:
51,175,188541,1,0,0:0:0:0:
51,175,188620,1,2,0:0:0:0:
133,150,188777,1,0,0:0:0:0:
168,159,189093,1,0,0:0:0:0:
168,159,189251,1,0,0:0:0:0:
168,159,189409,1,2,0:0:0:0:
168,159,189488,1,2,0:0:0:0:
62,196,189567,1,0,0:0:0:0:
62,196,189725,1,2,0:0:0:0:
168,159,189883,1,0,0:0:0:0:
204,267,190041,1,2,0:0:0:0:
155,229,190199,1,0,0:0:0:0:
168,159,190356,1,0,0:0:0:0:
141,136,190514,1,2,0:0:0:0:
155,229,190672,1,0,0:0:0:0:
141,136,190830,1,2,0:0:0:0:
155,229,190988,1,2,0:0:0:0:
149,136,191146,1,0,0:0:0:0:
164,161,191225,1,0,0:0:0:0:
149,136,191304,1,2,0:0:0:0:
149,136,191462,1,0,0:0:0:0:
155,229,191620,1,0,0:0:0:0:
164,161,191777,1,0,0:0:0:0:
155,229,191935,1,2,0:0:0:0:
155,229,192093,1,0,0:0:0:0:
155,229,192251,1,2,0:0:0:0:
226,134,192330,1,2,0:0:0:0:
164,161,192409,1,0,0:0:0:0:
149,136,192567,1,2,0:0:0:0:
155,229,192725,1,0,0:0:0:0:
149,136,192883,1,0,0:0:0:0:
164,161,193041,1,2,0:0:0:0:
155,229,193199,1,0,0:0:0:0:
149,136,193356,1,2,0:0:0:0:
155,229,193514,1,2,0:0:0:0:
149,136,193672,1,0,0:0:0:0:
164,161,193751,1,0,0:0:0:0:
149,136,193830,1,2,0:0:0:0:
155,229,193988,1,0,0:0:0:0:
116,154,194146,1,0,0:0:0:0:
155,229,194462,1,2,0:0:0:0:
146,166,194541,1,2,0:0:0:0:
155,229,194620,1,0,0:0:0:0:
155,229,194777,1,2,0:0:0:0:
164,161,194935,1,0,0:0:0:0:
100,161,195093,1,2,0:0:0:0:
155,229,195251,1,0,0:0:0:0:
165,162,195409,1,0,0:0:0:0:
103,189,195567,1,2,0:0:0:0:
103,189,195725,1,0,0:0:0:0:
103,189,195883,1,0,0:0:0:0:
155,229,196041,1,2,0:0:0:0:
103,189,196199,1,0,0:0:0:0:
103,189,196356,1,2,0:0:0:0:
133,150,196435,1,0,0:0:0:0:
56,157,196514,1,2,0:0:0:0:
155,229,196672,1,0,0:0:0:0:
189,149,196830,1,0,0:0:0:0:
155,229,196988,1,0,0:0:0:0:
155,229,197146,1,0,0:0:0:0:
155,229,197304,1,2,0:0:0:0:
226,134,197383,1,2,0:0:0:0:
189,149,197462,1,0,0:0:0:0:
155,229,197620,1,0,0:0:0:0:
92,166,197777,1,2,0:0:0:0:
92,166,197935,1,0,0:0:0:0:
92,166,198093,1,0,0:0:0:0:
155,229,198251,1,2,0:0:0:0:
155,229,198409,1,0,0:0:0:0:
51,175,198567,1,0,0:0:0:0:
51,175,198646,1,0,0:0:0:0:
51,175,198725,1,2,0:0:0:0:
133,150,198883,1,0,0:0:0:0:
226,134,199041,1,2,0:0:0:0:
155,229,199199,1,0,0:0:0:0:
168,159,199514,1,2,0:0:0:0:
168,159,199593,1,2,0:0:0:0:
62,196,199672,1,0,0:0:0:0:
62,196,199830,1,2,0:0:0:0:
168,159,199988,1,0,0:0:0:0:
204,267,200146,1,2,0:0:0:0:
136,187,200225,1,0,0:0:0:0:
155,229,200304,1,0,0:0:0:0:
168,159,200462,1,0,0:0:0:0:
141,136,200620,1,2,0:0:0:0:
155,229,200777,1,0,0:0:0:0:
141,136,200935,1,2,0:0:0:0:
155,229,201093,1,2,0:0:0:0:
149,136,201251,1,0,0:0:0:0:
164,161,201330,1,0,0:0:0:0:
149,136,201409,1,2,0:0:0:0:
149,136,201567,1,0,0:0:0:0:
155,229,201725,1,0,0:0:0:0:
164,161,201883,1,0,0:0:0:0:
155,229,202041,1,2,0:0:0:0:
155,229,202199,1,0,0:0:0:0:
155,229,202356,1,2,0:0:0:0:
226,134,202435,1,2,0:0:0:0:
164,161,202514,1,0,0:0:0:0:
149,136,202672,1,2,0:0:0:0:
136,187,202830,1,0,0:0:0:0:
149,136,202988,1,0,0:0:0:0:
136,187,203067,1,0,0:0:0:0:
164,161,203146,1,2,0:0:0:0:
155,229,203304,1,0,0:0:0:0:
149,136,203462,1,2,0:0:0:0:
155,229,203620,1,2,0:0:0:0:
149,136,203777,1,0,0:0:0:0:
164,161,203856,1,0,0:0:0:0:
149,136,203935,1,2,0:0:0:0:
155,229,204093,1,0,0:0:0:0:
116,154,204251,1,0,0:0:0:0:
155,229,204567,1,2,0:0:0:0:
146,166,204646,1,2,0:0:0:0:
155,229,204725,1,0,0:0:0:0:
155,229,204883,1,2,0:0:0:0:
164,161,205041,1,0,0:0:0:0:
100,161,205199,1,2,0:0:0:0:
136,187,205277,1,0,0:0:0:0:
155,229,205356,1,0,0:0:0:0:
165,162,205514,1,0,0:0:0:0:
103,189,205672,1,2,0:0:0:0:
103,189,205830,1,0,0:0:0:0:
103,189,205988,1,0,0:0:0:0:
155,229,206146,1,2,0:0:0:0:
103,189,206304,1,0,0:0:0:0:
103,189,206462,1,2,0:0:0:0:
133,150,206541,1,0,0:0:0:0:
56,157,206620,1,2,0:0:0:0:
155,229,206777,1,0,0:0:0:0:
189,149,206935,1,0,0:0:0:0:
155,229,207093,1,0,0:0:0:0:
155,229,207251,1,0,0:0:0:0:
155,229,207409,1,2,0:0:0:0:
226,134,207488,1,2,0:0:0:0:
189,149,207567,1,0,0:0:0:0:
155,229,207725,1,0,0:0:0:0:
92,166,207883,1,2,0:0:0:0:
92,166,208041,1,0,0:0:0:0:
136,187,208120,1,0,0:0:0:0:
92,166,208199,1,0,0:0:0:0:
155,229,208356,1,0,0:0:0:0:
136,187,208514,1,2,0:0:0:0:
136,187,208593,1,2,0:0:0:0:
51,175,208672,1,0,0:0:0:0:
51,175,208751,1,0,0:0:0:0:
51,175,208830,1,2,0:0:0:0:
133,150,208988,1,0,0:0:0:0:
226,134,209146,1,2,0:0:0:0:
136,187,209225,1,2,0:0:0:0:
155,229,209304,1,0,0:0:0:0:
152,212,209620,1,2,0:0:0:0:
152,212,209699,1,2,0:0:0:0:
152,212,209777,1,0,0:0:0:0:
152,212,209935,1,2,0:0:0:0:
152,212,210093,1,0,0:0:0:0:
152,212,210251,1,2,0:0:0:0:
152,212,210409,1,0,0:0:0:0:
152,212,210567,1,0,0:0:0:0:
139,138,210725,1,2,0:0:0:0:
219,221,210883,1,0,0:0:0:0:
139,138,211041,1,0,0:0:0:0:
109,167,211120,1,0,0:0:0:0:
109,167,211199,1,2,0:0:0:0:
192,187,211356,1,0,0:0:0:0:
192,187,211514,1,2,0:0:0:0:
192,187,211672,1,0,0:0:0:0:
192,187,211830,1,0,0:0:0:0:
192,187,212146,1,0,0:0:0:0:
220,220,212304,1,0,0:0:0:0:
129,197,212462,1,2,0:0:0:0:
129,197,212541,1,2,0:0:0:0:
129,197,212620,1,0,0:0:0:0:
208,199,212777,1,2,0:0:0:0:
208,199,212935,1,0,0:0:0:0:
208,199,213093,1,0,0:0:0:0:
220,220,213251,1,0,0:0:0:0:
208,199,213409,1,0,0:0:0:0:
208,199,213567,1,0,0:0:0:0:
66,123,213646,1,0,0:0:0:0:
208,199,213725,1,2,0:0:0:0:
112,172,213883,1,0,0:0:0:0:
157,147,214041,1,2,0:0:0:0:
157,147,214199,1,0,0:0:0:0:
104,167,214356,1,0,0:0:0:0:
129,197,214672,1,2,0:0:0:0:
129,197,214751,1,2,0:0:0:0:
129,197,214830,1,0,0:0:0:0:
259,344,214988,1,2,0:0:0:0:
185,216,215146,1,0,0:0:0:0:
171,104,215304,1,2,0:0:0:0:
171,104,215462,1,0,0:0:0:0:
171,104,215620,1,0,0:0:0:0:
220,220,215777,1,0,0:0:0:0:
256,239,215935,1,0,0:0:0:0:
251,237,216093,1,0,0:0:0:0:
251,237,216172,1,0,0:0:0:0:
251,237,216251,1,2,0:0:0:0:
251,237,216409,1,0,0:0:0:0:
251,237,216567,1,2,0:0:0:0:
251,237,216725,1,0,0:0:0:0:
249,235,216883,1,0,0:0:0:0:
251,237,217199,1,0,0:0:0:0:
251,237,217356,1,0,0:0:0:0:
134,218,217514,1,2,0:0:0:0:
134,218,217593,1,2,0:0:0:0:
134,218,217672,1,0,0:0:0:0:
251,237,217830,1,0,0:0:0:0:
249,235,217988,1,2,0:0:0:0:
251,237,218146,1,0,0:0:0:0:
220,220,218304,1,0,0:0:0:0:
97,161,218462,1,0,0:0:0:0:
102,160,218620,1,2,0:0:0:0:
102,160,218699,1,0,0:0:0:0:
102,160,218777,1,2,0:0:0:0:
103,159,218935,1,0,0:0:0:0:
220,220,219093,1,0,0:0:0:0:
134,218,219251,1,0,0:0:0:0:
134,218,219330,1,0,0:0:0:0:
155,229,219409,1,0,0:0:0:0:
152,212,219725,1,2,0:0:0:0:
152,212,219804,1,2,0:0:0:0:
152,212,219883,1,0,0:0:0:0:
152,212,220041,1,2,0:0:0:0:
152,212,220199,1,0,0:0:0:0:
152,212,220356,1,2,0:0:0:0:
152,212,220514,1,0,0:0:0:0:
152,212,220672,1,0,0:0:0:0:
139,138,220830,1,2,0:0:0:0:
126,164,220988,1,0,0:0:0:0:
139,138,221146,1,0,0:0:0:0:
109,167,221225,1,0,0:0:0:0:
109,167,221304,1,2,0:0:0:0:
192,187,221462,1,0,0:0:0:0:
192,187,221620,1,2,0:0:0:0:
192,187,221777,1,0,0:0:0:0:
192,187,221935,1,0,0:0:0:0:
192,187,222251,1,0,0:0:0:0:
125,164,222409,1,0,0:0:0:0:
129,197,222567,1,2,0:0:0:0:
129,197,222646,1,2,0:0:0:0:
129,197,222725,1,0,0:0:0:0:
208,199,222883,1,2,0:0:0:0:
208,199,223041,1,0,0:0:0:0:
208,199,223199,1,0,0:0:0:0:
183,160,223356,1,2,0:0:0:0:
208,199,223514,1,0,0:0:0:0:
208,199,223672,1,0,0:0:0:0:
66,123,223751,1,0,0:0:0:0:
208,199,223830,1,2,0:0:0:0:
112,172,223988,1,0,0:0:0:0:
157,147,224146,1,2,0:0:0:0:
157,147,224304,1,0,0:0:0:0:
104,167,224462,1,0,0:0:0:0:
129,197,224777,1,2,0:0:0:0:
129,197,224856,1,2,0:0:0:0:
129,197,224935,1,0,0:0:0:0:
259,344,225093,1,2,0:0:0:0:
185,216,225251,1,0,0:0:0:0:
171,104,225409,1,2,0:0:0:0:
171,104,225567,1,0,0:0:0:0:
171,104,225725,1,0,0:0:0:0:
223,186,225883,1,2,0:0:0:0:
256,239,226041,1,0,0:0:0:0:
251,237,226199,1,0,0:0:0:0:
251,237,226277,1,0,0:0:0:0:
251,237,226356,1,2,0:0:0:0:
251,237,226514,1,0,0:0:0:0:
251,237,226672,1,2,0:0:0:0:
251,237,226830,1,0,0:0:0:0:
249,235,226988,1,0,0:0:0:0:
251,237,227304,1,0,0:0:0:0:
251,237,227462,1,0,0:0:0:0:
134,218,227620,1,2,0:0:0:0:
134,218,227699,1,2,0:0:0:0:
134,218,227777,1,0,0:0:0:0:
251,237,227935,1,0,0:0:0:0:
249,235,228093,1,2,0:0:0:0:
251,237,228251,1,0,0:0:0:0:
223,186,228409,1,2,0:0:0:0:
97,161,228567,1,0,0:0:0:0:
102,160,228725,1,2,0:0:0:0:
102,160,228804,1,0,0:0:0:0:
102,160,228883,1,2,0:0:0:0:
103,159,229041,1,0,0:0:0:0:
223,186,229199,1,2,0:0:0:0:
134,218,229356,1,0,0:0:0:0:
134,218,229435,1,0,0:0:0:0:
134,218,229514,1,0,0:0:0:0:
107,216,229830,1,2,0:0:0:0:
147,184,231567,1,0,0:0:0:0:
147,184,231725,1,2,0:0:0:0:
147,184,231883,1,2,0:0:0:0:
220,235,232041,1,0,0:0:0:0:
163,108,232356,1,0,0:0:0:0:
163,108,232672,1,2,0:0:0:0:
204,136,233777,1,2,0:0:0:0:
204,136,234093,1,2,0:0:0:0:
204,136,234409,1,0,0:0:0:0:
220,235,234567,1,0,0:0:0:0:
163,145,234883,1,2,0:0:0:0:
143,122,236620,1,0,0:0:0:0:
143,122,236777,1,2,0:0:0:0:
143,122,236935,1,2,0:0:0:0:
220,235,237093,1,0,0:0:0:0:
12,161,237409,1,0,0:0:0:0:
12,161,237725,1,2,0:0:0:0:
82,163,238830,1,2,0:0:0:0:
82,163,239146,1,2,0:0:0:0:
82,163,239462,1,2,0:0:0:0:
220,235,239620,1,0,0:0:0:0:
150,86,239935,1,2,0:0:0:0:
220,235,240883,1,0,0:0:0:0:
150,86,241672,1,0,0:0:0:0:
150,86,241830,1,2,0:0:0:0:
150,86,241988,1,2,0:0:0:0:
150,86,242146,1,0,0:0:0:0:
171,163,242462,1,0,0:0:0:0:
40,215,242777,1,2,0:0:0:0:
60,223,243409,1,0,0:0:0:0:
234,203,243883,1,0,0:0:0:0:
234,203,244199,1,0,0:0:0:0:
234,203,244514,1,2,0:0:0:0:
60,223,244672,1,0,0:0:0:0:
221,102,244988,1,2,0:0:0:0:
60,223,245304,1,0,0:0:0:0:
60,223,245935,1,0,0:0:0:0:
60,223,246567,1,0,0:0:0:0:
221,102,246725,1,0,0:0:0:0:
221,102,246883,1,2,0:0:0:0:
221,102,247041,1,2,0:0:0:0:
60,223,247199,1,0,0:0:0:0:
60,223,247514,1,0,0:0:0:0:
60,223,247830,1,0,0:0:0:0:
60,223,248146,1,2,0:0:0:0:
60,223,248462,1,2,0:0:0:0:
145,165,248620,1,0,0:0:0:0:
145,165,248777,1,2,0:0:0:0:
145,165,248935,1,2,0:0:0:0:
145,165,249093,1,2,0:0:0:0:
145,165,249172,1,2,0:0:0:0:
145,165,249251,1,0,0:0:0:0:
145,165,249330,1,2,0:0:0:0:
144,189,249409,1,0,0:0:0:0:
144,189,249488,1,0,0:0:0:0:
144,189,249567,1,0,0:0:0:0:
144,189,249646,1,0,0:0:0:0:
195,81,250988,2,0,L|408:281,1,280
107,166,251777,1,0,0:0:0:0:
107,166,252093,1,2,0:0:0:0:
107,166,252251,5,4,0:0:0:0:
145,154,252409,1,2,0:0:0:0:
145,154,252488,1,0,0:0:0:0:
145,154,252567,1,2,0:0:0:0:
145,154,252646,1,2,0:0:0:0:
145,154,252725,1,0,0:0:0:0:
170,85,252883,1,2,0:0:0:0:
170,85,252962,1,2,0:0:0:0:
170,85,253041,1,2,0:0:0:0:
174,84,253199,1,0,0:0:0:0:
174,84,253356,1,2,0:0:0:0:
59,156,253435,1,0,0:0:0:0:
59,156,253514,1,2,0:0:0:0:
155,172,253672,1,2,0:0:0:0:
155,172,253751,1,0,0:0:0:0:
155,172,253830,1,2,0:0:0:0:
183,172,253909,1,2,0:0:0:0:
183,172,253988,1,0,0:0:0:0:
183,172,254146,1,2,0:0:0:0:
183,172,254225,1,2,0:0:0:0:
183,172,254304,1,0,0:0:0:0:
183,172,254462,1,2,0:0:0:0:
183,172,254541,1,2,0:0:0:0:
183,172,254620,1,0,0:0:0:0:
218,218,254777,1,0,0:0:0:0:
218,218,254935,1,0,0:0:0:0:
218,218,255014,1,0,0:0:0:0:
218,218,255093,1,2,0:0:0:0:
218,218,255172,1,0,0:0:0:0:
218,218,255251,1,2,0:0:0:0:
218,218,255409,1,0,0:0:0:0:
218,218,255488,1,2,0:0:0:0:
218,218,255567,1,0,0:0:0:0:
218,218,255725,1,2,0:0:0:0:
218,218,255883,1,2,0:0:0:0:
218,218,255962,1,0,0:0:0:0:
218,218,256041,1,0,0:0:0:0:
218,218,256199,1,2,0:0:0:0:
218,218,256277,1,0,0:0:0:0:
218,218,256356,1,0,0:0:0:0:
218,218,256435,1,2,0:0:0:0:
218,218,256514,1,0,0:0:0:0:
218,218,256672,1,2,0:0:0:0:
218,218,256751,1,2,0:0:0:0:
218,218,256830,1,2,0:0:0:0:
218,218,256909,1,2,0:0:0:0:
218,218,256988,1,0,0:0:0:0:
218,218,257146,1,0,0:0:0:0:
138,194,257304,1,0,0:0:0:0:
153,194,257620,1,2,0:0:0:0:
153,194,257777,1,0,0:0:0:0:
166,194,257935,1,2,0:0:0:0:
166,194,258014,1,0,0:0:0:0:
166,194,258093,1,0,0:0:0:0:
166,194,258251,1,2,0:0:0:0:
166,194,258409,1,0,0:0:0:0:
166,194,258488,1,0,0:0:0:0:
166,194,258567,1,0,0:0:0:0:
166,194,258725,1,2,0:0:0:0:
166,194,258804,1,2,0:0:0:0:
166,194,258883,1,0,0:0:0:0:
166,194,258962,1,0,0:0:0:0:
166,194,259041,1,2,0:0:0:0:
166,194,259199,1,0,0:0:0:0:
166,194,259277,1,0,0:0:0:0:
166,194,259356,1,2,0:0:0:0:
166,194,259514,1,2,0:0:0:0:
166,194,259593,1,0,0:0:0:0:
166,194,259672,1,2,0:0:0:0:
246,171,259830,1,0,0:0:0:0:
262,160,259988,1,0,0:0:0:0:
262,160,260067,1,0,0:0:0:0:
262,160,260146,1,2,0:0:0:0:
262,160,260225,1,2,0:0:0:0:
262,160,260304,1,0,0:0:0:0:
262,160,260462,1,0,0:0:0:0:
262,160,260541,1,2,0:0:0:0:
76,179,260620,1,0,0:0:0:0:
262,160,260699,1,0,0:0:0:0:
262,160,260777,1,2,0:0:0:0:
181,169,260935,1,2,0:0:0:0:
181,169,261014,1,2,0:0:0:0:
181,169,261093,1,0,0:0:0:0:
181,169,261251,1,2,0:0:0:0:
181,169,261330,1,2,0:0:0:0:
181,169,261409,1,0,0:0:0:0:
181,169,261488,1,0,0:0:0:0:
181,169,261567,1,2,0:0:0:0:
181,169,261725,1,0,0:0:0:0:
181,169,261804,1,0,0:0:0:0:
181,169,261883,1,0,0:0:0:0:
181,169,261962,1,0,0:0:0:0:
181,169,262041,1,2,0:0:0:0:
231,84,262120,1,2,0:0:0:0:
231,84,262199,1,0,0:0:0:0:
231,84,262277,1,0,0:0:0:0:
231,84,262356,1,2,0:0:0:0:
145,154,262672,1,2,0:0:0:0:
145,154,262830,1,0,0:0:0:0:
170,85,262988,1,2,0:0:0:0:
170,85,263067,1,0,0:0:0:0:
170,85,263146,1,2,0:0:0:0:
174,84,263304,1,0,0:0:0:0:
174,84,263462,1,2,0:0:0:0:
59,156,263541,1,2,0:0:0:0:
59,156,263620,1,0,0:0:0:0:
155,172,263777,1,2,0:0:0:0:
155,172,263856,1,2,0:0:0:0:
155,172,263935,1,0,0:0:0:0:
183,172,264014,1,2,0:0:0:0:
183,172,264093,1,0,0:0:0:0:
183,172,264251,1,2,0:0:0:0:
183,172,264330,1,2,0:0:0:0:
183,172,264409,1,0,0:0:0:0:
183,172,264567,1,2,0:0:0:0:
183,172,264646,1,2,0:0:0:0:
183,172,264725,1,0,0:0:0:0:
218,218,264883,1,0,0:0:0:0:
218,218,265041,1,0,0:0:0:0:
218,218,265120,1,0,0:0:0:0:
218,218,265199,1,2,0:0:0:0:
218,218,265277,1,0,0:0:0:0:
218,218,265356,1,2,0:0:0:0:
218,218,265514,1,0,0:0:0:0:
218,218,265593,1,2,0:0:0:0:
218,218,265672,1,0,0:0:0:0:
218,218,265830,1,2,0:0:0:0:
218,218,265988,1,2,0:0:0:0:
218,218,266067,1,0,0:0:0:0:
218,218,266146,1,0,0:0:0:0:
218,218,266304,1,2,0:0:0:0:
218,218,266383,1,2,0:0:0:0:
218,218,266462,1,2,0:0:0:0:
218,218,266541,1,0,0:0:0:0:
218,218,266620,1,0,0:0:0:0:
218,218,266777,1,2,0:0:0:0:
218,218,266856,1,0,0:0:0:0:
218,218,266935,1,2,0:0:0:0:
218,218,267014,1,0,0:0:0:0:
218,218,267093,1,2,0:0:0:0:
109,114,267172,1,2,0:0:0:0:
218,218,267251,1,0,0:0:0:0:
138,194,267409,1,0,0:0:0:0:
153,194,267725,1,2,0:0:0:0:
153,194,267883,1,0,0:0:0:0:
166,194,268041,1,0,0:0:0:0:
166,194,268120,1,2,0:0:0:0:
166,194,268199,1,2,0:0:0:0:
166,194,268356,1,2,0:0:0:0:
166,194,268514,1,0,0:0:0:0:
166,194,268593,1,0,0:0:0:0:
166,194,268672,1,0,0:0:0:0:
166,194,268830,1,2,0:0:0:0:
166,194,268909,1,0,0:0:0:0:
166,194,268988,1,2,0:0:0:0:
166,194,269067,1,2,0:0:0:0:
166,194,269146,1,0,0:0:0:0:
166,194,269304,1,0,0:0:0:0:
166,194,269383,1,0,0:0:0:0:
166,194,269462,1,2,0:0:0:0:
166,194,269620,1,2,0:0:0:0:
166,194,269699,1,0,0:0:0:0:
166,194,269777,1,2,0:0:0:0:
246,171,269935,1,0,0:0:0:0:
262,160,270093,1,0,0:0:0:0:
262,160,270172,1,0,0:0:0:0:
262,160,270251,1,2,0:0:0:0:
262,160,270330,1,2,0:0:0:0:
262,160,270409,1,0,0:0:0:0:
262,160,270567,1,0,0:0:0:0:
262,160,270646,1,0,0:0:0:0:
76,179,270725,1,2,0:0:0:0:
262,160,270804,1,0,0:0:0:0:
262,160,270883,1,2,0:0:0:0:
181,169,271041,1,2,0:0:0:0:
181,169,271120,1,2,0:0:0:0:
181,169,271199,1,0,0:0:0:0:
157,102,271356,1,0,0:0:0:0:
157,102,271672,1,2,0:0:0:0:
157,102,271988,1,0,0:0:0:0:
161,62,272067,1,0,0:0:0:0:
157,102,272146,1,2,0:0:0:0:
157,102,272304,1,0,0:0:0:0:
167,209,272462,1,6,0:0:0:0:
145,154,272620,1,0,0:0:0:0:
145,154,272699,1,0,0:0:0:0:
145,154,272777,1,2,0:0:0:0:
104,198,272856,1,2,0:0:0:0:
145,154,272935,1,0,0:0:0:0:
170,85,273093,1,2,0:0:0:0:
170,85,273172,1,0,0:0:0:0:
170,85,273251,1,2,0:0:0:0:
128,84,273330,1,0,0:0:0:0:
174,84,273409,1,2,0:0:0:0:
174,84,273567,1,2,0:0:0:0:
59,156,273646,1,0,0:0:0:0:
59,156,273725,1,0,0:0:0:0:
155,172,273883,1,2,0:0:0:0:
155,172,273962,1,2,0:0:0:0:
155,172,274041,1,0,0:0:0:0:
104,198,274120,1,2,0:0:0:0:
183,172,274199,1,0,0:0:0:0:
183,172,274356,1,2,0:0:0:0:
183,172,274435,1,2,0:0:0:0:
183,172,274514,1,0,0:0:0:0:
183,172,274672,1,2,0:0:0:0:
183,172,274751,1,2,0:0:0:0:
183,172,274830,1,2,0:0:0:0:
127,152,274909,1,2,0:0:0:0:
127,152,274988,1,0,0:0:0:0:
218,218,275146,1,0,0:0:0:0:
159,145,275225,1,0,0:0:0:0:
218,218,275304,1,2,0:0:0:0:
218,218,275462,1,0,0:0:0:0:
165,74,275541,1,0,0:0:0:0:
218,218,275620,1,2,0:0:0:0:
218,218,275699,1,2,0:0:0:0:
218,218,275777,1,0,0:0:0:0:
54,120,275856,1,0,0:0:0:0:
218,218,275935,1,2,0:0:0:0:
218,218,276093,1,2,0:0:0:0:
218,218,276172,1,0,0:0:0:0:
218,218,276251,1,0,0:0:0:0:
218,218,276409,1,0,0:0:0:0:
218,218,276488,1,2,0:0:0:0:
218,218,276567,1,2,0:0:0:0:
218,218,276725,1,2,0:0:0:0:
197,45,276804,1,0,0:0:0:0:
218,218,276883,1,2,0:0:0:0:
218,218,276962,1,0,0:0:0:0:
218,218,277041,1,0,0:0:0:0:
218,218,277120,1,0,0:0:0:0:
218,218,277199,1,2,0:0:0:0:
71,138,277277,1,0,0:0:0:0:
218,218,277356,1,2,0:0:0:0:
71,138,277435,1,0,0:0:0:0:
138,194,277514,1,0,0:0:0:0:
153,194,277672,1,2,0:0:0:0:
153,194,277751,1,0,0:0:0:0:
153,194,277830,1,0,0:0:0:0:
189,118,277909,1,2,0:0:0:0:
153,194,277988,1,0,0:0:0:0:
155,105,278146,1,2,0:0:0:0:
166,194,278225,1,0,0:0:0:0:
166,194,278304,1,0,0:0:0:0:
57,108,278383,1,0,0:0:0:0:
166,194,278462,1,2,0:0:0:0:
166,194,278620,1,0,0:0:0:0:
166,194,278699,1,0,0:0:0:0:
166,194,278777,1,0,0:0:0:0:
166,194,278935,1,2,0:0:0:0:
166,194,279014,1,2,0:0:0:0:
166,194,279093,1,0,0:0:0:0:
166,194,279251,1,2,0:0:0:0:
189,118,279330,1,2,0:0:0:0:
166,194,279409,1,0,0:0:0:0:
166,194,279488,1,0,0:0:0:0:
166,194,279567,1,2,0:0:0:0:
166,194,279725,1,2,0:0:0:0:
166,194,279804,1,0,0:0:0:0:
166,194,279883,1,2,0:0:0:0:
246,171,280041,1,0,0:0:0:0:
262,160,280199,1,0,0:0:0:0:
262,160,280277,1,0,0:0:0:0:
262,160,280356,1,2,0:0:0:0:
91,159,280435,1,2,0:0:0:0:
262,160,280514,1,0,0:0:0:0:
262,160,280672,1,2,0:0:0:0:
262,160,280751,1,2,0:0:0:0:
76,179,280830,1,0,0:0:0:0:
262,160,280909,1,0,0:0:0:0:
262,160,280988,1,2,0:0:0:0:
181,169,281146,1,2,0:0:0:0:
181,169,281225,1,0,0:0:0:0:
181,169,281304,1,0,0:0:0:0:
181,169,281462,1,0,0:0:0:0:
181,169,281541,1,2,0:0:0:0:
181,169,281620,1,0,0:0:0:0:
181,169,281699,1,0,0:0:0:0:
181,169,281777,1,2,0:0:0:0:
181,169,281935,1,0,0:0:0:0:
181,169,282014,1,0,0:0:0:0:
181,169,282093,1,0,0:0:0:0:
181,169,282172,1,0,0:0:0:0:
181,169,282251,1,2,0:0:0:0:
231,84,282330,1,0,0:0:0:0:
231,84,282409,1,2,0:0:0:0:
231,84,282488,1,2,0:0:0:0:
214,158,282567,1,0,0:0:0:0:
145,154,282883,1,2,0:0:0:0:
145,154,283041,1,0,0:0:0:0:
170,85,283199,1,2,0:0:0:0:
170,85,283277,1,2,0:0:0:0:
170,85,283356,1,2,0:0:0:0:
128,84,283435,1,2,0:0:0:0:
174,84,283514,1,0,0:0:0:0:
174,84,283672,1,2,0:0:0:0:
59,156,283751,1,0,0:0:0:0:
59,156,283830,1,0,0:0:0:0:
155,172,283988,1,0,0:0:0:0:
155,172,284067,1,2,0:0:0:0:
155,172,284146,1,0,0:0:0:0:
183,172,284304,1,0,0:0:0:0:
110,163,284383,1,0,0:0:0:0:
183,172,284462,1,2,0:0:0:0:
183,172,284541,1,2,0:0:0:0:
183,172,284620,1,0,0:0:0:0:
183,172,284777,1,2,0:0:0:0:
183,172,284856,1,2,0:0:0:0:
183,172,284935,1,2,0:0:0:0:
127,152,285014,1,2,0:0:0:0:
127,152,285093,1,0,0:0:0:0:
218,218,285251,1,0,0:0:0:0:
110,163,285330,1,0,0:0:0:0:
110,163,285409,1,2,0:0:0:0:
218,218,285488,1,2,0:0:0:0:
218,218,285567,1,0,0:0:0:0:
165,74,285646,1,0,0:0:0:0:
218,218,285725,1,2,0:0:0:0:
218,218,285804,1,2,0:0:0:0:
218,218,285883,1,2,0:0:0:0:
54,120,285962,1,2,0:0:0:0:
218,218,286041,1,0,0:0:0:0:
218,218,286199,1,2,0:0:0:0:
218,218,286277,1,0,0:0:0:0:
218,218,286356,1,0,0:0:0:0:
218,218,286514,1,0,0:0:0:0:
218,218,286593,1,2,0:0:0:0:
218,218,286672,1,0,0:0:0:0:
218,218,286830,1,0,0:0:0:0:
121,124,286909,1,2,0:0:0:0:
218,218,286988,1,2,0:0:0:0:
218,218,287067,1,0,0:0:0:0:
218,218,287146,1,2,0:0:0:0:
218,218,287225,1,0,0:0:0:0:
218,218,287304,1,2,0:0:0:0:
71,138,287383,1,0,0:0:0:0:
218,218,287462,1,2,0:0:0:0:
71,138,287541,1,0,0:0:0:0:
138,194,287620,1,0,0:0:0:0:
153,194,287777,1,0,0:0:0:0:
121,124,287856,1,2,0:0:0:0:
153,194,287935,1,2,0:0:0:0:
121,124,288014,1,0,0:0:0:0:
153,194,288093,1,0,0:0:0:0:
155,105,288251,1,2,0:0:0:0:
166,194,288330,1,0,0:0:0:0:
166,194,288409,1,0,0:0:0:0:
57,108,288488,1,0,0:0:0:0:
166,194,288567,1,2,0:0:0:0:
166,194,288725,1,0,0:0:0:0:
166,194,288804,1,0,0:0:0:0:
166,194,288883,1,0,0:0:0:0:
166,194,289041,1,2,0:0:0:0:
166,194,289120,1,2,0:0:0:0:
166,194,289199,1,0,0:0:0:0:
166,194,289356,1,2,0:0:0:0:
122,124,289435,1,2,0:0:0:0:
166,194,289514,1,0,0:0:0:0:
166,194,289593,1,0,0:0:0:0:
166,194,289672,1,2,0:0:0:0:
166,194,289830,1,2,0:0:0:0:
166,194,289909,1,0,0:0:0:0:
166,194,289988,1,2,0:0:0:0:
246,171,290146,1,0,0:0:0:0:
262,160,290304,1,0,0:0:0:0:
262,160,290383,1,0,0:0:0:0:
262,160,290462,1,2,0:0:0:0:
108,149,290541,1,2,0:0:0:0:
262,160,290620,1,0,0:0:0:0:
262,160,290777,1,2,0:0:0:0:
262,160,290856,1,2,0:0:0:0:
76,179,290935,1,0,0:0:0:0:
262,160,291014,1,0,0:0:0:0:
262,160,291093,1,2,0:0:0:0:
181,169,291251,1,2,0:0:0:0:
181,169,291409,1,0,0:0:0:0:
152,144,291883,1,0,0:0:0:0:
152,144,292199,1,0,0:0:0:0:
152,144,292356,1,2,0:0:0:0:
152,144,292514,1,0,0:0:0:0:
152,144,292672,1,6,0:0:0:0:
145,154,292830,1,0,0:0:0:0:
145,154,292909,1,0,0:0:0:0:
145,154,292988,1,2,0:0:0:0:
145,154,293067,1,2,0:0:0:0:
145,154,293146,1,0,0:0:0:0:
170,85,293304,1,2,0:0:0:0:
170,85,293383,1,0,0:0:0:0:
170,85,293462,1,2,0:0:0:0:
174,84,293620,1,0,0:0:0:0:
174,84,293777,1,2,0:0:0:0:
59,156,293856,1,0,0:0:0:0:
59,156,293935,1,0,0:0:0:0:
155,172,294093,1,2,0:0:0:0:
155,172,294172,1,0,0:0:0:0:
155,172,294251,1,0,0:0:0:0:
183,172,294330,1,2,0:0:0:0:
183,172,294409,1,0,0:0:0:0:
183,172,294567,1,2,0:0:0:0:
183,172,294646,1,2,0:0:0:0:
183,172,294725,1,0,0:0:0:0:
183,172,294883,1,2,0:0:0:0:
183,172,294962,1,2,0:0:0:0:
183,172,295041,1,0,0:0:0:0:
218,218,295199,1,0,0:0:0:0:
218,218,295356,1,0,0:0:0:0:
218,218,295435,1,0,0:0:0:0:
218,218,295514,1,2,0:0:0:0:
218,218,295593,1,0,0:0:0:0:
218,218,295672,1,2,0:0:0:0:
218,218,295830,1,0,0:0:0:0:
218,218,295909,1,2,0:0:0:0:
218,218,295988,1,0,0:0:0:0:
218,218,296146,1,2,0:0:0:0:
218,218,296304,1,2,0:0:0:0:
218,218,296383,1,2,0:0:0:0:
218,218,296462,1,0,0:0:0:0:
218,218,296620,1,2,0:0:0:0:
218,218,296699,1,2,0:0:0:0:
218,218,296777,1,0,0:0:0:0:
218,218,296856,1,0,0:0:0:0:
218,218,296935,1,0,0:0:0:0:
218,218,297093,1,2,0:0:0:0:
218,218,297146,1,2,0:0:0:0:
218,218,297199,1,2,0:0:0:0:
123,143,297251,1,2,0:0:0:0:
218,218,297330,1,2,0:0:0:0:
218,218,297409,1,0,0:0:0:0:
218,218,297567,1,0,0:0:0:0:
138,194,297725,1,0,0:0:0:0:
153,194,298041,1,2,0:0:0:0:
153,194,298199,1,0,0:0:0:0:
166,194,298356,1,0,0:0:0:0:
166,194,298435,1,2,0:0:0:0:
166,194,298514,1,2,0:0:0:0:
166,194,298672,1,2,0:0:0:0:
166,194,298830,1,0,0:0:0:0:
166,194,298909,1,0,0:0:0:0:
166,194,298988,1,0,0:0:0:0:
166,194,299146,1,2,0:0:0:0:
166,194,299225,1,2,0:0:0:0:
166,194,299304,1,0,0:0:0:0:
166,194,299383,1,0,0:0:0:0:
166,194,299462,1,2,0:0:0:0:
166,194,299620,1,0,0:0:0:0:
166,194,299699,1,0,0:0:0:0:
166,194,299777,1,2,0:0:0:0:
166,194,299935,1,2,0:0:0:0:
166,194,300014,1,0,0:0:0:0:
166,194,300093,1,2,0:0:0:0:
246,171,300251,1,0,0:0:0:0:
262,160,300409,1,0,0:0:0:0:
262,160,300488,1,0,0:0:0:0:
262,160,300567,1,2,0:0:0:0:
262,160,300646,1,2,0:0:0:0:
262,160,300725,1,0,0:0:0:0:
262,160,300883,1,0,0:0:0:0:
262,160,300962,1,2,0:0:0:0:
76,179,301041,1,0,0:0:0:0:
262,160,301120,1,0,0:0:0:0:
262,160,301199,1,2,0:0:0:0:
181,169,301356,1,2,0:0:0:0:
181,169,301435,1,0,0:0:0:0:
181,169,301514,1,0,0:0:0:0:
181,169,301672,1,2,0:0:0:0:
181,169,301751,1,0,0:0:0:0:
181,169,301830,1,0,0:0:0:0:
181,169,301909,1,2,0:0:0:0:
181,169,301988,1,0,0:0:0:0:
181,169,302146,1,0,0:0:0:0:
181,169,302199,1,0,0:0:0:0:
181,169,302251,1,0,0:0:0:0:
181,169,302304,1,0,0:0:0:0:
231,84,302383,1,0,0:0:0:0:
231,84,302462,1,2,0:0:0:0:
231,84,302620,1,0,0:0:0:0:
231,84,302777,1,2,0:0:0:0:
145,154,303093,1,2,0:0:0:0:
145,154,303251,1,0,0:0:0:0:
170,85,303409,1,2,0:0:0:0:
170,85,303488,1,0,0:0:0:0:
170,85,303567,1,2,0:0:0:0:
174,84,303725,1,0,0:0:0:0:
174,84,303883,1,2,0:0:0:0:
59,156,303962,1,2,0:0:0:0:
59,156,304041,1,0,0:0:0:0:
155,172,304199,1,2,0:0:0:0:
155,172,304277,1,2,0:0:0:0:
155,172,304356,1,0,0:0:0:0:
183,172,304435,1,2,0:0:0:0:
183,172,304514,1,0,0:0:0:0:
183,172,304672,1,2,0:0:0:0:
183,172,304751,1,2,0:0:0:0:
183,172,304830,1,0,0:0:0:0:
183,172,304988,1,2,0:0:0:0:
183,172,305067,1,2,0:0:0:0:
183,172,305146,1,0,0:0:0:0:
218,218,305304,1,0,0:0:0:0:
218,218,305462,1,0,0:0:0:0:
218,218,305541,1,0,0:0:0:0:
218,218,305620,1,2,0:0:0:0:
218,218,305699,1,0,0:0:0:0:
218,218,305777,1,2,0:0:0:0:
218,218,305935,1,0,0:0:0:0:
218,218,306014,1,2,0:0:0:0:
218,218,306093,1,0,0:0:0:0:
218,218,306251,1,2,0:0:0:0:
218,218,306409,1,2,0:0:0:0:
218,218,306488,1,0,0:0:0:0:
218,218,306567,1,0,0:0:0:0:
218,218,306725,1,2,0:0:0:0:
218,218,306804,1,0,0:0:0:0:
218,218,306883,1,2,0:0:0:0:
218,218,306962,1,2,0:0:0:0:
218,218,307041,1,0,0:0:0:0:
218,218,307199,1,2,0:0:0:0:
218,218,307277,1,0,0:0:0:0:
218,218,307356,1,2,0:0:0:0:
218,218,307435,1,0,0:0:0:0:
218,218,307514,1,2,0:0:0:0:
109,114,307567,1,2,0:0:0:0:
85,105,307620,1,2,0:0:0:0:
218,218,307672,1,0,0:0:0:0:
138,194,307830,1,0,0:0:0:0:
153,194,308146,1,2,0:0:0:0:
153,194,308304,1,0,0:0:0:0:
166,194,308462,1,0,0:0:0:0:
166,194,308541,1,2,0:0:0:0:
166,194,308620,1,2,0:0:0:0:
166,194,308777,1,2,0:0:0:0:
166,194,308935,1,0,0:0:0:0:
166,194,309014,1,0,0:0:0:0:
166,194,309093,1,0,0:0:0:0:
166,194,309251,1,2,0:0:0:0:
166,194,309330,1,0,0:0:0:0:
166,194,309409,1,2,0:0:0:0:
166,194,309488,1,2,0:0:0:0:
166,194,309567,1,0,0:0:0:0:
166,194,309725,1,0,0:0:0:0:
166,194,309804,1,0,0:0:0:0:
166,194,309883,1,2,0:0:0:0:
166,194,310041,1,2,0:0:0:0:
166,194,310120,1,0,0:0:0:0:
166,194,310199,1,2,0:0:0:0:
246,171,310356,1,0,0:0:0:0:
262,160,310514,1,0,0:0:0:0:
262,160,310593,1,0,0:0:0:0:
262,160,310672,1,2,0:0:0:0:
262,160,310830,1,0,0:0:0:0:
262,160,310909,1,0,0:0:0:0:
262,160,310988,1,2,0:0:0:0:
262,160,311067,1,0,0:0:0:0:
76,179,311146,1,2,0:0:0:0:
262,160,311225,1,0,0:0:0:0:
262,160,311304,1,2,0:0:0:0:
181,169,311462,1,2,0:0:0:0:
181,169,311541,1,2,0:0:0:0:
181,169,311620,1,0,0:0:0:0:
174,77,311777,1,0,0:0:0:0:
174,77,311935,1,2,0:0:0:0:
174,77,312093,1,2,0:0:0:0:
217,134,312251,1,2,0:0:0:0:
217,134,312567,1,2,0:0:0:0:
217,134,312883,1,6,0:0:0:0:
216,148,313041,1,0,0:0:0:0:
216,148,313120,1,0,0:0:0:0:
216,148,313199,1,2,0:0:0:0:
216,148,313277,1,2,0:0:0:0:
216,148,313435,1,0,0:0:0:0:
192,47,313514,1,2,0:0:0:0:
216,148,313672,1,0,0:0:0:0:
216,148,313751,1,0,0:0:0:0:
216,148,313830,1,2,0:0:0:0:
216,148,313988,1,0,0:0:0:0:
229,112,314146,1,0,0:0:0:0:
230,118,314304,1,2,0:0:0:0:
230,118,314383,1,0,0:0:0:0:
230,118,314462,1,2,0:0:0:0:
230,118,314541,1,2,0:0:0:0:
230,118,314699,1,0,0:0:0:0:
230,118,314777,1,2,0:0:0:0:
109,165,314935,1,2,0:0:0:0:
109,165,315014,1,0,0:0:0:0:
109,165,315093,1,2,0:0:0:0:
116,90,315409,1,2,0:0:0:0:
216,148,315567,1,0,0:0:0:0:
216,148,315646,1,0,0:0:0:0:
216,148,315725,1,2,0:0:0:0:
216,148,315804,1,2,0:0:0:0:
216,148,315962,1,0,0:0:0:0:
192,47,316041,1,2,0:0:0:0:
216,148,316199,1,0,0:0:0:0:
216,148,316277,1,0,0:0:0:0:
216,148,316356,1,2,0:0:0:0:
216,148,316514,1,0,0:0:0:0:
229,112,316672,1,0,0:0:0:0:
230,118,316830,1,2,0:0:0:0:
230,118,316909,1,0,0:0:0:0:
230,118,316988,1,2,0:0:0:0:
230,118,317067,1,2,0:0:0:0:
230,118,317225,1,0,0:0:0:0:
230,118,317304,1,2,0:0:0:0:
185,152,317462,1,0,0:0:0:0:
109,165,317620,1,2,0:0:0:0:
116,90,317935,1,0,0:0:0:0:
216,148,318093,1,0,0:0:0:0:
216,148,318172,1,0,0:0:0:0:
216,148,318251,1,2,0:0:0:0:
216,148,318330,1,2,0:0:0:0:
216,148,318488,1,0,0:0:0:0:
192,47,318567,1,2,0:0:0:0:
216,148,318725,1,2,0:0:0:0:
66,167,318804,1,0,0:0:0:0:
216,148,318883,1,2,0:0:0:0:
216,148,319041,1,0,0:0:0:0:
229,112,319199,1,0,0:0:0:0:
230,118,319356,1,2,0:0:0:0:
230,118,319435,1,0,0:0:0:0:
230,118,319514,1,2,0:0:0:0:
230,118,319593,1,2,0:0:0:0:
230,118,319751,1,0,0:0:0:0:
230,118,319830,1,2,0:0:0:0:
109,165,319988,1,0,0:0:0:0:
109,165,320146,1,2,0:0:0:0:
116,90,320462,1,0,0:0:0:0:
216,148,320620,1,0,0:0:0:0:
216,148,320699,1,0,0:0:0:0:
216,148,320777,1,2,0:0:0:0:
216,148,320856,1,2,0:0:0:0:
216,148,321014,1,0,0:0:0:0:
192,47,321093,1,2,0:0:0:0:
216,148,321251,1,2,0:0:0:0:
240,61,321330,1,0,0:0:0:0:
216,148,321409,1,2,0:0:0:0:
216,148,321567,1,0,0:0:0:0:
229,112,321725,1,0,0:0:0:0:
230,118,321883,1,2,0:0:0:0:
230,118,321962,1,0,0:0:0:0:
230,118,322041,1,2,0:0:0:0:
230,118,322120,1,2,0:0:0:0:
230,118,322277,1,0,0:0:0:0:
230,118,322356,1,2,0:0:0:0:
101,140,322514,1,0,0:0:0:0:
109,165,322672,1,2,0:0:0:0:
101,140,322988,1,0,0:0:0:0:
216,148,323146,1,0,0:0:0:0:
216,148,323225,1,0,0:0:0:0:
216,148,323304,1,2,0:0:0:0:
216,148,323383,1,2,0:0:0:0:
216,148,323541,1,0,0:0:0:0:
192,47,323620,1,2,0:0:0:0:
186,204,323699,1,2,0:0:0:0:
216,148,323777,1,0,0:0:0:0:
216,148,323935,1,2,0:0:0:0:
216,148,324093,1,0,0:0:0:0:
180,88,324172,1,2,0:0:0:0:
229,112,324251,1,0,0:0:0:0:
230,118,324409,1,2,0:0:0:0:
230,118,324488,1,0,0:0:0:0:
230,118,324567,1,2,0:0:0:0:
230,118,324646,1,2,0:0:0:0:
230,118,324804,1,0,0:0:0:0:
230,118,324883,1,2,0:0:0:0:
109,165,325041,1,2,0:0:0:0:
109,165,325199,1,2,0:0:0:0:
116,90,325514,1,2,0:0:0:0:
216,148,325672,1,0,0:0:0:0:
216,148,325751,1,0,0:0:0:0:
216,148,325830,1,2,0:0:0:0:
216,148,325909,1,2,0:0:0:0:
216,148,326067,1,0,0:0:0:0:
192,47,326146,1,2,0:0:0:0:
186,204,326225,1,0,0:0:0:0:
216,148,326304,1,0,0:0:0:0:
216,148,326462,1,2,0:0:0:0:
216,148,326620,1,0,0:0:0:0:
166,131,326699,1,2,0:0:0:0:
229,112,326777,1,0,0:0:0:0:
230,118,326935,1,2,0:0:0:0:
230,118,327014,1,0,0:0:0:0:
230,118,327093,1,2,0:0:0:0:
230,118,327172,1,2,0:0:0:0:
230,118,327330,1,0,0:0:0:0:
230,118,327409,1,2,0:0:0:0:
145,152,327567,1,0,0:0:0:0:
109,165,327725,1,2,0:0:0:0:
116,90,328041,1,0,0:0:0:0:
216,148,328199,1,0,0:0:0:0:
216,148,328277,1,0,0:0:0:0:
216,148,328356,1,2,0:0:0:0:
216,148,328435,1,2,0:0:0:0:
216,148,328593,1,0,0:0:0:0:
192,47,328672,1,2,0:0:0:0:
63,138,328751,1,2,0:0:0:0:
93,91,328830,1,0,0:0:0:0:
216,148,328988,1,2,0:0:0:0:
216,148,329146,1,0,0:0:0:0:
44,124,329225,1,0,0:0:0:0:
229,112,329304,1,0,0:0:0:0:
230,118,329462,1,2,0:0:0:0:
230,118,329541,1,0,0:0:0:0:
230,118,329620,1,2,0:0:0:0:
230,118,329699,1,2,0:0:0:0:
230,118,329856,1,0,0:0:0:0:
230,118,329935,1,0,0:0:0:0:
197,27,330014,1,2,0:0:0:0:
149,173,330093,1,2,0:0:0:0:
109,165,330251,1,2,0:0:0:0:
116,90,330567,1,0,0:0:0:0:
216,148,330725,1,0,0:0:0:0:
216,148,330804,1,0,0:0:0:0:
216,148,330883,1,2,0:0:0:0:
216,148,330962,1,2,0:0:0:0:
216,148,331120,1,0,0:0:0:0:
192,47,331199,1,2,0:0:0:0:
63,138,331277,1,2,0:0:0:0:
93,91,331356,1,0,0:0:0:0:
216,148,331514,1,2,0:0:0:0:
44,124,331672,1,0,0:0:0:0:
82,142,331751,1,2,0:0:0:0:
229,112,331830,1,0,0:0:0:0:
230,118,331988,1,2,0:0:0:0:
230,118,332067,1,0,0:0:0:0:
230,118,332146,1,2,0:0:0:0:
230,118,332225,1,2,0:0:0:0:
230,118,332383,1,0,0:0:0:0:
230,118,332462,1,2,0:0:0:0:
197,27,332541,1,2,0:0:0:0:
149,173,332620,1,0,0:0:0:0:
109,165,332699,1,2,0:0:0:0:
109,165,332777,1,0,0:0:0:0:
129,176,332935,1,2,0:0:0:0:
172,176,333093,1,4,0:0:0:0:
