osu file format v14

[General]
AudioFilename: audio.mp3
AudioLeadIn: 0
PreviewTime: 150232
Countdown: 0
SampleSet: Soft
StackLeniency: 0.3
Mode: 0
LetterboxInBreaks: 0
EpilepsyWarning: 1
WidescreenStoryboard: 1

[Editor]
Bookmarks: 42998,63423,88317,110657,119593,127253,139380,147359,150072,170737,191083,211508,252120,288423,294487
DistanceSpacing: 1
BeatDivisor: 4
GridSize: 4
TimelineZoom: 1.499999

[Metadata]
Title:Sidetracked Day
TitleUnicode:Sidetracked Day
Artist:VINXIS
ArtistUnicode:VINXIS
Creator:SushiFoxo
Version:Who Knows
Source:
Tags:drum and bass dnb drumstep stream marathon space moonl1ght snownino_ fa featured artist mishima yurara makrica -_-_Makrica_-_-
BeatmapID:2082716
BeatmapSetID:995646

[Difficulty]
HPDrainRate:5.5
CircleSize:4.4
OverallDifficulty:9.6
ApproachRate:9.5
SliderMultiplier:1.9
SliderTickRate:1

[Events]
//Background and Video events
0,0,"BG.jpg",0,0
//Break Periods
2,170937,177473
//Storyboard Layer 0 (Background)
//Storyboard Layer 1 (Fail)
//Storyboard Layer 2 (Pass)
//Storyboard Layer 3 (Foreground)
//Storyboard Sound Samples

[TimingPoints]
2146,638.297872340426,4,2,2,15,1,0
12361,-285.714285714284,4,2,2,15,0,0
17624,-285.714285714284,4,2,2,5,0,0
19380,-285.714285714284,4,2,2,15,0,0
20018,-222.222222222221,4,2,2,15,0,0
20177,-222.222222222221,4,2,2,5,0,0
21294,-222.222222222221,4,2,2,20,0,0
22731,-222.222222222221,4,2,2,5,0,0
24486,-222.222222222221,4,2,2,15,0,0
25284,-222.222222222221,4,2,2,5,0,0
26401,-222.222222222221,4,2,2,15,0,0
27677,-181.818181818181,4,2,2,25,0,0
27837,-181.818181818181,4,2,2,5,0,0
29592,-181.818181818181,4,2,2,20,0,0
30390,-181.818181818181,4,2,2,5,0,0
31507,-181.818181818181,4,2,2,20,0,0
32784,-181.818181818181,4,2,2,30,0,0
32943,-181.818181818181,4,2,2,5,0,0
34699,-181.818181818181,4,2,2,30,0,0
35497,-181.818181818181,4,2,2,5,0,0
36614,-181.818181818181,4,2,2,30,0,0
37890,-153.846153846153,4,2,2,30,0,0
38050,-153.846153846153,4,2,2,5,0,0
39486,-153.846153846153,4,2,2,30,0,0
40603,-153.846153846153,4,2,2,5,0,0
41741,-153.846153846153,4,2,2,30,0,0
42998,319.148936170213,4,2,2,30,1,0
42998,-200,4,2,2,30,0,0
62466,-166.666666666667,4,2,2,50,0,0
63423,-142.857142857143,4,2,1,50,0,0
83849,-142.857142857143,4,2,0,50,0,0
88317,-125,4,2,1,50,0,0
89434,-166.666666666667,4,2,1,60,0,0
89753,-125,4,2,1,50,0,0
90710,-166.666666666667,4,2,1,60,0,0
91029,-125,4,2,1,50,0,0
91987,-166.666666666667,4,2,1,60,0,0
92306,-125,4,2,1,50,0,0
93263,-166.666666666667,4,2,1,60,0,0
93583,-125,4,2,1,50,0,0
94540,-166.666666666667,4,2,1,60,0,0
94859,-125,4,2,1,50,0,0
95817,-166.666666666667,4,2,1,60,0,0
96136,-125,4,2,1,50,0,0
97093,-166.666666666667,4,2,1,60,0,0
97412,-125,4,2,1,50,0,0
98689,-125,4,2,1,50,0,0
103476,-166.666666666667,4,2,1,60,0,0
103795,-125,4,2,1,50,0,0
108583,-166.666666666667,4,2,1,60,0,0
108902,-125,4,2,1,50,0,0
110338,-125,4,2,1,60,0,0
110657,-111.111111111111,4,2,1,55,0,0
111136,-142.857142857143,4,2,1,65,0,0
111455,-111.111111111111,4,2,1,55,0,0
112412,-142.857142857143,4,2,1,65,0,0
112732,-111.111111111111,4,2,1,55,0,0
114966,-142.857142857143,4,2,1,65,0,0
115285,-111.111111111111,4,2,1,55,0,0
116242,-142.857142857143,4,2,1,65,0,0
116561,-111.111111111111,4,2,1,55,0,0
117519,-142.857142857143,4,2,1,65,0,0
117838,-111.111111111111,4,2,1,55,0,0
119593,-111.111111111111,4,2,1,50,0,0
120072,-166.666666666667,4,2,1,60,0,0
120391,-111.111111111111,4,2,1,50,0,0
121349,-166.666666666667,4,2,1,60,0,0
121668,-111.111111111111,4,2,1,50,0,0
122625,-166.666666666667,4,2,1,60,0,0
122944,-111.111111111111,4,2,1,50,0,0
125498,-111.111111111111,4,2,1,50,0,0
126455,-166.666666666667,4,2,1,60,0,0
126774,-111.111111111111,4,2,1,50,0,0
127253,-111.111111111111,4,2,1,55,0,0
127891,-125,4,2,1,55,0,0
128210,-111.111111111111,4,2,1,55,0,0
129168,-125,4,2,1,55,0,0
129487,-111.111111111111,4,2,1,55,0,0
130285,-142.857142857143,4,2,1,65,0,0
130604,-111.111111111111,4,2,1,55,0,0
131561,-142.857142857143,4,2,1,65,0,0
131880,-111.111111111111,4,2,1,55,0,0
132838,-142.857142857143,4,2,1,65,0,0
133157,-111.111111111111,4,2,1,55,0,0
135391,-142.857142857143,4,2,1,65,0,0
135710,-111.111111111111,4,2,1,55,0,0
136668,-142.857142857143,4,2,1,65,0,0
137146,-111.111111111111,4,2,1,55,0,0
137944,-142.857142857143,4,2,1,65,0,0
138423,-111.111111111111,4,2,1,55,0,0
139374,-125,4,2,1,55,0,0
139540,-125,4,2,1,50,0,0
139700,-125,4,2,1,45,0,0
139859,-125,4,2,1,40,0,0
140019,-142.857142857143,4,2,1,50,0,0
150232,-90.9090909090909,4,2,1,40,0,1
152306,-90.9090909090909,4,2,1,70,0,1
152785,-90.9090909090909,4,2,1,40,0,1
154859,-90.9090909090909,4,2,1,70,0,1
155338,-125,4,2,1,35,0,1
159168,-90.9090909090909,4,2,1,70,0,1
159806,-125,4,2,1,70,0,1
160444,-90.9090909090909,4,2,1,70,0,1
165551,-83.3333333333333,4,2,1,70,0,1
168104,-76.9230769230769,4,2,1,70,0,1
169380,-71.4285714285714,4,2,1,70,0,1
170021,-62.5,4,2,1,75,0,1
170737,-62.5,4,2,1,5,0,0
191083,-142.857142857143,4,2,1,35,0,0
192678,-142.857142857143,4,2,1,5,0,0
192998,-142.857142857143,4,2,1,50,0,0
200976,-142.857142857143,4,2,1,5,0,0
201136,-142.857142857143,4,2,1,35,0,0
202891,-142.857142857143,4,2,1,5,0,0
203051,-142.857142857143,4,2,1,35,0,0
207998,-142.857142857143,4,2,1,5,0,0
208157,-142.857142857143,4,2,1,35,0,0
208955,-166.666666666667,4,2,1,35,0,0
209912,-142.857142857143,4,2,1,5,0,0
210072,-166.666666666667,4,2,1,35,0,0
211487,-125,4,2,1,50,0,0
211987,-166.666666666667,4,2,1,60,0,0
212306,-125,4,2,1,50,0,0
213263,-166.666666666667,4,2,1,60,0,0
213583,-125,4,2,1,50,0,0
214540,-166.666666666667,4,2,1,60,0,0
214859,-125,4,2,1,50,0,0
215817,-166.666666666667,4,2,1,60,0,0
216136,-125,4,2,1,50,0,0
217093,-166.666666666667,4,2,1,60,0,0
217412,-125,4,2,1,50,0,0
218373,-166.666666666667,4,2,1,60,0,0
218689,-125,4,2,1,50,0,0
219646,-166.666666666667,4,2,1,60,0,0
219966,-125,4,2,1,50,0,0
220923,-166.666666666667,4,2,1,60,0,0
221242,-125,4,2,1,50,0,0
222200,-166.666666666667,4,2,1,60,0,0
222519,-125,4,2,1,50,0,0
223476,-166.666666666667,4,2,1,60,0,0
223795,-125,4,2,1,50,0,0
224753,-166.666666666667,4,2,1,60,0,0
225072,-125,4,2,1,50,0,0
226029,-166.666666666667,4,2,1,60,0,0
226349,-125,4,2,1,50,0,0
227306,-166.666666666667,4,2,1,60,0,0
227625,-125,4,2,1,50,0,0
228583,-166.666666666667,4,2,1,60,0,0
228902,-125,4,2,1,50,0,0
229859,-166.666666666667,4,2,1,60,0,0
230178,-125,4,2,1,50,0,0
230657,-111.111111111111,4,2,1,50,0,0
231934,-125,4,2,1,50,0,0
232412,-166.666666666667,4,2,1,60,0,0
232891,-125,4,2,1,50,0,0
233689,-166.666666666667,4,2,1,60,0,0
234008,-125,4,2,1,50,0,0
234966,-166.666666666667,4,2,1,60,0,0
235285,-125,4,2,1,50,0,0
237519,-166.666666666667,4,2,1,60,0,0
237838,-125,4,2,1,50,0,0
238795,-166.666666666667,4,2,1,60,0,0
239115,-125,4,2,1,50,0,0
240072,-166.666666666667,4,2,1,60,0,0
240391,-125,4,2,1,50,0,0
240870,-111.111111111111,4,2,1,50,0,0
242146,-125,4,2,1,50,0,0
242625,-166.666666666667,4,2,1,60,0,0
242944,-125,4,2,1,50,0,0
243902,-166.666666666667,4,2,1,60,0,0
244221,-125,4,2,1,50,0,0
245178,-166.666666666667,4,2,1,60,0,0
245498,-125,4,2,1,50,0,0
247732,-166.666666666667,4,2,1,60,0,0
248051,-125,4,2,1,50,0,0
249008,-166.666666666667,4,2,1,60,0,0
249327,-125,4,2,1,50,0,0
251083,-111.111111111111,4,2,1,50,0,0
252200,-1000,4,2,1,50,0,0
252279,-1000,4,2,1,10,0,0
253317,-1000,4,2,1,5,0,0
253636,-90.9090909090909,4,2,1,70,0,1
258742,-125,4,2,1,70,0,1
262572,-90.9090909090909,4,2,1,70,0,1
263210,-125,4,2,1,70,0,1
263849,-90.9090909090909,4,2,1,70,0,1
268955,-83.3333333333333,4,2,1,70,0,1
271508,-71.4285714285714,4,2,1,70,0,1
272785,-62.5,4,2,1,70,0,1
274061,-90.9090909090909,4,2,1,70,0,1
279168,-125,4,2,1,70,0,1
282998,-90.9090909090909,4,2,1,70,0,1
283636,-125,4,2,1,70,0,1
284354,-90.9090909090909,4,2,1,70,0,1
289061,-66.6666666666667,4,2,1,70,0,1
289380,-100,4,2,1,60,0,1
291934,-100,4,1,1,60,0,1
293210,-62.5,4,2,1,70,0,1
294806,-125,4,2,1,50,0,0
294966,-166.666666666667,4,2,1,60,0,0
295444,-125,4,2,1,50,0,0
296242,-166.666666666667,4,2,1,60,0,0
296721,-125,4,2,1,50,0,0
297519,-166.666666666667,4,2,1,60,0,0
297998,-125,4,2,1,50,0,0
300072,-166.666666666667,4,2,1,60,0,0
300551,-125,4,2,1,50,0,0
301349,-166.666666666667,4,2,1,60,0,0
301827,-125,4,2,1,50,0,0
302625,-166.666666666667,4,2,1,60,0,0
303104,-125,4,2,1,50,0,0
303902,-166.666666666667,4,2,1,60,0,0
304380,-125,4,2,1,50,0,0
305178,-166.666666666667,4,2,1,60,0,0
305657,-125,4,2,1,50,0,0
306455,-166.666666666667,4,2,1,60,0,0
306934,-125,4,2,1,50,0,0
307732,-166.666666666667,4,2,1,60,0,0
308210,-125,4,2,1,50,0,0
310285,-166.666666666667,4,2,1,60,0,0
310763,-125,4,2,1,50,0,0
311561,-166.666666666667,4,2,1,60,0,0
312040,-125,4,2,1,50,0,0
312838,-166.666666666667,4,2,1,60,0,0
313317,-125,4,2,1,50,0,0
316668,-166.666666666667,4,2,1,60,0,0
317146,-125,4,2,1,50,0,0
320498,-166.666666666667,4,2,1,60,0,0
320976,-125,4,2,1,50,0,0
323051,-166.666666666667,4,2,1,60,0,0
323529,-125,4,2,1,50,0,0
325604,-166.666666666667,4,2,1,60,0,0
326083,-125,4,2,1,50,0,0
326880,-166.666666666667,4,2,1,60,0,0
327359,-125,4,2,1,50,0,0
330710,-166.666666666667,4,2,1,60,0,0
331189,-125,4,2,1,50,0,0
333263,-166.666666666667,4,2,1,60,0,0
333742,-125,4,2,1,50,0,0
335338,-142.857142857143,4,2,1,40,0,0
335657,-142.857142857143,4,2,1,5,0,0
335817,-166.666666666667,4,2,1,30,0,0
336136,-166.666666666667,4,2,1,5,0,0
336295,-200,4,2,1,20,0,0
336615,-200,4,2,1,5,0,0

[Colours]
Combo1 : 255,128,64
Combo2 : 158,138,229
Combo3 : 255,255,53
Combo4 : 231,188,154

[HitObjects]
256,190,6614,6,0,L|257:296,2,95
254,192,9167,5,0,0:0:0:0:
254,192,9486,1,0,0:0:0:0:
254,192,9805,1,0,0:0:0:0:
254,192,10763,5,0,0:0:0:0:
254,192,11720,5,0,0:0:0:0:
373,191,12039,1,0,0:0:0:0:
254,192,12358,6,0,L|154:192,1,95
256,191,14273,5,0,0:0:0:0:
274,228,14592,1,0,0:0:0:0:
311,243,14911,1,0,0:0:0:0:
254,191,15869,5,0,0:0:0:0:
254,191,16826,5,0,0:0:0:0:
374,193,17146,1,0,0:0:0:0:
254,191,17465,6,0,L|173:191,1,66.4999979705811
254,192,19380,5,0,0:0:0:0:
230,223,19699,1,0,0:0:0:0:
195,238,20018,1,0,0:0:0:0:
255,192,20975,5,0,0:0:0:0:
255,192,21933,5,0,0:0:0:0:
255,313,22252,1,0,0:0:0:0:
255,192,22571,2,0,L|256:118,1,64.1249980430604
161,191,24486,5,0,0:0:0:0:
255,193,24805,1,0,0:0:0:0:
348,193,25124,1,0,0:0:0:0:
255,192,26082,5,0,0:0:0:0:
255,192,27039,5,0,0:0:0:0:
386,194,27358,1,0,0:0:0:0:
314,311,27677,2,0,L|319:197,1,104.500003189087
139,186,29592,5,0,0:0:0:0:
255,189,29911,1,0,0:0:0:0:
366,187,30231,1,0,0:0:0:0:
255,85,31188,5,0,0:0:0:0:
256,192,32146,5,0,0:0:0:0:
256,192,32784,6,0,P|321:191|357:153,1,104.500003189087
143,192,34699,5,0,0:0:0:0:
266,194,35018,1,0,0:0:0:0:
397,195,35337,1,0,0:0:0:0:
254,191,36294,5,0,0:0:0:0:
253,91,37252,5,0,0:0:0:0:
334,210,37571,1,0,0:0:0:0:
255,326,37890,1,0,0:0:0:0:
254,191,39805,5,0,0:0:0:0:
124,190,40124,1,0,0:0:0:0:
384,190,40443,1,0,0:0:0:0:
254,56,41401,5,0,0:0:0:0:
85,192,42358,5,0,0:0:0:0:
213,60,42677,1,0,0:0:0:0:
242,223,42998,6,4,L|296:308,1,95
242,223,43476,2,0,B|281:274|281:274|278:312,1,95
162,335,43955,2,0,B|126:279|126:279|142:233,1,95
254,200,44593,5,0,0:0:0:0:
366,323,44912,1,0,0:0:0:0:
473,197,45232,1,0,0:0:0:0:
294,239,45551,6,0,P|275:190|287:138,1,95
294,239,46029,2,0,B|275:187|275:187|283:137,1,95
408,129,46508,2,0,B|424:196|424:196|404:238,1,95
263,149,47146,5,0,0:0:0:0:
149,282,47466,1,0,0:0:0:0:
53,141,47785,1,0,0:0:0:0:
223,100,48104,6,0,P|256:143|263:190,1,95
223,100,48583,2,0,B|264:151|264:151|264:197|266:197,1,95
133,215,49061,2,0,B|98:157|98:157|101:125,1,95
248,196,49700,5,0,0:0:0:0:
342,76,50019,1,0,0:0:0:0:
411,212,50338,1,0,0:0:0:0:
314,326,50657,6,0,P|273:363|230:373,1,95
314,326,51136,2,0,B|279:363|279:363|236:375,1,95
173,261,51615,2,0,B|221:217|221:217|261:206,1,95
375,243,52253,6,0,L|329:278,1,47.5
375,243,52572,2,0,L|327:282,1,47.5
375,243,52891,2,0,L|335:273,1,47.5
162,298,53210,6,0,P|146:234|153:197,1,95
162,298,53689,2,0,B|139:236|139:236|154:194,1,95
276,172,54168,2,0,B|293:228|293:228|279:277,1,95
130,343,54806,5,0,0:0:0:0:
249,241,55125,1,0,0:0:0:0:
377,353,55444,1,0,0:0:0:0:
462,213,55763,6,0,P|479:152|469:108,1,95
462,213,56242,2,0,B|483:162|483:162|474:119,1,95
342,107,56721,2,0,B|318:165|318:165|330:206,1,95
467,256,57359,5,0,0:0:0:0:
356,137,57678,1,0,0:0:0:0:
269,258,57998,1,0,0:0:0:0:
164,144,58317,6,0,P|144:93|150:47,1,95
164,144,58795,2,0,B|141:93|141:93|150:38,1,95
271,48,59274,2,0,B|294:106|294:106|289:146,1,95
152,196,59912,5,0,0:0:0:0:
57,75,60232,1,0,0:0:0:0:
32,227,60551,1,0,0:0:0:0:
184,195,60870,6,0,P|197:243|224:283,1,95
184,195,61349,2,0,B|201:256|201:256|232:296,1,95
351,253,61827,2,0,B|340:192|340:192|314:163,1,95
184,217,62466,6,0,P|190:235|192:212,1,56.9999982604981
184,217,62785,2,0,P|190:235|192:212,1,56.9999982604981
184,217,63104,2,0,P|190:235|192:212,1,56.9999982604981
249,340,63423,6,0,P|320:367|373:345,1,132.999995941162
249,340,63902,2,0,B|312:375|312:375|381:343,1,132.999995941162
376,228,64380,2,0,P|309:200|246:224,1,132.999995941162
159,318,65019,6,0,L|229:308,1,66.4999979705811,0|0,3:3|3:3,3:3:0:0:
224,308,65338,2,0,L|148:320,1,66.4999979705811,0|0,3:3|3:3,3:3:0:0:
126,164,65976,6,0,P|198:144|266:175,1,132.999995941162
126,164,66455,2,0,B|191:139|191:139|270:170,1,132.999995941162
259,285,66934,2,0,P|184:315|123:293,1,132.999995941162
59,186,67572,6,0,L|132:171,1,66.4999979705811
124,172,67891,2,0,L|58:190,1,66.4999979705811
161,297,68529,6,0,P|236:298|281:265,1,132.999995941162
161,297,69008,2,0,B|230:305|230:305|281:265,1,132.999995941162
260,143,69487,2,0,P|188:142|131:180,1,132.999995941162
63,294,70125,6,0,L|145:292,1,66.4999979705811
129,292,70444,2,0,L|61:295,1,66.4999979705811
51,159,71083,6,0,P|127:131|194:146,1,132.999995941162
51,159,71561,2,0,B|122:125|122:125|183:140,1,132.999995941162
197,266,72040,2,0,P|132:288|61:271,1,132.999995941162
121,146,72678,6,0,P|129:170|114:148,1,66.4999979705811
121,146,72998,2,0,P|129:170|114:148,1,66.4999979705811
121,146,73317,2,0,P|129:170|114:148,1,66.4999979705811
236,98,73636,6,0,P|256:173|225:235,1,132.999995941162
236,98,74115,2,0,B|265:168|265:168|231:232,1,132.999995941162
93,224,74593,2,0,P|76:160|106:96,1,132.999995941162
211,23,75232,6,0,L|292:24,1,66.4999979705811
277,23,75551,2,0,L|200:23,1,66.4999979705811
201,164,76189,6,0,P|266:190|332:171,1,132.999995941162
201,164,76668,2,0,B|263:193|263:193|331:173,1,132.999995941162
329,44,77146,2,0,P|258:34|195:56,1,132.999995941162
91,166,77785,6,0,L|176:166,1,66.4999979705811
157,166,78104,2,0,L|89:166,1,66.4999979705811
93,302,78742,6,0,P|160:325|226:308,1,132.999995941162
93,302,79221,2,0,B|164:331|164:331|225:308,1,132.999995941162
218,177,79700,2,0,P|150:168|85:191,1,132.999995941162
162,307,80338,6,0,L|156:234,1,66.4999979705811
156,240,80657,2,0,L|163:312,1,66.4999979705811
290,297,81295,6,0,P|299:222|274:170,1,132.999995941162
290,297,81774,2,0,B|304:232|304:232|271:165,1,132.999995941162
148,175,82253,2,0,P|125:241|157:301,1,132.999995941162
262,222,82891,2,0,L|283:222,8,16.6249994926453
261,221,83849,5,0,0:0:0:0:
301,289,84008,1,0,0:0:0:0:
338,218,84168,1,0,0:0:0:0:
296,150,84327,1,0,0:0:0:0:
232,245,84487,5,0,0:0:0:0:
146,214,84646,1,0,0:0:0:0:
147,120,84806,1,0,0:0:0:0:
236,91,84966,1,0,0:0:0:0:
293,165,85125,5,0,0:0:0:0:
352,265,85285,1,0,0:0:0:0:
447,197,85444,1,0,0:0:0:0:
385,109,85604,1,0,0:0:0:0:
281,172,85763,5,0,0:0:0:0:
141,170,85923,1,0,0:0:0:0:
61,283,86083,1,0,0:0:0:0:
217,287,86242,1,0,0:0:0:0:
352,289,86402,5,0,0:0:0:0:
434,157,86561,1,0,0:0:0:0:
354,77,86721,1,0,0:0:0:0:
273,209,86880,1,0,0:0:0:0:
408,338,87040,5,0,0:0:0:0:
355,166,87200,1,0,0:0:0:0:
276,328,87359,1,0,0:0:0:0:
225,155,87519,1,0,0:0:0:0:
113,344,87678,5,0,0:0:0:0:
59,140,87838,1,0,0:0:0:0:
306,284,87998,2,0,L|234:264,1,66.4999979705811
138,231,88317,5,0,0:0:0:0:
107,209,88396,1,0,0:0:0:0:
65,142,88476,1,8,0:0:0:0:
206,120,88636,6,0,L|257:200,1,76
221,317,88955,2,0,P|137:319|84:279,1,152
202,181,89434,5,0,0:0:0:0:
225,196,89513,1,0,0:0:0:0:
253,199,89593,1,0,0:0:0:0:
281,194,89673,1,0,0:0:0:0:
342,160,89753,1,8,0:0:0:0:
239,59,89912,6,0,L|166:101,1,76
315,163,90232,5,0,0:0:0:0:
347,80,90391,1,0,0:0:0:0:
200,140,90551,1,0,0:0:0:0:
108,250,90710,5,2,0:0:0:0:
129,269,90790,1,0,0:0:0:0:
155,340,90870,5,2,0:0:0:0:
181,350,90950,1,0,0:0:0:0:
250,346,91029,1,8,0:0:0:0:
253,191,91189,6,0,P|205:179|161:182,1,76
296,256,91508,2,0,P|326:180|288:122,1,152
176,215,91987,1,0,0:0:0:0:
163,240,92066,1,0,0:0:0:0:
158,268,92146,1,0,0:0:0:0:
161,296,92226,1,0,0:0:0:0:
181,362,92306,1,8,0:0:0:0:
251,187,92466,6,0,P|181:144|105:165,1,152,0|2,0:0|0:0,0:0:0:0:
66,286,93104,2,8,P|79:311|74:281,1,76
89,253,93343,1,0,0:0:0:0:
128,195,93423,1,2,0:0:0:0:
115,167,93503,1,0,0:0:0:0:
77,109,93583,1,8,0:0:0:0:
197,142,93742,6,0,P|210:167|205:137,1,76
126,217,94061,2,0,P|206:250|273:241,1,152
358,134,94540,1,0,0:0:0:0:
331,124,94619,1,0,0:0:0:0:
302,125,94699,1,0,0:0:0:0:
276,136,94779,1,0,0:0:0:0:
233,188,94859,1,8,0:0:0:0:
323,221,95019,6,0,P|397:231|452:161,1,152
324,111,95657,1,2,0:0:0:0:
287,122,95736,1,0,0:0:0:0:
258,145,95816,1,0,0:0:0:0:
238,177,95896,1,0,0:0:0:0:
182,219,95976,1,2,0:0:0:0:
188,257,96055,1,0,0:0:0:0:
224,319,96135,1,8,0:0:0:0:
346,214,96295,6,0,P|305:184|266:173,1,76
319,286,96615,2,0,P|394:274|424:206,1,152
286,214,97093,1,0,0:0:0:0:
264,232,97172,1,0,0:0:0:0:
249,256,97252,1,0,0:0:0:0:
242,283,97332,1,0,0:0:0:0:
256,351,97412,1,8,0:0:0:0:
357,267,97572,6,0,P|326:234|281:228,1,76
269,357,97891,2,0,P|282:382|277:352,1,76
264,287,98210,1,0,0:0:0:0:
256,249,98289,1,0,0:0:0:0:
239,216,98369,1,0,0:0:0:0:
213,188,98449,1,0,0:0:0:0:
180,168,98529,1,0,0:0:0:0:
144,158,98608,1,0,0:0:0:0:
70,156,98688,1,8,0:0:0:0:
114,292,98849,6,0,P|160:264|176:226,1,76
28,273,99168,2,0,P|45:341|121:377,1,152
226,293,99646,1,0,0:0:0:0:
239,257,99725,1,0,0:0:0:0:
234,220,99805,1,0,0:0:0:0:
213,189,99885,1,0,0:0:0:0:
154,157,99965,1,8,0:0:0:0:
144,297,100125,6,0,P|190:372|265:367,1,152
205,246,100763,1,2,0:0:0:0:
181,216,100842,1,0,0:0:0:0:
146,202,100922,1,0,0:0:0:0:
109,205,101002,1,0,0:0:0:0:
36,183,101082,1,2,0:0:0:0:
13,213,101162,1,0,0:0:0:0:
7,283,101242,1,8,0:0:0:0:
159,362,101402,5,0,0:0:0:0:
276,285,101721,2,0,P|262:204|203:163,1,152
65,256,102200,1,0,0:0:0:0:
100,268,102279,1,0,0:0:0:0:
138,271,102359,1,0,0:0:0:0:
175,263,102439,1,0,0:0:0:0:
237,233,102519,1,8,0:0:0:0:
220,66,102678,6,0,P|151:120|141:186,1,152,0|2,0:0|0:0,0:0:0:0:
273,196,103317,2,0,P|286:221|281:191,1,76
296,163,103556,1,0,0:0:0:0:
342,105,103636,1,2,0:0:0:0:
329,77,103716,1,0,0:0:0:0:
285,22,103796,1,8,0:0:0:0:
145,111,103955,6,0,P|158:136|153:106,1,76
51,27,104274,2,0,P|14:112|51:176,1,152
166,218,104753,1,0,0:0:0:0:
200,203,104832,1,0,0:0:0:0:
228,177,104912,1,0,0:0:0:0:
244,143,104992,1,0,0:0:0:0:
244,75,105072,1,8,0:0:0:0:
110,145,105232,6,0,P|89:237|124:302,1,152,0|2,0:0|0:0,0:0:0:0:
232,191,105870,1,8,0:0:0:0:
221,154,105949,1,0,0:0:0:0:
203,121,106029,1,0,0:0:0:0:
177,93,106109,1,0,0:0:0:0:
160,21,106189,1,2,0:0:0:0:
126,3,106268,1,0,0:0:0:0:
56,0,106348,1,8,0:0:0:0:
93,154,106508,6,2,P|137:147|174:124,1,76,8|0,0:0|0:0,0:0:0:0:
34,104,106827,2,0,P|27:190|82:237,1,152
211,191,107306,1,0,0:0:0:0:
231,159,107385,1,0,0:0:0:0:
234,121,107465,1,0,0:0:0:0:
219,86,107545,1,0,0:0:0:0:
166,46,107625,1,8,0:0:0:0:
107,189,107785,6,0,P|153:262|226:298,1,152
205,141,108423,2,0,P|217:166|218:139,1,76
202,115,108662,1,0,0:0:0:0:
175,103,108741,1,0,0:0:0:0:
148,96,108821,1,0,0:0:0:0:
79,99,108901,1,8,0:0:0:0:
127,233,109061,6,0,P|160:281|196:295,1,76
216,185,109380,1,0,0:0:0:0:
216,185,109540,1,0,0:0:0:0:
301,318,109700,1,0,0:0:0:0:
132,319,109859,1,0,0:0:0:0:
216,185,110019,6,0,P|251:211|281:248,2,76
216,185,110498,1,0,0:0:0:0:
341,307,110657,1,0,0:0:0:0:
341,307,110817,1,0,0:0:0:0:
370,124,110976,1,0,0:0:0:0:
193,93,111136,5,2,0:0:0:0:
167,114,111215,1,0,0:0:0:0:
106,141,111295,1,2,0:0:0:0:
92,171,111375,1,0,0:0:0:0:
37,216,111455,1,2,0:0:0:0:
192,254,111615,5,0,0:0:0:0:
192,254,111774,1,0,0:0:0:0:
257,93,111934,1,0,0:0:0:0:
261,217,112093,2,0,P|266:272|255:309,1,85.4999973907472
103,287,112412,5,2,0:0:0:0:
106,254,112491,1,0,0:0:0:0:
69,195,112571,1,2,0:0:0:0:
85,166,112651,1,0,0:0:0:0:
84,95,112731,1,10,0:0:0:0:
226,200,112891,5,0,0:0:0:0:
233,204,113051,1,0,0:0:0:0:
85,292,113210,2,0,P|102:321|93:287,1,85.4999973907472
85,292,113529,2,0,P|102:321|93:287,1,85.4999973907472
84,251,113769,1,0,0:0:0:0:
120,190,113848,1,2,0:0:0:0:
98,153,113928,1,0,0:0:0:0:
89,82,114008,1,10,0:0:0:0:
222,202,114168,5,0,0:0:0:0:
229,206,114328,1,0,0:0:0:0:
26,248,114487,2,0,P|75:237|113:210,1,85.4999973907472
222,83,114806,5,0,0:0:0:0:
278,226,114966,1,2,0:0:0:0:
306,209,115045,1,0,0:0:0:0:
376,209,115125,1,2,0:0:0:0:
392,180,115205,1,0,0:0:0:0:
447,141,115285,1,10,0:0:0:0:
256,150,115444,6,0,P|206:124|178:93,1,85.4999973907472
351,117,115763,2,0,P|401:143|429:174,1,85.4999973907472
294,274,116083,1,0,0:0:0:0:
154,205,116242,5,2,0:0:0:0:
150,172,116321,1,0,0:0:0:0:
122,110,116401,1,2,0:0:0:0:
140,82,116481,1,0,0:0:0:0:
142,13,116561,1,10,0:0:0:0:
261,121,116721,5,0,0:0:0:0:
268,125,116881,1,0,0:0:0:0:
378,226,117040,2,0,P|405:185|412:134,1,85.4999973907472
298,229,117359,5,0,0:0:0:0:
464,226,117519,1,2,0:0:0:0:
451,195,117598,1,0,0:0:0:0:
444,129,117678,1,2,0:0:0:0:
415,112,117758,1,0,0:0:0:0:
367,66,117838,1,10,0:0:0:0:
309,237,117997,5,0,0:0:0:0:
316,241,118157,1,0,0:0:0:0:
232,99,118317,2,0,P|227:119|220:90,1,85.4999973907472
152,135,118636,5,0,0:0:0:0:
41,249,118796,1,2,0:0:0:0:
205,220,118875,1,0,0:0:0:0:
264,181,118954,1,2,0:0:0:0:
267,138,119034,1,0,0:0:0:0:
301,75,119114,1,10,0:0:0:0:
200,201,119274,6,0,P|163:168|151:127,1,85.4999973907472
298,229,119593,2,0,P|338:273|349:317,1,85.4999973907472
179,341,119912,1,0,0:0:0:0:
108,190,120072,5,2,0:0:0:0:
120,164,120151,1,0,0:0:0:0:
115,96,120231,1,2,0:0:0:0:
137,79,120311,1,0,0:0:0:0:
167,15,120391,1,10,0:0:0:0:
266,172,120551,6,0,P|262:224|237:264,1,85.4999973907472
111,149,120870,1,0,0:0:0:0:
103,146,121030,1,0,0:0:0:0:
239,248,121189,5,0,0:0:0:0:
311,107,121349,1,2,0:0:0:0:
284,95,121428,1,0,0:0:0:0:
238,47,121508,1,2,0:0:0:0:
210,55,121588,1,0,0:0:0:0:
144,41,121668,1,10,0:0:0:0:
204,200,121827,6,0,P|238:235|285:237,1,85.4999973907472
449,182,122146,1,0,0:3:0:0:
457,181,122306,1,0,0:3:0:0:
272,165,122466,5,0,0:0:0:0:
112,239,122625,1,2,0:0:0:0:
117,266,122704,1,0,0:0:0:0:
188,277,122785,1,2,0:0:0:0:
209,294,122864,1,0,0:0:0:0:
271,269,122944,1,10,0:0:0:0:
449,182,123104,5,0,0:3:0:0:
457,181,123264,1,0,0:3:0:0:
272,165,123423,2,0,P|267:185|260:156,1,85.4999973907472
272,165,123742,6,0,P|267:185|260:156,1,85.4999973907472,0|2,0:0|0:0,0:0:0:0:
300,173,123982,1,0,0:0:0:0:
379,179,124061,1,2,0:0:0:0:
403,213,124141,1,0,0:0:0:0:
475,208,124221,1,10,0:0:0:0:
272,165,124380,6,0,P|252:161|275:185,1,85.4999973907472
176,74,124700,2,0,P|138:120|131:150,1,85.4999973907472
178,304,125019,1,0,0:0:0:0:
346,243,125178,1,2,0:0:0:0:
370,208,125257,1,0,0:0:0:0:
432,176,125337,1,2,0:0:0:0:
420,135,125417,1,0,0:0:0:0:
449,73,125497,1,10,0:0:0:0:
291,179,125657,6,0,P|267:222|266:266,1,85.4999973907472
466,246,125976,1,0,0:0:0:0:
474,246,126136,1,0,0:0:0:0:
346,136,126295,5,0,0:0:0:0:
191,257,126455,1,2,0:0:0:0:
202,283,126534,1,0,0:0:0:0:
269,275,126614,1,2,0:0:0:0:
293,290,126694,1,0,0:0:0:0:
353,257,126774,1,10,0:0:0:0:
182,184,126934,6,0,P|129:216|119:262,1,85.4999973907472
217,200,127253,1,0,0:0:0:0:
211,204,127413,1,0,0:0:0:0:
87,313,127572,5,0,0:0:0:0:
123,133,127732,1,2,0:0:0:0:
158,110,127811,1,0,0:0:0:0:
204,59,127891,1,2,0:0:0:0:
240,79,127971,1,0,0:0:0:0:
308,62,128051,1,10,0:0:0:0:
217,200,128210,5,0,0:0:0:0:
211,204,128370,1,0,0:0:0:0:
63,294,128529,2,0,P|58:314|51:285,1,85.4999973907472
207,354,128849,5,0,0:0:0:0:
152,214,129008,1,2,0:0:0:0:
109,208,129087,1,0,0:0:0:0:
94,137,129167,1,2,0:0:0:0:
71,100,129247,1,0,0:0:0:0:
115,44,129327,1,10,0:0:0:0:
214,168,129487,6,0,P|223:222|213:265,1,85.4999973907472
148,130,129806,2,0,P|139:76|149:33,1,85.4999973907472
299,93,130125,1,0,0:0:0:0:
206,242,130285,5,2,0:0:0:0:
174,231,130364,1,0,0:0:0:0:
102,227,130444,1,2,0:0:0:0:
90,196,130524,1,0,0:0:0:0:
42,148,130604,1,10,0:0:0:0:
224,80,130763,5,0,0:3:0:0:
230,77,130923,1,0,0:3:0:0:
130,219,131083,5,0,0:0:0:0:
124,223,131243,1,0,0:0:0:0:
312,180,131402,1,0,0:0:0:0:
189,313,131561,1,2,0:0:0:0:
156,321,131640,1,0,0:0:0:0:
101,361,131720,1,2,0:0:0:0:
68,355,131800,1,0,0:0:0:0:
0,371,131880,1,10,0:0:0:0:
124,223,132040,5,8,0:0:0:0:
130,220,132200,1,8,0:0:0:0:
258,326,132359,2,0,P|226:373|187:382,1,85.4999973907472
241,210,132678,5,0,0:0:0:0:
346,333,132838,1,2,0:0:0:0:
325,359,132917,1,0,0:0:0:0:
261,337,132997,1,2,0:0:0:0:
231,353,133077,1,0,0:0:0:0:
174,315,133157,1,10,0:0:0:0:
271,137,133317,6,0,P|314:188|323:221,1,85.4999973907472
196,258,133636,2,0,P|191:278|184:249,1,85.4999973907472
196,258,133955,2,0,P|191:278|184:249,1,85.4999973907472,0|2,0:0|0:0,0:0:0:0:
218,223,134194,1,0,0:0:0:0:
190,158,134273,1,2,0:0:0:0:
219,127,134353,1,0,0:0:0:0:
230,60,134433,1,10,0:0:0:0:
344,179,134593,5,0,3:3:0:0:
348,182,134753,1,0,3:3:0:0:
227,313,134912,5,0,3:3:0:0:
221,315,135072,1,0,3:3:0:0:
97,214,135232,1,0,0:0:0:0:
265,231,135391,1,2,0:0:0:0:
283,258,135470,1,0,0:0:0:0:
352,267,135550,1,2,0:0:0:0:
357,299,135630,1,0,0:0:0:0:
407,347,135710,1,10,0:0:0:0:
419,157,135870,6,0,P|389:122|350:106,1,85.4999973907472
230,237,136189,1,0,3:3:0:0:
224,240,136349,1,0,3:3:0:0:
423,295,136508,5,0,0:0:0:0:
270,172,136668,1,2,0:0:0:0:
238,163,136747,1,0,0:0:0:0:
191,112,136827,1,2,0:0:0:0:
162,128,136907,1,0,0:0:0:0:
93,119,136987,1,10,0:0:0:0:
155,268,137146,6,0,P|183:310|218:319,1,85.4999973907472
162,192,137466,2,0,P|133:150|99:141,1,85.4999973907472
46,293,137785,1,0,0:0:0:0:
209,256,137944,5,2,0:0:0:0:
227,228,138023,1,0,0:0:0:0:
288,198,138103,1,2,0:0:0:0:
282,165,138183,1,0,0:0:0:0:
319,108,138263,1,10,0:0:0:0:
283,275,138423,6,0,P|245:326|212:334,1,85.4999973907472
180,156,138742,2,0,P|186:121|194:154,1,85.4999973907472
180,156,139061,2,0,P|186:121|194:154,1,85.4999973907472
256,293,139380,5,2,0:0:0:0:
256,293,139540,1,2,0:0:0:0:
256,293,139700,1,2,0:0:0:0:
256,293,139859,1,2,0:0:0:0:
113,223,140019,6,0,L|61:177,3,66.4999979705811
198,213,140657,1,0,0:0:0:0:
165,131,140817,6,0,P|213:123|237:128,2,66.4999979705811
104,196,141295,2,0,P|56:203|32:198,2,66.4999979705811
198,213,141774,1,0,0:0:0:0:
313,146,141934,5,0,0:0:0:0:
362,287,142093,2,0,P|314:295|290:290,2,66.4999979705811
473,152,142572,5,0,0:0:0:0:
486,137,142732,1,0,0:0:0:0:
316,227,142891,2,0,P|279:221|242:238,1,66.4999979705811
308,348,143210,5,0,0:0:0:0:
418,233,143370,2,0,L|462:170,2,66.4999979705811
308,348,143849,2,0,P|303:368|297:342,1,66.4999979705811
308,348,144168,2,0,P|303:368|297:342,1,66.4999979705811
372,245,144487,5,0,0:0:0:0:
372,245,144567,1,0,0:0:0:0:
372,245,144646,1,0,0:0:0:0:
206,292,144806,2,0,P|204:266|189:287,1,66.4999979705811
270,104,145125,5,0,0:0:0:0:
98,177,145285,2,0,P|117:211|146:239,2,66.4999979705811
34,34,145763,1,0,0:0:0:0:
199,80,145923,6,0,P|199:126|211:153,2,66.4999979705811
199,80,146402,1,0,0:0:0:0:
268,109,146561,1,0,0:0:0:0:
268,109,146641,1,0,0:0:0:0:
268,109,146721,1,0,0:0:0:0:
268,109,146880,5,0,0:0:0:0:
116,225,147040,1,0,0:0:0:0:
99,235,147200,1,0,0:0:0:0:
268,109,147359,5,0,0:0:0:0:
285,99,147519,1,0,0:0:0:0:
179,208,147678,2,0,P|150:185|142:142,2,66.4999979705811
330,293,148157,5,0,0:0:0:0:
211,139,148317,1,0,0:0:0:0:
211,139,148396,1,0,0:0:0:0:
211,139,148476,1,0,0:0:0:0:
330,293,148636,5,0,0:0:0:0:
343,307,148796,1,0,0:0:0:0:
211,139,148955,5,0,0:0:0:0:
198,125,149115,1,0,0:0:0:0:
236,60,150232,5,0,0:0:0:0:
193,90,150311,1,0,0:0:0:0:
165,133,150391,1,0,0:0:0:0:
174,183,150471,1,0,0:0:0:0:
198,230,150551,1,0,0:0:0:0:
211,280,150630,1,0,0:0:0:0:
189,326,150710,1,0,0:0:0:0:
140,341,150790,1,0,0:0:0:0:
95,318,150870,1,0,0:0:0:0:
84,268,150950,1,0,0:0:0:0:
117,229,151029,1,0,0:0:0:0:
168,218,151109,5,0,0:0:0:0:
220,215,151188,1,0,0:0:0:0:
267,195,151268,1,0,0:0:0:0:
286,147,151348,1,0,0:0:0:0:
292,95,151428,1,0,0:0:0:0:
309,46,151507,1,0,0:0:0:0:
352,20,151587,1,0,0:0:0:0:
401,34,151667,1,0,0:0:0:0:
426,78,151747,1,0,0:0:0:0:
408,125,151827,1,0,0:0:0:0:
360,140,151906,1,0,0:0:0:0:
307,143,151987,5,0,0:0:0:0:
254,145,152066,1,0,0:0:0:0:
207,165,152146,1,0,0:0:0:0:
188,213,152226,1,0,0:0:0:0:
182,265,152306,1,0,0:0:0:0:
165,314,152385,1,0,0:0:0:0:
122,340,152465,1,0,0:0:0:0:
73,326,152545,1,0,0:0:0:0:
48,282,152625,1,0,0:0:0:0:
66,235,152705,1,0,0:0:0:0:
114,220,152784,1,0,0:0:0:0:
160,247,152865,5,0,0:0:0:0:
212,244,152944,1,0,0:0:0:0:
259,224,153024,1,0,0:0:0:0:
278,176,153104,1,0,0:0:0:0:
284,124,153184,1,0,0:0:0:0:
301,75,153263,1,0,0:0:0:0:
344,49,153343,1,0,0:0:0:0:
393,63,153423,1,0,0:0:0:0:
418,107,153503,1,0,0:0:0:0:
400,154,153583,1,0,0:0:0:0:
352,169,153662,1,0,0:0:0:0:
301,155,153742,5,0,0:0:0:0:
248,157,153821,1,0,0:0:0:0:
201,177,153901,1,0,0:0:0:0:
182,225,153981,1,0,0:0:0:0:
176,277,154061,1,0,0:0:0:0:
159,326,154140,1,0,0:0:0:0:
116,352,154220,1,0,0:0:0:0:
67,338,154300,1,0,0:0:0:0:
42,294,154380,1,0,0:0:0:0:
60,247,154460,1,0,0:0:0:0:
108,232,154539,1,0,0:0:0:0:
152,263,154620,5,0,0:0:0:0:
204,260,154699,1,0,0:0:0:0:
251,240,154779,1,0,0:0:0:0:
270,192,154859,1,0,0:0:0:0:
276,140,154939,1,0,0:0:0:0:
293,91,155018,1,0,0:0:0:0:
336,65,155098,1,0,0:0:0:0:
385,79,155178,1,0,0:0:0:0:
410,123,155258,1,0,0:0:0:0:
392,170,155338,1,0,0:0:0:0:
344,185,155417,1,0,0:0:0:0:
310,166,155498,5,0,0:0:0:0:
285,137,155577,1,0,0:0:0:0:
255,113,155657,1,0,0:0:0:0:
219,104,155737,1,0,0:0:0:0:
183,117,155817,1,0,0:0:0:0:
152,138,155896,1,0,0:0:0:0:
119,158,155976,1,0,0:0:0:0:
83,168,156056,1,0,0:0:0:0:
47,158,156136,1,0,0:0:0:0:
24,128,156216,1,0,0:0:0:0:
20,91,156295,1,0,0:0:0:0:
36,57,156375,1,0,0:0:0:0:
70,41,156455,1,0,0:0:0:0:
106,48,156535,1,0,0:0:0:0:
131,77,156615,1,0,0:0:0:0:
139,113,156694,5,0,0:0:0:0:
148,149,156773,1,0,0:0:0:0:
164,183,156853,1,0,0:0:0:0:
193,207,156933,1,0,0:0:0:0:
231,211,157013,1,0,0:0:0:0:
268,206,157092,1,0,0:0:0:0:
306,203,157172,1,0,0:0:0:0:
343,210,157252,1,0,0:0:0:0:
371,235,157332,1,0,0:0:0:0:
379,271,157412,1,0,0:0:0:0:
366,307,157491,1,0,0:0:0:0:
337,329,157571,1,0,0:0:0:0:
299,329,157651,1,0,0:0:0:0:
270,307,157731,1,0,0:0:0:0:
260,271,157811,1,0,0:0:0:0:
270,234,157891,5,0,0:0:0:0:
303,216,157970,1,0,0:0:0:0:
333,193,158050,1,0,0:0:0:0:
349,159,158130,1,0,0:0:0:0:
345,121,158210,1,0,0:0:0:0:
332,86,158289,1,0,0:0:0:0:
320,50,158369,1,0,0:0:0:0:
318,12,158449,1,0,0:0:0:0:
336,-20,158529,1,0,0:0:0:0:
370,-35,158609,1,0,0:0:0:0:
407,-31,158688,1,0,0:0:0:0:
436,-7,158768,1,0,0:0:0:0:
445,28,158848,1,0,0:0:0:0:
429,62,158928,1,0,0:0:0:0:
396,80,159008,1,0,0:0:0:0:
359,86,159088,5,0,0:0:0:0:
321,86,159167,1,0,0:0:0:0:
283,93,159247,1,0,0:0:0:0:
253,116,159327,1,0,0:0:0:0:
240,151,159407,1,0,0:0:0:0:
236,189,159486,1,0,0:0:0:0:
230,226,159566,1,0,0:0:0:0:
215,261,159646,1,0,0:0:0:0:
184,282,159726,1,0,0:0:0:0:
146,280,159806,1,0,0:0:0:0:
115,260,159885,1,0,0:0:0:0:
100,225,159965,1,0,0:0:0:0:
109,189,160045,1,0,0:0:0:0:
138,166,160125,1,0,0:0:0:0:
176,165,160205,1,0,0:0:0:0:
209,184,160285,5,0,0:0:0:0:
227,217,160364,1,0,0:0:0:0:
251,246,160444,1,0,0:0:0:0:
285,262,160524,1,0,0:0:0:0:
322,257,160604,1,0,0:0:0:0:
357,243,160683,1,0,0:0:0:0:
393,231,160763,1,0,0:0:0:0:
431,228,160843,1,0,0:0:0:0:
464,246,160923,1,0,0:0:0:0:
480,279,161003,1,0,0:0:0:0:
477,317,161082,1,0,0:0:0:0:
453,346,161162,1,0,0:0:0:0:
417,355,161242,1,0,0:0:0:0:
383,340,161322,1,0,0:0:0:0:
364,308,161402,1,0,0:0:0:0:
369,274,161482,5,0,0:0:0:0:
409,241,161561,1,0,0:0:0:0:
434,196,161641,1,0,0:0:0:0:
421,146,161721,1,0,0:0:0:0:
394,101,161801,1,0,0:0:0:0:
378,52,161880,1,0,0:0:0:0:
396,5,161960,1,0,0:0:0:0:
444,-13,162040,1,0,0:0:0:0:
491,6,162120,1,0,0:0:0:0:
505,55,162200,1,0,0:0:0:0:
475,96,162279,1,0,0:0:0:0:
426,114,162359,5,0,0:0:0:0:
373,116,162438,1,0,0:0:0:0:
326,136,162518,1,0,0:0:0:0:
307,184,162598,1,0,0:0:0:0:
301,236,162678,1,0,0:0:0:0:
284,285,162757,1,0,0:0:0:0:
241,311,162837,1,0,0:0:0:0:
192,297,162917,1,0,0:0:0:0:
167,253,162997,1,0,0:0:0:0:
185,206,163077,1,0,0:0:0:0:
233,191,163156,1,0,0:0:0:0:
281,214,163237,5,0,0:0:0:0:
316,252,163316,1,0,0:0:0:0:
362,275,163396,1,0,0:0:0:0:
411,259,163476,1,0,0:0:0:0:
454,230,163556,1,0,0:0:0:0:
502,211,163635,1,0,0:0:0:0:
550,227,163715,1,0,0:0:0:0:
571,274,163795,1,0,0:0:0:0:
554,322,163875,1,0,0:0:0:0:
506,338,163955,1,0,0:0:0:0:
464,311,164034,1,0,0:0:0:0:
449,259,164115,5,0,0:0:0:0:
426,211,164194,1,0,0:0:0:0:
389,176,164274,1,0,0:0:0:0:
337,177,164354,1,0,0:0:0:0:
287,192,164434,1,0,0:0:0:0:
236,196,164513,1,0,0:0:0:0:
194,166,164593,1,0,0:0:0:0:
188,116,164673,1,0,0:0:0:0:
219,75,164753,1,0,0:0:0:0:
269,73,164833,1,0,0:0:0:0:
302,112,164912,1,0,0:0:0:0:
303,164,164992,5,0,0:0:0:0:
252,178,165071,1,0,0:0:0:0:
212,210,165151,1,0,0:0:0:0:
204,260,165231,1,0,0:0:0:0:
211,312,165311,1,0,0:0:0:0:
207,364,165390,1,0,0:0:0:0:
172,400,165470,1,0,0:0:0:0:
121,398,165550,1,0,0:0:0:0:
86,362,165630,1,0,0:0:0:0:
92,312,165710,1,0,0:0:0:0:
135,286,165789,1,0,0:0:0:0:
190,304,165870,5,0,0:0:0:0:
244,286,165949,1,0,0:0:0:0:
283,247,166029,1,0,0:0:0:0:
284,191,166109,1,0,0:0:0:0:
277,134,166189,1,0,0:0:0:0:
293,81,166268,1,0,0:0:0:0:
344,60,166348,1,0,0:0:0:0:
394,85,166428,1,0,0:0:0:0:
404,139,166508,1,0,0:0:0:0:
364,177,166588,1,0,0:0:0:0:
307,181,166668,5,0,0:0:0:0:
282,129,166747,1,0,0:0:0:0:
238,96,166827,1,0,0:0:0:0:
182,103,166907,1,0,0:0:0:0:
127,117,166987,1,0,0:0:0:0:
72,109,167066,1,0,0:0:0:0:
44,61,167146,1,0,0:0:0:0:
62,9,167226,1,0,0:0:0:0:
114,-8,167306,1,0,0:0:0:0:
157,25,167386,1,0,0:0:0:0:
170,81,167466,5,0,0:0:0:0:
162,137,167545,1,0,0:0:0:0:
181,189,167625,1,0,0:0:0:0:
232,214,167705,1,0,0:0:0:0:
286,231,167785,1,0,0:0:0:0:
328,268,167864,1,0,0:0:0:0:
325,323,167944,1,0,0:0:0:0:
281,358,168024,1,0,0:0:0:0:
228,344,168104,1,0,0:0:0:0:
211,292,168184,1,0,0:0:0:0:
239,238,168263,5,0,0:0:0:0:
289,202,168342,1,0,0:0:0:0:
311,147,168422,1,0,0:0:0:0:
290,89,168502,1,0,0:0:0:0:
268,32,168582,1,0,0:0:0:0:
286,-24,168661,1,0,0:0:0:0:
343,-40,168741,1,0,0:0:0:0:
391,-5,168821,1,0,0:0:0:0:
383,53,168901,1,0,0:0:0:0:
340,98,168982,5,0,0:0:0:0:
278,102,169061,1,0,0:0:0:0:
230,136,169141,1,0,0:0:0:0:
218,197,169221,1,0,0:0:0:0:
205,257,169301,1,0,0:0:0:0:
160,295,169380,1,0,0:0:0:0:
103,279,169460,1,0,0:0:0:0:
82,224,169540,1,0,0:0:0:0:
119,178,169620,1,0,0:0:0:0:
185,179,169700,5,0,0:0:0:0:
222,233,169779,1,0,0:0:0:0:
282,253,169859,1,0,0:0:0:0:
344,229,169939,1,0,0:0:0:0:
408,215,170019,1,0,0:0:0:0:
457,256,170098,1,0,0:0:0:0:
448,319,170178,1,0,0:0:0:0:
390,341,170258,1,0,0:0:0:0:
345,297,170338,1,0,0:0:0:0:
359,222,170418,5,0,0:0:0:0:
325,154,170497,1,0,0:0:0:0:
256,133,170577,1,0,0:0:0:0:
182,149,170657,1,0,0:0:0:0:
114,124,170737,1,0,0:0:0:0:
369,68,177998,6,0,B|43:53|517:361|85:353|20:254|105:157|127:141|158:136|205:153,1,532
369,68,178955,6,0,B|43:53|517:361|85:353|20:254|105:157|127:141|158:136|205:153,1,532
