osu file format v14

[General]
AudioFilename: audio.mp3
AudioLeadIn: 0
PreviewTime: 88317
Countdown: 0
SampleSet: Soft
StackLeniency: 0.6
Mode: 0
LetterboxInBreaks: 0
WidescreenStoryboard: 0

[Editor]
Bookmarks: 63423,88955,109380,140019,150232,170657,211508,252359,253636,294487,314912,336615
DistanceSpacing: 1.2
BeatDivisor: 8
GridSize: 4
TimelineZoom: 2.299999

[Metadata]
Title:Sidetracked Day
TitleUnicode:Sidetracked Day
Artist:VINXIS
ArtistUnicode:VINXIS
Creator:SnowNiNo_
Version:THREE DIMENSIONS
Source:
Tags:drum and bass dnb drumstep Mishima Yurara
BeatmapID:1537566
BeatmapSetID:728276

[Difficulty]
HPDrainRate:6
CircleSize:4
OverallDifficulty:10
ApproachRate:9.6
SliderMultiplier:1.9
SliderTickRate:1

[Events]
//Background and Video events
0,0,"66934796_p0.jpg",0,0
//Break Periods
2,181070,190558
//Storyboard Layer 0 (Background)
//Storyboard Layer 1 (Fail)
//Storyboard Layer 2 (Pass)
//Storyboard Layer 3 (Foreground)
//Storyboard Sound Samples

[TimingPoints]
2146,638.297872340426,4,2,2,15,1,0
12358,-100,4,2,2,25,0,0
17624,-100,4,2,2,5,0,0
19380,-100,4,2,2,25,0,0
22731,-100,4,2,2,5,0,0
24486,-100,4,2,2,25,0,0
27837,-100,4,2,2,5,0,0
29592,-100,4,2,2,25,0,0
32943,-100,4,2,2,5,0,0
34699,-100,4,2,2,25,0,0
38050,-100,4,2,2,5,0,0
39805,-100,4,2,2,25,0,0
42998,319.148936170213,4,2,2,30,1,0
42998,-200,4,2,2,30,0,0
62306,-100,4,2,1,60,0,0
82572,-133.333333333333,4,2,1,30,0,0
84327,-133.333333333333,4,2,0,30,0,0
88476,-100,4,2,1,60,0,0
110338,-100,4,2,1,80,0,1
140019,-100,4,2,1,60,0,0
150232,-100,4,2,1,80,0,1
170657,-100,4,2,1,80,0,0
170737,-133.333333333333,4,2,1,30,0,0
191083,-133.333333333333,4,2,2,30,0,0
211508,-100,4,2,1,60,0,0
252200,-1000,4,2,1,60,0,0
253317,-1000,4,2,1,5,0,0
253636,-100,4,2,1,80,0,1
293849,-66.6666666666667,4,2,1,80,0,1
294487,-100,4,2,1,60,0,0
314912,-100,4,2,1,50,0,0
335338,-100,4,2,2,30,0,0
336615,-100,4,2,2,5,0,0

[Colours]
Combo1 : 19,34,94
Combo2 : 0,255,255
Combo3 : 18,124,255
Combo4 : 0,0,255

[HitObjects]
256,192,12358,12,0,17146,0:0:0:0:
64,296,17465,6,0,B|60:262|30:240|30:240|48:210|42:176|42:176|84:161|98:131|98:131|177:203|277:156|277:156|232:160|201:126,1,475,2|0,0:0|0:0,0:0:0:0:
175,59,19380,1,2,0:0:0:0:
246,30,19699,1,2,0:0:0:0:
275,101,20018,6,0,B|315:90|354:111|354:111|411:94|419:41|419:41|422:96|479:132,1,285,2|2,0:0|0:0,0:0:0:0:
469,125,21933,1,2,0:0:0:0:
502,193,22253,1,2,0:0:0:0:
442,239,22572,6,0,B|396:188|324:192|324:192|344:259|297:321|297:321|264:275|166:271|166:271|202:281|218:323,1,475,2|0,0:0|0:0,0:0:0:0:
144,344,24487,1,2,0:0:0:0:
93,286,24806,1,2,0:0:0:0:
111,212,25125,6,0,B|50:186|36:105|36:105|108:60|192:109,1,285,2|2,0:0|0:0,0:0:0:0:
177,101,27040,1,2,0:0:0:0:
223,41,27359,1,2,0:0:0:0:
295,64,27678,6,0,B|327:93|374:89|374:89|345:150|386:210|386:210|318:166|205:196|205:196|257:191|284:234,1,475,2|0,0:0|0:0,0:0:0:0:
303,289,29593,1,2,0:0:0:0:
256,349,29912,1,2,0:0:0:0:
181,362,30231,6,0,B|121:310|35:332|35:332|109:311|137:238,1,285,2|2,0:0|0:0,0:0:0:0:
131,251,32146,1,2,0:0:0:0:
131,251,32784,6,0,B|184:233|230:260|230:260|167:189|59:177|59:177|160:160|184:57,1,475,2|0,0:0|0:0,0:0:0:0:
238,14,34699,1,2,0:0:0:0:
312,22,35018,1,2,0:0:0:0:
345,90,35338,6,0,B|344:152|397:175|397:175|364:241|364:241|418:254|434:326,1,285,2|2,0:0|0:0,0:0:0:0:
431,314,37253,1,2,0:0:0:0:
371,360,37571,1,2,0:0:0:0:
307,319,37890,6,0,B|302:265|316:182|389:191|389:191|375:257|253:251|200:188,1,380,2|0,0:0|0:0,0:0:0:0:
215,202,39806,1,2,0:0:0:0:
260,141,40125,1,2,0:0:0:0:
198,95,40444,6,0,B|156:100|127:79|127:79|108:119|65:137|65:137|127:174|120:250,1,285,2|2,0:0|0:0,0:0:0:0:
121,241,42359,1,2,0:0:0:0:
196,322,42678,1,2,0:0:0:0:
229,217,42998,6,0,P|232:171|200:114,2,95,6|0|2,0:0|0:0|0:0,0:0:0:0:
247,310,43955,2,0,P|288:289|321:233,2,95,2|0|2,0:0|0:0|0:0,0:0:0:0:
157,279,44912,1,2,0:0:0:0:
175,372,45232,1,2,0:0:0:0:
247,310,45551,6,0,P|252:266|228:213,2,95,2|0|2,0:0|0:0|0:0,0:0:0:0:
157,279,46508,2,0,P|121:252|63:246,2,95,2|0|2,0:0|0:0|0:0,0:0:0:0:
85,341,47466,1,2,0:0:0:0:
175,372,47785,1,2,0:0:0:0:
247,310,48104,6,0,L|239:191,2,95,2|0|2,0:0|0:0|0:0,0:0:0:0:
319,248,49061,2,0,L|327:129,2,95,2|0|2,0:0|0:0|0:0,0:0:0:0:
409,279,50019,1,2,0:0:0:0:
481,217,50338,1,2,0:0:0:0:
464,124,50657,6,0,L|362:115,2,95,2|0|2,0:0|0:0|0:0,0:0:0:0:
481,217,51615,1,2,0:0:0:0:
409,279,51934,2,0,L|356:269,1,47.5,2|0,0:0|0:0,0:0:0:0:
325,300,52253,2,0,L|307:249,1,47.5,2|0,0:0|0:0,0:0:0:0:
263,241,52572,2,0,L|298:200,1,47.5,2|0,0:0|0:0,0:0:0:0:
283,158,52891,2,0,L|336:168,1,47.5,2|0,0:0|0:0,0:0:0:0:
264,64,53210,6,0,L|158:83,2,95,2|0|2,0:0|0:0|0:0,0:0:0:0:
125,159,54168,2,0,L|19:139,2,95,2|0|2,0:0|0:0|0:0,0:0:0:0:
170,238,55125,1,2,0:0:0:0:
125,317,55445,1,2,0:0:0:0:
216,317,55763,6,0,P|253:349|307:351,2,95,2|0|2,0:0|0:0|0:0,0:0:0:0:
291,258,56721,2,0,P|337:241|366:199,2,95,2|0|2,0:0|0:0|0:0,0:0:0:0:
280,163,57678,1,2,0:0:0:0:
205,222,57998,1,2,0:0:0:0:
291,258,58317,6,0,L|399:271,2,95,2|0|2,0:0|0:0|0:0,0:0:0:0:
280,163,59274,2,0,L|172:176,2,95,2|0|2,0:0|0:0|0:0,0:0:0:0:
366,199,60232,1,2,0:0:0:0:
355,104,60551,1,2,0:0:0:0:
269,68,60870,6,0,L|161:55,2,95,2|0|2,0:0|0:0|0:0,0:0:0:0:
280,163,61827,1,2,0:0:0:0:
357,107,62146,2,0,L|361:51,1,47.5
192,124,62466,6,0,L|199:227,1,95,2|0,0:0|0:0,0:0:0:0:
304,302,62785,1,8,0:0:0:0:
293,207,62944,1,0,0:0:0:0:
198,218,63103,1,0,0:0:0:0:
209,313,63263,1,0,0:0:0:0:
304,302,63423,6,0,L|398:291,1,95,2|0,0:0|0:0,0:0:0:0:
293,207,63742,1,0,0:0:0:0:
198,218,63901,1,0,0:0:0:0:
388,196,64061,2,0,B|393:90,1,95,8|0,0:0|0:0,0:0:0:0:
424,11,64380,6,0,B|374:75|374:75|245:46,1,190
174,30,64859,1,0,0:0:0:0:
174,30,64939,1,0,0:0:0:0:
174,30,65019,2,0,L|182:135,1,95,2|0,0:0|0:0,0:0:0:0:
226,208,65338,2,0,P|180:152|68:177,1,190,8|0,0:0|0:0,0:0:0:0:
22,250,65817,1,0,0:0:0:0:
162,279,65976,6,0,P|206:302|267:293,1,95,2|0,0:0|0:0,0:0:0:0:
317,233,66295,1,0,0:0:0:0:
226,208,66455,1,0,0:0:0:0:
341,324,66615,2,0,P|394:289|378:161,1,190,8|0,0:0|0:0,0:0:0:0:
302,138,67093,1,0,0:0:0:0:
317,233,67253,6,0,L|436:257,1,95
226,208,67572,1,2,0:0:0:0:
226,208,67891,2,0,L|244:114,1,95,8|0,0:0|0:0,0:0:0:0:
238,19,68210,1,0,0:0:0:0:
160,74,68370,1,0,0:0:0:0:
322,59,68529,6,0,B|441:49|441:49|498:114,1,190,2|0,0:0|0:0,0:0:0:0:
488,197,69008,1,0,0:0:0:0:
366,152,69168,2,0,L|271:141,1,95,8|0,0:0|0:0,0:0:0:0:
194,86,69487,6,0,B|250:130|250:130|224:273,1,190
204,338,69966,1,0,0:0:0:0:
204,338,70045,1,0,0:0:0:0:
204,338,70125,2,0,L|305:350,1,95,2|0,0:0|0:0,0:0:0:0:
137,272,70444,2,0,L|36:284,1,95,8|0,0:0|0:0,0:0:0:0:
161,180,70763,1,0,0:0:0:0:
228,246,70923,1,0,0:0:0:0:
70,206,71083,6,0,L|80:101,1,95,2|0,0:0|0:0,0:0:0:0:
161,180,71402,1,0,0:0:0:0:
137,272,71561,1,0,0:0:0:0:
252,154,71721,2,0,L|242:49,1,95,8|0,0:0|0:0,0:0:0:0:
70,206,72040,2,0,L|60:311,1,95
161,180,72359,6,0,L|154:114,1,47.5
83,64,72519,2,0,L|76:129,1,47.5
252,154,72678,2,0,L|242:49,1,95,2|0,0:0|0:0,0:0:0:0:
161,180,72998,2,0,L|154:245,1,47.5,8|0,0:0|0:0,0:0:0:0:
323,267,73157,2,0,L|316:201,1,47.5
252,154,73317,1,0,0:0:0:0:
232,293,73476,2,0,L|225:227,1,47.5,8|0,0:0|0:0,0:0:0:0:
186,89,73636,6,0,B|243:55|243:55|378:99,1,190,2|0,0:0|0:0,0:0:0:0:
450,124,74115,1,0,0:0:0:0:
329,183,74274,2,0,L|222:189,1,95,8|0,0:0|0:0,0:0:0:0:
138,188,74593,6,0,P|190:197|221:325,1,190
156,377,75072,1,0,0:0:0:0:
156,377,75152,1,0,0:0:0:0:
156,377,75232,2,0,L|47:370,1,95,2|0,0:0|0:0,0:0:0:0:
227,314,75551,2,0,L|336:307,1,95,8|0,0:0|0:0,0:0:0:0:
208,222,75870,1,0,0:0:0:0:
227,314,76029,1,0,0:0:0:0:
279,160,76189,6,0,P|238:130|114:196,1,190,2|0,0:0|0:0,0:0:0:0:
38,231,76668,1,0,0:0:0:0:
208,222,76827,2,0,L|199:103,1,95,8|0,0:0|0:0,0:0:0:0:
126,276,77146,2,0,L|117:395,1,95
214,321,77466,6,0,L|308:328,1,95
208,222,77785,1,2,0:0:0:0:
214,321,77944,1,0,0:0:0:0:
120,177,78104,2,0,P|166:132|291:170,1,190,8|0,0:0|0:0,0:0:0:0:
301,249,78583,1,0,0:0:0:0:
350,88,78742,6,0,P|400:91|448:125,1,95,2|0,0:0|0:0,0:0:0:0:
372,182,79061,2,0,L|394:278,1,95
231,316,79380,1,8,0:0:0:0:
301,249,79540,1,0,0:0:0:0:
208,222,79700,6,0,B|95:217|95:217|43:140,1,190
19,64,80178,1,0,0:0:0:0:
19,64,80258,1,0,0:0:0:0:
19,64,80338,2,0,L|115:60,1,95,2|0,0:0|0:0,0:0:0:0:
260,139,80657,1,8,0:0:0:0:
209,57,80817,1,0,0:0:0:0:
164,142,80976,2,0,L|168:238,1,95
128,370,81295,6,0,B|160:310|160:310|301:287,1,190,2|0,0:0|0:0,0:0:0:0:
375,310,81774,1,0,0:0:0:0:
299,197,81934,2,0,L|291:96,1,95,8|0,0:0|0:0,0:0:0:0:
205,178,82253,1,0,0:0:0:0:
299,197,82412,1,0,0:0:0:0:
291,102,82572,6,0,P|236:66|148:77,2,142.500005435944
291,102,83529,1,0,0:0:0:0:
184,200,83849,5,2,0:0:0:0:
148,196,84008,1,0,0:0:0:0:
112,192,84168,1,0,0:0:0:0:
152,117,84327,5,2,0:0:0:0:
173,87,84486,1,0,0:0:0:0:
194,58,84646,1,0,0:0:0:0:
240,130,84806,5,2,0:0:0:0:
255,163,84965,1,0,0:0:0:0:
270,195,85125,1,0,0:0:0:0:
184,200,85285,5,2,0:0:0:0:
169,233,85444,1,0,0:0:0:0:
154,265,85604,1,0,0:0:0:0:
131,347,85764,5,2,0:0:0:0:
167,343,85923,1,0,0:0:0:0:
202,340,86083,1,0,0:0:0:0:
275,296,86242,5,2,0:0:0:0:
346,248,86402,5,2,0:0:0:0:
382,252,86561,1,0,0:0:0:0:
417,255,86721,1,0,0:0:0:0:
404,170,86880,5,2,0:0:0:0:
389,136,87039,1,0,0:0:0:0:
374,105,87199,1,0,0:0:0:0:
308,160,87359,5,2,0:0:0:0:
286,189,87518,1,0,0:0:0:0:
266,218,87678,1,0,0:0:0:0:
206,279,87838,5,2,0:0:0:0:
169,274,87997,1,0,0:0:0:0:
134,271,88157,1,0,0:0:0:0:
49,258,88317,5,0,0:0:0:0:
49,258,88396,1,0,0:0:0:0:
49,258,88476,2,0,L|45:177,1,47.5,2|0,0:0|0:0,0:0:0:0:
43,119,88636,1,8,0:0:0:0:
43,119,88795,1,0,0:0:0:0:
129,166,88955,6,0,L|248:178,1,95,2|0,0:0|0:0,0:0:0:0:
313,145,89274,1,8,0:0:0:0:
240,86,89434,1,0,0:0:0:0:
227,106,89513,1,0,0:0:0:0:
220,128,89593,1,0,0:0:0:0:
218,152,89673,1,0,0:0:0:0:
223,175,89753,2,0,P|234:205|245:221,1,47.5,2|0,0:0|0:0,0:0:0:0:
313,281,89912,2,0,L|419:272,1,95,8|0,0:0|0:0,0:0:0:0:
242,217,90232,5,2,0:0:0:0:
222,310,90391,1,0,0:0:0:0:
171,153,90551,1,8,0:0:0:0:
151,246,90710,1,0,0:0:0:0:
127,247,90789,1,0,0:0:0:0:
103,248,90869,1,0,0:0:0:0:
79,249,90949,1,0,0:0:0:0:
56,250,91029,2,0,L|0:252,1,47.5,2|0,0:0|0:0,0:0:0:0:
171,153,91189,2,0,L|277:158,1,95,8|0,0:0|0:0,0:0:0:0:
100,89,91508,6,0,P|77:137|84:192,1,95,2|0,0:0|0:0,0:0:0:0:
190,59,91827,1,8,0:0:0:0:
171,153,91987,1,0,0:0:0:0:
181,174,92066,1,0,0:0:0:0:
196,192,92146,1,0,0:0:0:0:
215,206,92226,1,0,0:0:0:0:
237,215,92306,2,0,P|270:221|290:220,1,47.5,2|0,0:0|0:0,0:0:0:0:
354,92,92466,2,0,P|299:98|263:127,1,95,8|0,0:0|0:0,0:0:0:0:
377,230,92785,6,0,L|381:167,1,47.5,2|0,0:0|0:0,0:0:0:0:
284,221,92944,2,0,L|288:284,1,47.5
466,286,93104,2,0,L|470:223,1,47.5,8|0,0:0|0:0,0:0:0:0:
386,87,93263,1,0,0:0:0:0:
384,110,93342,1,0,0:0:0:0:
382,134,93422,1,0,0:0:0:0:
381,158,93502,1,0,0:0:0:0:
380,182,93583,2,0,L|377:230,1,47.5,2|0,0:0|0:0,0:0:0:0:
290,316,93742,2,0,L|283:210,1,95,8|0,0:0|0:0,0:0:0:0:
195,118,94061,6,0,L|188:224,1,95,2|0,0:0|0:0,0:0:0:0:
179,307,94380,1,8,0:0:0:0:
101,251,94540,1,0,0:0:0:0:
99,227,94619,1,0,0:0:0:0:
97,203,94699,1,0,0:0:0:0:
96,179,94779,1,0,0:0:0:0:
94,156,94859,2,0,L|90:103,1,47.5,2|0,0:0|0:0,0:0:0:0:
79,14,95019,2,0,P|116:39|178:37,1,95,8|0,0:0|0:0,0:0:0:0:
258,21,95338,5,2,0:0:0:0:
229,111,95498,1,0,0:0:0:0:
351,1,95657,1,8,0:0:0:0:
322,91,95817,1,0,0:0:0:0:
324,114,95896,1,0,0:0:0:0:
326,138,95976,1,0,0:0:0:0:
328,161,96056,1,0,0:0:0:0:
330,185,96136,2,0,L|335:242,1,47.5,2|0,0:0|0:0,0:0:0:0:
229,111,96295,2,0,L|238:0,1,95,8|0,0:0|0:0,0:0:0:0:
136,131,96615,6,0,L|145:241,1,95,2|0,0:0|0:0,0:0:0:0:
104,312,96934,1,8,0:0:0:0:
183,363,97093,1,0,0:0:0:0:
205,370,97172,1,0,0:0:0:0:
229,371,97252,1,0,0:0:0:0:
252,366,97332,1,0,0:0:0:0:
273,355,97412,1,2,0:0:0:0:
261,198,97572,2,0,P|229:237|228:304,1,95,8|0,0:0|0:0,0:0:0:0:
363,348,97891,5,2,0:0:0:0:
312,273,98051,1,0,0:0:0:0:
273,355,98210,1,8,0:0:0:0:
222,280,98370,1,0,0:0:0:0:
220,256,98449,1,0,0:0:0:0:
219,232,98529,1,0,0:0:0:0:
217,208,98609,1,0,0:0:0:0:
216,185,98689,2,0,L|212:121,1,47.5,2|0,0:0|0:0,0:0:0:0:
356,96,98849,2,0,L|349:197,1,95,8|0,0:0|0:0,0:0:0:0:
135,250,99168,6,0,L|128:148,1,95,2|0,0:0|0:0,0:0:0:0:
168,69,99487,1,8,0:0:0:0:
223,145,99646,1,0,0:0:0:0:
74,79,99806,1,0,0:0:0:0:
50,77,99885,1,0,0:0:0:0:
26,76,99965,1,2,0:0:0:0:
129,155,100125,2,0,L|258:142,1,95,8|0,0:0|0:0,0:0:0:0:
311,120,100444,6,0,P|283:75|237:55,1,95,2|0,0:0|0:0,0:0:0:0:
208,189,100763,2,0,P|223:156|219:124,1,47.5,8|0,0:0|0:0,0:0:0:0:
180,9,100923,2,0,P|164:41|168:73,1,47.5
311,120,101083,1,0,0:0:0:0:
302,98,101162,1,0,0:0:0:0:
287,79,101242,1,2,0:0:0:0:
289,209,101402,2,0,P|338:210|380:180,1,95,8|0,0:0|0:0,0:0:0:0:
223,145,101721,5,2,0:0:0:0:
201,234,101880,1,0,0:0:0:0:
135,170,102040,2,0,L|129:57,1,95,8|0,0:0|0:0,0:0:0:0:
113,259,102359,1,0,0:0:0:0:
111,282,102438,1,0,0:0:0:0:
110,306,102518,1,2,0:0:0:0:
48,193,102678,2,0,P|88:168|135:170,1,95,8|0,0:0|0:0,0:0:0:0:
206,281,102998,6,0,L|200:225,1,47.5,2|0,0:0|0:0,0:0:0:0:
228,97,103157,2,0,L|222:153,1,47.5
292,253,103317,2,0,L|285:195,1,47.5,8|0,0:0|0:0,0:0:0:0:
134,170,103476,1,0,0:0:0:0:
131,193,103555,1,0,0:0:0:0:
128,217,103635,1,0,0:0:0:0:
126,240,103715,1,0,0:0:0:0:
123,264,103795,2,0,L|116:321,1,47.5,2|0,0:0|0:0,0:0:0:0:
222,144,103955,2,0,L|211:47,1,95,8|0,0:0|0:0,0:0:0:0:
68,107,104274,6,0,L|57:204,1,95,2|0,0:0|0:0,0:0:0:0:
90,18,104593,1,8,0:0:0:0:
134,170,104753,1,0,0:0:0:0:
156,81,104912,1,0,0:0:0:0:
179,78,104991,1,0,0:0:0:0:
203,75,105071,1,2,0:0:0:0:
316,191,105232,2,0,L|201:176,1,95,8|0,0:0|0:0,0:0:0:0:
294,62,105551,6,0,L|409:47,1,95,2|0,0:0|0:0,0:0:0:0:
363,197,105870,2,0,L|305:189,1,47.5,8|0,0:0|0:0,0:0:0:0:
203,75,106029,2,0,L|260:67,1,47.5
222,179,106189,1,0,0:0:0:0:
198,175,106268,1,0,0:0:0:0:
174,172,106348,1,2,0:0:0:0:
61,93,106508,2,0,L|176:78,1,95,8|0,0:0|0:0,0:0:0:0:
316,191,106827,6,0,L|201:176,1,95,2|0,0:0|0:0,0:0:0:0:
360,107,107146,1,8,0:0:0:0:
411,188,107306,1,0,0:0:0:0:
316,191,107466,1,0,0:0:0:0:
313,214,107545,1,0,0:0:0:0:
311,238,107625,1,2,0:0:0:0:
265,110,107785,2,0,L|255:15,1,95,8|0,0:0|0:0,0:0:0:0:
170,113,108104,6,0,L|165:160,1,47.5,2|0,0:0|0:0,0:0:0:0:
360,107,108263,2,0,L|355:59,1,47.5
265,110,108423,2,0,L|260:157,1,47.5,8|0,0:0|0:0,0:0:0:0:
455,104,108583,1,0,0:0:0:0:
452,80,108662,1,0,0:0:0:0:
450,56,108742,1,0,0:0:0:0:
447,33,108822,1,0,0:0:0:0:
445,9,108902,1,2,0:0:0:0:
360,107,109061,2,0,L|349:204,1,95,8|0,0:0|0:0,0:0:0:0:
475,293,109380,6,0,L|464:195,1,95,2|0,0:0|0:0,0:0:0:0:
465,198,109700,1,8,0:0:0:0:
350,201,109859,2,0,L|360:103,1,95,2|0,0:0|0:0,0:0:0:0:
359,106,110178,1,8,0:0:0:0:
243,297,110338,5,6,0:0:0:0:
232,202,110497,1,8,0:0:0:0:
223,107,110657,6,0,L|215:39,1,47.5,2|0,0:0|0:0,0:0:0:0:
146,164,110817,1,0,0:0:0:0:
233,202,110976,2,0,L|225:134,1,47.5,8|0,0:0|0:0,0:0:0:0:
63,173,111136,1,0,0:0:0:0:
60,196,111215,1,0,0:0:0:0:
58,220,111295,1,0,0:0:0:0:
55,243,111375,1,0,0:0:0:0:
53,267,111455,2,0,L|45:334,1,47.5,2|0,0:0|0:0,0:0:0:0:
151,211,111615,2,0,L|143:143,1,47.5,8|0,0:0|0:0,0:0:0:0:
136,69,111774,1,0,0:0:0:0:
228,154,111934,6,0,L|288:159,1,47.5,2|0,0:0|0:0,0:0:0:0:
136,69,112093,2,0,L|76:74,1,47.5
218,60,112253,1,8,0:0:0:0:
146,163,112412,1,0,0:0:0:0:
148,187,112491,1,0,0:0:0:0:
151,211,112571,1,0,0:0:0:0:
153,234,112651,1,0,0:0:0:0:
156,258,112732,2,0,L|161:306,1,47.5,2|0,0:0|0:0,0:0:0:0:
233,358,112891,2,0,L|238:310,1,47.5,8|0,0:0|0:0,0:0:0:0:
246,215,113051,1,0,0:0:0:0:
259,72,113210,6,0,L|254:120,1,47.5,2|0,0:0|0:0,0:0:0:0:
167,161,113370,2,0,L|162:113,1,47.5
337,125,113529,2,0,L|332:173,1,47.5,8|0,0:0|0:0,0:0:0:0:
246,215,113689,1,0,0:0:0:0:
254,120,113849,1,0,0:0:0:0:
256,96,113928,1,0,0:0:0:0:
258,72,114008,2,0,L|263:24,1,47.5,2|0,0:0|0:0,0:0:0:0:
167,161,114168,2,0,L|162:113,1,47.5,8|0,0:0|0:0,0:0:0:0:
337,125,114327,2,0,L|342:77,1,47.5
246,215,114487,6,0,L|241:167,1,47.5,2|0,0:0|0:0,0:0:0:0:
420,130,114646,2,0,L|415:178,1,47.5
327,212,114806,1,8,0:0:0:0:
337,125,114966,1,0,0:0:0:0:
339,101,115045,1,0,0:0:0:0:
341,77,115125,1,0,0:0:0:0:
344,54,115205,1,0,0:0:0:0:
346,30,115285,1,2,0:0:0:0:
420,130,115444,2,0,L|425:178,1,47.5,8|0,0:0|0:0,0:0:0:0:
258,72,115604,1,0,0:0:0:0:
337,125,115763,6,0,L|342:173,1,47.5,2|0,0:0|0:0,0:0:0:0:
175,67,115923,2,0,L|180:19,1,47.5
252,167,116083,1,8,0:0:0:0:
155,255,116242,1,0,0:0:0:0:
157,231,116321,1,0,0:0:0:0:
159,207,116401,1,0,0:0:0:0:
162,184,116481,1,0,0:0:0:0:
164,160,116561,2,0,L|169:112,1,47.5,2|0,0:0|0:0,0:0:0:0:
246,262,116721,2,0,L|251:310,1,47.5,8|0,0:0|0:0,0:0:0:0:
146,350,116880,1,0,0:0:0:0:
107,259,117040,6,0,L|176:253,1,47.5,2|0,0:0|0:0,0:0:0:0:
298,313,117200,2,0,L|229:307,1,47.5
164,160,117359,2,0,L|233:154,1,47.5,8|0,0:0|0:0,0:0:0:0:
308,210,117519,1,0,0:0:0:0:
154,254,117678,1,0,0:0:0:0:
130,256,117757,1,0,0:0:0:0:
107,259,117838,2,0,L|59:263,1,47.5,2|0,0:0|0:0,0:0:0:0:
250,308,117998,2,0,L|325:315,1,47.5,8|0,0:0|0:0,0:0:0:0:
392,321,118157,1,0,0:0:0:0:
308,210,118317,6,0,L|302:155,1,47.5,2|0,0:0|0:0,0:0:0:0:
397,273,118476,2,0,L|391:328,1,47.5
407,170,118636,1,8,0:0:0:0:
298,313,118795,1,0,0:0:0:0:
274,310,118874,1,0,0:0:0:0:
250,308,118954,1,0,0:0:0:0:
144,304,119115,2,0,L|96:299,1,47.5,2|0,0:0|0:0,0:0:0:0:
260,214,119274,2,0,L|307:209,1,47.5,8|0,0:0|0:0,0:0:0:0:
154,210,119434,1,0,0:0:0:0:
225,128,119593,6,0,P|253:170|259:224,1,95,2|0,0:0|0:0,0:0:0:0:
119,108,119912,2,0,L|124:47,1,47.5,8|0,0:0|0:0,0:0:0:0:
154,210,120072,2,0,L|159:271,1,47.5
48,190,120232,1,0,0:0:0:0:
46,166,120311,1,0,0:0:0:0:
44,142,120391,2,0,L|40:94,1,47.5,2|0,0:0|0:0,0:0:0:0:
228,80,120551,2,0,L|224:127,1,47.5,8|0,0:0|0:0,0:0:0:0:
154,210,120710,1,0,0:0:0:0:
329,146,120870,6,0,L|319:262,1,95,2|0,0:0|0:0,0:0:0:0:
224,127,121189,2,0,L|228:80,1,47.5,8|0,0:0|0:0,0:0:0:0:
335,50,121349,2,0,L|331:97,1,47.5
217,222,121508,1,0,0:0:0:0:
218,198,121587,1,0,0:0:0:0:
220,174,121668,2,0,L|223:126,1,47.5,2|0,0:0|0:0,0:0:0:0:
321,240,121827,2,0,L|324:287,1,47.5,8|0,0:0|0:0,0:0:0:0:
256,352,121987,1,0,0:0:0:0:
414,313,122146,6,0,L|403:179,1,95,2|0,0:0|0:0,0:0:0:0:
324,287,122466,2,0,L|318:353,1,47.5,8|0,0:0|0:0,0:0:0:0:
482,248,122625,2,0,L|476:181,1,47.5
336,145,122784,1,0,0:0:0:0:
334,168,122865,1,0,0:0:0:0:
332,192,122944,2,0,L|326:258,1,47.5,2|0,0:0|0:0,0:0:0:0:
474,152,123104,2,0,L|468:85,1,47.5,8|0,0:0|0:0,0:0:0:0:
464,9,123263,1,0,0:0:0:0:
340,97,123423,6,0,L|334:163,1,47.5,2|0,0:0|0:0,0:0:0:0:
478,200,123583,2,0,L|472:133,1,47.5
328,239,123742,2,0,L|322:305,1,47.5,8|0,0:0|0:0,0:0:0:0:
490,342,123902,1,0,0:0:0:0:
488,318,123981,1,0,0:0:0:0:
486,294,124061,1,0,0:0:0:0:
484,270,124141,1,0,0:0:0:0:
482,247,124221,2,0,L|476:180,1,47.5,2|0,0:0|0:0,0:0:0:0:
336,144,124380,2,0,L|330:210,1,47.5,8|0,0:0|0:0,0:0:0:0:
324,286,124540,1,0,0:0:0:0:
249,226,124700,6,0,P|285:195|332:191,1,95,2|0,0:0|0:0,0:0:0:0:
235,321,125019,2,0,L|177:317,1,47.5,8|0,0:0|0:0,0:0:0:0:
107,237,125178,2,0,L|165:233,1,47.5
110,364,125338,1,0,0:0:0:0:
86,362,125417,1,0,0:0:0:0:
62,360,125498,2,0,L|4:356,1,47.5,2|0,0:0|0:0,0:0:0:0:
59,240,125657,2,0,L|117:236,1,47.5,8|0,0:0|0:0,0:0:0:0:
200,229,125817,1,0,0:0:0:0:
389,213,125976,6,0,L|269:221,1,95,2|0,0:0|0:0,0:0:0:0:
191,139,126295,2,0,L|250:143,1,47.5,8|0,0:0|0:0,0:0:0:0:
200,229,126455,1,0,0:0:0:0:
176,230,126534,1,0,0:0:0:0:
152,232,126614,1,0,0:0:0:0:
128,234,126694,1,0,0:0:0:0:
106,236,126774,2,0,L|59:240,1,47.5,2|0,0:0|0:0,0:0:0:0:
48,128,126934,2,0,L|95:131,1,47.5,8|0,0:0|0:0,0:0:0:0:
191,139,127093,1,0,0:0:0:0:
149,51,127253,6,0,L|101:47,1,47.5,2|0,0:0|0:0,0:0:0:0:
287,147,127412,2,0,L|334:143,1,47.5
245,59,127572,1,8,0:0:0:0:
191,139,127732,1,0,0:0:0:0:
192,162,127811,1,0,0:0:0:0:
194,186,127891,1,0,0:0:0:0:
195,210,127971,1,0,0:0:0:0:
197,233,128051,2,0,L|200:282,1,47.5,2|0,0:0|0:0,0:0:0:0:
92,178,128210,2,0,L|95:129,1,47.5,8|0,0:0|0:0,0:0:0:0:
86,272,128370,1,0,0:0:0:0:
8,220,128529,6,0,L|5:172,1,47.5,2|0,0:0|0:0,0:0:0:0:
98,83,128689,2,0,L|95:130,1,47.5
197,233,128849,2,0,L|194:185,1,47.5,8|0,0:0|0:0,0:0:0:0:
287,96,129009,2,0,L|284:143,1,47.5
386,246,129169,1,0,0:0:0:0:
384,222,129248,1,0,0:0:0:0:
383,198,129327,2,0,L|380:150,1,47.5,2|0,0:0|0:0,0:0:0:0:
197,138,129487,2,0,L|194:185,1,47.5,8|0,0:0|0:0,0:0:0:0:
472,156,129646,2,0,L|469:108,1,47.5
277,237,129806,6,0,L|274:285,1,47.5,2|0,0:0|0:0,0:0:0:0:
383,198,129966,2,0,L|380:150,1,47.5
375,55,130125,1,8,0:0:0:0:
287,96,130285,1,0,0:0:0:0:
285,119,130364,1,0,0:0:0:0:
283,143,130444,1,0,0:0:0:0:
282,167,130524,1,0,0:0:0:0:
280,190,130604,2,0,L|277:238,1,47.5,2|0,0:0|0:0,0:0:0:0:
378,102,130763,2,0,L|375:54,1,47.5,8|0,0:0|0:0,0:0:0:0:
383,197,130923,1,0,0:0:0:0:
463,145,131083,6,0,L|466:97,1,47.5,2|0,0:0|0:0,0:0:0:0:
284,48,131242,2,0,L|287:96,1,47.5
380,244,131402,2,0,L|383:196,1,47.5,8|0,0:0|0:0,0:0:0:0:
205,146,131561,1,0,0:0:0:0:
301,247,131721,1,0,0:0:0:0:
299,270,131800,1,0,0:0:0:0:
298,294,131880,2,0,L|295:342,1,47.5,2|0,0:0|0:0,0:0:0:0:
127,244,132040,2,0,L|124:196,1,47.5,8|0,0:0|0:0,0:0:0:0:
205,146,132200,1,0,0:0:0:0:
284,48,132359,6,0,L|287:96,1,47.5,2|0,0:0|0:0,0:0:0:0:
383,197,132519,2,0,L|386:149,1,47.5
205,146,132678,1,8,0:0:0:0:
301,247,132838,1,0,0:0:0:0:
299,270,132917,1,0,0:0:0:0:
298,294,132997,1,0,0:0:0:0:
296,317,133076,1,0,0:0:0:0:
295,341,133156,1,2,0:0:0:0:
386,244,133317,2,0,L|383:196,1,47.5,8|0,0:0|0:0,0:0:0:0:
216,250,133476,1,0,0:0:0:0:
471,286,133636,6,0,L|468:238,1,47.5,2|0,0:0|0:0,0:0:0:0:
298,199,133795,2,0,L|301:247,1,47.5
465,145,133955,2,0,L|462:97,1,47.5,8|0,0:0|0:0,0:0:0:0:
456,2,134115,1,0,0:0:0:0:
378,102,134274,1,0,0:0:0:0:
379,125,134353,1,0,0:0:0:0:
380,149,134434,2,0,L|383:197,1,47.5,2|0,0:0|0:0,0:0:0:0:
294,107,134593,2,0,L|297:59,1,47.5,8|0,0:0|0:0,0:0:0:0:
298,199,134753,1,0,0:0:0:0:
215,109,134912,6,0,L|212:157,1,47.5,2|0,0:0|0:0,0:0:0:0:
133,255,135072,2,0,L|130:207,1,47.5
44,165,135232,1,8,0:0:0:0:
50,260,135391,1,0,0:0:0:0:
51,283,135470,1,0,0:0:0:0:
52,307,135550,1,0,0:0:0:0:
54,331,135630,1,0,0:0:0:0:
55,354,135710,1,2,0:0:0:0:
130,207,135870,2,0,L|133:159,1,47.5,8|0,0:0|0:0,0:0:0:0:
216,249,136029,1,0,0:0:0:0:
212,157,136189,6,0,L|215:109,1,47.5,2|0,0:0|0:0,0:0:0:0:
298,199,136349,2,0,L|301:247,1,47.5
380,149,136508,2,0,L|383:101,1,47.5,8|0,0:0|0:0,0:0:0:0:
466,191,136668,1,0,0:0:0:0:
464,97,136827,1,0,0:0:0:0:
463,73,136906,1,0,0:0:0:0:
462,50,136987,2,0,L|459:2,1,47.5,2|0,0:0|0:0,0:0:0:0:
380,149,137146,2,0,L|377:197,1,47.5,8|0,0:0|0:0,0:0:0:0:
294,107,137306,1,0,0:0:0:0:
212,157,137466,6,0,L|209:205,1,47.5,2|0,0:0|0:0,0:0:0:0:
303,293,137625,2,0,L|300:245,1,47.5
294,107,137785,1,8,0:0:0:0:
383,291,137944,1,0,0:0:0:0:
381,267,138023,1,0,0:0:0:0:
380,243,138103,1,0,0:0:0:0:
378,219,138183,1,0,0:0:0:0:
377,196,138263,2,0,L|374:148,1,47.5,2|0,0:0|0:0,0:0:0:0:
297,59,138423,2,0,L|294:107,1,47.5,8|0,0:0|0:0,0:0:0:0:
212,157,138583,1,0,0:0:0:0:
132,116,138742,6,0,L|135:68,1,47.5,2|0,0:0|0:0,0:0:0:0:
298,199,138902,2,0,L|301:247,1,47.5
112,120,139061,2,0,L|115:72,1,47.5,8|0,0:0|0:0,0:0:0:0:
318,203,139221,2,0,L|321:251,1,47.5
256,74,139380,5,0,0:0:0:0:
173,240,139540,1,0,0:0:0:0:
132,116,139700,1,0,0:0:0:0:
298,199,139859,1,0,0:0:0:0:
90,198,140019,6,0,L|-13:192,1,95,2|0,0:0|0:0,0:0:0:0:
132,116,140338,1,0,0:0:0:0:
183,194,140497,1,0,0:0:0:0:
225,112,140657,2,0,L|231:8,1,95,8|0,0:0|0:0,0:0:0:0:
91,199,140976,2,0,L|85:293,1,95
132,116,141295,6,0,L|126:21,1,95
183,194,141615,1,2,0:0:0:0:
225,112,141774,1,0,0:0:0:0:
276,190,141934,2,0,L|270:284,1,95,8|0,0:0|0:0,0:0:0:0:
369,186,142253,2,0,L|363:91,1,95
225,112,142572,5,2,0:0:0:0:
276,190,142732,1,0,0:0:0:0:
369,186,142891,2,0,L|483:179,1,95
183,194,143210,2,0,L|88:199,1,95,8|0,0:0|0:0,0:0:0:0:
225,112,143529,1,0,0:0:0:0:
276,190,143689,1,0,0:0:0:0:
318,108,143849,5,0,0:0:0:0:
369,186,144009,1,0,0:0:0:0:
225,112,144168,2,0,L|232:6,1,95,2|0,0:0|0:0,0:0:0:0:
276,190,144487,1,0,0:0:0:0:
277,213,144566,1,0,0:0:0:0:
279,237,144646,2,0,L|282:289,1,47.5,2|0,0:0|0:0,0:0:0:0:
132,116,144806,2,0,L|139:10,1,95,8|0,0:0|0:0,0:0:0:0:
369,186,145125,6,0,L|376:292,1,95,2|0,0:0|0:0,0:0:0:0:
424,358,145444,1,0,0:0:0:0:
470,276,145604,1,0,0:0:0:0:
331,362,145763,2,0,L|217:357,1,95,8|0,0:0|0:0,0:0:0:0:
375,280,146083,2,0,L|489:275,1,95
326,201,146402,5,0,0:0:0:0:
282,283,146561,1,0,0:0:0:0:
419,198,146721,2,0,L|412:92,1,95,2|0,0:0|0:0,0:0:0:0:
233,204,147040,2,0,L|226:310,1,95,8|0,0:0|0:0,0:0:0:0:
184,125,147359,1,0,0:0:0:0:
140,207,147518,1,0,0:0:0:0:
277,122,147678,6,0,L|382:118,1,95,2|0,0:0|0:0,0:0:0:0:
228,43,147998,1,0,0:0:0:0:
184,125,148157,1,0,0:0:0:0:
143,54,148317,1,0,0:0:0:0:
143,54,148396,1,0,0:0:0:0:
143,54,148476,1,2,0:0:0:0:
277,122,148636,1,8,0:0:0:0:
184,125,148795,1,0,0:0:0:0:
321,40,148955,6,0,L|426:36,1,95,2|0,0:0|0:0,0:0:0:0:
277,122,149274,1,8,0:0:0:0:
228,43,149434,1,0,0:0:0:0:
377,126,149593,1,0,0:0:0:0:
377,126,149673,1,0,0:0:0:0:
377,126,149752,1,2,0:0:0:0:
184,125,149912,1,8,0:0:0:0:
321,40,150072,1,0,0:0:0:0:
326,201,150232,5,6,0:0:0:0:
325,248,150311,1,0,0:0:0:0:
309,292,150391,1,0,0:0:0:0:
278,328,150471,1,0,0:0:0:0:
237,351,150551,1,8,0:0:0:0:
190,359,150630,1,0,0:0:0:0:
144,350,150710,1,0,0:0:0:0:
103,325,150790,1,0,0:0:0:0:
74,288,150870,1,0,0:0:0:0:
77,240,150949,1,0,0:0:0:0:
112,208,151029,1,2,0:0:0:0:
160,212,151109,1,0,0:0:0:0:
191,247,151189,1,8,0:0:0:0:
234,265,151269,1,0,0:0:0:0:
281,266,151348,1,0,0:0:0:0:
325,249,151428,1,0,0:0:0:0:
358,215,151508,5,2,0:0:0:0:
401,195,151588,1,0,0:0:0:0:
449,196,151667,1,0,0:0:0:0:
477,232,151747,1,0,0:0:0:0:
475,279,151827,1,8,0:0:0:0:
438,312,151907,1,0,0:0:0:0:
392,307,151987,1,0,0:0:0:0:
361,271,152066,1,0,0:0:0:0:
363,224,152146,1,0,0:0:0:0:
401,195,152226,1,0,0:0:0:0:
420,151,152306,1,2,0:0:0:0:
420,103,152386,1,0,0:0:0:0:
399,59,152466,5,8,0:0:0:0:
375,117,152545,1,0,0:0:0:0:
322,151,152625,1,0,0:0:0:0:
259,148,152705,1,0,0:0:0:0:
209,111,152785,5,2,0:0:0:0:
246,82,152864,1,0,0:0:0:0:
293,75,152944,1,0,0:0:0:0:
339,86,153024,1,0,0:0:0:0:
375,117,153104,1,8,0:0:0:0:
402,156,153183,1,0,0:0:0:0:
414,202,153263,1,0,0:0:0:0:
408,249,153343,1,0,0:0:0:0:
386,291,153423,1,0,0:0:0:0:
350,321,153502,1,0,0:0:0:0:
304,333,153582,1,2,0:0:0:0:
258,324,153662,1,0,0:0:0:0:
219,298,153743,1,8,0:0:0:0:
182,268,153822,1,0,0:0:0:0:
137,256,153902,1,0,0:0:0:0:
90,264,153982,1,0,0:0:0:0:
51,291,154061,5,2,0:0:0:0:
77,330,154140,1,0,0:0:0:0:
119,351,154220,1,0,0:0:0:0:
166,349,154300,1,0,0:0:0:0:
206,325,154380,1,8,0:0:0:0:
229,284,154459,1,0,0:0:0:0:
229,237,154539,1,0,0:0:0:0:
240,190,154620,1,0,0:0:0:0:
266,151,154700,1,0,0:0:0:0:
308,130,154780,1,0,0:0:0:0:
355,132,154860,1,2,0:0:0:0:
395,157,154939,1,0,0:0:0:0:
404,207,155019,5,8,0:0:0:0:
345,232,155098,1,0,0:0:0:0:
284,216,155178,1,0,0:0:0:0:
244,168,155258,1,0,0:0:0:0:
243,105,155338,5,2,0:0:0:0:
222,134,155417,1,0,0:0:0:0:
198,160,155497,1,0,0:0:0:0:
167,175,155577,1,0,0:0:0:0:
131,178,155657,1,8,0:0:0:0:
98,166,155736,1,0,0:0:0:0:
71,143,155816,1,0,0:0:0:0:
54,112,155896,1,0,0:0:0:0:
51,77,155976,2,0,L|56:24,3,47.5,0|0|2|0,0:0|0:0|0:0|0:0,0:0:0:0:
131,178,156295,2,0,L|135:231,3,47.5,8|0|0|0,0:0|0:0|0:0|0:0,0:0:0:0:
172,47,156615,5,2,0:0:0:0:
201,27,156694,1,0,0:0:0:0:
236,20,156774,1,0,0:0:0:0:
271,27,156854,1,0,0:0:0:0:
300,46,156934,1,8,0:0:0:0:
320,75,157013,1,0,0:0:0:0:
328,110,157093,1,0,0:0:0:0:
321,145,157173,1,0,0:0:0:0:
303,175,157253,1,0,0:0:0:0:
284,204,157332,1,0,0:0:0:0:
277,239,157412,1,2,0:0:0:0:
285,274,157492,1,0,0:0:0:0:
305,303,157572,1,8,0:0:0:0:
335,322,157651,1,0,0:0:0:0:
369,329,157732,2,0,P|400:332|423:324,1,47.5
440,233,157891,5,2,0:0:0:0:
442,197,157971,1,0,0:0:0:0:
431,163,158051,1,0,0:0:0:0:
411,134,158130,1,0,0:0:0:0:
382,114,158210,1,8,0:0:0:0:
347,109,158290,1,0,0:0:0:0:
312,117,158370,1,0,0:0:0:0:
285,139,158449,1,0,0:0:0:0:
268,170,158529,1,0,0:0:0:0:
265,206,158609,1,0,0:0:0:0:
262,241,158689,1,2,0:0:0:0:
245,272,158769,1,0,0:0:0:0:
217,294,158848,1,8,0:0:0:0:
183,302,158928,1,0,0:0:0:0:
148,297,159008,1,0,0:0:0:0:
118,277,159088,1,0,0:0:0:0:
99,248,159168,6,0,L|94:182,3,47.5,2|0|0|0,0:0|0:0|0:0|0:0,0:0:0:0:
9,175,159487,2,0,L|14:109,3,47.5,8|0|0|0,0:0|0:0|0:0|0:0,0:0:0:0:
101,68,159806,1,0,0:0:0:0:
128,42,159885,1,0,0:0:0:0:
163,27,159965,1,2,0:0:0:0:
201,25,160045,1,0,0:0:0:0:
237,36,160125,1,8,0:0:0:0:
268,59,160204,1,0,0:0:0:0:
289,90,160284,1,0,0:0:0:0:
298,127,160364,1,0,0:0:0:0:
294,165,160444,5,2,0:0:0:0:
264,129,160523,1,0,0:0:0:0:
221,108,160603,1,0,0:0:0:0:
174,107,160683,1,0,0:0:0:0:
131,126,160763,1,8,0:0:0:0:
99,161,160842,1,0,0:0:0:0:
84,205,160922,1,0,0:0:0:0:
90,252,161002,1,0,0:0:0:0:
114,293,161082,1,0,0:0:0:0:
153,320,161162,1,0,0:0:0:0:
199,328,161241,1,2,0:0:0:0:
245,316,161321,1,0,0:0:0:0:
282,287,161402,1,8,0:0:0:0:
319,257,161481,1,0,0:0:0:0:
364,246,161561,1,0,0:0:0:0:
411,254,161641,1,0,0:0:0:0:
450,281,161721,5,2,0:0:0:0:
456,328,161801,1,0,0:0:0:0:
422,360,161880,1,0,0:0:0:0:
374,357,161960,1,0,0:0:0:0:
351,315,162040,1,8,0:0:0:0:
367,270,162120,1,0,0:0:0:0:
411,254,162200,1,0,0:0:0:0:
444,221,162279,1,0,0:0:0:0:
461,177,162359,1,0,0:0:0:0:
458,130,162439,1,0,0:0:0:0:
436,89,162519,1,2,0:0:0:0:
399,60,162598,1,0,0:0:0:0:
352,52,162678,5,8,0:0:0:0:
380,106,162757,1,0,0:0:0:0:
364,167,162837,1,0,0:0:0:0:
312,201,162917,1,0,0:0:0:0:
250,182,162998,5,2,0:0:0:0:
273,141,163077,1,0,0:0:0:0:
278,93,163157,1,0,0:0:0:0:
260,48,163237,1,0,0:0:0:0:
227,13,163317,1,8,0:0:0:0:
180,4,163396,1,0,0:0:0:0:
132,8,163476,1,0,0:0:0:0:
88,27,163556,1,0,0:0:0:0:
57,63,163636,1,0,0:0:0:0:
49,109,163716,1,0,0:0:0:0:
56,155,163795,1,2,0:0:0:0:
83,193,163875,1,0,0:0:0:0:
120,222,163955,1,8,0:0:0:0:
151,257,164034,1,0,0:0:0:0:
166,301,164114,1,0,0:0:0:0:
167,348,164194,1,0,0:0:0:0:
129,377,164274,5,2,0:0:0:0:
91,348,164354,1,0,0:0:0:0:
73,303,164434,1,0,0:0:0:0:
79,255,164514,1,0,0:0:0:0:
107,217,164594,1,8,0:0:0:0:
148,195,164673,1,0,0:0:0:0:
195,197,164753,1,0,0:0:0:0:
236,222,164833,1,0,0:0:0:0:
264,260,164913,1,0,0:0:0:0:
292,298,164992,1,0,0:0:0:0:
334,320,165072,1,2,0:0:0:0:
380,324,165152,1,0,0:0:0:0:
425,306,165231,5,8,0:0:0:0:
370,274,165311,1,0,0:0:0:0:
353,215,165391,1,0,0:0:0:0:
382,160,165471,1,0,0:0:0:0:
442,142,165551,5,2,0:0:0:0:
426,186,165630,1,0,0:0:0:0:
387,227,165710,1,0,0:0:0:0:
335,250,165790,1,0,0:0:0:0:
279,251,165870,1,8,0:0:0:0:
226,230,165949,1,0,0:0:0:0:
186,190,166029,1,0,0:0:0:0:
165,138,166109,1,0,0:0:0:0:
165,81,166189,1,0,0:0:0:0:
205,41,166269,1,0,0:0:0:0:
261,36,166349,1,2,0:0:0:0:
304,71,166428,1,0,0:0:0:0:
319,126,166508,1,8,0:0:0:0:
289,175,166588,1,0,0:0:0:0:
234,191,166668,1,0,0:0:0:0:
179,172,166748,1,0,0:0:0:0:
122,173,166827,5,2,0:0:0:0:
69,195,166907,1,0,0:0:0:0:
35,241,166987,1,0,0:0:0:0:
29,297,167067,1,0,0:0:0:0:
56,346,167146,1,8,0:0:0:0:
112,355,167226,1,0,0:0:0:0:
163,330,167306,1,0,0:0:0:0:
182,276,167386,1,0,0:0:0:0:
174,219,167466,1,0,0:0:0:0:
126,189,167545,1,0,0:0:0:0:
100,137,167625,1,2,0:0:0:0:
108,80,167705,1,0,0:0:0:0:
150,41,167785,1,8,0:0:0:0:
206,31,167865,1,0,0:0:0:0:
256,57,167944,1,0,0:0:0:0:
270,112,168024,1,0,0:0:0:0:
257,167,168104,5,2,0:0:0:0:
265,233,168184,1,0,0:0:0:0:
309,281,168263,1,0,0:0:0:0:
372,300,168343,1,0,0:0:0:0:
438,298,168423,1,8,0:0:0:0:
480,246,168503,1,0,0:0:0:0:
476,179,168583,1,0,0:0:0:0:
426,135,168662,1,0,0:0:0:0:
360,148,168742,1,0,0:0:0:0:
330,207,168822,1,0,0:0:0:0:
342,272,168902,1,2,0:0:0:0:
325,336,168982,1,0,0:0:0:0:
271,373,169061,1,8,0:0:0:0:
205,369,169141,1,0,0:0:0:0:
153,326,169221,1,0,0:0:0:0:
137,261,169301,1,0,0:0:0:0:
164,198,169380,5,2,0:0:0:0:
209,136,169460,1,0,0:0:0:0:
200,60,169540,1,0,0:0:0:0:
142,10,169620,1,0,0:0:0:0:
66,12,169699,1,8,0:0:0:0:
11,65,169779,1,0,0:0:0:0:
6,140,169859,1,0,0:0:0:0:
44,205,169939,1,0,0:0:0:0:
115,230,170019,5,0,0:0:0:0:
200,240,170099,1,0,0:0:0:0:
284,235,170178,1,2,0:0:0:0:
367,214,170258,1,0,0:0:0:0:
435,162,170338,1,8,0:0:0:0:
443,76,170418,1,0,0:0:0:0:
386,11,170498,1,0,0:0:0:0:
301,11,170577,1,0,0:0:0:0:
240,61,170657,5,4,0:0:0:0:
256,192,170737,12,0,180870,0:0:0:0:
71,122,191083,6,0,B|105:119|125:91|125:91|200:182|336:194|375:114|335:53|281:18|208:32|200:128|237:183|293:220|293:220|371:175|451:228,1,712.500027179719,2|0,0:0|0:0,0:0:0:0:
441,221,192998,1,2,0:0:0:0:
476,298,193317,1,2,0:0:0:0:
403,343,193636,2,0,B|340:314|340:314|254:316,2,142.500005435944,2|0|0,0:0|0:0|0:0,0:0:0:0:
476,298,194593,2,0,L|470:136,2,142.500005435944,2|0|0,0:0|0:0|0:0,0:0:0:0:
403,343,195551,1,2,0:0:0:0:
401,258,195870,1,2,0:0:0:0:
329,302,196189,6,0,B|245:289|184:357|184:357|118:289|28:301|28:301|62:257|59:211|59:211|138:222|180:248|180:248|105:202|78:135|85:82|85:82|77:136|32:147|32:147|1:100|21:51|21:51|47:-1|93:2|132:9|150:38|157:76|157:76|144:143|202:184|249:203|249:203|251:235|251:235|310:222|357:236|357:236|397:253|413:305|389:342|389:342|434:299|492:299|492:299|451:243|434:201|441:154|459:102|459:102|413:149|307:157|307:157|347:151|383:108,1,2137.50008153916,2|0,0:0|0:0,0:0:0:0:
368,123,201295,6,0,B|291:144|192:90|192:90|240:174|202:263|202:263|106:251|58:167|58:167|73:270|15:326,1,712.500027179719,2|0,0:0|0:0,0:0:0:0:
17,324,203210,1,2,0:0:0:0:
92,364,203529,1,2,0:0:0:0:
135,290,203849,2,0,B|113:224|113:224|138:124,2,142.500005435944,2|0|0,0:0|0:0|0:0,0:0:0:0:
210,330,204806,2,0,L|363:340,2,142.500005435944,2|0|0,0:0|0:0|0:0,0:0:0:0:
135,290,205763,1,2,0:0:0:0:
208,246,206083,1,2,0:0:0:0:
133,206,206402,6,0,B|93:207|64:233|54:273|54:273|70:207|38:151|38:151|101:103|189:99|217:155|232:201|208:246|208:246|248:298|326:282|326:282|314:314|327:351,1,712.500027179719,2|0,0:0|0:0,0:0:0:0:
325,345,208317,1,2,0:0:0:0:
408,362,208636,1,2,0:0:0:0:
446,285,208955,6,0,B|382:256|340:195|368:131|444:123|491:181|466:244|382:256|331:227|331:227|298:255|233:243,1,427.500016307831,2|2,0:0|0:0,0:0:0:0:
253,245,210870,1,2,0:0:0:0:
171,218,211189,1,2,0:0:0:0:
235,160,211508,6,0,L|346:156,1,95,2|0,0:0|0:0,0:0:0:0:
420,127,211827,1,8,0:0:0:0:
346,66,211987,1,0,0:0:0:0:
333,86,212066,1,0,0:0:0:0:
326,108,212146,1,0,0:0:0:0:
325,132,212226,1,0,0:0:0:0:
329,155,212306,1,2,0:0:0:0:
489,186,212466,2,0,P|461:147|419:126,1,95,8|0,0:0|0:0,0:0:0:0:
314,250,212785,6,0,P|360:245|400:219,1,95,2|0,0:0|0:0,0:0:0:0:
240,189,213104,1,8,0:0:0:0:
224,283,213263,1,0,0:0:0:0:
223,306,213342,1,0,0:0:0:0:
223,330,213422,1,0,0:0:0:0:
222,354,213502,1,0,0:0:0:0:
222,377,213582,1,2,0:0:0:0:
150,222,213742,2,0,L|148:128,1,95,8|0,0:0|0:0,0:0:0:0:
134,316,214061,5,2,0:0:0:0:
61,256,214220,1,0,0:0:0:0:
224,283,214380,1,8,0:0:0:0:
240,189,214540,1,0,0:0:0:0:
239,165,214619,1,0,0:0:0:0:
238,141,214699,1,0,0:0:0:0:
238,117,214779,1,0,0:0:0:0:
237,94,214859,1,2,0:0:0:0:
150,222,215019,2,0,L|148:316,1,95,8|0,0:0|0:0,0:0:0:0:
76,161,215338,6,0,L|74:67,1,95,2|0,0:0|0:0,0:0:0:0:
61,256,215657,1,8,0:0:0:0:
150,222,215817,1,0,0:0:0:0:
171,211,215896,1,0,0:0:0:0:
194,205,215976,1,0,0:0:0:0:
217,204,216056,1,0,0:0:0:0:
241,207,216136,1,2,0:0:0:0:
299,314,216295,2,0,P|251:316|207:299,1,95,8|0,0:0|0:0,0:0:0:0:
336,224,216615,6,0,P|380:207|427:209,1,95,2|0,0:0|0:0,0:0:0:0:
394,331,216934,1,8,0:0:0:0:
336,224,217093,1,0,0:0:0:0:
336,200,217172,1,0,0:0:0:0:
337,176,217252,1,0,0:0:0:0:
338,152,217332,1,0,0:0:0:0:
339,129,217412,1,2,0:0:0:0:
241,207,217572,2,0,L|244:301,1,95,8|0,0:0|0:0,0:0:0:0:
146,190,217891,6,0,L|149:95,1,95,2|0,0:0|0:0,0:0:0:0:
241,207,218210,1,8,0:0:0:0:
129,285,218370,1,0,0:0:0:0:
106,278,218449,1,0,0:0:0:0:
86,266,218529,1,0,0:0:0:0:
69,248,218609,1,0,0:0:0:0:
58,227,218689,1,2,0:0:0:0:
149,95,218849,2,0,L|146:190,1,95,8|0,0:0|0:0,0:0:0:0:
244,302,219168,6,0,L|240:207,1,95,2|0,0:0|0:0,0:0:0:0:
257,111,219487,1,8,0:0:0:0:
326,178,219646,1,0,0:0:0:0:
308,193,219725,1,0,0:0:0:0:
286,203,219805,1,0,0:0:0:0:
263,208,219885,1,0,0:0:0:0:
239,206,219965,1,2,0:0:0:0:
351,85,220125,2,0,P|388:102|419:146,1,95,8|0,0:0|0:0,0:0:0:0:
257,111,220444,6,0,P|254:85|266:43,1,47.5,2|0,0:0|0:0,0:0:0:0:
326,178,220604,2,0,P|331:201|330:224,1,47.5
237,111,220763,2,0,P|236:87|241:64,1,47.5,8|0,0:0|0:0,0:0:0:0:
240,207,220923,1,0,0:0:0:0:
216,205,221002,1,0,0:0:0:0:
192,203,221082,1,0,0:0:0:0:
168,202,221162,1,0,0:0:0:0:
145,200,221242,1,2,0:0:0:0:
257,111,221402,2,0,L|382:102,1,95,8|0,0:0|0:0,0:0:0:0:
309,274,221721,6,0,L|184:283,1,95,2|0,0:0|0:0,0:0:0:0:
326,178,222040,2,0,L|395:183,1,47.5,8|0,0:0|0:0,0:0:0:0:
497,260,222200,1,0,0:0:0:0:
473,261,222279,1,0,0:0:0:0:
449,263,222359,1,0,0:0:0:0:
425,265,222439,1,0,0:0:0:0:
402,266,222519,2,0,L|332:271,1,47.5,2|0,0:0|0:0,0:0:0:0:
231,171,222678,2,0,L|356:180,1,95,8|0,0:0|0:0,0:0:0:0:
214,280,222998,6,0,L|89:289,1,95,2|0,0:0|0:0,0:0:0:0:
34,195,223317,2,0,L|103:200,1,47.5,8|0,0:0|0:0,0:0:0:0:
173,180,223476,1,0,0:0:0:0:
161,159,223555,1,0,0:0:0:0:
156,136,223635,1,0,0:0:0:0:
156,112,223715,1,0,0:0:0:0:
163,89,223795,2,0,P|176:57|194:42,1,47.5,2|0,0:0|0:0,0:0:0:0:
277,22,223955,2,0,L|383:32,1,95,8|0,0:0|0:0,0:0:0:0:
267,171,224274,6,0,L|161:181,1,95,2|0,0:0|0:0,0:0:0:0:
336,101,224593,2,0,L|389:106,1,47.5,8|0,0:0|0:0,0:0:0:0:
326,250,224753,1,0,0:0:0:0:
302,252,224832,1,0,0:0:0:0:
278,254,224912,1,0,0:0:0:0:
255,256,224992,1,0,0:0:0:0:
231,258,225072,2,0,L|178:263,1,47.5,2|0,0:0|0:0,0:0:0:0:
395,180,225232,2,0,L|501:190,1,95,8|0,0:0|0:0,0:0:0:0:
275,334,225551,6,0,L|169:344,1,95,2|0,0:0|0:0,0:0:0:0:
37,355,225870,2,0,L|84:350,1,47.5,8|0,0:0|0:0,0:0:0:0:
180,342,226029,1,0,0:0:0:0:
175,318,226108,1,0,0:0:0:0:
165,297,226188,1,0,0:0:0:0:
150,279,226268,1,0,0:0:0:0:
130,265,226349,2,0,P|103:255|71:254,1,47.5,2|0,0:0|0:0,0:0:0:0:
26,175,226508,2,0,P|79:170|125:135,1,95,8|0,0:0|0:0,0:0:0:0:
199,39,226827,6,0,L|204:145,1,95,2|0,0:0|0:0,0:0:0:0:
111,195,227146,2,0,L|113:133,1,47.5,8|0,0:0|0:0,0:0:0:0:
293,119,227306,1,0,0:0:0:0:
294,142,227385,1,0,0:0:0:0:
295,166,227465,1,0,0:0:0:0:
296,190,227545,1,0,0:0:0:0:
297,213,227625,2,0,L|299:274,1,47.5,2|0,0:0|0:0,0:0:0:0:
107,290,227785,2,0,L|111:195,1,95,8|0,0:0|0:0,0:0:0:0:
382,104,228104,6,0,L|386:198,1,95,2|0,0:0|0:0,0:0:0:0:
297,307,228423,2,0,L|299:245,1,47.5,8|0,0:0|0:0,0:0:0:0:
293,119,228583,1,0,0:0:0:0:
274,134,228662,1,0,0:0:0:0:
253,144,228742,1,0,0:0:0:0:
229,147,228822,1,0,0:0:0:0:
206,144,228902,2,0,P|181:136|161:114,1,47.5,2|0,0:0|0:0,0:0:0:0:
141,34,229061,2,0,P|188:33|228:57,1,95,8|0,0:0|0:0,0:0:0:0:
81,194,229380,6,0,L|77:88,1,95,2|0,0:0|0:0,0:0:0:0:
206,144,229700,2,0,L|203:207,1,47.5,8|0,0:0|0:0,0:0:0:0:
87,337,229859,1,0,0:0:0:0:
86,313,229938,1,0,0:0:0:0:
85,289,230018,1,0,0:0:0:0:
84,265,230098,1,0,0:0:0:0:
83,242,230178,2,0,L|80:178,1,47.5,2|0,0:0|0:0,0:0:0:0:
301,213,230338,2,0,L|297:319,1,95,8|0,0:0|0:0,0:0:0:0:
206,238,230657,6,0,L|203:174,1,47.5,2|0,0:0|0:0,0:0:0:0:
397,140,230817,2,0,L|394:203,1,47.5
200,95,230976,2,0,L|197:31,1,47.5,8|0,0:0|0:0,0:0:0:0:
304,118,231136,1,0,0:0:0:0:
303,141,231215,1,0,0:0:0:0:
302,165,231295,1,0,0:0:0:0:
301,189,231375,1,0,0:0:0:0:
301,213,231455,2,0,L|298:276,1,47.5,2|0,0:0|0:0,0:0:0:0:
204,190,231615,2,0,L|199:78,1,95,8|0,0:0|0:0,0:0:0:0:
395,187,231934,6,0,L|390:298,1,95,2|0,0:0|0:0,0:0:0:0:
301,307,232253,2,0,L|299:259,1,47.5,8|0,0:0|0:0,0:0:0:0:
486,208,232412,1,0,0:0:0:0:
485,231,232491,1,0,0:0:0:0:
484,255,232571,1,0,0:0:0:0:
483,279,232651,1,0,0:0:0:0:
482,302,232732,2,0,L|480:349,1,47.5,2|0,0:0|0:0,0:0:0:0:
392,282,232891,2,0,L|390:234,1,47.5,8|0,0:0|0:0,0:0:0:0:
301,307,233051,2,0,L|299:354,1,47.5
211,287,233210,6,0,L|207:191,1,95,2|0,0:0|0:0,0:0:0:0:
392,187,233529,2,0,L|390:234,1,47.5,8|0,0:0|0:0,0:0:0:0:
301,307,233689,1,0,0:0:0:0:
300,283,233768,1,0,0:0:0:0:
299,259,233848,1,0,0:0:0:0:
298,235,233928,1,0,0:0:0:0:
297,212,234008,2,0,L|295:164,1,47.5,2|0,0:0|0:0,0:0:0:0:
396,93,234168,2,0,L|394:140,1,47.5,8|0,0:0|0:0,0:0:0:0:
291,68,234327,2,0,L|289:20,1,47.5
394,140,234487,6,0,L|389:264,1,95,2|0,0:0|0:0,0:0:0:0:
296,164,234806,2,0,L|294:116,1,47.5,8|0,0:0|0:0,0:0:0:0:
492,116,234966,1,0,0:0:0:0:
491,140,235045,1,0,0:0:0:0:
490,163,235125,1,0,0:0:0:0:
490,187,235205,1,0,0:0:0:0:
488,210,235285,2,0,L|486:257,1,47.5,2|0,0:0|0:0,0:0:0:0:
301,307,235444,2,0,L|299:259,1,47.5,8|0,0:0|0:0,0:0:0:0:
394,140,235604,2,0,L|392:187,1,47.5
205,189,235763,6,0,L|200:78,1,95,2|0,0:0|0:0,0:0:0:0:
112,261,236083,1,8,0:0:0:0:
222,183,236242,1,0,0:0:0:0:
221,159,236321,1,0,0:0:0:0:
220,135,236401,1,0,0:0:0:0:
95,267,236561,1,2,0:0:0:0:
239,177,236721,2,0,L|234:66,1,95,8|0,0:0|0:0,0:0:0:0:
78,273,237040,6,0,L|73:383,1,95,2|0,0:0|0:0,0:0:0:0:
108,183,237359,2,0,L|106:135,1,47.5,8|0,0:0|0:0,0:0:0:0:
171,253,237519,1,0,0:0:0:0:
170,276,237598,1,0,0:0:0:0:
169,300,237678,1,0,0:0:0:0:
168,324,237758,1,0,0:0:0:0:
167,347,237838,1,2,0:0:0:0:
201,163,237998,2,0,L|199:115,1,47.5,8|0,0:0|0:0,0:0:0:0:
264,233,238157,2,0,L|266:281,1,47.5
294,143,238317,6,0,L|290:47,1,95,2|0,0:0|0:0,0:0:0:0:
199,115,238636,2,0,L|201:163,1,47.5,8|0,0:0|0:0,0:0:0:0:
381,120,238795,1,0,0:0:0:0:
380,96,238874,1,0,0:0:0:0:
379,72,238954,1,0,0:0:0:0:
378,48,239034,1,0,0:0:0:0:
377,25,239114,1,2,0:0:0:0:
294,143,239274,2,0,L|292:191,1,47.5,8|0,0:0|0:0,0:0:0:0:
468,97,239434,2,0,L|466:49,1,47.5
290,48,239593,6,0,L|294:158,1,95,2|0,0:0|0:0,0:0:0:0:
379,167,239912,2,0,L|381:119,1,47.5,8|0,0:0|0:0,0:0:0:0:
199,115,240072,1,0,0:0:0:0:
199,138,240151,1,0,0:0:0:0:
200,162,240231,1,0,0:0:0:0:
201,186,240311,1,0,0:0:0:0:
202,209,240391,1,2,0:0:0:0:
377,214,240551,2,0,L|379:166,1,47.5,8|0,0:0|0:0,0:0:0:0:
204,303,240710,2,0,L|206:351,1,47.5
290,237,240870,6,0,L|292:189,1,47.5,2|0,0:0|0:0,0:0:0:0:
123,258,241029,2,0,L|125:306,1,47.5
202,209,241189,2,0,L|204:161,1,47.5,8|0,0:0|0:0,0:0:0:0:
35,230,241348,2,0,L|37:278,1,47.5
114,181,241509,1,0,0:0:0:0:
114,157,241588,1,0,0:0:0:0:
115,133,241668,2,0,L|117:85,1,47.5,2|0,0:0|0:0,0:0:0:0:
204,161,241827,2,0,L|207:255,1,95,8|0,0:0|0:0,0:0:0:0:
35,230,242146,6,0,L|38:136,1,95,2|0,0:0|0:0,0:0:0:0:
32,7,242466,2,0,L|31:54,1,47.5,8|0,0:0|0:0,0:0:0:0:
117,85,242625,1,0,0:0:0:0:
135,99,242704,1,0,0:0:0:0:
157,109,242784,1,0,0:0:0:0:
180,115,242864,1,0,0:0:0:0:
203,115,242944,1,2,0:0:0:0:
369,44,243104,2,0,P|322:41|276:51,1,95,8|0,0:0|0:0,0:0:0:0:
252,229,243423,6,0,P|278:189|293:144,1,95,2|0,0:0|0:0,0:0:0:0:
128,216,243742,2,0,L|133:282,1,47.5,8|0,0:0|0:0,0:0:0:0:
245,324,243902,1,0,0:0:0:0:
246,300,243981,1,0,0:0:0:0:
248,276,244061,1,0,0:0:0:0:
250,252,244141,1,0,0:0:0:0:
252,229,244221,1,2,0:0:0:0:
131,263,244380,2,0,L|137:357,1,95,8|0,0:0|0:0,0:0:0:0:
15,214,244700,6,0,L|21:119,1,95,2|0,0:0|0:0,0:0:0:0:
11,24,245019,2,0,L|74:12,1,47.5,8|0,0:0|0:0,0:0:0:0:
155,21,245178,1,0,0:0:0:0:
156,44,245257,1,0,0:0:0:0:
158,68,245337,1,0,0:0:0:0:
159,92,245417,1,0,0:0:0:0:
161,115,245497,1,2,0:0:0:0:
276,188,245657,2,0,L|282:93,1,95,8|0,0:0|0:0,0:0:0:0:
167,209,245976,6,0,L|173:303,1,95,2|0,0:0|0:0,0:0:0:0:
293,181,246295,1,8,0:0:0:0:
150,216,246455,1,0,0:0:0:0:
151,239,246534,1,0,0:0:0:0:
153,263,246614,1,0,0:0:0:0:
310,174,246774,1,2,0:0:0:0:
133,223,246934,2,0,L|139:317,1,95,8|0,0:0|0:0,0:0:0:0:
327,167,247253,6,0,L|333:72,1,95,2|0,0:0|0:0,0:0:0:0:
244,10,247572,2,0,L|247:57,1,47.5,8|0,0:0|0:0,0:0:0:0:
412,181,247732,1,0,0:0:0:0:
413,157,247811,1,0,0:0:0:0:
415,133,247891,1,0,0:0:0:0:
416,109,247971,1,0,0:0:0:0:
418,86,248051,1,2,0:0:0:0:
224,141,248210,2,0,L|230:235,1,95,8|0,0:0|0:0,0:0:0:0:
405,275,248529,6,0,L|411:180,1,95,2|0,0:0|0:0,0:0:0:0:
418,86,248849,2,0,L|371:92,1,47.5,8|0,0:0|0:0,0:0:0:0:
224,141,249008,1,0,0:0:0:0:
247,144,249087,1,0,0:0:0:0:
271,147,249167,1,0,0:0:0:0:
294,150,249247,1,0,0:0:0:0:
318,153,249327,1,2,0:0:0:0:
256,50,249487,2,0,L|155:62,1,95,8|0,0:0|0:0,0:0:0:0:
145,204,249806,6,0,L|245:216,1,95,2|0,0:0|0:0,0:0:0:0:
82,125,250125,2,0,L|31:131,1,47.5,8|0,0:0|0:0,0:0:0:0:
45,219,250285,1,0,0:0:0:0:
43,242,250364,1,0,0:0:0:0:
42,266,250444,1,0,0:0:0:0:
40,290,250524,1,0,0:0:0:0:
39,313,250604,1,2,0:0:0:0:
145,204,250763,2,0,L|139:109,1,95,8|0,0:0|0:0,0:0:0:0:
208,283,251083,6,0,L|205:330,1,47.5,2|0,0:0|0:0,0:0:0:0:
245,189,251242,2,0,L|242:141,1,47.5
308,268,251402,2,0,L|305:315,1,47.5,8|0,0:0|0:0,0:0:0:0:
345,174,251561,2,0,L|342:126,1,47.5
408,253,251721,1,0,0:0:0:0:
406,276,251800,1,0,0:0:0:0:
405,300,251880,2,0,L|402:347,1,47.5,2|0,0:0|0:0,0:0:0:0:
445,159,252040,2,0,L|442:111,1,47.5,8|0,0:0|0:0,0:0:0:0:
508,238,252200,6,0,B|500:268|500:268|501:304,1,66.5
508,238,253636,5,6,0:0:0:0:
469,264,253715,1,0,0:0:0:0:
422,273,253795,1,0,0:0:0:0:
377,262,253875,1,0,0:0:0:0:
340,232,253955,1,8,0:0:0:0:
318,190,254034,1,0,0:0:0:0:
316,143,254114,1,0,0:0:0:0:
334,99,254194,1,0,0:0:0:0:
368,67,254274,1,0,0:0:0:0:
415,66,254354,1,0,0:0:0:0:
449,98,254434,1,2,0:0:0:0:
450,144,254513,1,0,0:0:0:0:
412,173,254593,1,8,0:0:0:0:
364,172,254673,1,0,0:0:0:0:
334,134,254753,1,0,0:0:0:0:
292,111,254833,1,0,0:0:0:0:
245,104,254913,5,2,0:0:0:0:
198,110,254993,1,0,0:0:0:0:
156,131,255072,1,0,0:0:0:0:
123,165,255152,1,0,0:0:0:0:
102,207,255232,1,8,0:0:0:0:
96,254,255312,1,0,0:0:0:0:
106,300,255392,1,0,0:0:0:0:
141,331,255471,1,0,0:0:0:0:
188,336,255551,1,0,0:0:0:0:
230,314,255630,1,0,0:0:0:0:
255,273,255710,1,2,0:0:0:0:
252,225,255790,1,0,0:0:0:0:
215,194,255870,5,8,0:0:0:0:
196,254,255949,1,0,0:0:0:0:
140,285,256029,1,0,0:0:0:0:
78,266,256109,1,0,0:0:0:0:
55,205,256189,5,2,0:0:0:0:
102,207,256268,1,0,0:0:0:0:
144,184,256348,1,0,0:0:0:0:
167,142,256428,1,0,0:0:0:0:
176,95,256508,1,8,0:0:0:0:
165,49,256587,1,0,0:0:0:0:
126,20,256667,1,0,0:0:0:0:
78,14,256747,1,0,0:0:0:0:
36,37,256827,1,0,0:0:0:0:
20,81,256906,1,0,0:0:0:0:
35,126,256986,1,2,0:0:0:0:
77,146,257066,1,0,0:0:0:0:
123,136,257146,1,8,0:0:0:0:
155,101,257225,1,0,0:0:0:0:
189,67,257306,1,0,0:0:0:0:
234,54,257386,1,0,0:0:0:0:
280,63,257466,5,2,0:0:0:0:
317,90,257545,1,0,0:0:0:0:
341,131,257625,1,0,0:0:0:0:
350,178,257705,1,0,0:0:0:0:
345,225,257785,1,8,0:0:0:0:
302,244,257864,1,0,0:0:0:0:
258,225,257944,1,0,0:0:0:0:
251,177,258024,1,0,0:0:0:0:
281,140,258104,1,0,0:0:0:0:
328,142,258184,1,0,0:0:0:0:
372,156,258263,1,2,0:0:0:0:
405,189,258343,1,0,0:0:0:0:
425,231,258423,5,8,0:0:0:0:
473,189,258503,1,0,0:0:0:0:
488,126,258583,1,0,0:0:0:0:
469,65,258662,1,0,0:0:0:0:
413,34,258742,5,2,0:0:0:0:
416,69,258821,1,0,0:0:0:0:
416,104,258901,1,0,0:0:0:0:
405,138,258981,1,0,0:0:0:0:
383,166,259061,1,8,0:0:0:0:
353,185,259140,1,0,0:0:0:0:
318,192,259220,1,0,0:0:0:0:
283,188,259300,1,0,0:0:0:0:
252,172,259380,2,0,L|186:160,3,47.5,0|0|2|0,0:0|0:0|0:0|0:0,0:0:0:0:
329,270,259700,2,0,L|395:257,3,47.5,8|0|0|0,0:0|0:0|0:0|0:0,0:0:0:0:
224,322,260019,5,2,0:0:0:0:
191,335,260098,1,0,0:0:0:0:
155,337,260178,1,0,0:0:0:0:
121,328,260258,1,0,0:0:0:0:
91,309,260338,1,8,0:0:0:0:
69,281,260417,1,0,0:0:0:0:
56,248,260497,1,0,0:0:0:0:
54,213,260577,1,0,0:0:0:0:
64,179,260657,2,0,L|70:124,1,47.5
146,74,260817,2,0,L|151:129,1,47.5,2|0,0:0|0:0,0:0:0:0:
224,191,260976,2,0,L|229:135,1,47.5,8|0,0:0|0:0,0:0:0:0:
305,86,261136,2,0,L|310:141,1,47.5
353,217,261295,5,2,0:0:0:0:
361,251,261374,1,0,0:0:0:0:
358,286,261454,1,0,0:0:0:0:
343,319,261534,1,0,0:0:0:0:
320,345,261614,1,8,0:0:0:0:
289,362,261693,1,0,0:0:0:0:
254,369,261773,1,0,0:0:0:0:
219,364,261853,1,0,0:0:0:0:
187,348,261934,2,0,L|120:340,3,47.5,0|0|2|0,0:0|0:0|0:0|0:0,0:0:0:0:
69,259,262253,2,0,L|136:250,3,47.5,8|0|0|0,0:0|0:0|0:0|0:0,0:0:0:0:
223,241,262572,5,2,0:0:0:0:
198,212,262651,1,0,0:0:0:0:
187,176,262731,1,0,0:0:0:0:
191,138,262811,1,0,0:0:0:0:
211,106,262891,2,0,P|242:89|263:86,1,47.5,8|0,0:0|0:0,0:0:0:0:
324,153,263051,2,0,P|293:170|272:173,1,47.5
381,80,263210,1,0,0:0:0:0:
405,108,263289,1,0,0:0:0:0:
416,144,263369,1,2,0:0:0:0:
412,182,263449,1,0,0:0:0:0:
392,214,263529,2,0,P|361:231|340:234,1,47.5,8|0,0:0|0:0,0:0:0:0:
282,173,263689,2,0,P|312:155|333:152,1,47.5
261,263,263849,5,2,0:0:0:0:
214,266,263928,1,0,0:0:0:0:
171,246,264008,1,0,0:0:0:0:
143,208,264088,1,0,0:0:0:0:
137,162,264168,1,8,0:0:0:0:
130,115,264248,1,0,0:0:0:0:
102,77,264328,1,0,0:0:0:0:
60,57,264408,1,0,0:0:0:0:
16,76,264488,1,0,0:0:0:0:
4,121,264567,1,0,0:0:0:0:
32,158,264646,1,2,0:0:0:0:
80,160,264727,1,0,0:0:0:0:
111,124,264806,1,8,0:0:0:0:
152,102,264886,1,0,0:0:0:0:
199,95,264966,1,0,0:0:0:0:
245,104,265046,1,0,0:0:0:0:
284,130,265125,5,2,0:0:0:0:
323,156,265205,1,0,0:0:0:0:
369,165,265285,1,0,0:0:0:0:
416,158,265365,1,0,0:0:0:0:
457,136,265445,1,8,0:0:0:0:
488,100,265524,1,0,0:0:0:0:
485,52,265604,1,0,0:0:0:0:
443,28,265684,1,0,0:0:0:0:
399,45,265763,1,0,0:0:0:0:
388,91,265843,1,0,0:0:0:0:
410,132,265923,1,2,0:0:0:0:
446,162,266003,1,0,0:0:0:0:
490,178,266083,5,8,0:0:0:0:
427,172,266162,1,0,0:0:0:0:
377,210,266242,1,0,0:0:0:0:
365,272,266322,1,0,0:0:0:0:
399,325,266402,5,2,0:0:0:0:
431,291,266481,1,0,0:0:0:0:
439,244,266561,1,0,0:0:0:0:
429,198,266641,1,0,0:0:0:0:
403,159,266721,1,8,0:0:0:0:
364,132,266800,1,0,0:0:0:0:
318,122,266880,1,0,0:0:0:0:
272,129,266960,1,0,0:0:0:0:
231,154,267040,1,0,0:0:0:0:
190,178,267120,1,0,0:0:0:0:
144,192,267200,1,2,0:0:0:0:
97,183,267280,1,0,0:0:0:0:
53,165,267359,1,8,0:0:0:0:
24,126,267439,1,0,0:0:0:0:
15,79,267519,1,0,0:0:0:0:
35,36,267599,1,0,0:0:0:0:
80,25,267678,5,2,0:0:0:0:
125,37,267758,1,0,0:0:0:0:
143,83,267838,1,0,0:0:0:0:
129,126,267918,1,0,0:0:0:0:
89,152,267998,1,8,0:0:0:0:
46,172,268077,1,0,0:0:0:0:
32,217,268156,1,0,0:0:0:0:
33,264,268236,1,0,0:0:0:0:
56,305,268316,1,0,0:0:0:0:
97,328,268396,1,0,0:0:0:0:
144,327,268475,1,2,0:0:0:0:
190,313,268555,1,0,0:0:0:0:
223,279,268635,5,8,0:0:0:0:
260,329,268715,1,0,0:0:0:0:
320,347,268795,1,0,0:0:0:0:
381,327,268875,1,0,0:0:0:0:
418,276,268955,5,2,0:0:0:0:
362,284,269034,1,0,0:0:0:0:
309,262,269114,1,0,0:0:0:0:
280,212,269194,1,0,0:0:0:0:
277,155,269274,1,8,0:0:0:0:
294,102,269353,1,0,0:0:0:0:
334,61,269433,1,0,0:0:0:0:
387,43,269513,1,0,0:0:0:0:
441,61,269593,1,0,0:0:0:0:
466,112,269673,1,0,0:0:0:0:
458,168,269753,1,2,0:0:0:0:
407,193,269833,1,0,0:0:0:0:
350,187,269912,1,8,0:0:0:0:
313,142,269992,1,0,0:0:0:0:
314,84,270072,1,0,0:0:0:0:
281,37,270152,1,0,0:0:0:0:
227,18,270231,5,2,0:0:0:0:
172,31,270311,1,0,0:0:0:0:
132,70,270391,1,0,0:0:0:0:
119,125,270471,1,0,0:0:0:0:
137,178,270550,1,8,0:0:0:0:
180,214,270630,1,0,0:0:0:0:
236,222,270710,1,0,0:0:0:0:
287,200,270790,1,0,0:0:0:0:
307,146,270870,1,0,0:0:0:0:
278,97,270949,1,0,0:0:0:0:
220,93,271029,1,2,0:0:0:0:
180,133,271109,1,0,0:0:0:0:
183,191,271189,1,8,0:0:0:0:
225,229,271269,1,0,0:0:0:0:
280,241,271349,1,0,0:0:0:0:
333,222,271428,1,0,0:0:0:0:
367,176,271508,5,2,0:0:0:0:
354,240,271587,1,0,0:0:0:0:
316,295,271667,1,0,0:0:0:0:
260,330,271747,1,0,0:0:0:0:
195,340,271827,1,8,0:0:0:0:
131,323,271906,1,0,0:0:0:0:
80,281,271986,1,0,0:0:0:0:
49,223,272066,1,0,0:0:0:0:
43,157,272146,1,0,0:0:0:0:
65,95,272226,1,0,0:0:0:0:
109,46,272305,1,2,0:0:0:0:
175,32,272386,1,0,0:0:0:0:
231,67,272466,1,8,0:0:0:0:
256,127,272545,1,0,0:0:0:0:
307,169,272625,1,0,0:0:0:0:
372,183,272705,1,0,0:0:0:0:
438,181,272785,5,2,0:0:0:0:
480,118,272864,1,0,0:0:0:0:
456,45,272944,1,0,0:0:0:0:
381,29,273024,1,0,0:0:0:0:
326,82,273104,1,8,0:0:0:0:
336,156,273183,1,0,0:0:0:0:
385,210,273263,1,0,0:0:0:0:
385,286,273343,1,0,0:0:0:0:
334,343,273423,5,0,0:0:0:0:
249,337,273502,1,0,0:0:0:0:
208,261,273582,1,2,0:0:0:0:
226,177,273662,1,0,0:0:0:0:
192,98,273742,1,8,0:0:0:0:
109,79,273821,1,0,0:0:0:0:
35,123,273901,1,0,0:0:0:0:
19,208,273982,1,0,0:0:0:0:
65,278,274061,5,2,0:0:0:0:
79,223,274140,1,0,0:0:0:0:
114,178,274220,1,0,0:0:0:0:
164,152,274300,1,0,0:0:0:0:
221,148,274380,1,8,0:0:0:0:
274,167,274459,1,0,0:0:0:0:
315,205,274539,1,0,0:0:0:0:
338,257,274619,1,0,0:0:0:0:
322,312,274699,1,0,0:0:0:0:
270,336,274779,1,0,0:0:0:0:
216,316,274859,1,2,0:0:0:0:
198,261,274939,1,0,0:0:0:0:
220,208,275019,1,8,0:0:0:0:
274,190,275099,1,0,0:0:0:0:
322,218,275178,1,0,0:0:0:0:
337,273,275258,1,0,0:0:0:0:
367,321,275338,5,2,0:0:0:0:
417,348,275418,1,0,0:0:0:0:
473,338,275498,1,0,0:0:0:0:
496,286,275577,1,0,0:0:0:0:
484,230,275657,1,8,0:0:0:0:
433,203,275737,1,0,0:0:0:0:
378,220,275817,1,0,0:0:0:0:
354,271,275896,1,0,0:0:0:0:
323,319,275976,1,0,0:0:0:0:
270,341,276056,1,0,0:0:0:0:
212,344,276136,1,2,0:0:0:0:
158,323,276216,1,0,0:0:0:0:
139,269,276295,5,8,0:0:0:0:
209,269,276374,1,0,0:0:0:0:
271,235,276454,1,0,0:0:0:0:
305,172,276534,1,0,0:0:0:0:
303,99,276615,5,2,0:0:0:0:
280,150,276694,1,0,0:0:0:0:
232,181,276774,1,0,0:0:0:0:
175,187,276854,1,0,0:0:0:0:
123,161,276934,1,8,0:0:0:0:
101,108,277013,1,0,0:0:0:0:
110,51,277093,1,0,0:0:0:0:
154,13,277173,1,0,0:0:0:0:
207,32,277253,1,0,0:0:0:0:
215,87,277332,1,0,0:0:0:0:
176,128,277412,1,2,0:0:0:0:
120,114,277492,1,0,0:0:0:0:
67,135,277572,1,8,0:0:0:0:
34,181,277651,1,0,0:0:0:0:
37,238,277731,1,0,0:0:0:0:
74,280,277811,1,0,0:0:0:0:
129,293,277891,5,2,0:0:0:0:
183,275,277971,1,0,0:0:0:0:
214,226,278051,1,0,0:0:0:0:
259,192,278130,1,0,0:0:0:0:
312,172,278210,1,8,0:0:0:0:
370,175,278290,1,0,0:0:0:0:
417,206,278370,1,0,0:0:0:0:
435,260,278450,1,0,0:0:0:0:
422,314,278529,1,0,0:0:0:0:
380,352,278609,1,0,0:0:0:0:
322,350,278689,1,2,0:0:0:0:
271,323,278769,1,0,0:0:0:0:
262,266,278849,5,8,0:0:0:0:
218,320,278928,1,0,0:0:0:0:
149,329,279008,1,0,0:0:0:0:
93,288,279088,1,0,0:0:0:0:
82,219,279168,6,0,L|87:149,3,47.5,2|0|0|0,0:0|0:0|0:0|0:0,0:0:0:0:
175,137,279487,2,0,L|172:89,3,47.5,8|0|0|0,0:0|0:0|0:0|0:0,0:0:0:0:
273,212,279806,1,0,0:0:0:0:
303,247,279885,1,0,0:0:0:0:
346,265,279965,1,2,0:0:0:0:
393,260,280045,1,0,0:0:0:0:
432,233,280125,1,8,0:0:0:0:
453,191,280204,1,0,0:0:0:0:
453,144,280284,1,0,0:0:0:0:
430,103,280364,1,0,0:0:0:0:
391,78,280444,6,0,L|330:72,3,47.5,2|0|0|0,0:0|0:0|0:0|0:0,0:0:0:0:
256,152,280763,2,0,L|194:158,3,47.5,8|0|0|0,0:0|0:0|0:0|0:0,0:0:0:0:
233,31,281083,1,0,0:0:0:0:
186,22,281162,1,0,0:0:0:0:
140,32,281242,1,2,0:0:0:0:
100,57,281322,1,0,0:0:0:0:
72,95,281402,1,8,0:0:0:0:
59,140,281481,1,0,0:0:0:0:
64,187,281561,1,0,0:0:0:0:
85,230,281641,1,0,0:0:0:0:
121,261,281721,6,0,L|176:268,3,47.5,2|0|0|0,0:0|0:0|0:0|0:0,0:0:0:0:
163,171,282040,1,8,0:0:0:0:
209,179,282119,1,0,0:0:0:0:
245,208,282199,1,0,0:0:0:0:
263,252,282279,1,0,0:0:0:0:
258,298,282359,2,0,L|255:353,3,47.5,0|0|2|0,0:0|0:0|0:0|0:0,0:0:0:0:
347,260,282678,1,8,0:0:0:0:
381,228,282757,1,0,0:0:0:0:
395,183,282837,1,0,0:0:0:0:
385,137,282917,1,0,0:0:0:0:
354,102,282998,5,2,0:0:0:0:
338,146,283077,1,0,0:0:0:0:
307,182,283157,1,0,0:0:0:0:
266,205,283237,1,0,0:0:0:0:
219,211,283317,1,8,0:0:0:0:
173,200,283396,1,0,0:0:0:0:
134,173,283476,1,0,0:0:0:0:
107,135,283556,1,0,0:0:0:0:
96,89,283636,2,0,L|103:37,1,47.5
203,14,283795,2,0,L|209:66,1,47.5,2|0,0:0|0:0,0:0:0:0:
312,99,283955,2,0,L|318:46,1,47.5,8|0,0:0|0:0,0:0:0:0:
420,20,284114,2,0,L|426:72,1,47.5
432,152,284274,5,2,0:0:0:0:
377,165,284353,1,0,0:0:0:0:
338,205,284433,1,0,0:0:0:0:
326,260,284513,1,0,0:0:0:0:
344,313,284593,1,8,0:0:0:0:
388,348,284672,1,0,0:0:0:0:
444,359,284752,1,0,0:0:0:0:
491,326,284833,1,0,0:0:0:0:
491,269,284912,1,0,0:0:0:0:
447,230,284992,1,0,0:0:0:0:
391,242,285072,1,2,0:0:0:0:
364,292,285152,1,0,0:0:0:0:
331,338,285232,1,8,0:0:0:0:
275,349,285311,1,0,0:0:0:0:
219,334,285391,1,0,0:0:0:0:
183,289,285471,1,0,0:0:0:0:
178,232,285551,5,2,0:0:0:0:
199,179,285630,1,0,0:0:0:0:
244,145,285710,1,0,0:0:0:0:
300,135,285790,1,0,0:0:0:0:
347,166,285870,1,8,0:0:0:0:
351,222,285950,1,0,0:0:0:0:
310,261,286029,1,0,0:0:0:0:
253,252,286109,1,0,0:0:0:0:
227,200,286189,1,0,0:0:0:0:
244,145,286269,1,0,0:0:0:0:
231,89,286349,1,2,0:0:0:0:
188,52,286428,1,0,0:0:0:0:
131,40,286508,5,8,0:0:0:0:
89,97,286587,1,0,0:0:0:0:
82,168,286667,1,0,0:0:0:0:
106,235,286747,1,0,0:0:0:0:
165,275,286827,5,2,0:0:0:0:
189,224,286906,1,0,0:0:0:0:
238,195,286986,1,0,0:0:0:0:
294,201,287066,1,0,0:0:0:0:
336,238,287146,1,8,0:0:0:0:
378,275,287226,1,0,0:0:0:0:
434,281,287306,1,0,0:0:0:0:
483,252,287386,1,0,0:0:0:0:
502,198,287466,1,0,0:0:0:0:
493,142,287545,1,0,0:0:0:0:
454,100,287625,1,2,0:0:0:0:
402,74,287705,1,0,0:0:0:0:
345,66,287785,1,8,0:0:0:0:
288,63,287864,1,0,0:0:0:0:
232,76,287944,1,0,0:0:0:0:
181,103,288024,1,0,0:0:0:0:
125,117,288104,5,2,0:0:0:0:
76,86,288184,1,0,0:0:0:0:
87,30,288263,1,0,0:0:0:0:
142,17,288343,1,0,0:0:0:0:
174,63,288423,1,8,0:0:0:0:
152,116,288503,1,0,0:0:0:0:
124,165,288582,1,0,0:0:0:0:
122,221,288662,1,0,0:0:0:0:
146,272,288742,1,0,0:0:0:0:
191,307,288822,1,0,0:0:0:0:
246,317,288901,1,2,0:0:0:0:
300,300,288981,1,0,0:0:0:0:
341,260,289061,5,8,0:0:0:0:
282,205,289140,1,0,0:0:0:0:
198,195,289220,1,0,0:0:0:0:
122,221,289300,1,0,0:0:0:0:
76,288,289380,6,0,L|70:348,1,47.5,2|0,0:0|0:0,0:0:0:0:
194,243,289540,2,0,L|200:183,1,47.5
88,144,289700,2,0,L|82:204,1,47.5,8|0,0:0|0:0,0:0:0:0:
206,99,289859,2,0,L|212:39,1,47.5
100,1,290019,6,0,L|94:61,1,47.5
289,151,290178,2,0,L|283:91,1,47.5,2|0,0:0|0:0,0:0:0:0:
88,144,290338,2,0,L|82:204,1,47.5,8|0,0:0|0:0,0:0:0:0:
300,294,290498,2,0,L|296:247,1,47.5
198,195,290657,6,0,L|192:255,1,47.5,2|0,0:0|0:0,0:0:0:0:
305,341,290817,2,0,L|299:281,1,47.5
176,188,290976,2,0,L|170:248,1,47.5,8|0,0:0|0:0,0:0:0:0:
327,334,291136,2,0,L|321:274,1,47.5
315,110,291295,6,0,L|309:170,1,47.5
422,256,291455,2,0,L|416:196,1,47.5,2|0,0:0|0:0,0:0:0:0:
293,103,291614,2,0,L|287:163,1,47.5,8|0,0:0|0:0,0:0:0:0:
444,249,291774,2,0,L|438:189,1,47.5
271,96,291934,5,2,0:0:0:0:
269,107,292013,1,0,0:0:0:0:
268,119,292093,1,0,0:0:0:0:
267,131,292173,1,0,0:0:0:0:
266,143,292253,1,8,0:0:0:0:
265,155,292332,1,0,0:0:0:0:
263,166,292412,1,0,0:0:0:0:
262,178,292492,1,0,0:0:0:0:
261,190,292572,1,0,0:0:0:0:
260,202,292652,1,0,0:0:0:0:
259,214,292731,1,2,0:0:0:0:
258,225,292811,1,0,0:0:0:0:
256,237,292891,1,8,0:0:0:0:
255,249,292971,1,0,0:0:0:0:
254,261,293051,1,0,0:0:0:0:
253,273,293130,1,0,0:0:0:0:
252,285,293210,6,0,L|257:322,1,23.75,2|0,0:0|0:0,0:0:0:0:
214,314,293290,2,0,L|209:351,1,23.75
169,327,293370,2,0,L|154:361,1,23.75
122,324,293450,2,0,L|99:353,1,23.75
79,304,293529,2,0,L|49:326,1,23.75,8|0,0:0|0:0,0:0:0:0:
47,269,293609,2,0,L|12:283,1,23.75
29,226,293689,2,0,L|-8:231,1,23.75
28,179,293769,2,0,L|-9:174,1,23.75
44,134,293849,6,0,L|32:91,1,35.625001358986
104,97,293928,2,0,L|103:51,1,35.625001358986
173,78,294008,2,0,L|184:34,1,35.625001358986,2|0,0:0|0:0,0:0:0:0:
244,78,294088,2,0,L|266:38,1,35.625001358986
312,98,294168,2,0,L|343:65,1,35.625001358986,8|0,0:0|0:0,0:0:0:0:
372,136,294248,2,0,L|411:112,1,35.625001358986
419,189,294327,2,0,L|462:176,1,35.625001358986
450,253,294407,2,0,L|495:252,1,35.625001358986
463,323,294487,5,6,0:0:0:0:
136,346,294806,6,0,L|143:291,1,47.5,8|0,0:0|0:0,0:0:0:0:
247,195,294966,1,0,0:0:0:0:
249,218,295045,1,0,0:0:0:0:
252,242,295125,1,0,0:0:0:0:
254,265,295204,1,0,0:0:0:0:
257,289,295285,2,0,L|264:344,1,47.5,2|0,0:0|0:0,0:0:0:0:
152,203,295444,2,0,L|165:100,1,95,8|0,0:0|0:0,0:0:0:0:
342,187,295763,6,0,L|355:289,1,95,2|0,0:0|0:0,0:0:0:0:
247,195,296083,2,0,L|254:140,1,47.5,8|0,0:0|0:0,0:0:0:0:
326,45,296242,1,0,0:0:0:0:
328,68,296321,1,0,0:0:0:0:
331,92,296401,1,0,0:0:0:0:
333,115,296482,1,0,0:0:0:0:
336,139,296561,2,0,L|343:194,1,47.5,2|0,0:0|0:0,0:0:0:0:
152,203,296721,2,0,L|165:100,1,95,8|0,0:0|0:0,0:0:0:0:
257,289,297040,6,0,L|270:391,1,95,2|0,0:0|0:0,0:0:0:0:
353,281,297359,2,0,L|358:233,1,47.5,8|0,0:0|0:0,0:0:0:0:
402,144,297519,1,0,0:0:0:0:
389,123,297598,1,0,0:0:0:0:
372,107,297678,1,0,0:0:0:0:
352,95,297758,1,0,0:0:0:0:
329,89,297838,2,0,P|303:86|273:91,1,47.5,2|0,0:0|0:0,0:0:0:0:
175,116,297998,2,0,P|202:74|198:5,1,95,8|0,0:0|0:0,0:0:0:0:
61,127,298317,6,0,L|69:187,1,47.5,2|0,0:0|0:0,0:0:0:0:
222,218,298476,2,0,L|230:158,1,47.5
79,268,298636,2,0,L|87:328,1,47.5,8|0,0:0|0:0,0:0:0:0:
203,361,298795,1,0,0:0:0:0:
206,337,298874,1,0,0:0:0:0:
210,314,298954,1,0,0:0:0:0:
212,289,299035,1,0,0:0:0:0:
215,265,299115,2,0,L|223:205,1,47.5,2|0,0:0|0:0,0:0:0:0:
325,179,299274,2,0,L|333:239,1,47.5,8|0,0:0|0:0,0:0:0:0:
349,321,299434,1,0,0:0:0:0:
221,217,299593,6,0,L|234:116,1,95,2|0,0:0|0:0,0:0:0:0:
136,33,299912,2,0,L|144:93,1,47.5,8|0,0:0|0:0,0:0:0:0:
137,185,300072,1,0,0:0:0:0:
120,168,300151,1,0,0:0:0:0:
99,156,300231,1,0,0:0:0:0:
77,149,300311,1,0,0:0:0:0:
53,149,300391,2,0,P|26:151|4:163,1,47.5,2|0,0:0|0:0,0:0:0:0:
16,323,300551,2,0,P|49:287|59:229,1,95,8|0,0:0|0:0,0:0:0:0:
160,307,300870,6,0,L|259:317,1,95,2|0,0:0|0:0,0:0:0:0:
300,213,301189,2,0,L|252:217,1,47.5,8|0,0:0|0:0,0:0:0:0:
348,325,301349,1,0,0:0:0:0:
371,327,301428,1,0,0:0:0:0:
395,329,301508,1,0,0:0:0:0:
418,332,301588,1,0,0:0:0:0:
442,334,301668,2,0,L|489:338,1,47.5,2|0,0:0|0:0,0:0:0:0:
488,193,301827,2,0,L|389:203,1,95,8|0,0:0|0:0,0:0:0:0:
252,217,302146,6,0,P|289:176|295:124,1,95,2|0,0:0|0:0,0:0:0:0:
200,137,302466,2,0,L|139:128,1,47.5,8|0,0:0|0:0,0:0:0:0:
157,222,302625,1,0,0:0:0:0:
160,245,302704,1,0,0:0:0:0:
169,267,302784,1,0,0:0:0:0:
183,285,302864,1,0,0:0:0:0:
203,299,302944,2,0,P|224:310|257:314,1,47.5,2|0,0:0|0:0,0:0:0:0:
342,216,303104,2,0,P|287:204|239:225,1,95,8|0,0:0|0:0,0:0:0:0:
157,222,303423,6,0,L|162:169,1,47.5,2|0,0:0|0:0,0:0:0:0:
236,69,303583,2,0,L|241:122,1,47.5
79,195,303742,2,0,L|84:142,1,47.5,8|0,0:0|0:0,0:0:0:0:
314,139,303902,1,0,0:0:0:0:
316,162,303981,1,0,0:0:0:0:
318,186,304061,1,0,0:0:0:0:
321,210,304141,1,0,0:0:0:0:
323,233,304221,1,2,0:0:0:0:
148,316,304380,2,0,L|157:210,1,95,8|0,0:0|0:0,0:0:0:0:
166,125,304700,6,0,P|223:126|265:98,1,95,2|0,0:0|0:0,0:0:0:0:
303,24,305019,2,0,L|357:31,1,47.5,8|0,0:0|0:0,0:0:0:0:
445,49,305178,1,0,0:0:0:0:
425,61,305257,1,0,0:0:0:0:
410,80,305337,1,0,0:0:0:0:
401,102,305417,1,0,0:0:0:0:
398,125,305498,2,0,P|403:156|417:175,1,47.5,2|0,0:0|0:0,0:0:0:0:
465,275,305657,2,0,P|427:260|365:258,1,95,8|0,0:0|0:0,0:0:0:0:
279,271,305976,5,2,0:0:0:0:
339,344,306136,1,0,0:0:0:0:
373,256,306295,2,0,L|368:200,1,47.5,8|0,0:0|0:0,0:0:0:0:
358,113,306455,1,0,0:0:0:0:
342,94,306534,1,0,0:0:0:0:
323,81,306614,1,0,0:0:0:0:
301,73,306694,1,0,0:0:0:0:
277,72,306774,2,0,P|249:74|225:87,1,47.5,2|0,0:0|0:0,0:0:0:0:
132,126,306934,2,0,L|139:23,1,95,8|0,0:0|0:0,0:0:0:0:
276,172,307253,6,0,L|283:275,1,95,2|0,0:0|0:0,0:0:0:0:
209,328,307572,1,8,0:0:0:0:
169,241,307732,1,0,0:0:0:0:
96,303,307892,1,0,0:0:0:0:
97,326,307971,1,0,0:0:0:0:
99,350,308051,1,2,0:0:0:0:
56,216,308210,2,0,L|62:121,1,95,8|0,0:0|0:0,0:0:0:0:
166,193,308529,6,0,L|169:246,1,47.5,2|0,0:0|0:0,0:0:0:0:
62,121,308689,2,0,L|65:67,1,47.5
259,160,308849,2,0,L|262:213,1,47.5,8|0,0:0|0:0,0:0:0:0:
155,88,309008,2,0,L|158:34,1,47.5
352,127,309168,1,0,0:0:0:0:
353,150,309247,1,0,0:0:0:0:
355,174,309327,2,0,L|358:227,1,47.5,2|0,0:0|0:0,0:0:0:0:
163,335,309487,2,0,L|170:231,1,95,8|0,0:0|0:0,0:0:0:0:
155,88,309806,5,2,0:0:0:0:
259,160,309966,1,0,0:0:0:0:
169,240,310125,2,0,L|113:234,1,47.5,8|0,0:0|0:0,0:0:0:0:
61,99,310285,1,0,0:0:0:0:
84,96,310364,1,0,0:0:0:0:
108,93,310444,1,0,0:0:0:0:
131,91,310524,1,0,0:0:0:0:
155,88,310604,2,0,L|211:82,1,47.5,2|0,0:0|0:0,0:0:0:0:
353,170,310763,2,0,L|246:158,1,95,8|0,0:0|0:0,0:0:0:0:
296,71,311083,6,0,L|403:59,1,95,2|0,0:0|0:0,0:0:0:0:
473,121,311402,2,0,L|465:178,1,47.5,8|0,0:0|0:0,0:0:0:0:
366,264,311561,1,0,0:0:0:0:
362,240,311640,1,0,0:0:0:0:
359,216,311720,1,0,0:0:0:0:
356,193,311800,1,0,0:0:0:0:
352,169,311880,1,2,0:0:0:0:
256,240,312040,2,0,L|239:356,1,95,8|0,0:0|0:0,0:0:0:0:
153,366,312359,5,2,0:0:0:0:
148,270,312519,1,0,0:0:0:0:
59,302,312678,2,0,L|49:369,1,47.5,8|0,0:0|0:0,0:0:0:0:
148,270,312838,1,0,0:0:0:0:
144,246,312917,1,0,0:0:0:0:
141,222,312997,1,0,0:0:0:0:
138,199,313077,1,0,0:0:0:0:
134,175,313157,2,0,L|124:107,1,47.5,2|0,0:0|0:0,0:0:0:0:
112,31,313317,2,0,P|159:48|210:47,1,95,8|0,0:0|0:0,0:0:0:0:
296,34,313636,6,0,L|301:91,1,47.5,2|0,0:0|0:0,0:0:0:0:
480,119,313795,2,0,L|485:62,1,47.5
203,48,313955,2,0,L|208:105,1,47.5,8|0,0:0|0:0,0:0:0:0:
387,133,314115,2,0,L|392:76,1,47.5
110,62,314274,1,0,0:0:0:0:
112,85,314353,1,0,0:0:0:0:
114,109,314433,1,2,0:0:0:0:
292,176,314593,2,0,L|301:64,1,95,8|0,0:0|0:0,0:0:0:0:
122,203,314912,6,0,L|131:314,1,95,2|0,0:0|0:0,0:0:0:0:
226,357,315232,2,0,L|231:300,1,47.5,8|0,0:0|0:0,0:0:0:0:
242,214,315391,1,0,0:0:0:0:
320,274,315551,1,0,0:0:0:0:
322,297,315630,1,0,0:0:0:0:
324,321,315710,1,2,0:0:0:0:
422,292,315870,2,0,L|430:197,1,95,8|0,0:0|0:0,0:0:0:0:
374,119,316189,5,2,0:0:0:0:
306,186,316349,1,0,0:0:0:0:
250,108,316508,2,0,L|142:100,1,95,8|0,0:0|0:0,0:0:0:0:
131,105,316748,1,0,0:0:0:0:
111,118,316827,1,0,0:0:0:0:
96,137,316907,1,0,0:0:0:0:
92,160,316987,1,2,0:0:0:0:
89,257,317146,2,0,P|142:292|188:294,1,95,8|0,0:0|0:0,0:0:0:0:
305,239,317466,6,0,P|252:204|206:202,1,95,2|0,0:0|0:0,0:0:0:0:
256,334,317785,1,8,0:0:0:0:
363,329,317944,2,0,L|468:325,1,95
475,308,318184,1,0,0:0:0:0:
475,308,318263,1,2,0:0:0:0:
464,173,318423,2,0,L|359:169,1,95,8|0,0:0|0:0,0:0:0:0:
279,135,318742,5,2,0:0:0:0:
353,75,318902,1,0,0:0:0:0:
295,229,319061,1,8,0:0:0:0:
369,169,319221,1,0,0:0:0:0:
205,195,319380,1,0,0:0:0:0:
181,192,319459,1,0,0:0:0:0:
157,189,319539,1,2,0:0:0:0:
95,78,319700,2,0,L|202:68,1,95,8|0,0:0|0:0,0:0:0:0:
300,204,320019,6,0,L|205:195,1,95,2|0,0:0|0:0,0:0:0:0:
361,124,320338,2,0,P|395:166|394:230,1,95,8|0,0:0|0:0,0:0:0:0:
399,229,320577,1,0,0:0:0:0:
393,252,320657,1,0,0:0:0:0:
381,272,320737,1,0,0:0:0:0:
362,287,320817,1,2,0:0:0:0:
258,283,320976,2,0,P|271:230|324:193,1,95,8|0,0:0|0:0,0:0:0:0:
362,287,321295,5,2,0:0:0:0:
307,376,321455,1,0,0:0:0:0:
258,283,321615,1,8,0:0:0:0:
203,372,321774,2,0,L|92:366,1,95
88,352,322013,1,0,0:0:0:0:
88,352,322093,1,2,0:0:0:0:
16,238,322253,2,0,P|41:186|44:137,1,95,8|0,0:0|0:0,0:0:0:0:
21,28,322572,6,0,L|128:37,1,95,2|0,0:0|0:0,0:0:0:0:
197,85,322891,1,8,0:0:0:0:
281,127,323051,1,0,0:0:0:0:
304,125,323130,1,0,0:0:0:0:
328,123,323210,1,0,0:0:0:0:
351,121,323290,1,0,0:0:0:0:
375,119,323370,1,2,0:0:0:0:
480,32,323529,2,0,L|385:24,1,95,8|0,0:0|0:0,0:0:0:0:
297,63,323849,5,2,0:0:0:0:
375,119,324008,1,0,0:0:0:0:
287,158,324168,1,8,0:0:0:0:
365,214,324327,1,0,0:0:0:0:
273,249,324487,1,0,0:0:0:0:
249,247,324566,1,0,0:0:0:0:
226,245,324646,1,2,0:0:0:0:
114,109,324806,2,0,L|208:101,1,95,8|0,0:0|0:0,0:0:0:0:
130,239,325125,6,0,L|35:231,1,95,2|0,0:0|0:0,0:0:0:0:
183,158,325444,1,8,0:0:0:0:
226,245,325604,1,0,0:0:0:0:
226,269,325683,1,0,0:0:0:0:
227,292,325763,1,0,0:0:0:0:
228,316,325843,1,0,0:0:0:0:
229,340,325923,1,2,0:0:0:0:
354,368,326083,2,0,L|356:273,1,95,8|0,0:0|0:0,0:0:0:0:
431,214,326402,6,0,L|428:119,1,95,2|0,0:0|0:0,0:0:0:0:
347,46,326721,2,0,P|290:40|242:65,1,95,8|0,0:0|0:0,0:0:0:0:
241,72,326960,1,0,0:0:0:0:
224,89,327040,1,0,0:0:0:0:
202,99,327120,1,0,0:0:0:0:
178,103,327200,1,2,0:0:0:0:
63,89,327359,2,0,P|90:137|88:196,1,95,8|0,0:0|0:0,0:0:0:0:
49,272,327678,6,0,P|81:228|216:254,1,190,2|8,0:0|0:0,0:0:0:0:
254,319,328157,1,0,0:0:0:0:
339,277,328317,1,0,0:0:0:0:
340,253,328396,1,0,0:0:0:0:
342,229,328476,1,2,0:0:0:0:
430,179,328636,2,0,L|416:81,1,95,8|0,0:0|0:0,0:0:0:0:
342,25,328955,5,2,0:0:0:0:
304,112,329115,1,0,0:0:0:0:
229,53,329274,1,8,0:0:0:0:
191,140,329434,1,0,0:0:0:0:
116,81,329593,1,0,0:0:0:0:
119,57,329672,1,0,0:0:0:0:
122,33,329752,1,2,0:0:0:0:
78,168,329912,2,0,L|90:262,1,95,8|0,0:0|0:0,0:0:0:0:
54,350,330232,6,0,P|97:301|219:320,1,190,2|8,0:0|0:0,0:0:0:0:
299,349,330710,1,0,0:0:0:0:
321,356,330789,1,0,0:0:0:0:
345,358,330869,1,0,0:0:0:0:
368,354,330949,1,0,0:0:0:0:
391,346,331029,1,2,0:0:0:0:
463,285,331189,2,0,L|458:180,1,95,8|0,0:0|0:0,0:0:0:0:
371,150,331508,6,0,L|376:45,1,95,2|0,0:0|0:0,0:0:0:0:
285,24,331827,1,8,0:0:0:0:
263,116,331987,2,0,L|267:210,1,95
249,226,332226,1,0,0:0:0:0:
249,226,332306,1,2,0:0:0:0:
145,141,332466,2,0,L|150:36,1,95,8|0,0:0|0:0,0:0:0:0:
49,196,332785,6,0,L|54:301,1,95,2|0,0:0|0:0,0:0:0:0:
136,347,333104,2,0,P|186:366|249:346,1,95,8|0,0:0|0:0,0:0:0:0:
244,338,333343,1,0,0:0:0:0:
267,321,333423,1,0,0:0:0:0:
294,314,333503,1,0,0:0:0:0:
322,314,333583,1,2,0:0:0:0:
416,328,333742,2,0,P|431:284|424:228,1,95,8|0,0:0|0:0,0:0:0:0:
379,153,334061,5,2,0:0:0:0:
302,209,334221,1,0,0:0:0:0:
255,126,334380,1,8,0:0:0:0:
178,182,334540,1,0,0:0:0:0:
131,99,334700,1,0,0:0:0:0:
129,75,334779,1,0,0:0:0:0:
127,51,334859,1,2,0:0:0:0:
54,155,335019,2,0,L|45:266,1,95,8|0,0:0|0:0,0:0:0:0:
33,344,335338,6,0,P|60:289|195:290,1,190,2|0,0:0|0:0,0:0:0:0:
248,339,335817,2,0,P|216:287|291:183,1,190,2|0,0:0|0:0,0:0:0:0:
368,168,336295,2,0,P|261:166|224:75,1,190,2|0,0:0|0:0,0:0:0:0:
