osu file format v14

[General]
AudioFilename: audio.mp3
AudioLeadIn: 0
PreviewTime: 66284
Countdown: 0
SampleSet: Soft
StackLeniency: 0
Mode: 0
LetterboxInBreaks: 0
WidescreenStoryboard: 0

[Editor]
Bookmarks: 40832,45938,66364,86789,107215,127641
DistanceSpacing: 0.13
BeatDivisor: 8
GridSize: 32
TimelineZoom: 2.899999

[Metadata]
Title:Sidetracked Day (Short Ver.)
TitleUnicode:Sidetracked Day (Short Ver.)
Artist:VINXIS
ArtistUnicode:VINXIS
Creator:Hobbes2
Version:Polack's Extra
Source:
Tags:Dnb Drum and Bass Mishima Yurara Chill Nao Tomori WORSTPOLACKEU LowComboFC Featured Artist
BeatmapID:1631290
BeatmapSetID:767600

[Difficulty]
HPDrainRate:5.5
CircleSize:3.4
OverallDifficulty:8.8
ApproachRate:9.2
SliderMultiplier:1.7
SliderTickRate:1

[Events]
//Background and Video events
0,0,"nonshitquality.png",0,0
//Break Periods
//Storyboard Layer 0 (Background)
//Storyboard Layer 1 (Fail)
//Storyboard Layer 2 (Pass)
//Storyboard Layer 3 (Foreground)
//Storyboard Sound Samples

[TimingPoints]
17843,319.148936170213,4,2,1,52,1,0
20396,-125,4,2,1,40,0,0
29651,-90.9090909090909,4,2,1,40,0,0
29970,-71.4285714285714,4,2,1,40,0,0
30289,-58.8235294117647,4,2,1,40,0,0
30608,-125,4,2,1,40,0,0
39864,-90.9090909090909,4,2,1,40,0,0
40183,-71.4285714285714,4,2,1,40,0,0
40502,-58.8235294117647,4,2,1,40,0,0
40821,-100,4,2,1,30,0,0
45449,-100,4,2,1,52,0,0
45489,-100,4,2,1,5,0,0
45608,-100,4,2,1,52,0,0
45648,-100,4,2,1,5,0,0
45768,-100,4,2,1,52,0,0
45808,-100,4,2,1,5,0,0
45927,-83.3333333333333,4,2,1,52,0,0
56140,-83.3333333333333,4,2,1,40,0,0
66353,-83.3333333333333,4,2,1,52,0,0
76566,-83.3333333333333,4,2,1,40,0,0
86459,-58.8235294117647,4,2,1,52,0,0
86778,-76.9230769230769,4,2,1,52,0,0
126991,-50,4,2,1,52,0,0
127630,-100,4,2,1,52,0,0

[Colours]
Combo1 : 166,77,255
Combo2 : 255,123,255
Combo3 : 193,193,255
Combo4 : 185,0,185

[HitObjects]
82,107,20396,6,0,P|125:67|206:83,1,136,6|0,1:2|0:0,0:0:0:0:
92,212,20874,2,0,P|142:254|207:243,1,136,2|0,0:0|0:0,0:0:0:0:
246,158,21353,1,0,0:0:0:0:
315,243,21513,1,0,0:0:0:0:
373,151,21672,5,0,0:0:0:0:
307,64,21832,1,0,3:0:0:0:
307,64,21911,1,0,3:0:0:0:
307,64,21991,1,0,1:0:0:0:
315,243,22310,1,8,0:1:0:0:
246,158,22630,1,0,0:0:0:0:
373,151,22949,6,0,L|515:165,1,136,2|0,1:2|0:0,0:0:0:0:
383,275,23427,2,0,L|247:261,1,136,2|0,0:0|0:0,0:0:0:0:
363,27,23906,1,0,0:0:0:0:
264,74,24066,1,0,0:0:0:0:
170,18,24225,5,0,0:0:0:0:
71,65,24385,1,0,0:0:0:0:
71,65,24465,1,0,0:0:0:0:
71,65,24544,1,0,1:0:0:0:
164,121,24704,1,0,0:0:0:0:
264,74,24864,1,8,0:1:0:0:
71,65,25183,1,0,3:3:0:0:
248,164,25502,6,0,P|299:184|398:184,1,136,2|0,1:2|0:0,0:0:0:0:
193,239,25981,2,0,P|142:259|43:259,1,136,2|0,0:0|0:0,0:0:0:0:
275,284,26459,1,0,0:0:0:0:
248,164,26619,1,0,0:0:0:0:
275,284,26778,5,0,0:0:0:0:
193,239,26938,1,0,3:0:0:0:
193,239,27018,1,0,3:0:0:0:
193,239,27098,1,0,1:0:0:0:
275,284,27257,1,0,0:0:0:0:
171,99,27417,2,0,B|257:74|257:74|297:97,1,136,8|0,0:1|0:0,0:0:0:0:
103,164,28055,6,0,P|78:108|94:37,1,136,2|0,1:2|0:0,0:0:0:0:
297,97,28534,2,0,P|322:153|306:224,1,136,2|0,0:0|0:0,0:0:0:0:
139,251,29013,1,0,0:0:0:0:
171,99,29172,1,0,0:0:0:0:
197,321,29332,6,0,P|152:341|112:339,1,68,2|0,0:0|0:0,0:0:0:0:
246,305,29651,2,0,P|209:337|164:350,1,93.5000028533936,0|0,1:0|0:0,0:0:0:0:
286,270,29970,2,0,P|263:316|204:352,1,118.999996368408,8|0,0:1|0:0,0:0:0:0:
306,223,30289,2,0,P|301:275|244:356,1,144.500002756119,0|8,1:0|0:1,0:0:0:0:
91,166,30608,6,0,B|173:136|173:136|226:145,1,136,2|0,1:2|0:0,0:0:0:0:
29,266,31087,2,0,B|-1:184|-1:184|8:131,1,136,2|0,0:0|0:0,0:0:0:0:
81,55,31566,1,0,0:0:0:0:
91,166,31725,1,0,0:0:0:0:
210,33,31885,5,0,0:0:0:0:
81,55,32044,1,0,3:0:0:0:
81,55,32124,1,0,3:0:0:0:
81,55,32204,1,0,1:0:0:0:
220,144,32364,1,0,0:0:0:0:
336,51,32523,2,0,B|487:61,1,136,8|0,0:1|0:0,0:0:0:0:
328,216,33161,6,0,P|248:180|216:137,1,136,2|0,1:2|0:0,0:0:0:0:
434,163,33640,2,0,P|442:250|421:299,1,136,2|0,0:0|0:0,0:0:0:0:
210,273,34119,1,0,0:0:0:0:
328,216,34278,1,0,0:0:0:0:
315,348,34438,5,0,0:0:0:0:
210,273,34598,1,0,0:0:0:0:
210,273,34677,1,0,0:0:0:0:
210,273,34757,1,0,1:0:0:0:
315,348,34917,1,0,0:0:0:0:
80,281,35076,2,0,B|127:258|127:258|227:276,1,136,8|0,0:1|3:0,0:0:0:0:
354,130,35715,6,0,L|218:143,1,136,0|0,1:0|0:0,0:0:0:0:
106,37,36193,2,0,L|241:50,1,136,0|0,0:0|0:0,0:0:0:0:
329,226,36672,1,0,0:0:0:0:
432,192,36832,1,0,0:0:0:0:
409,292,36991,5,0,0:0:0:0:
354,130,37151,1,0,3:0:0:0:
354,130,37231,1,0,3:0:0:0:
354,130,37310,1,0,1:0:0:0:
409,292,37470,1,0,0:0:0:0:
445,81,37630,1,8,0:1:0:0:
409,292,37949,1,0,0:0:0:0:
409,292,38268,6,0,L|243:303,1,136,2|0,1:2|0:0,0:0:0:0:
74,249,38747,2,0,B|123:229|123:229|208:240,1,136,2|0,0:0|0:0,0:0:0:0:
273,300,39225,1,0,0:0:0:0:
136,317,39385,1,0,0:0:0:0:
207,105,39544,6,0,P|243:95|286:101,1,68,2|0,0:0|0:0,0:0:0:0:
389,182,39864,2,0,L|396:121,1,46.7500014266968,2|0,0:0|0:0,0:0:0:0:
355,14,40023,2,0,L|348:75,1,46.7500014266968,0|0,0:0|0:0,0:0:0:0:
330,243,40183,2,0,P|382:267|452:241,1,118.999996368408,2|0,0:0|0:0,0:0:0:0:
449,267,40502,2,0,P|380:284|316:255,1,144.500002756119,2|0,0:0|0:0,0:0:0:0:
122,148,40821,5,2,1:2:0:0:
81,223,40981,1,2,0:2:0:0:
103,304,41140,1,2,0:2:0:0:
105,132,41300,5,2,0:2:0:0:
64,207,41460,1,2,0:2:0:0:
86,288,41619,1,2,0:2:0:0:
88,116,41778,5,2,0:2:0:0:
47,191,41938,1,2,0:2:0:0:
69,272,42097,1,2,0:2:0:0:
71,100,42258,5,2,0:2:0:0:
30,175,42418,1,2,0:2:0:0:
52,256,42577,1,2,0:2:0:0:
54,84,42736,5,2,0:2:0:0:
13,159,42896,1,2,0:2:0:0:
35,240,43055,1,2,0:2:0:0:
124,297,43215,1,2,0:2:0:0:
187,87,43374,5,2,0:2:0:0:
228,162,43534,1,2,0:2:0:0:
206,243,43693,1,2,0:2:0:0:
204,71,43853,5,2,0:2:0:0:
245,146,44013,1,2,0:2:0:0:
223,227,44172,1,2,0:2:0:0:
221,55,44331,5,2,0:2:0:0:
262,130,44491,1,2,0:2:0:0:
240,211,44650,1,2,0:2:0:0:
236,42,44810,5,2,0:2:0:0:
277,117,44970,1,2,0:2:0:0:
255,198,45129,1,2,0:2:0:0:
110,124,45289,1,0,3:0:0:0:
379,110,45449,6,0,L|358:112,1,21.25,0|0,1:0|0:0,0:0:0:0:
255,198,45608,2,0,L|276:196,1,21.25,8|0,0:1|0:0,0:0:0:0:
236,42,45768,2,0,L|273:39,1,21.25,0|0,0:0|0:0,0:0:0:0:
449,242,45927,6,0,L|330:261,1,101.999996887207,2|0,0:1|0:0,0:0:0:0:
197,286,46247,1,8,0:1:0:0:
288,353,46406,1,2,0:3:0:0:
288,353,46486,1,2,0:3:0:0:
288,353,46566,1,2,0:3:0:0:
255,198,46725,1,2,0:1:0:0:
465,342,46885,2,0,L|448:241,1,101.999996887207,8|0,0:1|0:0,0:0:0:0:
203,126,47204,6,0,P|253:108|325:144,1,101.999996887207,2|0,0:1|0:0,0:0:0:0:
348,258,47523,1,8,0:1:0:0:
369,71,47683,1,2,0:3:0:0:
369,71,47763,1,2,0:3:0:0:
369,71,47842,1,2,0:3:0:0:
255,198,48002,1,2,0:1:0:0:
451,110,48161,2,0,P|462:61|445:15,1,101.999996887207,8|0,0:1|0:0,0:0:0:0:
348,258,48481,5,2,0:1:0:0:
369,71,48640,1,0,0:0:0:0:
203,126,48800,1,8,0:1:0:0:
400,184,48959,1,2,0:3:0:0:
400,184,49039,1,2,0:3:0:0:
400,184,49119,1,2,0:3:0:0:
268,43,49278,5,2,0:1:0:0:
180,207,49438,2,0,L|62:194,1,101.999996887207,8|0,0:1|0:0,0:0:0:0:
68,60,49757,6,0,P|36:33|32:75,1,101.999996887207,2|0,0:1|0:0,0:0:0:0:
68,323,50076,2,0,P|36:350|32:309,1,101.999996887207,8|2,0:1|0:3,0:0:0:0:
68,60,50396,2,0,P|36:33|32:75,1,101.999996887207,2|2,0:3|0:1,0:0:0:0:
68,323,50715,2,0,P|36:350|32:309,1,101.999996887207,8|0,0:1|0:0,0:0:0:0:
173,194,51034,5,2,0:1:0:0:
296,331,51193,1,0,0:0:0:0:
246,140,51353,1,8,0:1:0:0:
219,294,51513,1,2,0:3:0:0:
219,294,51592,1,2,0:3:0:0:
219,294,51672,1,2,0:3:0:0:
377,226,51832,1,2,0:1:0:0:
173,194,51991,2,0,L|162:87,1,101.999996887207,8|0,0:1|0:0,0:0:0:0:
219,294,52310,5,2,0:1:0:0:
377,226,52469,1,0,0:0:0:0:
173,194,52629,1,8,0:1:0:0:
296,331,52789,1,2,0:3:0:0:
296,331,52868,1,2,0:3:0:0:
296,331,52948,1,2,0:3:0:0:
334,148,53108,1,2,0:1:0:0:
482,321,53268,2,0,L|375:310,1,101.999996887207,8|0,0:1|0:0,0:0:0:0:
267,86,53587,6,0,P|303:62|386:76,1,101.999996887207,2|0,0:1|0:0,0:0:0:0:
377,226,53906,1,8,0:1:0:0:
173,194,54066,1,2,0:3:0:0:
173,194,54146,1,2,0:3:0:0:
173,194,54225,1,2,0:3:0:0:
334,148,54385,1,2,0:1:0:0:
296,331,54544,2,0,L|181:340,1,101.999996887207,8|0,0:1|0:0,0:0:0:0:
68,60,54864,6,0,P|36:33|32:75,1,101.999996887207,2|0,0:1|0:0,0:0:0:0:
68,323,55183,2,0,P|36:350|32:309,1,101.999996887207,8|2,0:1|0:0,0:0:0:0:
113,122,55502,5,2,0:0:0:0:
283,112,55661,1,2,0:0:0:0:
396,175,55821,1,2,0:0:0:0:
442,264,55981,1,2,0:0:0:0:
205,265,56140,5,0,1:0:0:0:
185,218,56300,1,0,0:0:0:0:
180,168,56459,1,0,0:0:0:0:
200,121,56619,1,0,0:0:0:0:
307,265,56778,5,8,0:1:0:0:
327,218,56938,1,0,0:0:0:0:
332,168,57097,1,0,3:0:0:0:
312,121,57257,1,0,0:0:0:0:
173,285,57417,5,0,0:0:0:0:
153,238,57577,1,0,3:0:0:0:
148,188,57736,1,0,1:0:0:0:
168,141,57896,1,0,0:0:0:0:
326,286,58055,5,8,0:1:0:0:
346,239,58215,1,0,0:0:0:0:
351,189,58374,1,0,0:0:0:0:
331,142,58534,1,0,0:0:0:0:
154,306,58693,5,0,1:0:0:0:
134,259,58853,1,0,0:0:0:0:
129,209,59012,1,0,0:0:0:0:
149,162,59172,1,0,0:0:0:0:
345,307,59331,5,8,0:1:0:0:
365,260,59491,1,0,0:0:0:0:
370,210,59650,1,0,0:0:0:0:
350,163,59810,1,0,0:0:0:0:
223,336,59970,6,0,P|228:378|259:350,1,101.999996887207,2|0,3:2|0:0,0:0:0:0:
255,50,60289,2,0,P|223:23|219:64,1,101.999996887207,2|0,1:0|0:0,0:0:0:0:
223,336,60608,2,0,P|228:378|259:350,1,101.999996887207,2|0,3:0|1:0,0:0:0:0:
255,51,60927,2,0,P|224:23|220:65,1,101.999996887207,8|0,0:1|0:0,0:0:0:0:
307,265,61247,5,0,1:0:0:0:
327,218,61407,1,0,0:0:0:0:
332,168,61566,1,0,0:0:0:0:
312,121,61726,1,0,0:0:0:0:
173,285,61885,5,8,0:1:0:0:
153,238,62045,1,0,0:0:0:0:
148,188,62204,1,0,3:0:0:0:
168,141,62364,1,0,0:0:0:0:
326,286,62524,5,0,0:0:0:0:
346,239,62684,1,0,3:0:0:0:
351,189,62843,1,0,1:0:0:0:
331,142,63003,1,0,0:0:0:0:
154,306,63161,5,8,0:1:0:0:
134,259,63321,1,0,0:0:0:0:
129,209,63480,1,0,0:0:0:0:
149,162,63640,1,0,0:0:0:0:
417,342,63800,5,0,1:0:0:0:
440,257,63959,1,0,0:0:0:0:
439,147,64119,1,0,0:0:0:0:
392,40,64278,1,0,0:0:0:0:
106,341,64438,5,0,3:0:0:0:
83,256,64597,1,0,1:0:0:0:
84,146,64757,1,8,0:1:0:0:
131,39,64916,1,0,0:0:0:0:
288,341,65076,6,0,P|283:383|252:355,1,101.999996887207,0|0,1:0|0:0,0:0:0:0:
253,45,65395,2,0,P|285:18|289:59,1,101.999996887207,8|0,0:1|3:0,0:0:0:0:
120,237,65715,1,2,0:3:0:0:
382,168,65874,1,2,3:1:0:0:
119,143,66034,1,8,0:1:0:0:
382,216,66193,1,0,0:0:0:0:
253,45,66353,5,2,0:1:0:0:
201,267,66513,1,0,0:0:0:0:
297,131,66672,1,8,0:1:0:0:
280,317,66832,1,2,0:3:0:0:
280,317,66911,1,2,0:3:0:0:
280,317,66991,1,2,0:3:0:0:
209,121,67151,1,2,0:1:0:0:
440,257,67310,2,0,L|325:245,1,101.999996887207,8|0,0:1|0:0,0:0:0:0:
20,119,67630,6,0,P|84:89|220:132,1,203.999993774414,2|8,0:1|0:1,0:0:0:0:
254,302,68108,2,0,P|213:345|209:242,1,203.999993774414,2|2,0:3|0:1,0:0:0:0:
375,142,68587,2,0,P|337:114|339:160,1,101.999996887207,8|0,0:1|0:0,0:0:0:0:
427,358,68906,6,0,L|441:247,1,101.999996887207,2|0,0:1|0:0,0:0:0:0:
407,53,69225,1,8,0:1:0:0:
350,239,69385,1,2,0:3:0:0:
350,239,69465,1,2,0:3:0:0:
350,239,69544,1,2,0:3:0:0:
471,117,69704,1,2,0:1:0:0:
264,212,69864,2,0,L|153:198,1,101.999996887207,8|0,0:1|0:0,0:0:0:0:
68,60,70183,6,0,P|36:33|32:75,1,101.999996887207,2|0,0:1|0:0,0:0:0:0:
68,323,70502,2,0,P|36:350|32:309,1,101.999996887207,8|2,0:1|0:3,0:0:0:0:
68,60,70822,2,0,P|36:33|32:75,1,101.999996887207,2|0,0:3|0:0,0:0:0:0:
68,323,71141,2,0,P|36:350|32:309,1,101.999996887207,8|0,0:1|0:0,0:0:0:0:
186,123,71459,5,2,0:1:0:0:
248,301,71619,1,0,0:0:0:0:
121,176,71778,1,8,0:1:0:0:
320,251,71938,1,2,0:3:0:0:
186,123,72098,5,2,0:3:0:0:
248,301,72258,1,2,0:1:0:0:
121,176,72417,1,8,0:1:0:0:
320,251,72577,1,0,0:0:0:0:
267,43,72736,6,0,L|57:31,1,203.999993774414,2|8,0:1|0:1,0:0:0:0:
71,259,73215,2,0,P|157:254|121:176,1,203.999993774414,2|2,0:3|0:1,0:0:0:0:
170,368,73693,2,0,P|218:343|269:338,1,101.999996887207,8|0,0:1|0:0,0:0:0:0:
410,126,74013,5,2,0:1:0:0:
348,304,74173,1,0,0:0:0:0:
475,179,74332,1,8,0:1:0:0:
276,254,74491,1,2,0:3:0:0:
410,126,74652,5,0,0:0:0:0:
348,304,74810,1,2,0:1:0:0:
475,179,74971,1,8,0:1:0:0:
276,254,75131,1,0,0:0:0:0:
267,58,75289,6,0,P|235:31|231:73,1,101.999996887207,2|0,0:1|0:0,0:0:0:0:
265,337,75608,2,0,P|233:364|229:323,1,101.999996887207,8|2,0:1|0:0,0:0:0:0:
410,126,75927,5,2,0:0:0:0:
247,178,76087,1,2,0:0:0:0:
121,156,76247,1,2,0:0:0:0:
33,110,76406,1,2,0:0:0:0:
195,347,76566,5,0,1:0:0:0:
209,259,76725,1,0,0:0:0:0:
124,240,76885,1,0,0:0:0:0:
104,327,77044,1,0,0:0:0:0:
317,347,77204,5,8,0:1:0:0:
303,259,77363,1,0,0:0:0:0:
388,240,77523,1,0,3:0:0:0:
408,327,77682,1,0,0:0:0:0:
208,173,77842,6,0,P|241:101|288:182,1,203.999993774414,2|0,0:0|1:0,0:0:0:0:
158,49,78321,2,0,P|251:13|351:55,1,203.999993774414,2|0,0:0|0:0,0:0:0:0:
388,240,78800,2,0,L|404:130,1,101.999996887207,2|0,0:0|0:0,0:0:0:0:
317,347,79119,5,0,1:0:0:0:
303,259,79278,1,0,0:0:0:0:
388,240,79438,1,0,0:0:0:0:
408,327,79597,1,0,0:0:0:0:
195,347,79757,5,8,0:1:0:0:
209,259,79916,1,0,0:0:0:0:
124,240,80076,1,0,0:0:0:0:
104,327,80235,1,0,0:0:0:0:
104,64,80396,6,0,P|72:37|68:79,1,101.999996887207,2|0,3:0|0:0,0:0:0:0:
104,327,80715,2,0,P|72:354|68:313,1,101.999996887207,0|0,1:0|0:0,0:0:0:0:
104,64,81034,2,0,P|72:37|68:79,1,101.999996887207,0|0,3:0|1:0,0:0:0:0:
104,327,81353,2,0,P|72:354|68:313,1,101.999996887207,8|0,0:1|0:0,0:0:0:0:
104,64,81672,5,0,1:0:0:0:
124,151,81831,1,0,0:0:0:0:
209,132,81991,1,0,0:0:0:0:
195,44,82150,1,0,0:0:0:0:
408,64,82310,5,8,0:1:0:0:
388,151,82469,1,0,0:0:0:0:
303,132,82629,1,0,3:0:0:0:
317,44,82788,1,0,0:0:0:0:
208,211,82949,6,0,P|241:283|288:202,1,203.999993774414,2|0,0:0|1:0,0:0:0:0:
158,335,83428,2,0,P|251:371|351:329,1,203.999993774414,2|0,0:0|0:0,0:0:0:0:
388,144,83907,2,0,L|404:254,1,101.999996887207,2|0,0:0|0:0,0:0:0:0:
68,95,84225,5,0,1:0:0:0:
178,77,84384,1,0,0:0:0:0:
202,184,84544,1,0,0:0:0:0:
93,209,84703,1,0,0:0:0:0:
456,95,84864,5,0,3:0:0:0:
322,184,85023,1,0,1:0:0:0:
346,77,85183,1,8,0:1:0:0:
431,209,85342,1,0,0:0:0:0:
53,330,85502,6,0,P|26:362|68:366,1,101.999996887207,2|0,1:2|0:0,0:0:0:0:
467,335,85821,2,0,P|494:367|453:371,1,101.999996887207,8|0,0:1|3:0,0:0:0:0:
93,209,86140,1,2,0:3:0:0:
431,209,86300,1,2,3:1:0:0:
93,209,86459,6,0,P|109:246|151:151,1,216.750004134178,8|0,0:1|0:0,0:0:0:0:
126,88,86778,5,2,0:1:0:0:
157,65,86858,1,0,0:0:0:0:
195,58,86938,1,0,0:0:0:0:
232,68,87018,1,0,0:0:0:0:
257,97,87098,2,0,L|352:93,3,55.2499974708558,8|0|2|2,0:1|0:0|0:3|0:3,0:0:0:0:
386,33,87417,5,2,0:3:0:0:
409,64,87497,1,2,0:3:0:0:
416,102,87577,1,2,0:1:0:0:
406,139,87657,1,0,0:3:0:0:
377,164,87737,2,0,L|381:259,3,55.2499974708558,8|0|0|0,0:1|0:0|0:0|0:0,0:0:0:0:
441,295,88055,5,2,0:1:0:0:
410,318,88135,1,0,0:0:0:0:
372,325,88215,1,0,0:0:0:0:
335,315,88295,1,0,0:0:0:0:
310,286,88375,2,0,L|215:290,3,55.2499974708558,8|0|2|2,0:1|0:0|0:3|0:3,0:0:0:0:
181,353,88693,5,2,0:3:0:0:
158,322,88773,1,2,0:3:0:0:
151,284,88853,1,2,0:1:0:0:
161,247,88933,1,0,0:0:0:0:
210,211,89013,5,8,0:1:0:0:
156,184,89092,1,0,0:0:0:0:
95,193,89172,1,0,0:0:0:0:
50,234,89252,1,0,0:0:0:0:
37,293,89332,5,2,0:1:0:0:
34,254,89412,1,0,0:0:0:0:
30,215,89492,1,0,0:0:0:0:
27,176,89572,1,0,0:0:0:0:
23,137,89652,2,0,L|13:49,3,55.2499974708558,8|0|2|2,0:1|0:0|0:3|0:3,0:0:0:0:
116,53,89970,5,2,0:3:0:0:
147,30,90050,1,2,0:3:0:0:
185,23,90130,1,2,0:1:0:0:
222,33,90210,1,0,0:0:0:0:
247,62,90290,2,0,L|236:145,3,55.2499974708558,8|0|0|0,0:1|0:0|0:0|0:0,0:0:0:0:
175,190,90608,5,2,0:1:0:0:
206,213,90688,1,0,0:0:0:0:
244,220,90768,1,0,0:0:0:0:
281,210,90848,1,0,0:0:0:0:
306,181,90928,2,0,L|391:168,3,55.2499974708558,8|0|2|2,0:1|0:0|0:3|0:3,0:0:0:0:
463,108,91247,5,2,0:3:0:0:
460,147,91327,1,2,0:3:0:0:
454,186,91407,1,2,0:1:0:0:
449,224,91487,1,0,0:0:0:0:
442,254,91566,5,8,0:1:0:0:
485,211,91646,1,0,0:0:0:0:
496,151,91725,1,0,0:0:0:0:
476,93,91805,1,0,0:0:0:0:
434,48,91885,5,2,0:1:0:0:
428,48,91965,1,0,0:0:0:0:
421,48,92044,1,0,0:0:0:0:
414,48,92124,1,0,0:0:0:0:
396,72,92204,5,8,0:1:0:0:
390,72,92284,1,0,0:0:0:0:
383,72,92363,1,2,0:3:0:0:
376,72,92443,1,2,0:3:0:0:
376,72,92523,1,2,0:3:0:0:
369,72,92603,1,2,0:3:0:0:
361,72,92683,6,0,L|288:69,1,55.2499974708558,2|0,0:1|0:0,0:0:0:0:
216,35,92842,2,0,L|143:32,3,55.2499974708558,8|0|0|0,0:1|0:0|0:0|0:0,0:0:0:0:
42,49,93161,5,2,0:1:0:0:
42,55,93241,1,0,0:0:0:0:
42,62,93320,1,0,0:0:0:0:
42,69,93400,1,0,0:0:0:0:
66,87,93480,5,8,0:1:0:0:
66,93,93560,1,0,0:0:0:0:
66,100,93639,1,2,0:3:0:0:
66,107,93719,1,2,0:3:0:0:
66,107,93799,1,2,0:3:0:0:
66,114,93879,1,2,0:3:0:0:
66,122,93959,6,0,L|63:195,1,55.2499974708558,2|0,0:1|0:0,0:0:0:0:
29,267,94118,2,0,L|26:340,3,55.2499974708558,8|0|0|0,0:1|0:0|0:0|0:0,0:0:0:0:
157,341,94438,5,2,0:1:0:0:
163,341,94518,1,0,0:0:0:0:
170,341,94597,1,0,0:0:0:0:
177,341,94677,1,0,0:0:0:0:
195,317,94757,5,8,0:1:0:0:
201,317,94837,1,0,0:0:0:0:
208,317,94916,1,2,0:3:0:0:
215,317,94996,1,2,0:3:0:0:
215,317,95076,1,2,0:3:0:0:
222,317,95156,1,2,0:3:0:0:
230,317,95236,6,0,L|303:320,1,55.2499974708558,2|0,0:1|0:0,0:0:0:0:
375,354,95395,2,0,L|448:357,3,55.2499974708558,8|0|0|0,0:1|0:0|0:0|0:0,0:0:0:0:
469,248,95715,5,2,0:1:0:0:
454,245,95795,1,0,0:0:0:0:
465,237,95874,1,0,0:0:0:0:
450,235,95954,1,0,0:0:0:0:
461,226,96034,1,8,0:1:0:0:
447,225,96114,1,0,0:0:0:0:
458,218,96193,1,2,0:3:0:0:
444,216,96273,1,2,0:3:0:0:
436,199,96353,5,2,0:3:0:0:
466,196,96433,1,2,0:3:0:0:
443,181,96512,1,2,0:1:0:0:
473,177,96592,1,0,0:0:0:0:
451,159,96672,1,8,0:1:0:0:
479,156,96752,1,0,0:0:0:0:
458,141,96831,1,0,0:0:0:0:
486,138,96911,1,0,0:0:0:0:
470,96,96991,6,0,L|412:93,3,55.2499974708558,2|0|0|0,0:1|0:0|0:0|0:0,0:0:0:0:
334,161,97311,2,0,L|276:158,5,55.2499974708558,8|0|2|2|2|2,0:1|0:0|0:3|0:3|0:3|0:3,0:0:0:0:
242,58,97789,2,0,L|184:55,1,55.2499974708558,2|0,0:1|0:0,0:0:0:0:
106,123,97949,2,0,L|48:120,3,55.2499974708558,8|0|0|0,0:1|0:0|0:0|0:0,0:0:0:0:
25,247,98268,6,0,L|81:245,3,55.2499974708558,2|0|0|0,0:1|0:0|0:0|0:0,0:0:0:0:
161,312,98588,2,0,L|217:310,5,55.2499974708558,8|0|2|2|2|2,0:1|0:0|0:3|0:3|0:3|0:3,0:0:0:0:
253,209,99066,2,0,L|309:207,1,55.2499974708558,2|0,0:1|0:0,0:0:0:0:
406,304,99225,1,8,0:1:0:0:
441,254,99305,1,0,0:0:0:0:
451,193,99385,1,0,0:0:0:0:
439,133,99465,1,0,0:0:0:0:
411,79,99544,6,0,L|318:71,3,55.2499974708558,2|0|0|0,0:1|0:0|0:0|0:0,0:0:0:0:
240,63,99864,2,0,P|244:36|260:13,5,55.2499974708558,8|0|2|2|2|2,0:1|0:0|0:3|0:3|0:3|0:3,0:0:0:0:
285,155,100342,2,0,P|280:183|265:205,1,55.2499974708558,2|0,0:1|0:3,0:0:0:0:
170,145,100502,2,0,L|115:141,3,55.2499974708558,8|0|0|0,0:1|0:0|0:0|0:0,0:0:0:0:
24,272,100821,6,0,L|117:280,3,55.2499974708558,2|0|0|0,0:1|0:0|0:0|0:0,0:0:0:0:
194,287,101141,2,0,P|189:314|174:336,5,55.2499974708558,8|0|2|2|0|2,0:1|0:0|0:3|0:3|0:0|0:3,0:0:0:0:
150,195,101619,2,0,P|154:167|169:145,1,55.2499974708558,2|0,0:1|0:0,0:0:0:0:
264,205,101779,2,0,L|319:209,3,55.2499974708558,8|0|0|0,0:1|0:0|0:0|0:0,0:0:0:0:
396,275,102098,5,2,0:1:0:0:
428,237,102177,1,0,0:0:0:0:
445,191,102257,1,0,0:0:0:0:
446,141,102337,1,0,0:0:0:0:
429,95,102417,1,8,0:1:0:0:
397,57,102496,1,0,0:0:0:0:
354,32,102576,1,2,0:3:0:0:
305,24,102656,1,2,0:3:0:0:
257,34,102736,1,2,0:3:0:0:
214,59,102816,1,2,0:3:0:0:
183,98,102896,6,0,L|88:107,1,55.2499974708558,2|0,0:1|0:0,0:0:0:0:
20,29,103055,2,0,L|75:34,3,55.2499974708558,8|0|0|0,0:1|0:0|0:3|0:3,0:0:0:0:
57,163,103374,5,2,0:1:0:0:
73,209,103453,1,0,0:0:0:0:
105,247,103533,1,0,0:0:0:0:
148,273,103613,1,0,0:0:0:0:
196,281,103693,1,8,0:1:0:0:
245,272,103772,1,0,0:0:0:0:
288,247,103852,1,2,0:3:0:0:
319,209,103932,1,2,0:3:0:0:
335,163,104012,1,2,0:3:0:0:
335,113,104092,1,2,0:3:0:0:
324,64,104172,6,0,L|261:74,1,55.2499974708558,2|0,0:1|0:0,0:0:0:0:
484,146,104332,2,0,L|421:156,3,55.2499974708558,8|0|0|0,0:1|0:0|0:0|0:0,0:0:0:0:
458,320,104651,5,2,0:1:0:0:
413,278,104731,1,0,0:0:0:0:
353,266,104810,1,0,0:0:0:0:
295,285,104890,1,0,0:0:0:0:
254,330,104970,1,8,0:1:0:0:
198,354,105050,1,0,0:0:0:0:
137,350,105130,1,2,0:3:0:0:
85,319,105209,1,2,0:3:0:0:
53,266,105289,6,0,L|73:187,1,55.2499974708558,2|2,0:3|0:3,0:0:0:0:
169,159,105449,2,0,L|223:173,1,55.2499974708558,2|0,0:1|0:0,0:0:0:0:
0,143,105608,2,0,L|26:37,1,55.2499974708558,8|0,0:1|0:0,0:0:0:0:
155,13,105768,2,0,L|226:31,1,55.2499974708558,0|0,0:0|0:0,0:0:0:0:
415,70,105927,5,2,0:1:0:0:
360,80,106007,1,0,0:0:0:0:
305,90,106087,1,0,0:0:0:0:
250,100,106167,1,0,0:0:0:0:
196,112,106247,5,8,0:1:0:0:
251,122,106327,1,0,0:0:0:0:
306,132,106407,1,2,0:3:0:0:
361,142,106487,1,2,0:3:0:0:
416,152,106566,5,2,0:3:0:0:
420,167,106646,1,2,0:3:0:0:
424,182,106725,1,2,0:1:0:0:
428,197,106805,1,0,0:0:0:0:
446,229,106885,5,8,0:1:0:0:
442,244,106965,1,0,0:0:0:0:
438,259,107044,1,0,0:0:0:0:
434,274,107124,1,0,0:0:0:0:
420,307,107204,5,2,0:1:0:0:
379,289,107284,1,0,0:0:0:0:
335,282,107364,1,0,0:0:0:0:
295,301,107444,1,0,0:0:0:0:
268,336,107524,1,8,0:1:0:0:
224,341,107603,1,0,0:0:0:0:
185,318,107683,1,0,0:0:0:0:
163,277,107763,1,2,0:3:0:0:
162,229,107843,1,2,0:3:0:0:
181,189,107923,1,2,0:3:0:0:
210,156,108002,6,0,L|285:137,1,55.2499974708558,2|0,0:1|0:0,0:0:0:0:
152,71,108162,2,0,L|77:53,3,55.2499974708558,8|0|0|0,0:1|0:0|0:0|0:0,0:0:0:0:
295,63,108481,5,2,0:1:0:0:
333,84,108560,1,0,0:0:0:0:
355,122,108640,1,0,0:0:0:0:
352,166,108720,1,0,0:0:0:0:
327,202,108800,5,8,0:1:0:0:
369,193,108879,1,0,0:0:0:0:
412,200,108959,1,2,0:3:0:0:
444,229,109039,1,2,0:3:0:0:
458,271,109119,6,0,L|526:280,1,55.2499974708558,2|2,0:3|0:3,0:0:0:0:
404,348,109279,2,0,L|336:339,1,55.2499974708558,2|0,0:1|0:0,0:0:0:0:
259,277,109439,1,8,0:1:0:0:
205,250,109518,1,0,0:0:0:0:
144,241,109598,1,0,0:0:0:0:
90,269,109678,1,0,0:0:0:0:
55,319,109758,5,2,0:1:0:0:
74,279,109837,1,0,0:0:0:0:
81,235,109917,1,0,0:0:0:0:
73,191,109997,1,0,0:0:0:0:
45,155,110077,5,8,0:1:0:0:
86,170,110157,1,0,0:0:0:0:
129,167,110236,1,2,0:3:0:0:
169,148,110316,1,2,0:3:0:0:
197,114,110396,1,2,0:3:0:0:
217,74,110476,1,2,0:3:0:0:
207,30,110556,6,0,L|279:33,1,55.2499974708558,2|0,0:1|0:0,0:0:0:0:
305,118,110715,2,0,L|377:121,3,55.2499974708558,8|0|0|0,0:1|0:0|0:0|0:0,0:0:0:0:
391,31,111034,5,2,0:1:0:0:
425,58,111113,1,0,0:0:0:0:
445,97,111193,1,0,0:0:0:0:
448,141,111273,1,0,0:0:0:0:
424,178,111353,1,8,0:1:0:0:
392,209,111433,1,0,0:0:0:0:
371,248,111513,1,2,0:3:0:0:
373,292,111593,1,2,0:3:0:0:
396,329,111673,6,0,L|470:326,1,55.2499974708558,2|2,0:3|0:3,0:0:0:0:
286,256,111832,2,0,L|230:253,1,55.2499974708558,2|0,0:1|0:0,0:0:0:0:
190,367,111992,1,8,0:1:0:0:
143,327,112072,1,0,0:0:0:0:
120,270,112152,1,0,0:0:0:0:
121,209,112232,1,0,0:0:0:0:
135,168,112310,5,2,0:1:0:0:
135,162,112390,1,0,0:0:0:0:
135,155,112469,1,0,0:0:0:0:
135,148,112549,1,0,0:0:0:0:
159,130,112629,5,8,0:1:0:0:
159,124,112709,1,0,0:0:0:0:
159,117,112788,1,2,0:3:0:0:
159,110,112868,1,2,0:3:0:0:
159,102,112948,1,2,0:3:0:0:
159,95,113028,1,2,0:3:0:0:
159,87,113108,6,0,L|156:14,1,55.2499974708558,2|0,0:1|0:0,0:0:0:0:
268,121,113267,2,0,L|323:118,3,55.2499974708558,8|0|0|0,0:1|0:0|0:0|0:0,0:0:0:0:
442,29,113586,5,2,0:1:0:0:
442,35,113666,1,0,0:0:0:0:
442,42,113747,1,0,0:0:0:0:
442,49,113827,1,0,0:0:0:0:
418,67,113905,5,8,0:1:0:0:
418,73,113985,1,0,0:0:0:0:
418,80,114066,1,2,0:3:0:0:
418,87,114146,1,2,0:3:0:0:
418,94,114224,1,2,0:3:0:0:
418,101,114304,1,2,0:3:0:0:
418,109,114385,6,0,L|421:182,1,55.2499974708558,2|0,0:1|0:0,0:0:0:0:
455,247,114544,2,0,L|458:320,3,55.2499974708558,8|0|0|0,0:1|0:0|0:0|0:0,0:0:0:0:
355,341,114863,5,2,0:1:0:0:
349,341,114943,1,0,0:0:0:0:
342,341,115022,1,0,0:0:0:0:
335,341,115102,1,0,0:0:0:0:
317,317,115182,5,8,0:1:0:0:
311,317,115262,1,0,0:0:0:0:
304,317,115343,1,2,0:3:0:0:
297,317,115421,1,2,0:3:0:0:
289,316,115501,1,2,0:3:0:0:
282,316,115581,1,2,0:3:0:0:
274,316,115661,6,0,L|201:319,1,55.2499974708558,2|0,0:1|0:0,0:0:0:0:
137,354,115821,2,0,L|64:357,3,55.2499974708558,8|0|0|0,0:1|0:0|0:0|0:0,0:0:0:0:
43,248,116140,5,2,0:1:0:0:
58,245,116220,1,0,0:0:0:0:
47,237,116299,1,0,0:0:0:0:
62,235,116379,1,0,0:0:0:0:
51,226,116459,1,8,0:1:0:0:
65,225,116539,1,0,0:3:0:0:
54,218,116618,1,2,0:3:0:0:
68,216,116698,1,2,0:3:0:0:
76,199,116778,5,2,0:3:0:0:
46,196,116858,1,2,0:3:0:0:
69,181,116937,1,2,0:1:0:0:
39,177,117017,1,0,0:0:0:0:
61,159,117097,1,8,0:1:0:0:
33,156,117177,1,0,0:0:0:0:
54,141,117256,1,0,0:0:0:0:
26,138,117336,1,0,0:0:0:0:
43,94,117417,6,0,L|98:92,3,55.2499974708558,2|0|0|0,0:1|0:0|0:0|0:0,0:0:0:0:
158,190,117736,2,0,L|213:187,5,55.2499974708558,8|0|2|2|2|2,0:1|0:0|0:3|0:3|0:3|0:3,0:0:0:0:
300,85,118215,2,0,L|360:87,1,55.2499974708558,2|0,0:1|0:3,0:0:0:0:
373,245,118375,2,0,L|428:248,3,55.2499974708558,8|0|0|0,0:1|0:0|0:0|0:0,0:0:0:0:
296,344,118694,6,0,L|241:347,3,55.2499974708558,2|0|0|0,0:1|0:0|0:0|0:0,0:0:0:0:
268,183,119013,2,0,L|213:186,5,55.2499974708558,8|0|2|2|2|2,0:1|0:0|0:3|0:3|0:3|0:3,0:0:0:0:
137,300,119492,2,0,L|77:298,1,55.2499974708558,2|0,0:1|0:0,0:0:0:0:
16,177,119651,1,8,0:1:0:0:
40,115,119731,1,0,0:0:0:0:
91,73,119811,1,0,0:0:0:0:
155,58,119891,1,0,0:0:0:0:
219,69,119970,6,0,L|227:138,3,55.2499974708558,2|0|0|0,0:1|0:0|0:0|0:0,0:0:0:0:
252,245,120290,2,0,P|214:260|174:250,5,55.2499974708558,8|0|2|2|2|2,0:1|0:0|0:3|0:3|0:3|0:3,0:0:0:0:
328,59,120768,2,0,L|321:114,1,55.2499974708558,2|0,0:1|0:0,0:0:0:0:
352,255,120928,2,0,P|390:270|430:260,3,55.2499974708558,8|0|0|0,0:1|0:0|0:0|0:0,0:0:0:0:
410,105,121247,6,0,L|402:173,3,55.2499974708558,2|0|0|0,0:1|0:0|0:0|0:0,0:0:0:0:
252,245,121566,2,0,P|214:260|174:250,5,55.2499974708558,8|0|2|2|2|2,0:1|0:0|0:3|0:3|0:3|0:3,0:0:0:0:
328,59,122045,2,0,L|321:114,1,55.2499974708558,2|0,0:1|0:0,0:0:0:0:
315,309,122204,1,8,0:1:0:0:
377,332,122284,1,0,0:0:0:0:
441,317,122364,1,0,0:0:0:0:
489,271,122444,1,0,0:0:0:0:
483,205,122523,6,0,L|476:133,1,55.2499974708558,2|0,0:1|0:0,0:0:0:0:
363,122,122683,2,0,L|356:50,1,55.2499974708558,0|0,0:0|0:0,0:0:0:0:
468,234,122842,2,0,L|461:162,1,55.2499974708558,8|0,0:1|0:0,0:0:0:0:
348,151,123002,2,0,L|342:97,1,55.2499974708558,2|2,0:3|0:3,0:0:0:0:
453,263,123161,2,0,L|447:209,1,55.2499974708558,2|2,0:3|0:3,0:0:0:0:
333,180,123321,2,0,L|327:126,1,55.2499974708558,2|0,0:1|0:0,0:0:0:0:
438,292,123481,2,0,L|432:238,1,55.2499974708558,8|0,0:1|0:0,0:0:0:0:
318,209,123641,2,0,L|312:155,1,55.2499974708558,0|0,0:0|0:0,0:0:0:0:
146,150,123800,6,0,L|153:78,1,55.2499974708558,2|0,0:1|0:0,0:0:0:0:
266,67,123960,2,0,L|273:-5,1,55.2499974708558,0|0,0:0|0:0,0:0:0:0:
161,179,124119,2,0,L|168:107,1,55.2499974708558,8|0,0:1|0:0,0:0:0:0:
281,96,124279,2,0,L|287:42,1,55.2499974708558,2|2,0:3|0:3,0:0:0:0:
176,208,124438,2,0,L|182:154,1,55.2499974708558,2|2,0:3|0:3,0:0:0:0:
296,125,124598,2,0,L|302:71,1,55.2499974708558,2|0,0:1|0:0,0:0:0:0:
191,237,124758,2,0,L|197:183,1,55.2499974708558,8|0,0:1|0:0,0:0:0:0:
311,154,124918,2,0,L|317:100,1,55.2499974708558,0|0,0:0|0:0,0:0:0:0:
87,51,125076,5,2,0:1:0:0:
87,62,125155,1,0,0:0:0:0:
88,73,125235,1,0,0:0:0:0:
88,84,125315,1,0,0:0:0:0:
89,95,125395,1,8,0:1:0:0:
90,106,125474,1,0,0:0:0:0:
90,117,125554,1,2,0:3:0:0:
91,128,125634,1,2,0:3:0:0:
92,139,125714,1,2,0:3:0:0:
92,150,125794,1,2,0:3:0:0:
93,161,125873,1,2,0:1:0:0:
93,172,125953,1,0,0:0:0:0:
94,183,126033,1,8,0:1:0:0:
95,194,126113,1,0,0:0:0:0:
95,205,126193,1,0,0:0:0:0:
96,215,126273,1,0,0:0:0:0:
97,223,126353,6,0,L|-21:105|17:119,1,27.6249987354279,2|0,0:1|0:0,0:0:0:0:
97,223,126433,2,0,L|-64:179|-24:172,1,27.6249987354279,0|0,0:0|0:0,0:0:0:0:
97,223,126513,2,0,L|-64:266|-33:240,1,27.6249987354279,0|0,0:0|0:0,0:0:0:0:
97,223,126592,2,0,L|-21:340|-7:303,1,27.6249987354279,0|0,0:0|0:0,0:0:0:0:
97,223,126672,2,0,L|53:384|46:344,1,27.6249987354279,8|0,0:1|0:0,0:0:0:0:
97,223,126752,2,0,L|140:384|114:353,1,27.6249987354279,0|0,0:0|0:0,0:0:0:0:
97,223,126832,2,0,L|214:340|176:326,1,27.6249987354279,2|0,0:3|0:0,0:0:0:0:
97,223,126912,2,0,L|258:266|218:273,1,27.6249987354279,2|0,0:3|0:0,0:0:0:0:
97,223,126991,6,0,L|57:183|70:188,1,42.5,2|0,0:3|0:0,0:0:0:0:
97,223,127071,2,0,L|43:208|56:206,1,42.5,2|0,0:3|0:0,0:0:0:0:
97,223,127151,2,0,L|43:237|53:228,1,42.5,2|0,0:1|0:0,0:0:0:0:
97,223,127231,2,0,L|57:262|62:249,1,42.5
97,223,127310,2,0,L|82:276|80:263,1,42.5,8|0,0:1|0:0,0:0:0:0:
97,223,127390,2,0,L|111:276|102:266,1,42.5,0|0,0:0|0:0,0:0:0:0:
97,223,127470,2,0,L|136:262|123:257,1,42.5,0|0,0:0|0:0,0:0:0:0:
97,223,127550,2,0,L|150:237|137:239,1,42.5
97,223,127630,1,2,0:0:0:0:
