osu file format v14

[General]
AudioFilename: audio.mp3
AudioLeadIn: 0
PreviewTime: 66284
Countdown: 0
SampleSet: Soft
StackLeniency: 0.4
Mode: 0
LetterboxInBreaks: 0
WidescreenStoryboard: 1

[Editor]
Bookmarks: 40832,45938,66364,86789,107215,123172,127641
DistanceSpacing: 1
BeatDivisor: 4
GridSize: 16
TimelineZoom: 2

[Metadata]
Title:Sidetracked Day (Short Ver.)
TitleUnicode:Sidetracked Day (Short Ver.)
Artist:VINXIS
ArtistUnicode:VINXIS
Creator:Hobbes2
Version:Insane
Source:
Tags:Dnb Drum and Bass Mishima Yurara Chill Nao Tomori WORSTPOLACKEU LowComboFC Featured Artist
BeatmapID:1621283
BeatmapSetID:767600

[Difficulty]
HPDrainRate:5
CircleSize:3.9
OverallDifficulty:8
ApproachRate:9
SliderMultiplier:1.4
SliderTickRate:1

[Events]
//Background and Video events
0,0,"nonshitquality.png",0,0
//Break Periods
//Storyboard Layer 0 (Background)
//Storyboard Layer 1 (Fail)
//Storyboard Layer 2 (Pass)
//Storyboard Layer 3 (Foreground)
//Storyboard Sound Samples

[TimingPoints]
17843,319.148936170213,4,2,1,52,1,0
20397,-100,4,2,1,40,0,0
40821,-100,4,2,1,30,0,0
45928,-83.3333333333333,4,2,1,52,0,0
56141,-100,4,2,1,40,0,0
66354,-83.3333333333333,4,2,1,52,0,0
76567,-100,4,2,1,40,0,0
86779,-83.3333333333333,4,2,1,52,0,0
126992,-83.3333333333333,4,2,1,52,0,0

[Colours]
Combo1 : 166,77,255
Combo2 : 255,123,255
Combo3 : 193,193,255
Combo4 : 185,0,185

[HitObjects]
89,84,20397,6,0,P|151:53|219:66,1,140,4|0,1:0|0:0,0:0:0:0:
273,137,20875,2,0,L|266:206,1,70,0|8,0:0|0:1,0:0:0:0:
363,324,21194,1,0,0:0:0:0:
363,324,21354,2,0,P|301:293|234:306,1,140,0|0,0:0|0:0,0:0:0:0:
161,360,21833,5,0,3:0:0:0:
161,360,21912,1,0,3:0:0:0:
161,360,21992,1,0,1:0:0:0:
38,225,22311,2,0,B|21:184|21:184|46:91,1,140,8|0,0:1|0:0,0:0:0:0:
118,36,22790,1,0,0:0:0:0:
212,123,22950,6,0,P|236:188|215:254,1,140,0|0,1:0|0:0,0:0:0:0:
148,383,23428,2,0,P|141:349|149:316,1,70,0|8,0:0|0:1,0:0:0:0:
310,282,23748,1,0,0:0:0:0:
310,282,23907,2,0,L|478:296,1,140,0|0,0:0|0:0,0:0:0:0:
498,216,24386,5,0,0:0:0:0:
434,151,24545,2,0,P|433:101|447:64,1,70,0|0,1:0|0:0,0:0:0:0:
305,213,24865,2,0,P|312:247|309:281,1,70,8|0,0:1|0:0,0:0:0:0:
247,349,25184,1,0,3:3:0:0:
207,171,25503,6,0,P|283:181|348:146,1,140,0|0,1:0|0:0,0:0:0:0:
382,74,25982,2,0,L|375:4,1,70,0|8,0:0|0:1,0:0:0:0:
469,115,26301,1,0,0:0:0:0:
469,115,26460,2,0,P|459:191|494:256,1,140,0|0,0:0|0:0,0:0:0:0:
460,334,26939,6,0,L|425:346,1,35,0|0,3:0|3:0,0:0:0:0:
380,342,27099,1,0,1:0:0:0:
211,272,27418,2,0,P|141:276|84:315,1,140,8|0,0:1|0:0,0:0:0:0:
20,380,27897,1,0,0:0:0:0:
65,214,28056,6,0,L|80:53,1,140,0|0,1:0|0:0,0:0:0:0:
215,9,28535,2,0,P|181:6|148:17,1,70,0|8,0:0|0:1,0:0:0:0:
237,147,28854,1,0,0:0:0:0:
237,147,29014,2,0,P|257:118|265:85,1,70,0|0,0:0|0:0,0:0:0:0:
200,234,29333,6,0,B|234:242|234:242|309:222,1,105,2|0,0:0|0:0,0:0:0:0:
200,238,29652,2,0,B|234:246|234:246|309:226,1,105,0|0,1:0|0:0,0:0:0:0:
200,242,29971,2,0,B|234:250|234:250|309:230,1,105,8|0,0:1|0:0,0:0:0:0:
200,246,30290,1,0,1:0:0:0:
329,138,30449,5,8,0:1:0:0:
390,337,30609,6,0,P|404:268|395:200,1,140,0|0,1:0|0:0,0:0:0:0:
329,138,31088,2,0,L|259:132,1,70,0|8,0:0|0:1,0:0:0:0:
68,29,31407,1,0,0:0:0:0:
68,29,31567,2,0,P|124:70|193:69,1,140,0|0,0:0|0:0,0:0:0:0:
269,20,32045,5,0,3:0:0:0:
269,20,32125,1,0,3:0:0:0:
269,20,32205,1,0,1:0:0:0:
370,171,32524,2,0,L|356:310,1,140,8|0,0:1|0:0,0:0:0:0:
425,370,33003,1,0,0:0:0:0:
269,321,33162,6,0,P|200:315|139:348,1,140,0|0,1:0|0:0,0:0:0:0:
7,265,33641,2,0,P|41:269|71:288,1,70,0|8,0:0|0:1,0:0:0:0:
184,106,33960,1,0,0:0:0:0:
184,105,34120,2,0,P|151:166|146:236,1,140,0|0,0:0|0:0,0:0:0:0:
314,304,34758,6,0,P|308:234|275:173,1,140,0|8,1:0|0:1,0:0:0:0:
338,107,35237,1,0,0:0:0:0:
412,159,35397,2,0,P|404:193|402:228,1,70,0|0,3:0|0:0,0:0:0:0:
295,320,35716,6,0,L|155:308,1,140,0|0,1:0|0:0,0:0:0:0:
83,253,36194,2,0,P|75:219|81:184,1,70,0|8,0:0|0:1,0:0:0:0:
158,0,36514,1,0,0:0:0:0:
158,0,36673,2,0,P|177:64|155:130,1,140,0|0,0:0|0:0,0:0:0:0:
73,171,37152,6,0,P|38:164|34:161,1,35,0|0,3:0|3:0,0:0:0:0:
14,126,37311,1,0,1:0:0:0:
213,69,37631,2,0,P|266:66|301:75,1,70,8|0,0:1|0:0,0:0:0:0:
328,148,37950,2,0,P|381:151|416:142,1,70,0|0,0:0|0:0,0:0:0:0:
512,311,38269,6,0,P|473:254|407:238,1,140,0|0,1:0|0:0,0:0:0:0:
340,300,38748,2,0,L|270:295,1,70,0|8,0:0|0:1,0:0:0:0:
127,245,39067,1,0,0:0:0:0:
127,245,39226,2,0,L|197:241,1,70,0|0,0:0|0:0,0:0:0:0:
275,97,39545,6,0,P|290:147|276:197,1,105,2|0,0:0|0:0,0:0:0:0:
279,97,39865,2,0,P|293:146|279:196,1,105,2|0,0:0|0:0,0:0:0:0:
283,97,40184,2,0,P|297:146|283:196,1,105,2|0,0:0|0:0,0:0:0:0:
287,97,40503,2,0,P|301:146|287:196,1,105,2|0,0:0|0:0,0:0:0:0:
292,97,40822,5,2,1:2:0:0:
360,60,40982,1,2,0:2:0:0:
434,77,41141,1,2,0:2:0:0:
483,134,41301,2,0,P|490:169|489:204,2,70,2|2|2,0:2|0:2|0:2,0:0:0:0:
415,225,41779,2,0,P|409:260|410:295,2,70,2|2|2,0:2|0:2|0:2,0:0:0:0:
279,172,42258,2,0,L|349:178,2,70,2|2|2,0:2|0:2|0:2,0:0:0:0:
215,128,42737,5,2,0:2:0:0:
139,112,42897,1,2,0:2:0:0:
91,171,43056,1,2,0:2:0:0:
16,155,43216,1,2,0:2:0:0:
139,112,43375,5,2,0:2:0:0:
256,192,43455,12,8,45609,0:1:0:0:
100,172,45928,5,2,0:1:0:0:
167,108,46088,1,0,0:0:0:0:
254,205,46248,2,0,P|261:247|260:289,1,83.9999974365235,8|2,0:1|0:3,0:0:0:0:
247,338,46487,1,2,0:3:0:0:
247,338,46567,1,2,0:3:0:0:
157,314,46726,1,2,0:1:0:0:
354,240,46886,2,0,L|437:246,1,83.9999974365235,8|0,0:1|0:0,0:0:0:0:
449,93,47205,5,2,0:1:0:0:
491,176,47365,1,0,0:0:0:0:
354,240,47524,1,8,0:1:0:0:
374,149,47684,1,2,0:3:0:0:
447,271,47843,2,0,P|451:290|448:320,2,41.9999987182618,2|2|2,0:3|0:3|0:1,0:0:0:0:
354,239,48162,2,0,P|312:234|270:237,1,83.9999974365235,8|0,0:1|0:0,0:0:0:0:
78,300,48482,6,0,P|149:341|227:318,1,167.999994873047,2|8,0:1|0:1,0:0:0:0:
239,152,48960,1,2,0:3:0:0:
239,152,49040,1,2,0:3:0:0:
239,152,49120,1,2,0:3:0:0:
181,223,49279,1,2,0:1:0:0:
354,240,49439,2,0,P|361:202|352:144,1,83.9999974365235,8|0,0:1|0:0,0:0:0:0:
239,10,49758,6,0,B|230:47|230:47|253:132,1,125.999996154785,2|0,0:1|0:0,0:0:0:0:
235,10,50077,2,0,B|226:47|226:47|248:131,1,125.999996154785,8|0,0:1|0:0,0:0:0:0:
231,10,50397,2,0,B|222:47|222:47|244:131,1,125.999996154785,2|0,0:3|0:0,0:0:0:0:
227,10,50716,2,0,B|218:47|218:47|240:131,1,125.999996154785,8|0,0:1|0:0,0:0:0:0:
223,10,51035,5,2,0:1:0:0:
316,45,51194,1,0,0:0:0:0:
139,137,51354,1,8,0:1:0:0:
232,102,51513,1,2,0:3:0:0:
130,45,51673,2,0,P|77:38|75:38,2,41.9999987182618,2|2|2,0:3|0:3|0:1,0:0:0:0:
241,194,51992,1,8,0:1:0:0:
139,137,52152,1,0,0:0:0:0:
328,143,52311,6,0,P|341:182|336:223,1,83.9999974365235,2|0,0:1|0:0,0:0:0:0:
148,328,52631,2,0,P|134:288|139:247,1,83.9999974365235,8|2,0:1|0:3,0:0:0:0:
158,231,52870,1,2,0:3:0:0:
177,214,52950,1,2,0:3:0:0:
196,198,53029,1,2,0:3:0:0:
215,181,53109,1,2,0:1:0:0:
292,328,53269,2,0,L|375:321,1,83.9999974365235,8|0,0:1|0:0,0:0:0:0:
380,171,53588,5,2,0:1:0:0:
446,249,53748,1,0,0:0:0:0:
388,146,53907,2,0,P|388:105|398:64,1,83.9999974365235,8|2,0:1|0:3,0:0:0:0:
429,24,54147,1,2,0:3:0:0:
429,24,54226,2,0,P|368:30|362:30,1,41.9999987182618,2|2,0:3|0:3,0:0:0:0:
285,18,54386,1,2,0:1:0:0:
276,198,54545,2,0,P|277:156|267:116,1,83.9999974365235,8|0,0:1|0:0,0:0:0:0:
75,77,54865,6,0,B|105:52|105:52|192:47,1,125.999996154785,2|0,0:1|0:0,0:0:0:0:
75,73,55184,2,2,B|104:47|104:47|191:42,1,125.999996154785,8|2,0:1|0:0,0:0:0:0:
75,69,55503,5,2,0:0:0:0:
32,141,55662,1,2,0:0:0:0:
72,214,55822,1,2,0:0:0:0:
155,215,55982,1,2,0:0:0:0:
197,143,56141,6,0,P|187:83|172:48,1,70,0|0,1:0|0:0,0:0:0:0:
286,0,56460,2,0,P|277:32|274:67,1,70,0|0,0:0|0:0,0:0:0:0:
407,124,56779,2,0,L|338:131,3,70,8|0|0|0,0:1|0:0|3:0|0:0,0:0:0:0:
270,193,57418,6,0,L|200:186,1,70,0|0,0:0|3:0,0:0:0:0:
155,178,57657,1,0,0:0:0:0:
155,178,57737,1,0,1:0:0:0:
155,178,58056,2,0,P|169:233|169:261,1,70,8|0,0:1|0:0,0:0:0:0:
86,283,58375,2,0,P|72:338|72:366,1,70,0|0,0:0|0:0,0:0:0:0:
10,227,58694,6,0,B|2:183|2:183|21:83,1,140,0|0,1:0|0:0,0:0:0:0:
87,28,59173,1,0,0:0:0:0:
157,85,59333,2,0,P|218:82|244:86,1,70,8|0,0:1|0:0,0:0:0:0:
364,25,59652,2,0,P|329:26|295:23,1,70,0|0,0:0|0:0,0:0:0:0:
274,181,59971,6,0,P|299:136|348:121,1,105,0|0,3:0|0:0,0:0:0:0:
278,185,60290,2,0,P|302:139|351:124,1,105,0|0,1:0|0:0,0:0:0:0:
282,189,60609,2,0,P|306:143|355:128,1,105,0|0,3:0|0:0,0:0:0:0:
286,193,60928,2,0,P|310:147|359:132,1,105,8|0,0:1|0:0,0:0:0:0:
290,197,61248,5,0,1:0:0:0:
206,231,61407,1,0,0:0:0:0:
179,143,61567,1,0,0:0:0:0:
95,177,61726,1,0,0:0:0:0:
68,89,61886,2,0,P|63:137|53:170,1,70,8|0,0:1|0:0,0:0:0:0:
18,240,62205,2,0,P|23:288|33:321,1,70,0|0,3:0|0:0,0:0:0:0:
109,351,62524,6,0,P|168:357|199:352,1,70,0|0,0:0|3:0,0:0:0:0:
218,332,62764,1,0,0:0:0:0:
218,332,62843,1,0,1:0:0:0:
218,332,63162,2,0,L|210:262,1,70,8|0,0:1|0:0,0:0:0:0:
275,197,63482,2,0,L|282:127,1,70,0|0,0:0|0:0,0:0:0:0:
451,83,63801,6,0,P|399:39|333:51,1,140,0|0,1:0|0:0,0:0:0:0:
282,127,64279,1,0,0:0:0:0:
205,77,64439,2,0,P|159:66|154:66,1,35,0|0,3:0|3:0,0:0:0:0:
125,65,64599,1,0,1:0:0:0:
60,128,64758,2,0,L|67:197,1,70,8|0,0:1|0:0,0:0:0:0:
138,341,65077,6,0,L|149:237,1,105,0|0,1:0|0:0,0:0:0:0:
142,344,65397,2,0,L|152:239,1,105,8|0,0:1|0:0,0:0:0:0:
146,348,65716,6,0,P|171:355|200:354,1,35,2|2,0:3|0:3,0:0:0:0:
225,350,65875,1,2,3:1:0:0:
295,292,66035,1,8,0:1:0:0:
379,324,66194,1,0,0:0:0:0:
450,254,66354,6,0,P|455:212|444:171,1,83.9999974365235,2|0,0:1|0:0,0:0:0:0:
279,141,66673,1,8,0:1:0:0:
372,101,66833,1,2,0:3:0:0:
269,175,66992,1,2,0:3:0:0:
269,175,67072,1,2,0:3:0:0:
269,175,67152,1,2,0:1:0:0:
167,32,67311,2,0,P|177:73|188:114,1,83.9999974365235,8|0,0:1|0:0,0:0:0:0:
50,269,67631,6,0,P|58:207|97:159,1,125.999996154785,2|0,0:1|0:0,0:0:0:0:
44,275,67950,2,0,P|42:248|54:207,1,41.9999987182618,8|0,0:1|0:0,0:0:0:0:
162,357,68109,2,0,P|138:300|148:239,1,125.999996154785,2|2,0:3|0:3,0:0:0:0:
157,365,68428,2,0,P|145:348|137:329,1,41.9999987182618,2|0,0:1|0:0,0:0:0:0:
303,377,68588,2,0,P|253:339|230:281,1,125.999996154785,8|0,0:1|0:0,0:0:0:0:
303,384,68907,5,2,0:1:0:0:
384,323,69067,1,0,0:0:0:0:
330,158,69226,2,0,P|321:200|323:242,1,83.9999974365235,8|2,0:1|0:3,0:0:0:0:
346,232,69466,1,2,0:3:0:0:
369,222,69545,1,2,0:3:0:0:
392,213,69625,1,2,0:3:0:0:
415,204,69705,1,2,0:1:0:0:
231,158,69865,2,0,P|191:149|150:156,1,83.9999974365235,8|0,0:1|0:0,0:0:0:0:
73,344,70184,6,0,B|56:260|56:260|76:226,1,125.999996154785,2|0,0:1|0:0,0:0:0:0:
69,344,70503,2,0,B|52:260|52:260|72:226,1,125.999996154785,8|0,0:1|0:0,0:0:0:0:
65,344,70822,2,0,B|48:260|48:260|68:226,1,125.999996154785,2|0,0:3|0:0,0:0:0:0:
61,344,71141,2,0,B|44:260|44:260|64:226,1,125.999996154785,8|0,0:1|0:0,0:0:0:0:
56,344,71460,5,2,0:1:0:0:
146,278,71620,1,0,0:0:0:0:
20,144,71779,2,0,L|27:60,1,83.9999974365235,8|2,0:1|0:3,0:0:0:0:
73,38,72019,1,2,0:3:0:0:
73,38,72099,1,2,0:3:0:0:
170,12,72258,1,2,0:1:0:0:
247,168,72418,2,0,L|240:84,1,83.9999974365235,8|0,0:1|0:0,0:0:0:0:
438,39,72737,6,0,B|402:20|402:20|316:25,1,125.999996154785,2|0,0:1|0:0,0:0:0:0:
444,33,73056,2,0,L|407:12,1,41.9999987182618,8|0,0:1|0:0,0:0:0:0:
442,218,73216,2,0,B|433:178|433:178|374:116,1,125.999996154785,2|2,0:3|0:3,0:0:0:0:
450,220,73535,2,0,L|442:178,1,41.9999987182618,2|0,0:1|0:0,0:0:0:0:
308,337,73694,2,0,B|332:304|332:304|342:220,1,125.999996154785,8|0,0:1|0:0,0:0:0:0:
312,344,74014,5,2,0:1:0:0:
212,360,74173,1,0,0:0:0:0:
239,225,74333,1,8,0:1:0:0:
192,383,74492,1,2,0:3:0:0:
192,383,74572,1,2,0:3:0:0:
192,383,74652,1,2,0:3:0:0:
135,300,74811,1,2,0:1:0:0:
311,342,74971,2,0,P|374:339|402:329,1,83.9999974365235,8|0,0:1|0:0,0:0:0:0:
410,110,75290,6,0,L|424:236,1,125.999996154785,2|0,0:1|0:0,0:0:0:0:
414,106,75609,2,0,L|427:231,1,125.999996154785,8|0,0:1|0:0,0:0:0:0:
417,101,75928,5,2,0:0:0:0:
354,44,76088,1,2,0:0:0:0:
269,48,76248,1,2,0:0:0:0:
206,105,76406,1,2,0:0:0:0:
249,189,76567,6,0,P|239:249|224:284,1,70,0|0,1:0|0:0,0:0:0:0:
140,361,76886,2,0,P|149:327|152:293,1,70,0|0,0:0|0:0,0:0:0:0:
35,222,77205,2,0,L|104:215,3,70,8|0|0|0,0:1|0:0|3:0|0:0,0:0:0:0:
133,127,77844,6,0,L|203:134,1,70,0|0,0:0|3:0,0:0:0:0:
248,142,78083,1,0,0:0:0:0:
248,142,78163,1,0,1:0:0:0:
248,142,78482,2,0,P|234:87|234:59,1,70,8|0,0:1|0:0,0:0:0:0:
338,0,78801,2,0,P|334:33|324:67,1,70,0|0,0:0|0:0,0:0:0:0:
110,132,79120,6,0,B|154:124|154:124|254:143,1,140,0|0,1:0|0:0,0:0:0:0:
313,204,79599,1,0,0:0:0:0:
404,206,79757,2,0,P|407:145|403:119,1,70,8|0,0:1|0:0,0:0:0:0:
464,0,80078,2,0,P|463:35|466:69,1,70,0|0,0:0|0:0,0:0:0:0:
308,89,80397,6,0,P|353:64|368:15,1,105,0|0,3:0|0:0,0:0:0:0:
304,85,80716,2,0,P|350:61|365:12,1,105,0|0,1:0|0:0,0:0:0:0:
300,81,81034,2,0,P|346:57|361:8,1,105,0|0,3:0|0:0,0:0:0:0:
296,77,81354,2,0,P|342:53|357:4,1,105,8|0,0:1|0:0,0:0:0:0:
292,73,81672,5,0,1:0:0:0:
245,137,81833,1,0,0:0:0:0:
324,181,81991,1,0,0:0:0:0:
266,250,82152,1,0,0:0:0:0:
345,294,82312,2,0,P|393:289|426:279,1,70,8|0,0:1|0:0,0:0:0:0:
266,250,82631,2,0,P|218:255|185:265,1,70,0|0,3:0|0:0,0:0:0:0:
170,72,82950,6,0,P|176:107|175:142,1,70,0|0,0:0|3:0,0:0:0:0:
151,181,83188,1,0,0:0:0:0:
151,181,83269,1,0,1:0:0:0:
184,66,83428,2,0,P|189:100|188:135,1,70,0|8,0:0|0:1,0:0:0:0:
76,112,83748,1,0,0:0:0:0:
197,59,83907,2,0,P|202:93|201:128,1,70,0|0,0:0|0:0,0:0:0:0:
92,246,84225,6,0,P|143:289|210:277,1,140,0|0,1:0|0:0,0:0:0:0:
261,202,84705,1,0,0:0:0:0:
338,252,84865,2,0,P|354:258|371:262,1,35,0|0,3:0|3:0,0:0:0:0:
418,264,85023,1,0,1:0:0:0:
483,201,85184,2,0,L|476:132,1,70,8|0,0:1|0:0,0:0:0:0:
355,11,85503,6,0,L|251:22,1,105,0|0,1:0|0:0,0:0:0:0:
358,15,85821,2,0,L|253:25,1,105,8|0,0:1|0:0,0:0:0:0:
362,19,86140,6,0,P|369:44|368:73,1,35,2|2,0:3|0:3,0:0:0:0:
364,98,86301,1,2,3:1:0:0:
306,168,86461,1,8,0:1:0:0:
338,252,86620,1,0,0:0:0:0:
269,336,86779,6,0,P|219:332|208:327,3,41.9999987182618,2|0|0|0,0:1|0:0|0:0|0:0,0:0:0:0:
159,370,87099,2,0,P|109:374|98:379,3,41.9999987182618,8|0|2|2,0:1|0:0|0:3|0:3,0:0:0:0:
79,306,87418,1,2,0:3:0:0:
73,281,87498,1,2,0:3:0:0:
69,256,87577,1,2,0:1:0:0:
65,230,87657,1,0,0:3:0:0:
61,204,87737,1,8,0:1:0:0:
67,179,87817,1,0,0:0:0:0:
71,154,87896,1,0,0:0:0:0:
75,128,87976,1,0,0:0:0:0:
80,102,88056,6,0,P|119:92|133:96,3,41.9999987182618,2|0|0|0,0:1|0:0|0:0|0:0,0:0:0:0:
174,39,88375,2,0,P|194:39|213:48,3,41.9999987182618,8|0|2|2,0:1|0:0|0:3|0:3,0:0:0:0:
288,33,88694,1,2,0:3:0:0:
295,57,88773,1,2,0:3:0:0:
300,82,88853,1,2,0:1:0:0:
301,107,88933,1,0,0:0:0:0:
297,131,89014,5,8,0:1:0:0:
304,172,89093,1,0,0:0:0:0:
331,204,89173,1,0,0:0:0:0:
371,217,89253,1,0,0:0:0:0:
411,208,89333,6,0,P|431:201|452:197,3,41.9999987182618,2|0|0|0,0:1|0:0|0:0|0:0,0:0:0:0:
440,115,89652,2,0,P|461:120|481:127,3,41.9999987182618,8|0|2|2,0:1|0:0|0:3|0:3,0:0:0:0:
417,25,89971,2,0,L|375:21,1,41.9999987182618,2|2,0:3|0:3,0:0:0:0:
328,82,90131,2,0,L|286:78,1,41.9999987182618,2|0,0:1|0:0,0:0:0:0:
215,108,90290,1,8,0:1:0:0:
196,116,90369,1,0,0:0:0:0:
178,127,90449,1,0,0:0:0:0:
162,140,90529,1,0,0:0:0:0:
146,159,90609,6,0,P|141:216|141:221,3,41.9999987182618,2|0|0|0,0:1|0:0|0:0|0:0,0:0:0:0:
210,232,90928,2,0,P|215:289|215:294,3,41.9999987182618,8|0|2|2,0:1|0:0|0:3|0:3,0:0:0:0:
162,329,91248,2,0,P|157:386|157:391,3,41.9999987182618,2|2|2|0,0:3|0:3|0:1|0:0,0:0:0:0:
80,368,91567,5,8,0:1:0:0:
48,331,91646,1,0,0:0:0:0:
27,285,91726,1,0,0:0:0:0:
21,235,91806,1,0,0:0:0:0:
30,185,91886,6,0,L|95:179,3,41.9999987182618,2|0|0|0,0:1|0:0|0:0|0:0,0:0:0:0:
126,128,92205,2,0,L|190:134,3,41.9999987182618,8|0|2|2,0:1|0:0|0:3|0:3,0:0:0:0:
218,189,92524,2,0,L|282:182,3,41.9999987182618,2|2|2|0,0:3|0:3|0:1|0:0,0:0:0:0:
314,131,92843,2,0,L|378:137,3,41.9999987182618,8|0|0|0,0:1|0:0|0:0|0:0,0:0:0:0:
409,189,93162,6,0,P|417:231|418:244,3,41.9999987182618,2|0|0|0,0:1|0:0|0:0|0:0,0:0:0:0:
359,282,93482,1,8,0:1:0:0:
354,293,93561,1,0,0:0:0:0:
349,304,93641,1,2,0:3:0:0:
345,316,93721,1,2,0:3:0:0:
341,328,93801,2,0,P|299:336|286:337,3,41.9999987182618,2|2|0|0,0:3|0:3|0:0|0:0,0:0:0:0:
233,298,94120,2,0,P|191:290|178:289,3,41.9999987182618,8|0|0|0,0:1|0:0|0:0|0:0,0:0:0:0:
138,235,94439,6,0,P|148:188|148:169,3,41.9999987182618,2|0|0|0,0:1|0:0|0:0|0:0,0:0:0:0:
97,137,94758,2,0,P|87:90|87:71,3,41.9999987182618,8|0|2|2,0:1|0:0|0:3|0:3,0:0:0:0:
141,43,95077,2,0,P|191:30|195:30,1,41.9999987182618,2|2,0:3|0:3,0:0:0:0:
244,73,95237,2,0,P|294:86|298:86,1,41.9999987182618,2|0,0:1|0:0,0:0:0:0:
348,127,95397,2,0,P|358:174|358:193,3,41.9999987182618,8|0|0|0,0:1|0:0|0:0|0:0,0:0:0:0:
316,231,95716,6,0,L|274:228,3,41.9999987182618,2|0|0|0,0:1|0:0|0:0|0:0,0:0:0:0:
350,303,96035,2,0,L|392:300,3,41.9999987182618,8|0|2|2,0:1|0:0|0:3|0:3,0:0:0:0:
462,327,96354,1,2,0:3:0:0:
478,298,96433,1,2,0:3:0:0:
488,266,96513,1,2,0:1:0:0:
491,233,96593,1,0,0:0:0:0:
487,200,96673,2,0,P|464:155|454:141,1,41.9999987182618,8|0,0:1|0:0,0:0:0:0:
412,110,96833,2,0,P|391:107|370:107,1,41.9999987182618,0|0,0:0|0:0,0:0:0:0:
309,153,96992,6,0,L|294:216,3,41.9999987182618,2|0|0|0,0:1|0:0|0:0|0:0,0:0:0:0:
243,244,97311,2,0,L|258:307,3,41.9999987182618,8|0|2|2,0:1|0:0|0:3|0:3,0:0:0:0:
202,343,97631,5,2,0:3:0:0:
172,356,97710,1,2,0:3:0:0:
138,360,97790,1,2,0:1:0:0:
105,356,97870,1,0,0:0:0:0:
74,343,97950,1,8,0:1:0:0:
48,322,98029,1,0,0:0:0:0:
28,296,98109,1,0,0:0:0:0:
15,265,98189,1,0,0:0:0:0:
11,231,98269,6,0,L|20:163,3,41.9999987182618,2|0|0|0,0:1|0:0|0:0|0:0,0:0:0:0:
82,152,98588,2,0,L|73:83,3,41.9999987182618,8|0|2|2,0:1|0:0|0:3|0:3,0:0:0:0:
132,59,98907,2,0,P|183:51|197:56,1,41.9999987182618,2|2,0:3|0:3,0:0:0:0:
234,93,99067,2,0,P|254:94|274:102,1,41.9999987182618,2|0,0:1|0:0,0:0:0:0:
303,172,99226,5,8,0:1:0:0:
299,213,99305,1,0,0:0:0:0:
295,255,99385,1,0,0:0:0:0:
291,297,99465,1,0,0:0:0:0:
287,339,99545,6,0,P|292:369|299:388,3,41.9999987182618,2|0|0|0,0:1|0:0|0:0|0:0,0:0:0:0:
372,382,99865,2,0,P|377:361|380:340,3,41.9999987182618,8|0|2|2,0:1|0:0|0:3|0:3,0:0:0:0:
436,290,100184,1,2,0:3:0:0:
429,267,100263,1,2,0:3:0:0:
428,241,100343,1,2,0:1:0:0:
434,217,100423,1,0,0:3:0:0:
446,195,100503,1,8,0:1:0:0:
458,173,100583,1,0,0:0:0:0:
464,149,100663,1,0,0:0:0:0:
463,123,100741,1,0,0:0:0:0:
458,99,100822,6,0,P|405:97|390:97,3,41.9999987182618,2|0|0|0,0:1|0:0|0:0|0:0,0:0:0:0:
349,60,101141,2,0,P|296:62|281:62,3,41.9999987182618,8|0|2|2,0:1|0:0|0:3|0:3,0:0:0:0:
240,99,101460,2,0,P|187:97|172:97,3,41.9999987182618,2|2|2|0,0:3|0:3|0:1|0:0,0:0:0:0:
129,128,101779,5,8,0:1:0:0:
137,177,101858,1,0,0:0:0:0:
140,227,101938,1,0,0:0:0:0:
137,278,102018,1,0,0:0:0:0:
129,327,102099,6,0,P|77:353|66:357,3,41.9999987182618,2|0|0|0,0:1|0:0|0:0|0:0,0:0:0:0:
48,285,102418,2,0,P|29:276|10:265,3,41.9999987182618,8|0|2|2,0:1|0:0|0:3|0:3,0:0:0:0:
8,189,102737,1,2,0:3:0:0:
14,157,102816,1,2,0:3:0:0:
26,125,102896,1,2,0:1:0:0:
44,97,102976,1,0,0:0:0:0:
67,73,103056,1,8,0:1:0:0:
95,54,103135,1,0,0:0:0:0:
125,40,103215,1,0,0:3:0:0:
158,33,103295,1,0,0:3:0:0:
192,32,103375,6,0,P|216:76|218:98,1,41.9999987182618,2|0,0:1|0:0,0:0:0:0:
182,137,103535,2,0,P|158:180|156:202,1,41.9999987182618,0|0,0:0|0:0,0:0:0:0:
213,227,103694,2,0,P|218:278|216:306,3,41.9999987182618,8|0|2|2,0:1|0:0|0:3|0:3,0:0:0:0:
281,311,104014,2,0,P|276:362|278:390,3,41.9999987182618,2|2|2|0,0:3|0:3|0:1|0:0,0:0:0:0:
346,376,104333,1,8,0:1:0:0:
380,377,104412,1,0,0:0:0:0:
412,367,104492,1,0,0:0:0:0:
439,347,104572,1,0,0:0:0:0:
459,320,104652,6,0,P|454:263|454:250,3,41.9999987182618,2|0|0|0,0:1|0:0|0:0|0:0,0:0:0:0:
485,210,104971,2,0,P|490:152|490:139,3,41.9999987182618,8|0|2|2,0:1|0:0|0:3|0:3,0:0:0:0:
443,107,105290,2,0,P|385:102|377:103,1,41.9999987182618,2|2,0:3|0:3,0:0:0:0:
289,136,105450,2,0,P|310:132|331:131,1,41.9999987182618,2|0,0:1|0:0,0:0:0:0:
434,25,105609,2,0,P|413:20|392:19,1,41.9999987182618,8|0,0:1|0:0,0:0:0:0:
280,55,105769,2,0,P|300:50|321:49,1,41.9999987182618,0|0,0:0|0:0,0:0:0:0:
401,101,105928,5,2,0:1:0:0:
429,131,106007,1,0,0:0:0:0:
443,170,106087,1,0,0:0:0:0:
441,212,106167,1,0,0:0:0:0:
422,249,106248,2,0,L|354:250,3,41.9999987182618,8|0|2|2,0:1|0:0|0:3|0:3,0:0:0:0:
332,308,106567,2,0,L|263:307,3,41.9999987182618,2|2|2|0,0:3|0:3|0:1|0:0,0:0:0:0:
221,341,106886,1,8,0:1:0:0:
175,359,106965,1,0,0:0:0:0:
127,350,107045,1,0,0:0:0:0:
90,317,107125,1,0,0:0:0:0:
78,269,107205,6,0,L|93:203,3,41.9999987182618,2|0|0|0,0:1|0:0|0:0|0:0,0:0:0:0:
131,166,107524,2,0,L|116:100,3,41.9999987182618,8|0|0|2,0:1|0:0|0:0|0:3,0:0:0:0:
184,82,107843,5,2,0:3:0:0:
216,94,107922,1,2,0:3:0:0:
249,100,108002,1,2,0:1:0:0:
283,101,108082,1,0,0:0:0:0:
316,98,108162,1,8,0:1:0:0:
348,89,108241,1,0,0:0:0:0:
379,76,108321,1,0,0:0:0:0:
408,58,108401,1,0,0:0:0:0:
433,36,108482,6,0,P|474:19|489:18,3,41.9999987182618,2|0|0|0,0:1|0:0|0:0|0:0,0:0:0:0:
474,110,108801,2,0,P|494:116|512:126,3,41.9999987182618,8|0|2|0,0:1|0:0|0:3|0:0,0:0:0:0:
426,183,109120,1,2,0:3:0:0:
396,199,109199,1,2,0:3:0:0:
364,210,109279,1,2,0:1:0:0:
331,216,109359,1,0,0:0:0:0:
297,217,109439,5,8,0:1:0:0:
323,264,109518,1,0,0:0:0:0:
317,317,109598,1,0,0:0:0:0:
280,356,109678,1,0,0:0:0:0:
228,366,109758,6,0,P|180:358|156:361,3,41.9999987182618,2|0|0|0,0:1|0:0|0:0|0:0,0:0:0:0:
136,302,110077,2,0,P|87:310|63:307,3,41.9999987182618,8|0|2|2,0:1|0:0|0:3|0:3,0:0:0:0:
36,260,110397,1,2,0:3:0:0:
24,228,110476,1,2,0:3:0:0:
21,194,110556,1,2,0:1:0:0:
25,161,110636,1,0,0:0:0:0:
37,130,110716,1,8,0:1:0:0:
55,102,110795,1,0,0:0:0:0:
80,79,110875,1,0,0:0:0:0:
109,62,110955,1,0,0:0:0:0:
141,52,111035,6,0,P|137:73|134:94,3,41.9999987182618,2|0|0|0,0:1|0:0|0:0|0:0,0:0:0:0:
178,155,111354,2,0,P|181:175|184:196,3,41.9999987182618,8|0|2|2,0:1|0:0|0:3|0:3,0:0:0:0:
140,258,111673,2,0,P|137:278|134:299,3,41.9999987182618,2|2|2|0,0:3|0:3|0:1|0:0,0:0:0:0:
186,354,111992,5,8,0:1:0:0:
239,349,112071,1,0,0:0:0:0:
292,345,112151,1,0,0:0:0:0:
346,341,112231,1,0,0:0:0:0:
399,336,112311,6,0,P|391:294|382:265,3,41.9999987182618,2|0|0|0,0:1|0:0|0:0|0:0,0:0:0:0:
438,234,112631,2,0,P|446:192|455:163,3,41.9999987182618,8|0|0|0,0:1|0:0|0:0|0:0,0:0:0:0:
402,130,112950,2,0,P|381:126|360:122,3,41.9999987182618,2|2|2|0,0:3|0:3|0:1|0:0,0:0:0:0:
299,76,113269,2,0,P|278:79|257:83,3,41.9999987182618,8|0|0|0,0:1|0:0|0:0|0:0,0:0:0:0:
202,136,113588,6,0,P|187:183|184:192,1,41.9999987182618,2|0,0:1|0:0,0:0:0:0:
240,233,113748,2,0,P|255:280|258:289,1,41.9999987182618,0|0,0:0|0:0,0:0:0:0:
205,332,113907,2,0,L|163:331,3,41.9999987182618,8|0|2|2,0:1|0:0|0:3|0:3,0:0:0:0:
88,343,114226,1,2,0:3:0:0:
68,327,114305,1,2,0:3:0:0:
51,309,114385,1,2,0:1:0:0:
37,287,114465,1,0,0:0:0:0:
27,264,114545,1,8,0:1:0:0:
21,240,114624,1,0,0:0:0:0:
20,215,114704,1,0,0:0:0:0:
22,190,114784,1,0,0:0:0:0:
29,165,114865,6,0,P|78:151|89:149,3,41.9999987182618,2|0|0|0,0:1|0:0|0:0|0:0,0:0:0:0:
133,112,115184,2,0,P|181:126|192:128,3,41.9999987182618,8|0|2|2,0:1|0:0|0:3|0:3,0:0:0:0:
220,184,115503,2,0,P|234:232|236:243,3,41.9999987182618,2|2|2|0,0:3|0:3|0:1|0:0,0:0:0:0:
274,287,115822,2,0,P|259:335|257:346,3,41.9999987182618,8|0|0|0,0:1|0:0|0:0|0:0,0:0:0:0:
324,368,116141,6,0,L|381:349,1,41.9999987182618,2|0,0:1|0:0,0:0:0:0:
417,300,116301,2,0,L|456:313,1,41.9999987182618,0|0,0:0|0:0,0:0:0:0:
506,255,116460,2,0,P|509:207|509:188,3,41.9999987182618,8|0|2|2,0:1|0:3|0:3|0:3,0:0:0:0:
442,176,116779,1,2,0:3:0:0:
401,167,116858,1,2,0:3:0:0:
370,139,116938,1,2,0:1:0:0:
359,99,117018,1,0,0:0:0:0:
370,59,117098,1,8,0:1:0:0:
401,31,117177,1,0,0:0:0:0:
441,23,117257,1,0,0:0:0:0:
480,37,117337,1,0,0:0:0:0:
506,69,117418,6,0,P|505:112|497:143,3,41.9999987182618,2|0|0|0,0:1|0:0|0:0|0:0,0:0:0:0:
454,167,117737,2,0,P|455:209|463:240,3,41.9999987182618,8|0|2|2,0:1|0:0|0:3|0:3,0:0:0:0:
426,278,118056,1,2,0:3:0:0:
400,300,118135,1,2,0:3:0:0:
370,316,118215,1,2,0:1:0:0:
338,325,118295,1,0,0:3:0:0:
305,328,118375,1,8,0:1:0:0:
271,323,118454,1,0,0:0:0:0:
240,312,118534,1,0,0:0:0:0:
211,294,118614,1,0,0:0:0:0:
187,271,118694,6,0,L|201:200,3,41.9999987182618,2|0|0|0,0:1|0:0|0:0|0:0,0:0:0:0:
137,179,119014,2,0,L|123:107,3,41.9999987182618,8|0|0|2,0:1|0:0|0:0|0:3,0:0:0:0:
180,82,119333,2,0,L|193:10,3,41.9999987182618,2|0|2|0,0:3|0:0|0:1|0:0,0:0:0:0:
115,15,119652,5,8,0:1:0:0:
65,33,119731,1,0,0:0:0:0:
27,72,119811,1,0,0:0:0:0:
9,123,119891,1,0,0:0:0:0:
14,177,119971,6,0,P|16:240|15:251,3,41.9999987182618,2|0|0|0,0:1|0:0|0:0|0:0,0:0:0:0:
68,274,120290,2,0,P|130:272|141:273,3,41.9999987182618,8|0|2|2,0:1|0:0|0:3|0:3,0:0:0:0:
178,239,120609,2,0,P|188:197|188:179,1,41.9999987182618,2|2,0:3|0:3,0:0:0:0:
156,128,120769,2,0,P|146:86|146:68,1,41.9999987182618,2|0,0:1|0:0,0:0:0:0:
187,22,120928,1,8,0:1:0:0:
218,10,121007,1,0,0:0:0:0:
251,8,121087,1,0,0:0:0:0:
284,15,121167,1,0,0:0:0:0:
313,31,121248,6,0,P|314:91|314:101,3,41.9999987182618,2|0|0|0,0:1|0:0|0:0|0:0,0:0:0:0:
376,117,121567,2,0,P|375:137|375:158,3,41.9999987182618,8|0|2|2,0:1|0:0|0:3|0:3,0:0:0:0:
313,202,121886,2,0,P|313:222|313:243,3,41.9999987182618,2|2|2|0,0:3|0:3|0:1|0:0,0:0:0:0:
341,314,122205,5,8,0:1:0:0:
382,347,122284,1,0,0:0:0:0:
435,348,122364,1,0,0:0:0:0:
478,316,122444,1,0,0:0:0:0:
491,264,122524,6,0,L|486:234,6,20.9999993591309,2|0|0|0|0|0|0,0:1|0:0|0:0|0:0|0:0|0:0|0:0,0:0:0:0:
416,209,122843,2,0,L|421:178,6,20.9999993591309,8|0|0|0|2|0|2,0:1|0:0|0:0|0:0|0:3|0:0|0:3,0:0:0:0:
509,168,123162,2,0,L|503:137,6,20.9999993591309,2|0|2|0|2|0|0,0:3|0:0|0:3|0:0|0:1|0:0|0:0,0:0:0:0:
433,112,123481,2,0,L|438:81,6,20.9999993591309,8|0|0|0|0|0|0,0:1|0:0|0:0|0:0|0:0|0:0|0:0,0:0:0:0:
345,145,123801,6,0,P|317:143|309:140,6,20.9999993591309,2|0|0|0|0|0|0,0:1|0:0|0:0|0:0|0:0|0:0|0:0,0:0:0:0:
301,226,124120,2,0,P|273:228|265:231,6,20.9999993591309,8|0|0|0|2|0|2,0:1|0:0|0:0|0:0|0:3|0:0|0:3,0:0:0:0:
240,143,124439,2,0,P|212:141|204:138,6,20.9999993591309,2|0|2|0|2|0|0,0:3|0:0|0:3|0:0|0:1|0:0|0:0,0:0:0:0:
196,224,124758,2,0,P|168:226|160:229,6,20.9999993591309,8|0|0|0|0|0|0,0:1|0:0|0:0|0:0|0:0|0:0|0:0,0:0:0:0:
114,316,125077,6,0,L|111:295,6,20.9999993591309,2|0|0|0|0|0|0,0:1|0:0|0:0|0:0|0:0|0:0|0:0,0:0:0:0:
25,282,125397,2,0,L|28:261,6,20.9999993591309,8|0|0|0|2|0|2,0:1|0:0|0:0|0:0|0:3|0:0|0:3,0:0:0:0:
108,210,125716,2,0,L|105:189,6,20.9999993591309,2|0|2|0|2|0|0,0:3|0:0|0:3|0:0|0:1|0:0|0:0,0:0:0:0:
19,176,126034,2,0,L|22:155,6,20.9999993591309,8|0|0|0|0|0|0,0:1|0:0|0:0|0:0|0:0|0:0|0:0,0:0:0:0:
124,78,126354,6,0,L|91:73,14,20.9999993591309,2|0|0|0|0|0|0|0|8|0|0|0|2|0|2,0:1|0:0|0:0|0:0|0:0|0:0|0:0|0:0|0:1|0:0|0:0|0:0|0:3|0:0|0:3,0:0:0:0:
213,14,126992,2,0,L|233:10,14,20.9999993591309,2|0|2|0|2|0|0|0|8|0|0|0|0|0|0,0:3|0:0|0:3|0:0|0:1|0:0|0:0|0:0|0:1|0:0|0:0|0:0|0:0|0:0|0:0,0:0:0:0:
207,97,127631,5,2,0:0:0:0:
