osu file format v14

[General]
AudioFilename: audio.mp3
AudioLeadIn: 0
PreviewTime: 66284
Countdown: 0
SampleSet: Soft
StackLeniency: 0.2
Mode: 0
LetterboxInBreaks: 0
WidescreenStoryboard: 0

[Editor]
Bookmarks: 40832,45938,66364,86789,107215,127641
DistanceSpacing: 1
BeatDivisor: 4
GridSize: 4
TimelineZoom: 2.899999

[Metadata]
Title:Sidetracked Day (Short Ver.)
TitleUnicode:Sidetracked Day (Short Ver.)
Artist:VINXIS
ArtistUnicode:VINXIS
Creator:Hobbes2
Version:Distracted
Source:
Tags:Dnb Drum and Bass Mishima Yurara Chill Nao Tomori WORSTPOLACKEU LowComboFC Featured Artist
BeatmapID:1613687
BeatmapSetID:767600

[Difficulty]
HPDrainRate:6
CircleSize:4
OverallDifficulty:9.3
ApproachRate:9.5
SliderMultiplier:1.4
SliderTickRate:1

[Events]
//Background and Video events
0,0,"nonshitquality.png",0,0
//Break Periods
//Storyboard Layer 0 (Background)
//Storyboard Layer 1 (Fail)
//Storyboard Layer 2 (Pass)
//Storyboard Layer 3 (Foreground)
//Storyboard Sound Samples

[TimingPoints]
17843,319.148936170213,4,2,1,52,1,0
17843,-100,4,2,1,32,0,0
20396,-83.3333333333333,4,2,1,40,0,0
39545,-100,4,2,1,40,0,0
39864,-50,4,2,1,40,0,0
40183,-100,4,2,1,40,0,0
40503,-100,4,2,1,40,0,0
40821,-100,4,2,1,28,0,0
45289,-100,4,2,1,35,0,0
45689,-100,4,2,1,5,0,0
45769,-100,4,2,1,52,0,0
45849,-100,4,2,1,5,0,0
45928,-76.9230769230769,4,2,1,52,0,0
56140,-100,4,2,1,40,0,0
66354,-76.9230769230769,4,2,1,52,0,0
76566,-100,4,2,1,40,0,0
86779,-76.9230769230769,4,2,1,52,0,0
126991,-38.4615384615385,4,2,1,52,0,0

[Colours]
Combo1 : 166,77,255
Combo2 : 255,123,255
Combo3 : 193,193,255
Combo4 : 185,0,185

[HitObjects]
116,184,19279,5,0,0:0:0:0:
116,184,19438,1,0,0:0:0:0:
202,100,19757,2,0,P|203:64|199:40,2,35,0|0|0,0:0|0:0|0:0,0:0:0:0:
116,184,20077,2,0,P|115:220|119:244,3,35,0|0|0|0,0:0|0:0|0:0|0:0,0:0:0:0:
131,249,20396,6,0,P|212:242|273:296,1,167.999994873047,6|0,1:0|0:0,0:0:0:0:
318,366,20874,1,0,0:0:0:0:
282,187,21034,2,0,P|279:145|292:105,1,83.9999974365235,8|0,0:1|0:0,0:0:0:0:
511,53,21353,2,0,L|344:39,1,167.999994873047,0|0,0:0|0:0,0:0:0:0:
202,128,21832,1,0,3:0:0:0:
202,128,21912,1,0,3:0:0:0:
202,128,21991,1,0,1:0:0:0:
260,285,22311,2,0,P|252:203|306:142,1,167.999994873047,8|0,0:1|0:0,0:0:0:0:
390,137,22789,1,0,0:0:0:0:
164,254,22949,6,0,B|122:265|122:265|1:232,1,167.999994873047,0|0,1:0|0:0,0:0:0:0:
3,149,23428,1,0,0:0:0:0:
115,349,23587,2,0,P|152:367|194:372,1,83.9999974365235,8|0,0:1|0:0,0:0:0:0:
316,276,23906,2,0,P|274:281|237:300,1,83.9999974365235
194,372,24225,1,2,0:3:0:0:
231,208,24545,1,0,1:0:0:0:
361,339,24864,2,0,B|350:297|350:297|382:176,1,167.999994873047,8|0,0:1|3:3,0:0:0:0:
441,117,25343,1,0,3:3:0:0:
306,20,25502,6,0,P|272:95|298:174,1,167.999994873047,0|0,1:0|0:0,0:0:0:0:
374,209,25981,1,0,0:0:0:0:
235,303,26140,2,0,L|127:293,1,83.9999974365235,8|0,0:1|0:0,0:0:0:0:
83,81,26460,2,0,P|117:156|92:235,1,167.999994873047,0|0,0:0|0:0,0:0:0:0:
0,384,26938,1,0,3:0:0:0:
0,384,27018,1,0,3:0:0:0:
0,384,27098,1,0,1:0:0:0:
155,321,27417,2,0,L|322:335,1,167.999994873047,8|0,0:1|0:0,0:0:0:0:
397,297,27896,1,0,0:0:0:0:
102,386,28055,6,0,P|71:312|116:245,1,167.999994873047,0|0,1:0|0:0,0:0:0:0:
155,321,28534,1,0,0:0:0:0:
79,90,28694,2,0,L|72:174,1,83.9999974365235,8|0,0:1|0:0,0:0:0:0:
155,321,29013,1,0,0:0:0:0:
218,167,29172,1,0,0:0:0:0:
316,245,29332,6,0,L|378:239,1,41.9999987182618,2|0,0:0|0:0,0:0:0:0:
441,233,29491,1,0,0:0:0:0:
316,245,29651,6,0,L|378:239,1,41.9999987182618,0|0,1:0|0:0,0:0:0:0:
441,233,29811,1,0,0:0:0:0:
316,245,29970,6,0,L|378:239,1,41.9999987182618,8|0,0:1|0:0,0:0:0:0:
441,233,30130,1,0,0:0:0:0:
316,245,30289,6,0,L|378:239,1,41.9999987182618,0|0,1:0|0:0,0:0:0:0:
441,233,30449,2,0,L|503:227,1,41.9999987182618,8|0,1:0|0:0,0:0:0:0:
262,97,30608,6,0,B|209:84|209:84|101:118,1,167.999994873047,0|0,1:0|0:0,0:0:0:0:
40,199,31087,1,0,0:0:0:0:
154,351,31247,2,0,P|195:361|237:357,1,83.9999974365235,8|0,0:1|0:0,0:0:0:0:
368,263,31566,2,0,P|326:259|285:269,1,83.9999974365235,0|0,0:0|0:0,0:0:0:0:
423,347,31885,1,0,0:0:0:0:
462,192,32045,1,0,3:0:0:0:
462,192,32124,1,0,3:0:0:0:
462,192,32204,1,0,1:0:0:0:
134,68,32523,2,0,P|203:112|284:97,1,167.999994873047,8|0,0:1|0:0,0:0:0:0:
358,28,33002,1,0,0:0:0:0:
217,206,33162,6,0,L|231:373,1,167.999994873047,0|0,1:0|0:0,0:0:0:0:
332,376,33640,1,0,0:0:0:0:
126,250,33800,2,0,B|98:205|98:205|120:92,1,167.999994873047,8|0,0:1|0:0,0:0:0:0:
187,17,34279,1,0,0:0:0:0:
294,165,34438,1,2,0:3:0:0:
275,66,34598,1,0,0:0:0:0:
382,213,34757,2,0,P|430:148|512:140,1,167.999994873047,0|8,1:0|0:1,0:0:0:0:
443,294,35236,1,0,0:0:0:0:
363,356,35396,2,0,P|321:360|280:350,1,83.9999974365235,0|0,3:0|0:0,0:0:0:0:
182,148,35715,6,0,P|260:171|284:249,1,167.999994873047,0|0,1:0|0:0,0:0:0:0:
197,299,36194,1,0,0:0:0:0:
303,92,36353,2,0,P|344:86|386:87,1,83.9999974365235,8|0,0:1|0:0,0:0:0:0:
183,148,36672,2,0,P|141:149|99:142,1,83.9999974365235,0|0,0:0|0:0,0:0:0:0:
42,59,36991,1,0,0:0:0:0:
17,208,37151,1,0,3:0:0:0:
17,208,37231,1,0,3:0:0:0:
17,208,37311,1,0,1:0:0:0:
180,326,37630,2,0,B|237:301|237:301|351:332,1,167.999994873047,8|0,0:1|0:0,0:0:0:0:
431,367,38108,1,0,0:0:0:0:
470,144,38268,6,0,P|510:217|507:300,1,167.999994873047,0|0,1:0|0:0,0:0:0:0:
431,367,38747,1,0,0:0:0:0:
293,217,38906,2,0,L|299:133,1,83.9999974365235,8|0,0:1|0:0,0:0:0:0:
378,0,39225,1,0,0:0:0:0:
393,95,39385,1,0,0:0:0:0:
196,31,39545,6,0,P|214:34|189:50,1,70,2|0,0:0|0:0,0:0:0:0:
196,31,39864,6,0,P|214:34|189:50,1,70,2|0,0:0|0:0,0:0:0:0:
196,31,40023,2,0,P|214:34|189:50,1,70,0|0,0:0|0:0,0:0:0:0:
196,31,40183,6,0,P|214:34|189:50,1,70,2|0,0:0|0:0,0:0:0:0:
196,31,40502,6,0,P|214:34|189:50,1,70,2|0,0:0|0:0,0:0:0:0:
58,125,40821,5,2,1:2:0:0:
58,125,40981,1,2,0:2:0:0:
58,125,41140,1,2,0:2:0:0:
89,202,41300,5,2,0:2:0:0:
89,202,41460,1,2,0:2:0:0:
89,202,41619,1,2,0:2:0:0:
141,137,41779,5,2,0:2:0:0:
141,137,41938,1,2,0:2:0:0:
141,137,42098,1,2,0:2:0:0:
6,190,42257,5,2,0:2:0:0:
6,190,42417,1,2,0:2:0:0:
6,190,42577,1,2,0:2:0:0:
172,214,42736,5,2,0:2:0:0:
172,214,42896,1,2,0:2:0:0:
172,214,43055,1,2,0:2:0:0:
303,317,43215,5,2,0:2:0:0:
243,104,43374,5,2,0:2:0:0:
249,101,43534,1,2,0:2:0:0:
255,99,43694,1,2,0:2:0:0:
172,214,43853,5,2,0:2:0:0:
166,212,44013,1,2,0:2:0:0:
160,209,44172,1,2,0:2:0:0:
289,205,44332,5,2,0:2:0:0:
287,211,44491,1,2,0:2:0:0:
284,217,44651,1,2,0:2:0:0:
138,74,44811,5,2,0:2:0:0:
140,68,44970,1,2,0:2:0:0:
143,62,45130,1,2,0:2:0:0:
149,59,45210,1,0,0:0:0:0:
155,56,45289,6,0,L|201:57,1,35,0|0,3:0|3:0,0:0:0:0:
300,17,45449,2,0,L|266:18,1,35,0|0,1:0|0:0,0:0:0:0:
155,56,45608,6,0,L|201:57,1,35,8|0,0:1|0:0,0:0:0:0:
300,17,45768,2,0,L|266:18,1,35,0|0,0:0|0:0,0:0:0:0:
366,244,45928,5,2,0:1:0:0:
309,130,46087,1,0,0:0:0:0:
237,297,46247,1,8,0:1:0:0:
126,141,46406,1,2,0:3:0:0:
121,168,46486,1,2,0:3:0:0:
120,196,46566,1,2,0:3:0:0:
122,223,46646,1,2,0:3:0:0:
127,249,46725,1,2,0:1:0:0:
206,54,46885,1,8,0:1:0:0:
10,165,47045,1,0,0:0:0:0:
218,42,47204,5,2,0:1:0:0:
295,178,47364,1,0,0:0:0:0:
69,43,47523,1,8,0:1:0:0:
357,29,47683,1,2,0:3:0:0:
357,29,47763,1,2,0:3:0:0:
357,29,47843,2,0,P|357:78|348:103,1,45.4999979171754,2|2,0:3|0:3,0:0:0:0:
182,186,48002,1,2,0:1:0:0:
490,1,48162,1,8,0:1:0:0:
332,192,48321,1,0,0:0:0:0:
246,40,48481,5,2,0:1:0:0:
472,114,48640,1,0,0:0:0:0:
194,146,48800,2,0,P|150:148|108:130,1,90.9999958343508,8|2,0:1|0:3,0:0:0:0:
86,114,49039,1,2,0:3:0:0:
74,89,49119,1,2,0:3:0:0:
70,61,49199,1,2,0:3:0:0:
71,34,49279,1,2,0:1:0:0:
318,111,49438,1,8,0:1:0:0:
213,289,49598,1,0,0:0:0:0:
201,53,49757,6,0,P|246:34|261:34,1,45.4999979171754,2|0,0:1|0:0,0:0:0:0:
402,268,49917,1,0,0:0:0:0:
201,53,50077,6,0,P|246:34|261:34,1,45.4999979171754,8|0,0:1|0:0,0:0:0:0:
402,268,50236,1,2,0:3:0:0:
201,53,50396,6,0,P|246:34|261:34,1,45.4999979171754,2|2,0:3|0:3,0:0:0:0:
402,268,50555,1,2,0:1:0:0:
201,53,50715,6,0,P|246:34|261:34,1,45.4999979171754,8|0,0:1|0:0,0:0:0:0:
402,268,50874,1,0,0:0:0:0:
189,343,51034,6,0,P|124:305|107:270,1,90.9999958343508,2|0,0:1|0:0,0:0:0:0:
107,175,51353,1,8,0:1:0:0:
249,75,51513,1,2,0:3:0:0:
276,77,51593,1,2,0:3:0:0:
303,79,51672,1,2,0:3:0:0:
330,81,51752,1,2,0:3:0:0:
357,83,51832,1,2,0:1:0:0:
383,335,51991,1,8,0:1:0:0:
466,197,52151,1,0,0:0:0:0:
227,204,52311,5,2,0:1:0:0:
381,356,52470,1,0,0:0:0:0:
357,83,52630,1,8,0:1:0:0:
211,230,52789,1,2,0:3:0:0:
211,230,52869,1,2,0:3:0:0:
211,230,52949,2,0,P|203:273|200:300,1,45.4999979171754,2|2,0:3|0:3,0:0:0:0:
384,379,53108,1,2,0:1:0:0:
375,70,53268,1,8,0:1:0:0:
321,248,53428,1,0,0:0:0:0:
483,26,53587,5,2,0:1:0:0:
307,269,53747,1,0,0:0:0:0:
223,81,53906,1,8,0:1:0:0:
466,175,54066,1,2,0:3:0:0:
439,182,54146,1,2,0:3:0:0:
412,182,54225,1,2,0:3:0:0:
386,174,54305,1,2,0:3:0:0:
362,161,54385,1,2,0:1:0:0:
502,7,54545,1,8,0:1:0:0:
297,286,54704,1,0,0:0:0:0:
72,141,54864,6,0,L|161:153,1,45.4999979171754,2|0,0:1|0:0,0:0:0:0:
371,46,55023,1,0,0:0:0:0:
72,141,55183,6,0,L|161:153,1,45.4999979171754,8|0,0:1|0:0,0:0:0:0:
371,46,55343,1,2,0:0:0:0:
72,141,55502,5,2,0:0:0:0:
171,109,55662,1,2,0:0:0:0:
270,77,55821,1,2,0:0:0:0:
371,46,55981,1,2,0:0:0:0:
390,252,56140,6,0,P|384:218|395:184,3,70,0|0|0|0,1:0|0:0|0:0|0:0,0:0:0:0:
306,356,56779,2,0,P|312:322|302:289,3,70,8|0|0|0,0:1|0:0|3:0|0:0,0:0:0:0:
136,251,57417,6,0,L|206:244,3,70,0|0|0|0,0:0|3:0|1:0|0:0,0:0:0:0:
346,174,58055,2,0,L|277:167,3,70,8|0|0|0,0:1|0:0|0:0|0:0,0:0:0:0:
210,85,58694,5,0,1:0:0:0:
128,124,58853,1,0,0:0:0:0:
108,213,59013,1,0,0:0:0:0:
165,284,59172,1,0,0:0:0:0:
256,285,59332,5,8,0:1:0:0:
212,206,59491,1,0,0:0:0:0:
245,121,59651,1,0,0:0:0:0:
332,94,59811,1,0,0:0:0:0:
407,146,59970,6,0,P|408:180|403:209,1,35,0|0,3:0|0:0,0:0:0:0:
397,215,60130,1,0,0:0:0:0:
407,146,60289,6,0,P|408:180|403:209,1,35,0|0,1:0|0:0,0:0:0:0:
397,215,60449,1,0,0:0:0:0:
407,146,60608,5,0,3:0:0:0:
407,180,60688,1,0,3:0:0:0:
397,215,60768,1,0,1:0:0:0:
407,146,60928,6,0,P|408:180|403:209,1,35,8|0,0:1|0:0,0:0:0:0:
397,215,61087,1,0,0:0:0:0:
250,103,61247,6,0,L|319:95,3,70,0|0|0|0,1:0|0:0|0:0|0:0,0:0:0:0:
179,26,61885,2,0,L|109:18,3,70,8|0|0|0,0:1|0:0|3:0|0:0,0:0:0:0:
34,70,62523,5,0,0:0:0:0:
13,159,62683,1,0,3:0:0:0:
74,225,62843,1,0,1:0:0:0:
53,314,63002,1,0,0:0:0:0:
114,380,63162,5,8,0:1:0:0:
82,296,63321,1,0,0:0:0:0:
98,207,63481,1,0,0:0:0:0:
159,141,63640,1,0,0:0:0:0:
248,118,63800,6,0,P|321:124|345:138,1,70,0|0,1:0|0:0,0:0:0:0:
385,182,64119,1,0,0:0:0:0:
333,256,64279,1,0,0:0:0:0:
415,317,64438,1,0,3:0:0:0:
415,317,64518,1,0,3:0:0:0:
415,317,64598,1,0,1:0:0:0:
385,182,64757,1,8,0:1:0:0:
333,256,64917,1,0,0:0:0:0:
478,104,65077,6,0,P|474:147|474:169,1,35,0|0,1:0|0:0,0:0:0:0:
492,225,65236,1,0,0:0:0:0:
478,104,65396,6,0,P|474:147|474:169,1,35,8|0,0:1|0:0,0:0:0:0:
492,225,65555,1,0,3:0:0:0:
370,81,65715,5,2,0:3:0:0:
370,81,65795,1,2,0:3:0:0:
370,81,65874,1,2,3:1:0:0:
451,15,66034,1,8,0:1:0:0:
385,182,66194,1,0,0:0:0:0:
115,56,66353,5,2,0:1:0:0:
265,18,66513,1,0,0:0:0:0:
220,289,66672,1,8,0:1:0:0:
333,111,66832,1,2,0:3:0:0:
317,138,66912,1,2,0:3:0:0:
310,169,66991,1,2,0:3:0:0:
312,201,67071,1,2,0:3:0:0:
323,231,67151,1,2,0:1:0:0:
439,61,67311,1,8,0:1:0:0:
192,157,67470,1,0,0:0:0:0:
420,345,67630,6,0,L|510:337,1,90.9999958343508,2|0,0:1|0:0,0:0:0:0:
308,31,67949,1,8,0:1:0:0:
420,345,68108,5,2,0:3:0:0:
465,341,68188,1,2,0:3:0:0:
510,337,68268,2,0,P|513:304|512:279,1,45.4999979171754,2|2,0:3|0:3,0:0:0:0:
308,31,68428,1,2,0:1:0:0:
420,345,68587,6,0,L|510:337,1,90.9999958343508,8|0,0:1|0:0,0:0:0:0:
244,222,68906,5,2,0:1:0:0:
471,95,69066,1,0,0:0:0:0:
306,349,69225,1,8,0:1:0:0:
310,120,69385,1,2,0:3:0:0:
335,138,69465,1,2,0:3:0:0:
355,162,69545,1,2,0:3:0:0:
364,192,69624,1,2,0:3:0:0:
366,223,69704,1,2,0:1:0:0:
155,114,69864,1,8,0:1:0:0:
281,21,70023,1,0,0:0:0:0:
366,223,70183,6,0,L|316:219,1,45.4999979171754,2|0,0:1|0:0,0:0:0:0:
33,267,70343,1,0,0:0:0:0:
366,223,70502,6,0,L|316:219,1,45.4999979171754,8|0,0:1|0:0,0:0:0:0:
33,267,70662,1,2,0:3:0:0:
366,223,70821,6,0,L|316:219,1,45.4999979171754,2|2,0:3|0:3,0:0:0:0:
33,267,70981,1,2,0:1:0:0:
366,223,71140,6,0,L|316:219,1,45.4999979171754,8|0,0:1|0:0,0:0:0:0:
33,267,71300,1,0,0:0:0:0:
191,135,71460,5,2,0:1:0:0:
217,250,71619,1,0,0:0:0:0:
259,29,71779,1,8,0:1:0:0:
460,144,71938,1,2,0:3:0:0:
428,143,72018,1,2,0:3:0:0:
398,154,72098,1,2,0:3:0:0:
376,176,72178,1,2,0:3:0:0:
364,206,72257,1,2,0:1:0:0:
494,369,72417,1,8,0:1:0:0:
464,254,72577,1,0,0:0:0:0:
110,354,72736,6,0,P|152:369|197:374,1,90.9999958343508,2|0,0:1|0:0,0:0:0:0:
318,44,73055,1,8,0:1:0:0:
110,354,73215,5,2,0:3:0:0:
152,369,73295,1,2,0:3:0:0:
197,374,73374,2,0,P|230:341|245:319,1,45.4999979171754,2|2,0:3|0:3,0:0:0:0:
318,44,73534,1,2,0:1:0:0:
110,354,73694,6,0,P|152:369|197:374,1,90.9999958343508,8|0,0:1|0:0,0:0:0:0:
406,189,74013,5,2,0:1:0:0:
385,335,74172,1,0,0:0:0:0:
318,80,74332,1,8,0:1:0:0:
509,216,74491,1,2,0:3:0:0:
486,203,74571,1,2,0:3:0:0:
460,194,74651,1,2,0:3:0:0:
433,189,74731,1,2,0:3:0:0:
406,189,74811,1,2,0:1:0:0:
508,384,74970,1,8,0:1:0:0:
391,363,75130,1,0,0:0:0:0:
165,148,75289,6,0,P|189:141|232:134,1,45.4999979171754,2|0,0:1|0:0,0:0:0:0:
509,216,75449,1,0,0:0:0:0:
165,148,75608,6,0,P|189:141|232:134,1,45.4999979171754,8|0,0:1|0:0,0:0:0:0:
509,216,75768,1,2,0:0:0:0:
165,148,75928,5,2,0:0:0:0:
279,170,76087,1,2,0:0:0:0:
393,192,76247,1,2,0:0:0:0:
509,216,76406,1,2,0:0:0:0:
277,30,76566,6,0,P|294:94|290:119,3,70,0|0|0|0,1:0|0:0|0:0|0:0,0:0:0:0:
182,209,77204,2,0,P|185:175|199:143,3,70,8|0|0|0,0:1|0:0|3:0|0:0,0:0:0:0:
281,103,77843,5,0,0:0:0:0:
371,112,78002,1,0,3:0:0:0:
428,182,78162,1,0,1:0:0:0:
281,103,78321,5,0,0:0:0:0:
371,112,78481,1,8,0:1:0:0:
428,182,78640,1,0,0:0:0:0:
281,103,78800,5,0,0:0:0:0:
371,112,78960,1,0,0:0:0:0:
438,50,79119,5,0,1:0:0:0:
388,126,79279,1,0,0:0:0:0:
381,216,79438,1,0,0:0:0:0:
417,298,79598,1,0,0:0:0:0:
494,347,79757,5,8,0:1:0:0:
404,330,79917,1,0,0:0:0:0:
314,313,80077,1,0,0:0:0:0:
224,296,80236,1,0,0:0:0:0:
134,279,80396,6,0,P|133:245|138:216,1,35,0|0,3:0|0:0,0:0:0:0:
144,210,80555,1,0,0:0:0:0:
134,279,80715,6,0,P|133:245|138:216,1,35,0|0,1:0|0:0,0:0:0:0:
144,210,80874,1,0,0:0:0:0:
134,279,81034,5,0,3:0:0:0:
134,245,81114,1,0,3:0:0:0:
144,210,81194,1,0,1:0:0:0:
134,279,81353,6,0,P|133:245|138:216,1,35,8|0,0:1|0:0,0:0:0:0:
144,210,81513,1,0,0:0:0:0:
219,138,81672,6,0,P|227:104|223:69,3,70,0|0|0|0,1:0|0:0|0:0|0:0,0:0:0:0:
328,68,82311,2,0,P|320:34|324:0,3,70,8|0|0|0,0:1|0:0|3:0|0:0,0:0:0:0:
402,129,82949,5,0,0:0:0:0:
455,203,83108,1,0,3:0:0:0:
402,277,83268,1,0,1:0:0:0:
402,129,83428,5,0,0:0:0:0:
455,203,83587,1,8,0:1:0:0:
402,277,83747,1,0,0:0:0:0:
402,129,83906,5,0,0:0:0:0:
455,203,84066,1,0,0:0:0:0:
508,277,84225,5,0,1:0:0:0:
427,235,84385,1,0,0:0:0:0:
337,234,84545,1,0,0:0:0:0:
256,274,84704,1,0,0:0:0:0:
212,357,84864,1,0,3:0:0:0:
212,357,84944,1,0,3:0:0:0:
212,357,85023,1,0,1:0:0:0:
337,234,85183,1,8,0:1:0:0:
170,188,85343,1,0,0:0:0:0:
278,42,85502,6,0,P|282:85|282:107,1,35,0|0,1:0|0:0,0:0:0:0:
264,163,85662,1,0,0:0:0:0:
278,42,85821,6,0,P|282:85|282:107,1,35,8|0,0:1|0:0,0:0:0:0:
264,163,85981,1,0,3:0:0:0:
157,215,86140,1,2,0:3:0:0:
157,215,86220,1,2,0:3:0:0:
157,215,86300,1,2,3:1:0:0:
337,234,86460,1,8,0:1:0:0:
212,357,86619,1,0,0:0:0:0:
435,308,86779,5,2,0:1:0:0:
438,280,86858,1,0,0:0:0:0:
439,253,86938,1,0,0:0:0:0:
437,226,87018,1,0,0:0:0:0:
433,199,87098,1,8,0:1:0:0:
425,173,87178,1,0,0:0:0:0:
414,148,87257,1,2,0:3:0:0:
401,124,87337,1,2,0:3:0:0:
386,101,87417,6,0,P|364:95|341:96,1,45.4999979171754,2|2,0:3|0:3,0:0:0:0:
234,29,87577,2,0,P|256:35|279:35,1,45.4999979171754,2|0,0:1|0:3,0:0:0:0:
262,162,87736,2,0,L|268:118,3,45.4999979171754,8|0|0|0,0:1|0:0|0:0|0:0,0:0:0:0:
337,244,88055,5,2,0:1:0:0:
337,272,88135,1,0,0:0:0:0:
313,285,88215,1,0,0:0:0:0:
289,272,88295,1,0,0:0:0:0:
289,244,88374,1,8,0:1:0:0:
313,231,88454,1,0,0:0:0:0:
337,244,88534,5,2,0:3:0:0:
337,272,88614,1,2,0:3:0:0:
313,285,88694,1,2,0:3:0:0:
289,272,88773,1,2,0:3:0:0:
289,244,88853,1,2,0:1:0:0:
313,231,88933,1,0,0:0:0:0:
337,244,89013,5,8,0:1:0:0:
349,295,89093,1,0,0:0:0:0:
324,342,89172,1,0,0:0:0:0:
273,359,89252,1,0,0:0:0:0:
224,337,89332,5,2,0:1:0:0:
228,309,89412,1,0,0:0:0:0:
229,282,89491,1,0,0:0:0:0:
227,255,89571,1,0,0:0:0:0:
223,228,89651,1,8,0:1:0:0:
215,202,89731,1,0,0:0:0:0:
204,177,89811,1,2,0:3:0:0:
191,153,89890,1,2,0:3:0:0:
176,130,89970,6,0,P|170:108|170:85,1,45.4999979171754,2|2,0:3|0:3,0:0:0:0:
74,7,90130,2,0,P|96:13|119:14,1,45.4999979171754,2|0,0:1|0:0,0:0:0:0:
254,48,90289,2,0,L|262:3,3,45.4999979171754,8|0|0|0,0:1|0:0|0:0|0:0,0:0:0:0:
320,117,90608,5,2,0:1:0:0:
343,167,90688,1,0,0:0:0:0:
392,144,90768,1,0,0:0:0:0:
369,94,90848,1,0,0:0:0:0:
320,117,90928,5,8,0:1:0:0:
343,167,91007,1,0,0:0:0:0:
392,144,91087,1,2,0:3:0:0:
369,94,91167,1,2,0:3:0:0:
320,117,91247,5,2,0:3:0:0:
343,167,91327,1,2,0:3:0:0:
392,144,91406,1,2,0:1:0:0:
369,94,91486,1,0,0:0:0:0:
320,116,91566,5,8,0:1:0:0:
347,176,91646,1,0,0:0:0:0:
406,148,91725,1,0,0:0:0:0:
378,88,91805,1,0,0:0:0:0:
320,116,91885,5,2,0:1:0:0:
310,142,91965,1,0,0:0:0:0:
307,169,92045,1,0,0:0:0:0:
309,196,92124,1,0,0:0:0:0:
317,222,92204,1,8,0:1:0:0:
331,246,92284,1,0,0:0:0:0:
349,266,92364,1,2,0:3:0:0:
371,282,92444,1,2,0:3:0:0:
396,292,92523,6,0,L|391:356,3,45.4999979171754,2|2|2|0,0:3|0:3|0:1|0:0,0:0:0:0:
304,337,92843,2,0,L|300:382,3,45.4999979171754,8|0|0|0,0:1|0:0|0:0|0:0,0:0:0:0:
221,295,93162,5,2,0:1:0:0:
193,295,93241,1,0,0:0:0:0:
180,271,93321,1,0,0:0:0:0:
193,247,93401,1,0,0:0:0:0:
221,247,93481,1,8,0:1:0:0:
234,271,93561,1,0,0:0:0:0:
221,295,93640,5,2,0:3:0:0:
193,295,93720,1,2,0:3:0:0:
180,271,93800,1,2,0:3:0:0:
193,247,93880,1,2,0:3:0:0:
221,247,93960,1,2,0:1:0:0:
234,271,94039,1,0,0:0:0:0:
221,295,94119,5,8,0:1:0:0:
193,295,94199,1,0,0:0:0:0:
180,271,94279,1,0,0:0:0:0:
193,247,94358,1,0,0:0:0:0:
220,245,94438,5,2,0:1:0:0:
239,227,94518,1,0,0:0:0:0:
253,204,94598,1,0,0:0:0:0:
262,178,94678,1,0,0:0:0:0:
263,150,94757,1,8,0:1:0:0:
258,124,94837,1,0,0:0:0:0:
246,99,94917,1,2,0:3:0:0:
228,78,94997,1,2,0:3:0:0:
206,63,95077,6,0,P|140:64|131:66,3,45.4999979171754,2|2|2|0,0:3|0:3|0:1|0:0,0:0:0:0:
282,7,95396,2,0,P|348:7|357:9,3,45.4999979171754,8|0|0|0,0:1|0:0|0:0|0:0,0:0:0:0:
419,85,95715,5,2,0:1:0:0:
408,110,95795,1,0,0:0:0:0:
383,98,95874,1,0,0:0:0:0:
395,73,95954,1,0,0:0:0:0:
419,85,96034,5,8,0:1:0:0:
408,110,96114,1,0,0:0:0:0:
383,98,96194,1,2,0:3:0:0:
395,73,96273,1,2,0:3:0:0:
419,85,96353,5,2,0:3:0:0:
429,129,96433,1,2,0:3:0:0:
431,174,96513,1,2,0:1:0:0:
425,219,96593,1,0,0:0:0:0:
410,262,96672,1,8,0:1:0:0:
376,232,96752,1,0,0:0:0:0:
333,218,96832,1,0,0:0:0:0:
288,222,96912,1,0,0:0:0:0:
248,243,96991,5,2,0:1:0:0:
257,278,97071,1,0,0:0:0:0:
275,310,97151,1,0,0:0:0:0:
300,335,97231,1,0,0:0:0:0:
331,354,97311,1,8,0:1:0:0:
366,363,97390,1,0,0:0:0:0:
403,363,97470,1,2,0:3:0:0:
438,353,97550,1,2,0:3:0:0:
469,335,97630,6,0,P|469:283|467:264,1,45.4999979171754,2|2,0:3|0:3,0:0:0:0:
412,218,97789,2,0,P|412:165|414:146,1,45.4999979171754,2|0,0:1|0:0,0:0:0:0:
477,39,97949,2,0,L|431:32,3,45.4999979171754,8|0|0|0,0:1|0:0|0:0|0:0,0:0:0:0:
345,110,98268,5,2,0:1:0:0:
299,110,98348,1,0,0:0:0:0:
263,82,98428,1,0,0:0:0:0:
278,39,98507,1,0,0:0:0:0:
324,39,98587,1,8,0:1:0:0:
360,67,98667,1,0,0:0:0:0:
345,110,98747,5,2,0:3:0:0:
299,110,98827,1,2,0:3:0:0:
263,82,98906,1,2,0:3:0:0:
278,39,98986,1,2,0:3:0:0:
324,39,99066,1,2,0:1:0:0:
360,67,99146,1,0,0:0:0:0:
344,110,99225,5,8,0:1:0:0:
302,149,99305,1,0,0:0:0:0:
245,164,99385,1,0,0:0:0:0:
188,150,99465,1,0,0:0:0:0:
145,111,99545,5,2,0:1:0:0:
178,126,99624,1,0,0:0:0:0:
204,150,99704,1,0,0:0:0:0:
221,182,99784,1,0,0:0:0:0:
228,218,99864,1,8,0:1:0:0:
222,254,99944,1,0,0:0:0:0:
206,286,100023,1,2,0:3:0:0:
180,311,100103,1,2,0:3:0:0:
147,327,100183,6,0,P|100:313|97:313,1,45.4999979171754,2|2,0:3|0:3,0:0:0:0:
79,215,100343,2,0,P|99:206|122:202,1,45.4999979171754,2|0,0:1|0:3,0:0:0:0:
249,362,100502,2,0,P|296:377|299:377,3,45.4999979171754,8|0|0|0,0:1|0:0|0:0|0:0,0:0:0:0:
383,384,100821,5,2,0:1:0:0:
429,354,100901,1,0,0:0:0:0:
425,300,100981,1,0,0:0:0:0:
379,330,101061,1,0,0:0:0:0:
383,384,101140,5,8,0:1:0:0:
429,354,101220,1,0,0:0:0:0:
425,300,101300,1,2,0:3:0:0:
379,330,101380,1,2,0:3:0:0:
383,384,101460,5,2,0:3:0:0:
429,354,101539,1,2,0:3:0:0:
425,300,101619,1,2,0:1:0:0:
379,330,101699,1,0,0:0:0:0:
383,384,101779,5,8,0:1:0:0:
438,348,101858,1,0,0:0:0:0:
433,283,101938,1,0,0:0:0:0:
378,319,102018,1,0,0:0:0:0:
383,384,102098,5,2,0:1:0:0:
427,378,102178,1,0,0:0:0:0:
467,357,102257,1,0,0:0:0:0:
497,323,102337,1,0,0:0:0:0:
512,280,102417,1,8,0:1:0:0:
510,235,102497,1,0,0:0:0:0:
492,194,102577,1,2,0:3:0:0:
459,162,102656,1,2,0:3:0:0:
418,144,102736,6,0,P|402:101|402:80,1,45.4999979171754,2|2,0:3|0:3,0:0:0:0:
337,0,102896,2,0,P|331:21|322:42,1,45.4999979171754,2|0,0:1|0:0,0:0:0:0:
280,121,103055,2,0,P|301:126|322:136,1,45.4999979171754,8|0,0:1|0:0,0:0:0:0:
462,8,103215,2,0,P|441:19|419:24,1,45.4999979171754,0|0,0:3|0:3,0:0:0:0:
203,100,103374,5,2,0:1:0:0:
157,93,103454,1,0,0:0:0:0:
140,135,103534,1,0,0:0:0:0:
164,173,103614,1,0,0:0:0:0:
210,180,103694,1,8,0:1:0:0:
227,138,103773,1,0,0:0:0:0:
203,100,103853,5,2,0:3:0:0:
157,93,103933,1,2,0:3:0:0:
140,135,104013,1,2,0:3:0:0:
164,173,104093,1,2,0:3:0:0:
210,180,104172,1,2,0:1:0:0:
227,138,104252,1,0,0:0:0:0:
203,100,104332,5,8,0:1:0:0:
157,93,104412,1,0,0:0:0:0:
140,135,104491,1,0,0:0:0:0:
164,173,104571,1,0,0:0:0:0:
210,180,104651,5,2,0:1:0:0:
177,218,104731,1,0,0:0:0:0:
164,266,104811,1,0,0:0:0:0:
174,314,104890,1,0,0:0:0:0:
204,354,104970,1,8,0:1:0:0:
248,377,105050,1,0,0:0:0:0:
297,378,105130,1,2,0:3:0:0:
342,357,105210,1,2,0:3:0:0:
367,313,105289,6,0,L|360:268,1,45.4999979171754,2|2,0:3|0:3,0:1:0:0:
440,104,105449,2,0,L|434:149,1,45.4999979171754,2|0,0:1|0:0,0:0:0:0:
384,299,105608,2,0,L|377:254,1,45.4999979171754,8|0,0:1|0:0,0:0:0:0:
457,90,105768,2,0,L|450:134,1,45.4999979171754
266,24,105928,5,2,0:1:0:0:
238,81,106007,1,0,0:0:0:0:
273,134,106087,1,0,0:0:0:0:
301,77,106167,1,0,0:0:0:0:
266,24,106247,5,8,0:1:0:0:
238,81,106327,1,0,0:0:0:0:
273,134,106406,1,2,0:3:0:0:
301,77,106486,1,2,0:3:0:0:
267,24,106566,5,2,0:3:0:0:
199,29,106646,1,2,0:3:0:0:
139,61,106725,1,2,0:1:0:0:
96,113,106805,1,0,0:0:0:0:
76,178,106885,1,8,0:1:0:0:
84,245,106965,1,0,0:0:0:0:
117,305,107045,1,0,0:0:0:0:
170,346,107124,1,0,0:0:0:0:
235,363,107204,5,2,0:1:0:0:
209,322,107284,1,0,0:0:0:0:
204,272,107364,1,0,0:0:0:0:
223,227,107444,1,0,0:0:0:0:
261,195,107523,1,8,0:1:0:0:
309,184,107603,1,0,0:0:0:0:
357,196,107683,1,0,0:0:0:0:
394,230,107763,1,2,0:3:0:0:
411,276,107843,6,0,L|404:320,1,45.4999979171754,2|2,0:3|0:3,0:0:0:0:
499,217,108002,2,0,L|493:171,1,45.4999979171754,2|0,0:1|0:0,0:0:0:0:
442,21,108162,2,0,P|464:19|487:14,3,45.4999979171754,8|0|0|0,0:1|0:0|0:0|0:0,0:0:0:0:
365,62,108481,5,2,0:1:0:0:
315,80,108561,1,0,0:0:0:0:
306,134,108640,1,0,0:0:0:0:
347,169,108720,1,0,0:0:0:0:
399,150,108800,1,8,0:1:0:0:
408,97,108880,1,0,0:0:0:0:
365,62,108960,5,2,0:3:0:0:
315,80,109039,1,2,0:3:0:0:
306,134,109119,1,2,0:3:0:0:
347,169,109199,1,2,0:3:0:0:
399,150,109279,1,2,0:1:0:0:
408,97,109358,1,0,0:0:0:0:
365,62,109438,5,8,0:1:0:0:
296,52,109518,1,0,0:0:0:0:
227,64,109598,1,0,0:0:0:0:
164,95,109678,1,0,0:0:0:0:
113,144,109757,5,2,0:1:0:0:
126,97,109837,1,0,0:0:0:0:
102,55,109917,1,0,0:0:0:0:
54,42,109997,1,0,0:0:0:0:
13,68,110077,1,8,0:1:0:0:
10,118,110156,1,0,0:0:0:0:
12,168,110236,1,2,0:3:0:0:
18,217,110316,1,2,0:3:0:0:
28,266,110396,6,0,L|95:274,1,45.4999979171754,2|2,0:3|0:3,0:0:0:0:
164,345,110555,2,0,L|210:340,1,45.4999979171754,2|0,0:1|0:0,0:0:0:0:
284,221,110715,2,0,P|283:169|276:147,3,45.4999979171754,8|0|0|0,0:1|0:0|0:0|0:0,0:0:0:0:
228,58,111034,5,2,0:1:0:0:
202,117,111114,1,0,0:0:0:0:
143,90,111194,1,0,0:0:0:0:
170,32,111273,1,0,0:0:0:0:
228,58,111353,5,8,0:1:0:0:
202,117,111433,1,0,0:0:0:0:
143,90,111513,1,2,0:3:0:0:
170,32,111593,1,2,0:3:0:0:
228,58,111672,5,2,0:3:0:0:
202,117,111752,1,2,0:3:0:0:
143,90,111832,1,2,0:1:0:0:
170,32,111912,1,0,0:0:0:0:
228,58,111991,5,8,0:1:0:0:
197,129,112071,1,0,0:0:0:0:
126,97,112151,1,0,0:0:0:0:
159,27,112231,1,0,0:0:0:0:
228,57,112311,5,2,0:1:0:0:
258,79,112390,1,0,0:0:0:0:
290,95,112470,1,0,0:0:0:0:
326,103,112550,1,0,0:0:0:0:
362,104,112630,1,8,0:1:0:0:
398,98,112710,1,0,0:0:0:0:
432,84,112789,1,2,0:3:0:0:
462,64,112869,1,2,0:3:0:0:
487,38,112949,6,0,P|494:111|492:120,3,45.4999979171754,2|2|2|0,0:3|0:3|0:1|0:0,0:0:0:0:
437,180,113268,2,0,P|430:252|432:261,3,45.4999979171754,8|0|0|0,0:1|0:0|0:0|0:0,0:0:0:0:
357,321,113587,5,2,0:1:0:0:
316,339,113667,1,0,0:0:0:0:
273,324,113747,1,0,0:0:0:0:
273,278,113827,1,0,0:0:0:0:
314,260,113906,1,8,0:1:0:0:
357,275,113986,1,0,0:0:0:0:
357,321,114066,5,2,0:3:0:0:
316,339,114146,1,2,0:3:0:0:
273,324,114225,1,2,0:3:0:0:
273,278,114305,1,2,0:3:0:0:
314,260,114385,1,2,0:1:0:0:
357,275,114465,1,0,0:0:0:0:
357,321,114545,5,8,0:1:0:0:
316,339,114624,1,0,0:0:0:0:
273,324,114704,1,0,0:0:0:0:
273,278,114784,1,0,0:0:0:0:
314,260,114864,5,2,0:1:0:0:
322,224,114944,1,0,0:0:0:0:
317,188,115023,1,0,0:0:0:0:
299,156,115103,1,0,0:0:0:0:
273,132,115183,1,8,0:1:0:0:
239,118,115263,1,0,0:0:0:0:
203,117,115343,1,2,0:3:0:0:
168,128,115422,1,2,0:3:0:0:
140,150,115502,2,0,P|123:204|123:222,1,45.4999979171754,2|2,0:3|0:3,0:0:0:0:
177,268,115662,2,0,P|194:321|194:339,1,45.4999979171754,2|0,0:1|0:0,0:0:0:0:
115,361,115821,2,0,L|69:356,3,45.4999979171754,8|0|0|0,0:1|0:0|0:0|0:0,0:0:0:0:
16,282,116140,5,2,0:1:0:0:
66,248,116220,1,0,0:0:0:0:
62,188,116300,1,0,0:0:0:0:
12,222,116380,1,0,0:0:0:0:
16,282,116460,5,8,0:1:0:0:
66,248,116539,1,0,0:3:0:0:
62,188,116619,1,2,0:3:0:0:
12,222,116699,1,2,0:3:0:0:
16,282,116779,5,2,0:3:0:0:
71,288,116858,1,2,0:3:0:0:
125,297,116938,1,2,0:1:0:0:
178,308,117018,1,0,0:0:0:0:
231,321,117098,1,8,0:1:0:0:
284,335,117178,1,0,0:0:0:0:
336,351,117257,1,0,0:0:0:0:
387,370,117337,1,0,0:0:0:0:
442,380,117417,5,2,0:1:0:0:
419,336,117497,1,0,0:0:0:0:
396,292,117577,1,0,0:0:0:0:
373,247,117656,1,0,0:0:0:0:
350,202,117736,1,8,0:1:0:0:
373,157,117816,1,0,0:0:0:0:
396,113,117896,1,2,0:3:0:0:
419,68,117975,1,2,0:3:0:0:
442,23,118055,6,0,P|492:40|495:42,1,45.4999979171754,2|2,0:3|0:3,0:0:0:0:
508,196,118215,2,0,P|458:179|455:177,1,45.4999979171754,2|0,0:1|0:3,0:0:0:0:
320,57,118374,2,0,P|270:74|267:76,3,45.4999979171754,8|0|0|0,0:1|0:0|0:0|0:0,0:0:0:0:
177,204,118694,5,2,0:1:0:0:
195,254,118773,1,0,0:0:0:0:
249,263,118853,1,0,0:0:0:0:
284,222,118933,1,0,0:0:0:0:
265,170,119013,1,8,0:1:0:0:
212,161,119093,1,0,0:0:0:0:
177,204,119172,5,2,0:3:0:0:
195,254,119252,1,2,0:3:0:0:
249,263,119332,1,2,0:3:0:0:
284,222,119412,1,2,0:3:0:0:
265,170,119491,1,2,0:1:0:0:
212,161,119571,1,0,0:0:0:0:
178,203,119651,5,8,0:1:0:0:
109,210,119731,1,0,0:0:0:0:
55,167,119811,1,0,0:0:0:0:
44,99,119890,1,0,0:0:0:0:
84,43,119970,5,2,0:1:0:0:
120,77,120050,1,0,0:0:0:0:
145,120,120130,1,0,0:0:0:0:
159,168,120210,1,0,0:0:0:0:
159,218,120289,1,8,0:1:0:0:
146,266,120369,1,0,0:0:0:0:
121,309,120449,1,2,0:3:0:0:
86,344,120529,1,2,0:3:0:0:
42,368,120608,6,0,L|109:375,1,45.4999979171754,2|2,0:3|0:3,0:0:0:0:
246,327,120768,2,0,L|201:332,1,45.4999979171754,2|0,0:1|0:0,0:0:0:0:
11,282,120928,2,0,L|79:288,1,45.4999979171754,8|0,0:1|0:0,0:0:0:0:
216,240,121087,2,0,L|171:245,1,45.4999979171754
78,151,121247,5,2,0:1:0:0:
55,92,121327,1,0,0:0:0:0:
97,43,121406,1,0,0:0:0:0:
120,102,121486,1,0,0:0:0:0:
78,151,121566,5,8,0:1:0:0:
55,92,121646,1,0,0:0:0:0:
97,43,121725,1,2,0:3:0:0:
120,102,121805,1,2,0:3:0:0:
78,151,121885,5,2,0:3:0:0:
55,92,121965,1,2,0:3:0:0:
97,43,122045,1,2,0:1:0:0:
120,102,122124,1,0,0:0:0:0:
78,151,122204,5,8,0:1:0:0:
51,80,122284,1,0,0:0:0:0:
101,21,122364,1,0,0:0:0:0:
129,92,122444,1,0,0:0:0:0:
78,151,122523,6,0,L|81:178,2,22.7499989585877,2|0|0,0:1|0:0|0:0,0:0:0:0:
184,239,122683,2,0,L|181:266,2,22.7499989585877,0|0|0,0:0|0:0|0:0,0:0:0:0:
64,169,122843,6,0,L|67:196,2,22.7499989585877,8|0|0,0:1|0:0|0:0,0:0:0:0:
170,257,123002,2,0,L|167:284,2,22.7499989585877,2|0|2,0:3|0:0|0:3,0:0:0:0:
50,187,123162,6,0,L|53:214,2,22.7499989585877,2|0|2,0:3|0:0|0:3,0:0:0:0:
156,275,123321,2,0,L|153:302,2,22.7499989585877,2|0|0,0:1|0:0|0:0,0:0:0:0:
36,205,123481,6,0,L|39:232,2,22.7499989585877,8|0|0,0:1|0:0|0:0,0:0:0:0:
142,293,123640,2,0,L|139:320,2,22.7499989585877,0|0|0,0:0|0:0|0:0,0:0:0:0:
191,176,123800,6,0,P|222:171|230:171,2,22.7499989585877,2|0|0,0:1|0:0|0:0,0:0:0:0:
179,200,123960,2,0,P|210:195|218:195,2,22.7499989585877,0|0|0,0:0|0:0|0:0,0:0:0:0:
317,220,124119,2,0,P|286:215|278:215,2,22.7499989585877,8|0|0,0:1|0:0|0:0,0:0:0:0:
191,176,124279,6,0,P|222:171|230:171,2,22.7499989585877,2|0|2,0:3|0:0|0:3,0:0:0:0:
179,200,124438,2,0,P|210:195|218:195,2,22.7499989585877,2|0|2,0:3|0:0|0:3,0:0:0:0:
317,220,124598,2,0,P|286:215|278:215,2,22.7499989585877,2|0|0,0:1|0:0|0:0,0:0:0:0:
191,176,124757,6,0,P|222:171|230:171,2,22.7499989585877,8|0|0,0:1|0:0|0:0,0:0:0:0:
179,200,124917,2,0,P|210:195|218:195,2,22.7499989585877,0|0|0,0:0|0:0|0:0,0:0:0:0:
394,161,125077,6,0,L|391:134,2,22.7499989585877,2|0|0,0:1|0:0|0:0,0:0:0:0:
315,109,125236,2,0,L|318:82,2,22.7499989585877,0|0|0,0:0|0:0|0:0,0:0:0:0:
408,143,125396,6,0,L|405:116,2,22.7499989585877,8|0|0,0:1|0:0|0:0,0:0:0:0:
329,91,125555,2,0,L|332:64,2,22.7499989585877,2|0|2,0:3|0:0|0:3,0:0:0:0:
422,125,125715,6,0,L|419:98,2,22.7499989585877,2|0|2,0:3|0:0|0:3,0:0:0:0:
343,73,125874,2,0,L|346:46,2,22.7499989585877,2|0|0,0:1|0:0|0:0,0:0:0:0:
436,107,126034,6,0,L|434:84,2,22.7499989585877,8|0|0,0:1|0:0|0:0,0:0:0:0:
357,55,126194,2,0,L|360:28,2,22.7499989585877,0|0|0,0:0|0:0|0:0,0:0:0:0:
298,143,126353,6,0,P|278:152|265:154,1,22.7499989585877,2|0,0:1|0:0,0:0:0:0:
348,198,126433,2,0,P|357:218|359:231,1,22.7499989585877,0|0,0:0|0:0,0:0:0:0:
403,148,126513,2,0,P|423:139|436:137,1,22.7499989585877,0|0,0:0|0:0,0:0:0:0:
353,93,126593,2,0,P|344:73|342:60,1,22.7499989585877,0|0,0:0|0:0,0:0:0:0:
298,143,126672,6,0,P|278:152|265:154,1,22.7499989585877,8|0,0:1|0:0,0:0:0:0:
348,198,126752,2,0,P|357:218|359:231,1,22.7499989585877,0|0,0:0|0:0,0:0:0:0:
403,148,126832,2,0,P|423:139|436:137,1,22.7499989585877,2|0,0:3|0:0,0:0:0:0:
353,93,126912,2,0,P|344:73|342:60,1,22.7499989585877,2|0,0:3|0:0,0:0:0:0:
298,143,126991,6,0,P|278:152|265:154,28,22.7499989585877,2|0|0|0|2|0|0|0|2|0|0|0|0|0|0|0|8|0|0|0|0|0|0|0|0|0|0|0|0,0:3|0:0|0:0|0:0|0:3|0:0|0:0|0:0|0:1|0:0|0:0|0:0|0:0|0:0|0:0|0:0|0:1|0:0|0:0|0:0|0:0|0:0|0:0|0:0|0:0|0:0|0:0|0:0|0:0,0:0:0:0:
206,103,127630,5,2,0:0:0:0:
206,103,128108,5,2,0:0:0:0:
206,103,128587,5,2,0:0:0:0:
