osu file format v14

[General]
AudioFilename: audio.mp3
AudioLeadIn: 0
PreviewTime: 66284
Countdown: 0
SampleSet: Soft
StackLeniency: 0.6
Mode: 0
LetterboxInBreaks: 0
WidescreenStoryboard: 1

[Editor]
Bookmarks: 40832,45938,66364,86789,107215,127641
DistanceSpacing: 1
BeatDivisor: 4
GridSize: 32
TimelineZoom: 2

[Metadata]
Title:Sidetracked Day (Short Ver.)
TitleUnicode:Sidetracked Day (Short Ver.)
Artist:VINXIS
ArtistUnicode:VINXIS
Creator:Hobbes2
Version:Collab Advanced
Source:
Tags:Dnb Drum and Bass Mishima Yurara Chill Nao Tomori WORSTPOLACKEU LowComboFC Featured Artist
BeatmapID:1628528
BeatmapSetID:767600

[Difficulty]
HPDrainRate:4
CircleSize:3.5
OverallDifficulty:5
ApproachRate:7
SliderMultiplier:1.1
SliderTickRate:1

[Events]
//Background and Video events
0,0,"nonshitquality.png",0,0
//Break Periods
//Storyboard Layer 0 (Background)
//Storyboard Layer 1 (Fail)
//Storyboard Layer 2 (Pass)
//Storyboard Layer 3 (Foreground)
//Storyboard Sound Samples

[TimingPoints]
17843,319.148936170213,4,2,1,52,1,0
20396,-100,4,2,1,30,0,0
45928,-83.3333333333333,4,2,1,52,0,0
56141,-100,4,2,1,40,0,0
66354,-83.3333333333333,4,2,1,52,0,0
76567,-100,4,2,1,40,0,0
86779,-83.3333333333333,4,2,1,52,0,0

[Colours]
Combo1 : 166,77,255
Combo2 : 255,123,255
Combo3 : 193,193,255
Combo4 : 185,0,185

[HitObjects]
438,92,20397,6,0,P|366:53|284:52,1,165,4|0,1:0|0:0,0:0:0:0:
233,72,21035,1,8,0:1:0:0:
156,151,21354,1,0,0:0:0:0:
236,226,21673,2,0,P|245:264|245:298,1,55,0|0,0:0|3:0,0:0:0:0:
228,332,21992,1,0,1:0:0:0:
120,309,22311,2,0,L|105:144,1,165,8|0,0:1|0:0,0:0:0:0:
109,89,22950,6,0,P|167:42|264:45,1,165,0|0,1:0|0:0,0:0:0:0:
299,72,23588,1,8,0:1:0:0:
407,55,23907,1,0,0:0:0:0:
465,147,24226,2,0,P|474:195|474:216,1,55,0|0,0:0|0:0,0:0:0:0:
456,253,24545,1,0,1:0:0:0:
371,323,24865,2,0,P|322:323|298:323,1,55,8|0,0:1|0:0,0:0:0:0:
283,278,25184,2,0,P|234:278|210:278,1,55,0|0,3:3|3:3,0:0:0:0:
184,243,25503,6,0,P|160:282|48:306,2,165,0|0|0,1:0|0:0|0:0,0:0:0:0:
181,133,26779,2,0,P|176:80|167:62,1,55,0|0,0:0|3:0,0:0:0:0:
132,43,27099,1,0,1:0:0:0:
237,12,27418,2,0,P|290:12|394:72,1,165,8|0,0:1|0:0,0:0:0:0:
415,110,28056,6,0,B|383:155|383:155|406:262,1,165,0|0,1:0|0:0,0:0:0:0:
420,315,28694,1,8,0:1:0:0:
321,364,29014,1,0,0:0:0:0:
224,310,29333,6,0,P|171:303|114:321,3,110,2|0|8|0,0:0|1:0|0:1|1:0,0:0:0:0:
63,307,30450,1,8,0:1:0:0:
46,254,30609,6,0,L|68:65,1,165,0|0,1:0|0:0,0:0:0:0:
77,36,31248,1,8,0:1:0:0:
165,100,31567,1,0,0:0:0:0:
190,206,31886,2,0,P|191:253|186:286,1,55,0|0,0:0|3:0,0:0:0:0:
175,314,32205,1,0,1:0:0:0:
280,346,32524,2,0,P|314:296|416:252,1,165,8|0,0:1|0:0,0:0:0:0:
460,264,33162,6,0,P|410:230|366:128,1,165,0|0,1:0|0:0,0:0:0:0:
379,83,33801,1,8,0:1:0:0:
472,25,34120,1,0,0:0:0:0:
506,129,34439,2,0,P|514:179|512:205,1,55,0|0,0:0|0:0,0:0:0:0:
505,237,34758,1,0,1:0:0:0:
419,306,35077,2,0,P|368:305|350:301,1,55,8|0,0:1|0:0,0:0:0:0:
320,270,35397,2,0,P|292:268|265:271,1,55,0|0,3:0|0:0,0:0:0:0:
218,301,35716,6,0,L|229:125,1,165,0|0,1:0|0:0,0:0:0:0:
252,87,36354,1,8,0:1:0:0:
354,46,36673,1,0,0:0:0:0:
425,127,36992,2,0,P|434:154|437:181,1,55,0|0,0:0|3:0,0:0:0:0:
417,232,37311,1,0,1:0:0:0:
323,290,37631,2,0,L|158:276,1,165,8|0,0:1|0:0,0:0:0:0:
116,241,38269,6,0,B|103:203|136:163|136:163|98:135|111:91,1,165,0|0,1:0|0:0,0:0:0:0:
140,45,38907,1,8,0:1:0:0:
248,62,39226,1,0,0:0:0:0:
291,162,39545,6,0,L|280:288,3,110,2|2|2|2,0:0|0:0|0:0|0:0,0:0:0:0:
361,347,40822,5,2,1:2:0:0:
256,192,40982,12,0,45290,3:0:0:0:
167,55,45928,6,0,P|148:102|153:196,1,131.99999597168,2|8,0:1|0:1,0:0:0:0:
199,243,46407,1,2,0:3:0:0:
271,209,46567,2,0,P|312:204|348:206,1,65.9999979858399,2|2,0:3|0:1,0:0:0:0:
395,258,46886,1,8,0:1:0:0:
482,126,47205,6,0,P|407:64|357:55,1,131.99999597168,2|8,0:1|0:1,0:0:0:0:
219,83,47843,2,0,P|144:145|94:154,1,131.99999597168,2|8,0:3|0:1,0:0:0:0:
33,140,48322,1,0,0:0:0:0:
17,217,48482,6,0,P|16:253|17:368,1,131.99999597168,2|8,0:1|0:1,0:0:0:0:
95,349,48960,2,0,P|161:333|244:349,1,131.99999597168,2|2,0:3|0:1,0:0:0:0:
295,375,49439,1,8,0:1:0:0:
444,323,49758,6,0,B|466:282|466:282|443:199,3,131.99999597168,2|8|2|8,0:1|0:1|0:3|0:1,0:0:0:0:
291,246,51035,6,0,P|198:249|153:208,1,131.99999597168,2|8,0:1|0:1,0:0:0:0:
116,167,51514,2,0,P|110:135|110:102,1,65.9999979858399,2|2,0:3|0:3,0:0:0:0:
158,39,51833,1,2,0:1:0:0:
234,21,51992,1,8,0:1:0:0:
389,53,52311,6,0,B|407:97|407:97|384:193,1,131.99999597168,2|8,0:1|0:1,0:0:0:0:
346,247,52790,1,2,0:3:0:0:
394,310,52950,2,0,P|449:316|488:306,2,65.9999979858399,2|2|8,0:3|0:1|0:1,0:0:0:0:
242,356,53588,6,0,P|210:346|89:360,1,131.99999597168,2|8,0:1|0:1,0:0:0:0:
43,312,54067,2,0,L|55:180,1,131.99999597168,2|2,0:3|0:1,0:0:0:0:
66,102,54545,1,8,0:1:0:0:
220,137,54865,6,0,B|302:159|302:159|343:137,1,131.99999597168,2|8,0:1|0:1,0:0:0:0:
469,41,55503,1,2,0:0:0:0:
469,41,56141,6,0,P|488:112|482:277,1,220,0|8,1:0|0:1,0:0:0:0:
396,321,57099,1,0,3:0:0:0:
295,275,57418,2,0,P|260:278|231:287,1,55,0|0,0:0|3:0,0:0:0:0:
193,310,57737,1,0,1:0:0:0:
113,234,58056,2,0,P|110:168|106:158,1,55,8|0,0:1|0:0,0:0:0:0:
154,142,58375,2,0,P|157:76|161:66,1,55,0|0,0:0|0:0,0:0:0:0:
200,58,58694,6,0,P|142:54|13:35,1,165,0|0,1:0|0:0,0:0:0:0:
28,94,59333,1,8,0:1:0:0:
45,202,59652,1,0,0:0:0:0:
110,290,59971,6,0,P|160:283|219:331,3,110,0|0|0|8,3:0|1:0|3:0|0:1,0:0:0:0:
301,252,61248,6,0,P|388:240|445:364,1,220,0|8,1:0|0:1,0:0:0:0:
345,374,62205,1,0,3:0:0:0:
238,346,62524,2,0,P|198:340|160:342,1,55,0|0,0:0|3:0,0:0:0:0:
128,348,62843,1,0,1:0:0:0:
71,253,63162,2,0,P|66:209|67:179,1,55,8|0,0:1|0:0,0:0:0:0:
110,164,63482,2,0,P|115:120|114:90,1,55,0|0,0:0|0:0,0:0:0:0:
84,63,63801,6,0,P|159:68|206:48,1,110,0|0,1:0|0:0,0:0:0:0:
237,28,64279,2,0,P|312:23|359:43,1,110,0|0,0:0|1:0,0:0:0:0:
380,75,64758,1,8,0:1:0:0:
327,171,65077,2,0,P|310:225|304:291,1,110,0|8,1:0|0:1,0:0:0:0:
392,347,65716,2,0,P|435:341|452:331,1,55,2|2,0:3|3:1,0:0:0:0:
488,300,66035,1,8,0:1:0:0:
504,183,66354,6,0,P|492:113|442:52,1,131.99999597168,2|8,0:1|0:1,0:0:0:0:
381,40,66833,2,0,L|309:35,1,65.9999979858399,2|2,0:3|0:3,0:0:0:0:
238,56,67152,1,2,0:1:0:0:
271,127,67311,2,0,P|281:175|273:211,1,65.9999979858399,8|0,0:1|0:0,0:0:0:0:
214,238,67631,6,0,P|164:218|76:214,1,131.99999597168,2|8,0:1|0:1,0:0:0:0:
58,286,68109,2,0,P|108:306|196:310,1,131.99999597168,2|2,0:3|0:1,0:0:0:0:
264,301,68588,1,8,0:1:0:0:
401,222,68907,6,0,L|417:62,1,131.99999597168,2|8,0:1|0:1,0:0:0:0:
357,34,69386,2,0,P|269:18|226:36,1,131.99999597168,2|2,0:3|0:1,0:0:0:0:
165,76,69865,1,8,0:1:0:0:
238,216,70184,6,0,B|252:255|252:255|235:365,3,131.99999597168,2|8|2|8,0:1|0:1|0:3|0:1,0:0:0:0:
79,348,71460,6,0,P|55:252|75:202,1,131.99999597168,2|8,0:1|0:1,0:0:0:0:
27,151,71939,2,0,P|93:134|179:160,1,131.99999597168,2|2,0:3|0:1,0:0:0:0:
215,95,72418,1,8,0:1:0:0:
338,194,72737,6,0,L|426:188,2,65.9999979858399,2|0|8,0:1|0:0|0:1,0:0:0:0:
282,250,73216,2,0,P|242:262|139:229,1,131.99999597168,2|2,0:3|0:1,0:0:0:0:
143,164,73694,1,8,0:1:0:0:
272,72,74014,6,0,L|278:4,1,65.9999979858399,2|0,0:1|0:0,0:0:0:0:
357,5,74333,2,0,L|362:70,1,65.9999979858399,8|2,0:1|0:3,0:0:0:0:
428,115,74652,2,0,P|414:171|402:261,1,131.99999597168,2|8,0:3|0:1,0:0:0:0:
240,292,75290,6,0,P|192:301|152:301,1,65.9999979858399,2|0,0:1|0:0,0:0:0:0:
116,248,75609,2,0,P|72:221|51:204,1,65.9999979858399,8|2,0:1|0:0,0:0:0:0:
20,138,75928,5,2,0:0:0:0:
20,138,76567,6,0,P|52:190|53:305,1,165,0|0,1:0|0:0,0:0:0:0:
26,337,77205,1,8,0:1:0:0:
130,372,77524,1,0,3:0:0:0:
234,337,77843,2,0,P|241:283|225:219,1,110,0|0,0:0|1:0,0:0:0:0:
197,184,78322,1,0,0:0:0:0:
197,184,78482,2,0,L|202:59,1,110,8|0,0:1|0:0,0:0:0:0:
300,27,79120,6,0,P|360:15|431:92,1,165,0|0,1:0|0:0,0:0:0:0:
406,132,79758,1,8,0:1:0:0:
475,217,80077,1,0,0:0:0:0:
395,293,80397,2,0,L|322:292,1,55,0|0,3:0|0:0,0:0:0:0:
289,270,80716,2,0,L|215:273,1,55,2|0,1:0|0:0,0:0:0:0:
183,293,81035,2,0,L|64:296,1,110,0|8,3:0|0:1,0:0:0:0:
18,200,81673,6,0,P|81:212|179:165,1,165,0|0,1:0|0:0,0:0:0:0:
191,122,82311,1,8,0:1:0:0:
286,177,82631,1,0,3:0:0:0:
378,117,82950,2,0,L|388:-2,2,110,0|2|8,0:0|0:1|0:1,0:0:0:0:
443,205,83907,2,0,L|452:277,1,55,0|0,0:0|0:0,0:0:0:0:
426,309,84226,6,0,P|371:300|260:347,1,165,0|0,1:0|0:0,0:0:0:0:
215,336,84865,1,0,3:0:0:0:
140,255,85184,2,0,L|141:181,1,55,8|0,0:1|0:0,0:0:0:0:
179,160,85503,2,0,P|190:113|163:47,1,110,0|8,1:0|0:1,0:0:0:0:
76,112,86141,1,2,0:3:0:0:
76,112,86460,1,8,0:1:0:0:
189,179,86779,6,0,L|262:172,1,65.9999979858399,2|0,0:1|0:0,0:0:0:0:
331,193,87099,2,0,P|347:234|343:272,1,65.9999979858399,8|0,0:1|0:0,0:0:0:0:
290,311,87418,1,2,0:3:0:0:
290,311,87577,1,2,0:1:0:0:
290,311,87737,1,8,0:1:0:0:
138,264,88056,6,0,P|139:196|139:193,1,65.9999979858399,2|0,0:1|0:0,0:0:0:0:
181,130,88375,1,8,0:1:0:0:
48,43,88694,1,2,0:3:0:0:
48,43,88854,1,2,0:1:0:0:
48,43,89014,2,0,P|40:100|38:125,1,65.9999979858399,8|0,0:1|0:0,0:0:0:0:
85,172,89333,6,0,B|158:140|146:200|228:169,1,131.99999597168,2|8,0:1|0:1,0:0:0:0:
352,100,89971,1,2,0:3:0:0:
352,100,90131,1,2,0:1:0:0:
352,100,90290,1,8,0:1:0:0:
460,215,90609,6,0,L|470:304,1,65.9999979858399,2|0,0:1|0:0,0:0:0:0:
415,340,90928,2,0,P|373:358|331:358,1,65.9999979858399,8|2,0:1|0:3,0:0:0:0:
282,322,91248,2,0,B|222:309|222:309|147:331,1,131.99999597168,2|8,0:3|0:1,0:0:0:0:
20,244,91886,5,2,0:1:0:0:
20,244,92205,1,8,0:1:0:0:
164,178,92524,2,0,L|178:247,2,65.9999979858399,2|2|8,0:3|0:1|0:1,0:0:0:0:
57,60,93162,6,0,P|27:104|17:134,1,65.9999979858399,2|0,0:1|0:0,0:0:0:0:
43,192,93482,1,8,0:1:0:0:
43,192,93641,2,0,L|49:283,1,65.9999979858399,2|2,0:3|0:3,0:0:0:0:
28,335,93960,1,2,0:1:0:0:
28,335,94120,1,8,0:1:0:0:
183,365,94439,6,0,P|261:344|321:353,1,131.99999597168,2|8,0:1|0:1,0:0:0:0:
385,375,94918,1,2,0:3:0:0:
451,332,95077,2,0,L|456:254,1,65.9999979858399,2|2,0:3|0:1,0:0:0:0:
426,191,95397,1,8,0:1:0:0:
497,49,95716,6,0,P|443:56|415:58,1,65.9999979858399,2|0,0:1|0:0,0:0:0:0:
357,27,96035,2,0,P|303:20|275:18,1,65.9999979858399,8|2,0:1|0:3,0:0:0:0:
221,56,96354,1,2,0:3:0:0:
221,56,96514,1,2,0:1:0:0:
221,56,96673,1,8,0:1:0:0:
65,27,96992,6,0,P|47:72|65:169,1,131.99999597168,2|8,0:1|0:1,0:0:0:0:
121,198,97471,1,2,0:3:0:0:
121,198,97631,2,0,L|197:191,1,65.9999979858399,2|2,0:3|0:1,0:0:0:0:
255,231,97950,1,8,0:1:0:0:
387,144,98269,6,0,P|424:172|441:202,1,65.9999979858399,2|0,0:1|0:0,0:0:0:0:
415,264,98588,2,0,L|403:336,1,65.9999979858399,8|2,0:1|0:3,0:0:0:0:
325,320,98907,1,2,0:3:0:0:
325,320,99067,2,0,L|303:249,2,65.9999979858399,2|8|0,0:1|0:1|0:0,0:0:0:0:
256,359,99545,5,2,0:1:0:0:
136,254,99865,2,0,L|143:189,1,65.9999979858399,8|0,0:1|0:0,0:0:0:0:
93,126,100184,2,0,P|163:155|222:140,1,131.99999597168,2|8,0:3|0:1,0:0:0:0:
266,82,100662,1,0,0:0:0:0:
341,106,100822,6,0,L|358:240,2,131.99999597168,2|8|2,0:1|0:1|0:3,0:0:0:0:
392,44,101620,1,2,0:1:0:0:
392,44,101779,1,8,0:1:0:0:
487,170,102099,6,0,P|496:218|492:255,1,65.9999979858399,2|0,0:1|0:0,0:0:0:0:
434,286,102418,1,8,0:1:0:0:
434,286,102577,2,0,L|348:281,1,65.9999979858399,2|2,0:3|0:3,0:0:0:0:
298,321,102897,1,2,0:1:0:0:
298,321,103056,1,8,0:1:0:0:
149,265,103375,6,0,P|131:209|152:136,1,131.99999597168,2|8,0:1|0:1,0:0:0:0:
227,153,103854,1,2,0:3:0:0:
227,153,104014,2,0,L|308:157,1,65.9999979858399,2|2,0:3|0:1,0:0:0:0:
364,122,104333,1,8,0:1:0:0:
233,32,104652,6,0,P|179:46|96:31,1,131.99999597168,2|8,0:1|0:1,0:0:0:0:
40,82,105131,1,2,0:3:0:0:
87,145,105290,2,0,L|92:216,1,65.9999979858399,2|2,0:3|0:1,0:0:0:0:
43,273,105609,1,8,0:1:0:0:
178,354,105928,6,0,P|230:361|267:355,1,65.9999979858399,2|0,0:1|0:0,0:0:0:0:
305,309,106248,2,0,L|315:241,1,65.9999979858399,8|2,0:1|0:3,0:0:0:0:
283,170,106567,2,0,L|269:99,1,65.9999979858399,2|2,0:3|0:1,0:0:0:0:
312,38,106886,1,8,0:1:0:0:
442,127,107205,6,0,P|425:186|443:262,1,131.99999597168,2|8,0:1|0:1,0:0:0:0:
391,317,107684,1,0,0:0:0:0:
322,277,107843,2,0,L|312:206,2,65.9999979858399,2|2|8,0:3|0:1|0:1,0:0:0:0:
268,336,108322,1,0,0:0:0:0:
211,279,108482,6,0,P|145:265|69:291,1,131.99999597168,2|8,0:1|0:1,0:0:0:0:
22,135,109120,1,2,0:3:0:0:
22,135,109279,1,2,0:1:0:0:
22,135,109439,2,0,L|41:56,1,65.9999979858399,8|0,0:1|0:0,0:0:0:0:
108,35,109758,6,0,P|171:55|248:37,1,131.99999597168,2|8,0:1|0:1,0:0:0:0:
301,86,110237,1,2,0:3:0:0:
447,26,110556,1,2,0:1:0:0:
447,26,110716,2,0,L|460:102,1,65.9999979858399,8|0,0:1|0:0,0:0:0:0:
407,152,111035,6,0,P|364:177|264:155,1,131.99999597168,2|8,0:1|0:1,0:0:0:0:
235,106,111514,1,2,0:3:0:0:
169,150,111673,2,0,L|168:229,2,65.9999979858399,2|2|8,0:3|0:1|0:1,0:0:0:0:
88,286,112311,6,0,P|127:310|224:304,1,131.99999597168,2|8,0:1|0:1,0:0:0:0:
279,269,112790,2,0,L|286:197,1,65.9999979858399,2|2,0:3|0:3,0:0:0:0:
270,125,113109,1,2,0:1:0:0:
270,125,113269,1,8,0:1:0:0:
412,56,113588,6,0,P|438:135|431:198,1,131.99999597168,2|8,0:1|0:1,0:0:0:0:
396,252,114067,2,0,L|305:248,1,65.9999979858399,2|2,0:3|0:3,0:0:0:0:
256,278,114386,1,2,0:1:0:0:
256,278,114545,1,8,0:1:0:0:
106,223,114865,6,0,P|94:175|123:95,1,131.99999597168,2|8,0:1|0:1,0:0:0:0:
191,64,115343,1,2,0:3:0:0:
191,64,115503,1,2,0:3:0:0:
254,110,115662,2,0,L|331:114,2,65.9999979858399,2|8|0,0:1|0:1|0:0,0:0:0:0:
191,158,116141,5,2,0:1:0:0:
326,240,116460,2,0,P|336:295|328:325,1,65.9999979858399,8|2,0:1|0:3,0:0:0:0:
269,350,116779,2,0,P|224:342|182:350,1,65.9999979858399,2|2,0:3|0:1,0:0:0:0:
132,379,117099,1,8,0:1:0:0:
58,238,117418,5,2,0:1:0:0:
58,238,117577,1,0,0:0:0:0:
58,238,117737,2,0,L|63:153,1,65.9999979858399,8|2,0:1|0:3,0:0:0:0:
123,121,118056,2,0,L|117:51,2,65.9999979858399,2|2|8,0:3|0:1|0:1,0:0:0:0:
265,190,118694,6,0,P|316:172|407:185,1,131.99999597168,2|8,0:1|0:1,0:0:0:0:
459,137,119173,1,2,0:3:0:0:
459,137,119333,2,0,L|469:63,1,65.9999979858399,2|2,0:3|0:1,0:0:0:0:
412,15,119652,1,8,0:1:0:0:
271,87,119971,6,0,P|216:101|126:82,1,131.99999597168,2|8,0:1|0:1,0:0:0:0:
82,37,120450,1,2,0:3:0:0:
12,74,120609,2,0,P|2:128|8:159,1,65.9999979858399,2|2,0:3|0:1,0:0:0:0:
37,209,120928,1,8,0:1:0:0:
182,272,121248,6,0,B|237:258|237:258|254:272|254:272|320:280,2,131.99999597168,2|8|2,0:1|0:1|0:3,0:0:0:0:
114,312,122045,1,2,0:1:0:0:
47,267,122205,2,0,L|50:189,1,65.9999979858399,8|0,0:1|0:0,0:0:0:0:
108,147,122524,5,2,0:1:0:0:
256,192,122684,12,2,125077,0:1:0:0:
256,192,125157,12,2,127631,0:0:0:0:
