osu file format v14

[General]
AudioFilename: audio.mp3
AudioLeadIn: 0
PreviewTime: -1
Countdown: 0
SampleSet: None
StackLeniency: 0.7
Mode: 2
LetterboxInBreaks: 0
WidescreenStoryboard: 0

[Editor]
Bookmarks: 19468
DistanceSpacing: 1.5
BeatDivisor: 4
GridSize: 16
TimelineZoom: 5.199997

[Metadata]
Title:Sidetracked Day (Short Ver.)
TitleUnicode:Sidetracked Day (Short Ver.)
Artist:VINXIS
ArtistUnicode:VINXIS
Creator:-Ken
Version:Overdose
Source:
Tags:
BeatmapID:1748263
BeatmapSetID:834583

[Difficulty]
HPDrainRate:5
CircleSize:4.2
OverallDifficulty:9.4
ApproachRate:9.4
SliderMultiplier:2.3
SliderTickRate:2

[Events]
//Background and Video events
0,0,"at_the_crossroads_by_yuumei-daijox7.jpg",0,0
//Break Periods
//Storyboard Layer 0 (Background)
//Storyboard Layer 1 (Fail)
//Storyboard Layer 2 (Pass)
//Storyboard Layer 3 (Foreground)
//Storyboard Sound Samples

[TimingPoints]
17394,319.148936170213,4,2,1,100,1,0
39734,-50,4,2,1,40,0,0
40821,-50,4,2,1,30,0,0
41011,-100,4,2,1,30,0,0
45449,-100,4,2,1,52,0,0
45489,-100,4,2,1,5,0,0
45608,-100,4,2,1,52,0,0
45648,-100,4,2,1,5,0,0
45768,-100,4,2,1,52,0,0
45808,-100,4,2,1,5,0,0
45927,-100,4,2,1,52,0,0
56140,-100,4,2,1,40,0,0
66353,-100,4,2,1,52,0,0
76566,-100,4,2,1,40,0,0
86459,-100,4,2,1,52,0,0
86968,-100,4,2,1,52,0,1
127819,-100,4,2,1,52,0,0

[Colours]
Combo1 : 179,34,103
Combo2 : 44,0,91

[HitObjects]
79,270,19464,5,0,0:0:0:0:
352,272,19624,2,0,P|444:239|343:177,1,230,0|0,0:0|0:0,0:0:0:0:
272,160,20102,1,0,0:0:0:0:
112,160,20262,1,0,0:0:0:0:
224,160,20421,1,0,0:0:0:0:
448,160,20581,6,0,P|496:224|384:320,1,230,0|0,0:0|0:0,0:0:0:0:
176,320,21219,1,0,0:0:0:0:
432,240,21538,6,0,L|272:240,2,115,0|0|0,0:0|0:0|0:0,0:0:0:0:
352,192,22017,1,0,0:0:0:0:
80,288,22177,2,0,P|16:224|80:112,1,230,0|0,0:0|0:0,0:0:0:0:
208,144,22656,6,0,L|352:144,2,115,0|0|0,0:0|0:0|0:0,0:0:0:0:
480,320,23134,6,0,P|512:256|400:176,1,230,0|0,0:0|0:0,0:0:0:0:
128,224,23773,1,0,0:0:0:0:
336,224,24092,2,0,L|464:224,1,115,0|0,0:0|0:0,0:0:0:0:
288,160,24411,2,0,L|128:160,1,115,0|0,0:0|0:0,0:0:0:0:
416,176,24730,2,0,P|448:144|336:112,1,230,0|0,0:0|0:0,0:0:0:0:
192,176,25209,2,0,L|48:176,2,115,0|0|0,0:0|0:0|0:0,0:0:0:0:
448,288,25687,6,0,P|496:224|384:128,1,230,0|0,0:0|0:0,0:0:0:0:
176,160,26326,1,0,0:0:0:0:
448,176,26645,6,0,L|304:176,1,115,0|0,0:0|0:0,0:0:0:0:
224,128,26964,2,0,L|384:128,1,115,0|0,0:0|0:0,0:0:0:0:
64,320,27283,2,0,P|48:256|192:224,1,230,0|0,0:0|0:0,0:0:0:0:
336,240,27762,2,0,L|208:240,2,115,0|0|0,0:0|0:0|0:0,0:0:0:0:
16,240,28241,6,0,P|0:176|128:96,1,230,0|0,0:0|0:0,0:0:0:0:
336,128,28879,1,0,0:0:0:0:
80,176,29198,6,0,L|208:160,2,115,0|0|0,0:0|0:0|0:0,0:0:0:0:
400,128,29836,1,0,0:0:0:0:
128,256,30156,2,0,L|64:128,1,115,0|0,0:0|0:0,0:0:0:0:
240,160,30475,2,0,L|368:80,1,115,0|0,0:0|0:0,0:0:0:0:
48,112,30794,6,0,L|304:112,2,230,0|0|0,0:0|0:0|0:0,0:0:0:0:
288,192,31751,6,0,L|32:192,2,230,0|0|0,0:0|0:0|0:0,0:0:0:0:
80,192,32709,6,0,L|32:64,1,115,0|0,0:0|0:0,0:0:0:0:
208,128,33028,2,0,L|288:240,1,115,0|0,0:0|0:0,0:0:0:0:
64,304,33347,2,0,L|48:144,1,115,0|0,0:0|0:0,0:0:0:0:
288,208,33826,2,0,L|336:80,1,115,0|0,0:0|0:0,0:0:0:0:
96,288,34304,5,0,0:0:0:0:
23,204,34463,1,0,0:0:0:0:
56,98,34623,1,0,0:0:0:0:
162,70,34782,1,0,0:0:0:0:
448,224,34943,2,0,P|496:192|416:64,1,230,0|0,0:0|0:0,0:0:0:0:
304,112,35421,6,0,L|176:112,2,115,0|0|0,0:0|0:0|0:0,0:0:0:0:
176,240,35900,6,0,L|144:128,1,115,0|0,0:0|0:0,0:0:0:0:
384,208,36379,2,0,L|416:96,1,115,0|0,0:0|0:0,0:0:0:0:
176,192,36858,2,0,L|144:64,1,115,0|0,0:0|0:0,0:0:0:0:
288,96,37177,6,0,L|432:96,2,115,0|0|0,0:0|0:0|0:0,0:0:0:0:
32,240,37815,2,0,L|176:240,1,115,0|0,0:0|0:0,0:0:0:0:
272,192,38134,2,0,L|144:192,1,115,0|0,0:0|0:0,0:0:0:0:
320,208,38453,6,0,L|352:96,1,115,0|0,0:0|0:0,0:0:0:0:
112,192,38932,2,0,L|96:48,1,115,0|0,0:0|0:0,0:0:0:0:
368,176,39415,2,0,L|400:64,1,115
192,256,39734,2,0,P|352:192|179:135,3,460
400,192,40851,1,0,0:0:0:0:
112,336,41011,6,0,L|80:224,2,115
208,224,41489,6,0,L|176:112,2,115
304,128,41968,6,0,L|272:16,2,115
400,112,42447,6,0,L|368:0,2,115
256,160,42925,6,0,L|128:160,1,115
256,160,43245,2,0,L|384:160,1,115
256,160,43564,2,0,P|192:112|192:64,2,115
160,176,44042,2,0,P|96:128|96:80,2,115
80,208,44521,2,0,P|16:160|16:112,2,115
176,208,45000,2,0,P|240:160|240:112,2,115
32,208,45479,6,0,L|96:208,1,57.5
288,208,45638,1,0,0:0:0:0:
416,192,45798,2,0,L|358:192,1,57.5
160,208,45957,2,0,L|96:208,1,57.5
368,288,46117,5,0,0:0:0:0:
438,266,46276,1,0,0:0:0:0:
457,195,46436,1,0,0:0:0:0:
407,141,46596,1,0,0:0:0:0:
352,144,46675,1,0,0:0:0:0:
160,208,46755,5,0,0:0:0:0:
102,162,46915,1,0,0:0:0:0:
110,89,47074,1,0,0:0:0:0:
176,56,47234,1,0,0:0:0:0:
226,79,47314,1,0,0:0:0:0:
448,224,47394,6,0,L|448:96,1,115
288,160,47713,2,0,L|432:160,1,115
352,160,47952,1,0,0:0:0:0:
64,224,48032,6,0,L|64:96,1,115
224,160,48351,2,0,L|80:160,1,115
160,160,48590,1,0,0:0:0:0:
384,288,48670,5,0,0:0:0:0:
486,248,48830,1,0,0:0:0:0:
497,140,48989,1,0,0:0:0:0:
406,80,49149,1,0,0:0:0:0:
400,32,49229,1,0,0:0:0:0:
128,288,49308,5,0,0:0:0:0:
26,248,49468,1,0,0:0:0:0:
15,140,49628,1,0,0:0:0:0:
106,80,49787,1,0,0:0:0:0:
112,32,49867,1,0,0:0:0:0:
304,144,49947,6,0,L|416:128,1,57.5
208,160,50106,1,0,0:0:0:0:
304,144,50266,6,0,L|416:128,1,57.5,0|0,0:0|0:0,0:0:0:0:
208,160,50425,1,0,0:0:0:0:
304,144,50585,6,0,L|416:128,1,57.5,0|0,0:0|0:0,0:0:0:0:
208,160,50744,1,0,0:0:0:0:
304,144,50904,6,0,L|416:128,1,57.5,0|0,0:0|0:0,0:0:0:0:
208,160,51063,1,0,0:0:0:0:
288,176,51223,6,0,L|448:176,3,115
352,176,51782,1,0,0:0:0:0:
160,240,51862,6,0,L|0:240,3,115
96,240,52420,1,0,0:0:0:0:
272,240,52500,5,0,0:0:0:0:
377,194,52659,1,0,0:0:0:0:
483,149,52819,1,0,0:0:0:0:
352,160,52979,2,0,L|432:160,1,57.5
224,240,53138,5,0,0:0:0:0:
118,194,53297,1,0,0:0:0:0:
12,149,53457,1,0,0:0:0:0:
144,160,53617,2,0,L|80:160,1,57.5,0|0,0:0|0:0,0:0:0:0:
384,160,53777,5,0,0:0:0:0:
278,114,53936,1,0,0:0:0:0:
166,91,54096,1,0,0:0:0:0:
51,93,54255,1,0,0:0:0:0:
384,160,54416,5,0,0:0:0:0:
278,114,54575,1,0,0:0:0:0:
166,91,54735,1,0,0:0:0:0:
51,93,54894,1,0,0:0:0:0:
272,192,55053,2,0,L|384:112,1,115
224,192,55372,2,0,L|96:160,1,115
432,192,55691,5,0,0:0:0:0:
317,192,55850,1,0,0:0:0:0:
202,192,56010,1,0,0:0:0:0:
87,192,56169,1,0,0:0:0:0:
304,128,56330,6,0,L|400:48,3,115,0|0|0|0,0:0|0:0|0:0|0:0,0:0:0:0:
272,128,56968,6,0,L|176:16,3,115
352,128,57606,6,0,L|448:48,1,115
272,128,57925,2,0,L|272:0,1,115
160,128,58245,6,0,L|64:48,1,115
240,128,58564,2,0,L|240:0,1,115
128,224,58883,6,0,L|-16:224,1,115
144,224,59202,2,0,L|0:224,1,115
192,224,59521,6,0,L|336:224,1,115
176,224,59840,2,0,L|320:224,1,115
112,144,60160,6,0,L|112:240,1,57.5,0|0,0:0|0:0,0:0:0:0:
112,144,60319,1,0,0:0:0:0:
240,144,60479,6,0,L|240:240,1,57.5,0|0,0:0|0:0,0:0:0:0:
240,144,60638,1,0,0:0:0:0:
352,144,60798,6,0,L|352:240,1,57.5,0|0,0:0|0:0,0:0:0:0:
352,144,60957,1,0,0:0:0:0:
480,144,61117,6,0,L|480:240,1,57.5,0|0,0:0|0:0,0:0:0:0:
480,144,61276,1,0,0:0:0:0:
304,304,61437,5,0,0:0:0:0:
359,203,61596,1,0,0:0:0:0:
414,102,61756,1,0,0:0:0:0:
470,1,61915,1,0,0:0:0:0:
208,304,62075,5,0,0:0:0:0:
152,203,62234,1,0,0:0:0:0:
97,102,62394,1,0,0:0:0:0:
41,1,62553,1,0,0:0:0:0:
160,80,62713,6,0,L|288:160,3,115
112,192,63351,2,0,L|224:288,3,115
352,80,63989,6,0,L|192:96,3,115
400,192,64628,6,0,L|240:208,3,115
64,288,65266,6,0,L|16:128,1,115
176,176,65585,2,0,L|63:200,1,115
400,288,65904,6,0,L|448:128,1,115
288,176,66223,2,0,L|400:200,1,115
176,256,66542,6,0,L|32:240,1,115
400,192,66862,1,0,0:0:0:0:
272,192,67021,5,0,0:0:0:0:
216,189,67100,1,0,0:0:0:0:
188,141,67180,1,0,0:0:0:0:
211,91,67260,1,0,0:0:0:0:
265,82,67340,1,0,0:0:0:0:
496,80,67500,2,0,L|352:80,1,115
80,208,67819,6,0,L|176:208,1,57.5,0|0,0:0|0:0,0:0:0:0:
288,208,67979,2,0,L|448:208,1,115,0|0,0:0|0:0,0:0:0:0:
432,208,68297,6,0,L|336:208,1,57.5,0|0,0:0|0:0,0:0:0:0:
224,208,68457,2,0,L|64:208,1,115,0|0,0:0|0:0,0:0:0:0:
80,208,68776,6,0,L|176:208,1,57.5,0|0,0:0|0:0,0:0:0:0:
288,208,68936,2,0,L|448:208,1,115,0|0,0:0|0:0,0:0:0:0:
288,208,69255,5,0,0:0:0:0:
16,112,69415,1,0,0:0:0:0:
288,112,69574,6,0,L|224:80,1,57.5,0|0,0:0|0:0,0:0:0:0:
384,64,69734,2,0,L|432:16,1,57.5,0|0,0:0|0:0,0:0:0:0:
256,32,69894,1,0,0:0:0:0:
80,256,70053,2,0,L|16:128,1,115
448,176,70372,6,0,L|352:176,1,57.5,0|0,0:0|0:0,0:0:0:0:
240,176,70532,1,0,0:0:0:0:
336,96,70691,6,0,L|240:96,1,57.5,0|0,0:0|0:0,0:0:0:0:
128,96,70851,1,0,0:0:0:0:
64,176,71011,6,0,L|160:176,1,57.5,0|0,0:0|0:0,0:0:0:0:
272,176,71171,1,0,0:0:0:0:
208,96,71330,6,0,L|304:96,1,57.5,0|0,0:0|0:0,0:0:0:0:
416,160,71490,1,0,0:0:0:0:
496,208,71649,6,0,L|480:64,1,115,0|0,0:0|0:0,0:0:0:0:
240,208,71968,1,0,0:0:0:0:
336,160,72128,5,0,0:0:0:0:
278,160,72207,1,0,0:0:0:0:
221,160,72287,1,0,0:0:0:0:
163,160,72367,1,0,0:0:0:0:
106,160,72447,1,0,0:0:0:0:
352,96,72606,2,0,L|512:96,1,115
96,288,72925,6,0,L|80:224,1,57.5,0|0,0:0|0:0,0:0:0:0:
352,256,73085,2,0,P|368:192|304:160,1,115,0|0,0:0|0:0,0:0:0:0:
336,162,73404,6,0,L|368:101,1,57.5,0|0,0:0|0:0,0:0:0:0:
80,256,73564,2,0,P|64:192|128:144,1,115,0|0,0:0|0:0,0:0:0:0:
96,144,73883,6,0,L|64:96,1,57.5,0|0,0:0|0:0,0:0:0:0:
384,256,74043,2,0,P|432:192|384:144,1,115,0|0,0:0|0:0,0:0:0:0:
304,160,74362,1,0,0:0:0:0:
64,208,74521,1,0,0:0:0:0:
208,208,74681,5,0,0:0:0:0:
263,198,74760,1,0,0:0:0:0:
293,152,74840,1,0,0:0:0:0:
279,97,74920,1,0,0:0:0:0:
230,71,75000,1,0,0:0:0:0:
0,112,75159,2,0,L|128:112,1,115
400,224,75479,6,0,L|480:160,2,57.5,0|0|0,0:0|0:0|0:0,0:0:0:0:
112,224,75798,6,0,L|32:160,2,57.5,0|0|0,0:0|0:0|0:0,0:0:0:0:
352,224,76117,5,0,0:0:0:0:
496,144,76277,1,0,0:0:0:0:
336,208,76436,1,0,0:0:0:0:
480,128,76596,1,0,0:0:0:0:
64,160,76755,6,0,L|176:96,3,115,0|0|0|0,0:0|0:0|0:0|0:0,0:0:0:0:
336,160,77394,6,0,L|224:96,3,115
96,272,78032,1,0,0:0:0:0:
94,162,78191,1,0,0:0:0:0:
189,109,78351,1,0,0:0:0:0:
304,112,78511,1,0,0:0:0:0:
448,224,78670,5,0,0:0:0:0:
449,114,78829,1,0,0:0:0:0:
354,61,78989,1,0,0:0:0:0:
240,64,79149,1,0,0:0:0:0:
128,192,79308,6,0,L|288:192,1,115,0|0,0:0|0:0,0:0:0:0:
96,208,79628,2,0,L|96:80,1,115,0|0,0:0|0:0,0:0:0:0:
243,192,79947,6,0,L|83:192,1,115,0|0,0:0|0:0,0:0:0:0:
275,208,80266,2,0,L|275:80,1,115
128,256,80585,5,0,0:0:0:0:
128,224,80665,1,0,0:0:0:0:
128,208,80745,1,0,0:0:0:0:
256,160,80904,2,0,L|192:160,2,57.5,0|0|0,0:0|0:0|0:0,0:0:0:0:
384,256,81223,5,0,0:0:0:0:
384,224,81303,1,0,0:0:0:0:
384,208,81383,1,0,0:0:0:0:
256,160,81542,2,0,L|320:160,2,57.5,0|0|0,0:0|0:0|0:0,0:0:0:0:
352,160,81862,6,0,L|480:112,3,115,0|0|0|0,0:0|0:0|0:0|0:0,0:0:0:0:
304,160,82500,6,0,L|176:112,3,115
80,144,83138,6,0,L|208:96,3,115
304,160,83776,6,0,L|176:112,3,115
480,240,84415,5,0,0:0:0:0:
365,240,84574,1,0,0:0:0:0:
250,240,84734,1,0,0:0:0:0:
135,240,84894,1,0,0:0:0:0:
352,160,85053,5,0,0:0:0:0:
237,160,85213,1,0,0:0:0:0:
122,160,85373,1,0,0:0:0:0:
7,160,85532,1,0,0:0:0:0:
160,96,85692,5,0,0:0:0:0:
275,96,85851,1,0,0:0:0:0:
390,96,86011,1,0,0:0:0:0:
505,96,86170,1,0,0:0:0:0:
192,240,86330,6,0,L|64:240,1,115
352,176,86649,2,0,L|496:176,1,115
32,272,86968,6,0,L|48:208,3,57.5,0|0|0|0,0:0|0:0|0:0|0:0,0:0:0:0:
240,224,87287,6,0,L|256:160,3,57.5,0|0|0|0,0:0|0:0|0:0|0:0,0:0:0:0:
448,192,87606,6,0,L|464:128,3,57.5
272,192,87925,6,0,L|256:128,3,57.5
64,192,88245,6,0,L|48:128,3,57.5
272,224,88564,1,0,0:0:0:0:
319,191,88643,1,0,0:0:0:0:
367,159,88723,1,0,0:0:0:0:
414,126,88803,1,0,0:0:0:0:
80,272,88883,1,0,0:0:0:0:
28,250,88962,1,0,0:0:0:0:
18,196,89042,1,0,0:0:0:0:
57,158,89122,1,0,0:0:0:0:
336,112,89202,6,0,L|432:96,3,57.5
128,240,89522,5,0,0:0:0:0:
75,226,89601,1,0,0:0:0:0:
69,172,89681,1,0,0:0:0:0:
117,147,89761,1,0,0:0:0:0:
384,128,89841,1,0,0:0:0:0:
354,79,89920,1,0,0:0:0:0:
305,50,90000,1,0,0:0:0:0:
248,47,90080,1,0,0:0:0:0:
32,272,90160,5,0,0:0:0:0:
85,251,90239,1,0,0:0:0:0:
139,230,90319,1,0,0:0:0:0:
193,210,90399,1,0,0:0:0:0:
368,208,90479,1,0,0:0:0:0:
321,174,90558,1,0,0:0:0:0:
267,154,90638,1,0,0:0:0:0:
210,150,90718,1,0,0:0:0:0:
416,160,90798,5,0,0:0:0:0:
468,171,90877,1,0,0:0:0:0:
498,127,90957,1,0,0:0:0:0:
467,82,91037,1,0,0:0:0:0:
176,80,91117,2,0,L|96:96,1,57.5,0|0,0:0|0:0,0:0:0:0:
368,64,91277,2,0,L|432:48,1,57.5,0|0,0:0|0:0,0:0:0:0:
96,272,91436,1,0,0:0:0:0:
42,260,91515,1,0,0:0:0:0:
25,208,91595,1,0,0:0:0:0:
62,167,91675,1,0,0:0:0:0:
336,144,91755,6,0,L|416:128,3,57.5
128,144,92074,2,0,L|112:64,3,57.5
208,112,92394,2,0,L|224:32,3,57.5
112,224,92713,2,0,L|96:144,3,57.5
192,192,93032,2,0,L|208:112,3,57.5
112,240,93351,2,0,L|96:304,3,57.5
171,199,93670,2,0,L|192:256,3,57.5
64,288,93990,5,0,0:0:0:0:
121,283,94069,1,0,0:0:0:0:
178,279,94149,1,0,0:0:0:0:
236,275,94229,1,0,0:0:0:0:
48,240,94309,1,0,0:0:0:0:
16,193,94388,1,0,0:0:0:0:
30,139,94468,1,0,0:0:0:0:
79,113,94548,1,0,0:0:0:0:
224,176,94628,5,0,0:0:0:0:
280,172,94707,1,0,0:0:0:0:
324,137,94787,1,0,0:0:0:0:
341,83,94867,1,0,0:0:0:0:
323,29,94947,1,0,0:0:0:0:
277,0,95026,1,0,0:0:0:0:
221,0,95106,1,0,0:0:0:0:
173,24,95186,1,0,0:0:0:0:
224,0,95266,5,0,0:0:0:0:
279,13,95345,1,0,0:0:0:0:
320,52,95425,1,0,0:0:0:0:
338,106,95505,1,0,0:0:0:0:
327,162,95585,1,0,0:0:0:0:
291,206,95664,1,0,0:0:0:0:
238,227,95744,1,0,0:0:0:0:
182,219,95824,1,0,0:0:0:0:
32,192,95905,6,0,L|128:160,1,57.5,0|0,0:0|0:0,0:0:0:0:
304,288,96065,1,0,0:0:0:0:
359,278,96144,1,0,0:0:0:0:
394,234,96224,1,0,0:0:0:0:
392,178,96304,1,0,0:0:0:0:
354,137,96384,1,0,0:0:0:0:
298,131,96463,1,0,0:0:0:0:
112,144,96543,5,0,0:0:0:0:
60,124,96622,1,0,0:0:0:0:
50,70,96702,1,0,0:0:0:0:
91,33,96782,1,0,0:0:0:0:
400,144,96862,5,0,0:0:0:0:
451,124,96941,1,0,0:0:0:0:
461,70,97021,1,0,0:0:0:0:
420,33,97101,1,0,0:0:0:0:
160,192,97181,6,0,L|112:160,3,57.5,0|0|0|0,0:0|0:0|0:0|0:0,0:0:0:0:
320,192,97500,6,0,L|368:160,3,57.5
160,192,97819,6,0,L|112:160,3,57.5
352,240,98138,6,0,L|400:208,3,57.5
112,288,98457,6,0,L|32:288,3,57.5
400,288,98776,6,0,L|480:288,3,57.5
128,224,99097,1,0,0:0:0:0:
75,215,99176,1,0,0:0:0:0:
69,161,99256,1,0,0:0:0:0:
119,142,99336,1,0,0:0:0:0:
368,144,99416,2,0,L|448:128,1,57.5,0|0,0:0|0:0,0:0:0:0:
240,96,99575,2,0,L|304:80,1,57.5,0|0,0:0|0:0,0:0:0:0:
48,176,99735,5,0,0:0:0:0:
16,130,99814,1,0,0:0:0:0:
36,79,99894,1,0,0:0:0:0:
90,68,99974,1,0,0:0:0:0:
480,128,100054,5,0,0:0:0:0:
438,88,100133,1,0,0:0:0:0:
389,58,100213,1,0,0:0:0:0:
335,39,100293,1,0,0:0:0:0:
80,208,100373,1,0,0:0:0:0:
81,151,100452,1,0,0:0:0:0:
119,110,100532,1,0,0:0:0:0:
175,105,100612,1,0,0:0:0:0:
496,176,100692,5,0,0:0:0:0:
439,176,100771,1,0,0:0:0:0:
381,176,100851,1,0,0:0:0:0:
324,176,100931,1,0,0:0:0:0:
80,336,101011,5,0,0:0:0:0:
30,314,101090,1,0,0:0:0:0:
29,259,101170,1,0,0:0:0:0:
78,236,101250,1,0,0:0:0:0:
432,336,101330,5,0,0:0:0:0:
481,314,101409,1,0,0:0:0:0:
482,259,101489,1,0,0:0:0:0:
433,236,101569,1,0,0:0:0:0:
288,176,101649,6,0,L|192:176,1,57.5,0|0,0:0|0:0,0:0:0:0:
336,144,101808,2,0,L|416:144,1,57.5,0|0,0:0|0:0,0:0:0:0:
64,128,101968,2,0,L|16:96,1,57.5,0|0,0:0|0:0,0:0:0:0:
208,128,102128,2,0,L|144:96,1,57.5,0|0,0:0|0:0,0:0:0:0:
400,272,102287,6,0,L|464:240,1,57.5,0|0,0:0|0:0,0:0:0:0:
258,190,102447,2,0,L|320:117,1,57.5
80,288,102606,2,0,L|0:288,1,57.5,0|0,0:0|0:0,0:0:0:0:
208,192,102766,2,0,L|132:122,1,57.5
400,272,102925,2,0,L|480:272,1,57.5,0|0,0:0|0:0,0:0:0:0:
272,160,103085,2,0,L|346:123,1,57.5,0|0,0:0|0:0,0:0:0:0:
96,272,103245,2,0,L|16:256,1,57.5,0|0,0:0|0:0,0:0:0:0:
256,224,103404,2,0,L|176:176,1,57.5,0|0,0:0|0:0,0:0:0:0:
432,256,103565,5,0,0:0:0:0:
478,227,103644,1,0,0:0:0:0:
474,172,103724,1,0,0:0:0:0:
424,150,103804,1,0,0:0:0:0:
192,192,103884,5,0,0:0:0:0:
238,158,103963,1,0,0:0:0:0:
285,124,104043,1,0,0:0:0:0:
331,90,104123,1,0,0:0:0:0:
144,208,104203,5,0,0:0:0:0:
80,208,104282,1,0,0:0:0:0:
304,208,104362,1,0,0:0:0:0:
368,208,104442,1,0,0:0:0:0:
144,208,104522,5,0,0:0:0:0:
80,208,104601,1,0,0:0:0:0:
304,208,104681,1,0,0:0:0:0:
368,208,104761,1,0,0:0:0:0:
80,128,104840,6,0,L|144:128,1,57.5,0|0,0:0|0:0,0:0:0:0:
288,112,105000,2,0,L|384:112,2,57.5,0|0|0,0:0|0:0|0:0,0:0:0:0:
144,112,105239,1,0,0:0:0:0:
288,112,105319,2,0,L|384:112,2,57.5,0|0|0,0:0|0:0|0:0,0:0:0:0:
144,112,105558,1,0,0:0:0:0:
288,112,105638,2,0,L|384:112,2,57.5
144,112,105877,1,0,0:0:0:0:
288,112,105957,2,0,L|384:112,1,57.5,0|0,0:0|0:0,0:0:0:0:
496,128,106117,6,0,L|432:128,1,57.5,0|0,0:0|0:0,0:0:0:0:
125,192,106277,2,0,L|13:192,2,57.5,0|0|0,0:0|0:0|0:0,0:0:0:0:
293,192,106516,1,0,0:0:0:0:
125,192,106596,2,0,L|13:192,2,57.5,0|0|0,0:0|0:0|0:0,0:0:0:0:
293,192,106835,1,0,0:0:0:0:
125,192,106915,2,0,L|13:192,2,57.5,0|0|0,0:0|0:0|0:0,0:0:0:0:
293,192,107154,1,0,0:0:0:0:
125,192,107234,2,0,L|13:192,1,57.5,0|0,0:0|0:0,0:0:0:0:
400,288,107394,6,0,L|480:272,1,57.5,0|0,0:0|0:0,0:0:0:0:
176,256,107553,2,0,L|112:224,1,57.5,0|0,0:0|0:0,0:0:0:0:
400,288,107713,6,0,L|480:272,1,57.5,0|0,0:0|0:0,0:0:0:0:
176,256,107872,2,0,L|144:192,1,57.5,0|0,0:0|0:0,0:0:0:0:
400,288,108032,6,0,L|480:272,1,57.5,0|0,0:0|0:0,0:0:0:0:
176,256,108191,2,0,L|176:176,1,57.5,0|0,0:0|0:0,0:0:0:0:
400,288,108351,6,0,L|480:272,1,57.5,0|0,0:0|0:0,0:0:0:0:
176,256,108510,2,0,L|224:176,1,57.5,0|0,0:0|0:0,0:0:0:0:
400,288,108670,6,0,L|480:272,1,57.5,0|0,0:0|0:0,0:0:0:0:
176,256,108829,2,0,L|240:208,1,57.5,0|0,0:0|0:0,0:0:0:0:
400,288,108989,6,0,L|480:272,1,57.5,0|0,0:0|0:0,0:0:0:0:
176,256,109148,2,0,L|272:224,1,57.5,0|0,0:0|0:0,0:0:0:0:
416,192,109308,2,0,L|480:192,1,57.5,0|0,0:0|0:0,0:0:0:0:
224,192,109468,2,0,L|144:192,1,57.5,0|0,0:0|0:0,0:0:0:0:
224,192,109628,2,0,L|320:192,1,57.5,0|0,0:0|0:0,0:0:0:0:
96,144,109787,2,0,L|16:144,1,57.5,0|0,0:0|0:0,0:0:0:0:
400,144,109947,6,0,L|480:80,1,57.5,0|0,0:0|0:0,0:0:0:0:
176,144,110106,2,0,L|80:96,1,57.5,0|0,0:0|0:0,0:0:0:0:
400,144,110266,6,0,L|464:64,1,57.5,0|0,0:0|0:0,0:0:0:0:
176,144,110425,2,0,L|80:96,1,57.5,0|0,0:0|0:0,0:0:0:0:
400,144,110585,6,0,L|432:64,1,57.5,0|0,0:0|0:0,0:0:0:0:
176,144,110744,2,0,L|80:96,1,57.5,0|0,0:0|0:0,0:0:0:0:
400,144,110904,6,0,L|384:64,1,57.5,0|0,0:0|0:0,0:0:0:0:
176,144,111063,2,0,L|80:96,1,57.5,0|0,0:0|0:0,0:0:0:0:
400,144,111223,6,0,L|336:64,1,57.5,0|0,0:0|0:0,0:0:0:0:
176,144,111382,2,0,L|80:96,1,57.5,0|0,0:0|0:0,0:0:0:0:
400,144,111542,6,0,L|320:128,1,57.5,0|0,0:0|0:0,0:0:0:0:
176,144,111702,2,0,L|112:112,1,57.5,0|0,0:0|0:0,0:0:0:0:
400,144,111862,6,0,L|464:96,1,57.5,0|0,0:0|0:0,0:0:0:0:
208,128,112022,2,0,L|128:128,1,57.5,0|0,0:0|0:0,0:0:0:0:
208,128,112181,2,0,L|304:128,1,57.5,0|0,0:0|0:0,0:0:0:0:
48,256,112340,2,0,L|32:144,1,57.5,0|0,0:0|0:0,0:0:0:0:
288,288,112500,5,0,0:0:0:0:
331,254,112579,1,0,0:0:0:0:
327,199,112659,1,0,0:0:0:0:
279,171,112739,1,0,0:0:0:0:
128,144,112819,6,0,L|208:144,1,57.5,0|0,0:0|0:0,0:0:0:0:
384,80,112979,2,0,L|320:80,1,57.5,0|0,0:0|0:0,0:0:0:0:
112,224,113138,5,0,0:0:0:0:
70,186,113217,1,0,0:0:0:0:
67,130,113297,1,0,0:0:0:0:
104,87,113377,1,0,0:0:0:0:
384,144,113457,6,0,L|304:144,1,57.5,0|0,0:0|0:0,0:0:0:0:
128,80,113617,2,0,L|192:80,1,57.5,0|0,0:0|0:0,0:0:0:0:
448,288,113777,5,0,0:0:0:0:
477,239,113856,1,0,0:0:0:0:
473,183,113936,1,0,0:0:0:0:
435,140,114016,1,0,0:0:0:0:
96,240,114096,5,0,0:0:0:0:
64,193,114175,1,0,0:0:0:0:
78,139,114255,1,0,0:0:0:0:
126,112,114335,1,0,0:0:0:0:
400,192,114415,6,0,L|416:128,3,57.5,0|0|0|0,0:0|0:0|0:0|0:0,0:0:0:0:
112,192,114734,6,0,L|96:128,3,57.5,0|0|0|0,0:0|0:0|0:0|0:0,0:0:0:0:
400,144,115053,6,0,L|448:112,3,57.5,0|0|0|0,0:0|0:0|0:0|0:0,0:0:0:0:
112,144,115372,6,0,L|64:112,3,57.5,0|0|0|0,0:0|0:0|0:0|0:0,0:0:0:0:
400,144,115691,6,0,L|464:144,3,57.5,0|0|0|0,0:0|0:0|0:0|0:0,0:0:0:0:
112,144,116011,6,0,L|48:144,3,57.5,0|0|0|0,0:0|0:0|0:0|0:0,0:0:0:0:
368,240,116330,5,0,0:0:0:0:
418,217,116409,1,0,0:0:0:0:
432,163,116489,1,0,0:0:0:0:
399,119,116569,1,0,0:0:0:0:
192,112,116649,1,0,0:0:0:0:
247,98,116728,1,0,0:0:0:0:
303,84,116808,1,0,0:0:0:0:
359,70,116888,1,0,0:0:0:0:
80,128,116969,6,0,L|128:64,1,57.5,0|0,0:0|0:0,0:0:0:0:
304,64,117129,2,0,L|368:16,1,57.5,0|0,0:0|0:0,0:0:0:0:
80,128,117288,6,0,L|128:64,1,57.5,0|0,0:0|0:0,0:0:0:0:
304,64,117448,2,0,L|368:16,1,57.5,0|0,0:0|0:0,0:0:0:0:
64,304,117607,6,0,L|32:240,1,57.5,0|0,0:0|0:0,0:0:0:0:
208,240,117767,2,0,L|224:160,1,57.5,0|0,0:0|0:0,0:0:0:0:
448,304,117926,6,0,L|480:240,1,57.5,0|0,0:0|0:0,0:0:0:0:
304,240,118086,2,0,L|288:160,1,57.5,0|0,0:0|0:0,0:0:0:0:
64,304,118246,6,0,L|32:240,1,57.5,0|0,0:0|0:0,0:0:0:0:
208,240,118406,2,0,L|224:160,1,57.5,0|0,0:0|0:0,0:0:0:0:
464,144,118565,2,0,L|384:144,1,57.5,0|0,0:0|0:0,0:0:0:0:
176,112,118724,2,0,L|240:64,1,57.5,0|0,0:0|0:0,0:0:0:0:
464,144,118884,6,0,L|368:144,1,57.5,0|0,0:0|0:0,0:0:0:0:
256,144,119043,1,0,0:0:0:0:
48,144,119123,2,0,L|144:144,1,57.5,0|0,0:0|0:0,0:0:0:0:
256,144,119282,1,0,0:0:0:0:
464,144,119363,2,0,L|368:144,1,57.5,0|0,0:0|0:0,0:0:0:0:
256,144,119522,1,0,0:0:0:0:
48,144,119602,2,0,L|144:144,1,57.5,0|0,0:0|0:0,0:0:0:0:
256,144,119761,1,0,0:0:0:0:
480,64,119840,5,0,0:0:0:0:
331,64,119919,1,0,0:0:0:0:
183,64,119999,1,0,0:0:0:0:
35,64,120079,1,0,0:0:0:0:
384,256,120160,5,0,0:0:0:0:
439,246,120239,1,0,0:0:0:0:
475,202,120319,1,0,0:0:0:0:
473,146,120399,1,0,0:0:0:0:
160,176,120479,2,0,L|75:128,3,57.5,0|0|0|0,0:0|0:0|0:0|0:0,0:0:0:0:
384,256,120798,5,0,0:0:0:0:
439,246,120877,1,0,0:0:0:0:
475,202,120957,1,0,0:0:0:0:
473,146,121037,1,0,0:0:0:0:
160,176,121117,2,0,L|76:125,3,57.5,0|0|0|0,0:0|0:0|0:0|0:0,0:0:0:0:
400,160,121436,5,0,0:0:0:0:
417,106,121515,1,0,0:0:0:0:
392,56,121595,1,0,0:0:0:0:
340,37,121675,1,0,0:0:0:0:
112,160,121755,5,0,0:0:0:0:
94,106,121834,1,0,0:0:0:0:
119,56,121914,1,0,0:0:0:0:
171,37,121994,1,0,0:0:0:0:
368,224,122074,6,0,L|432:192,3,57.5,0|0|0|0,0:0|0:0|0:0|0:0,0:0:0:0:
160,176,122394,2,0,L|80:144,1,57.5,0|0,0:0|0:0,0:0:0:0:
416,176,122553,2,0,L|416:112,1,57.5,0|0,0:0|0:0,0:0:0:0:
112,304,122713,5,0,0:0:0:0:
96,272,122752,1,0,0:0:0:0:
112,246,122792,1,0,0:0:0:0:
256,256,122872,5,0,0:0:0:0:
256,227,122911,1,0,0:0:0:0:
256,198,122951,1,0,0:0:0:0:
400,304,123032,5,0,0:0:0:0:
416,272,123071,1,0,0:0:0:0:
400,246,123111,1,0,0:0:0:0:
256,256,123192,5,0,0:0:0:0:
256,227,123231,1,0,0:0:0:0:
256,198,123271,1,0,0:0:0:0:
112,304,123351,5,0,0:0:0:0:
96,272,123390,1,0,0:0:0:0:
112,246,123430,1,0,0:0:0:0:
256,256,123511,5,0,0:0:0:0:
256,227,123550,1,0,0:0:0:0:
256,198,123590,1,0,0:0:0:0:
400,304,123670,5,0,0:0:0:0:
416,272,123709,1,0,0:0:0:0:
400,246,123749,1,0,0:0:0:0:
256,256,123830,5,0,0:0:0:0:
256,227,123869,1,0,0:0:0:0:
256,198,123909,1,0,0:0:0:0:
416,160,123989,5,0,0:0:0:0:
416,131,124028,1,0,0:0:0:0:
416,102,124068,1,0,0:0:0:0:
208,64,124149,1,0,0:0:0:0:
236,64,124188,1,0,0:0:0:0:
265,64,124228,1,0,0:0:0:0:
96,160,124308,5,0,0:0:0:0:
96,131,124347,1,0,0:0:0:0:
96,102,124387,1,0,0:0:0:0:
304,64,124468,1,0,0:0:0:0:
275,64,124507,1,0,0:0:0:0:
246,64,124547,1,0,0:0:0:0:
416,160,124628,5,0,0:0:0:0:
416,131,124667,1,0,0:0:0:0:
416,102,124707,1,0,0:0:0:0:
208,64,124788,1,0,0:0:0:0:
236,64,124827,1,0,0:0:0:0:
265,64,124867,1,0,0:0:0:0:
96,160,124947,5,0,0:0:0:0:
96,131,124986,1,0,0:0:0:0:
96,102,125026,1,0,0:0:0:0:
304,64,125107,1,0,0:0:0:0:
275,64,125146,1,0,0:0:0:0:
246,64,125186,1,0,0:0:0:0:
480,288,125266,5,0,0:0:0:0:
480,259,125305,1,0,0:0:0:0:
480,230,125345,1,0,0:0:0:0:
384,240,125425,5,0,0:0:0:0:
384,211,125464,1,0,0:0:0:0:
384,182,125504,1,0,0:0:0:0:
288,192,125585,5,0,0:0:0:0:
288,163,125624,1,0,0:0:0:0:
288,134,125664,1,0,0:0:0:0:
192,160,125745,5,0,0:0:0:0:
192,131,125784,1,0,0:0:0:0:
192,102,125824,1,0,0:0:0:0:
96,112,125904,5,0,0:0:0:0:
96,83,125943,1,0,0:0:0:0:
96,54,125983,1,0,0:0:0:0:
0,64,126064,5,0,0:0:0:0:
0,35,126103,1,0,0:0:0:0:
0,6,126143,1,0,0:0:0:0:
384,240,126223,5,0,0:0:0:0:
384,211,126262,1,0,0:0:0:0:
384,182,126302,1,0,0:0:0:0:
288,192,126383,5,0,0:0:0:0:
288,163,126422,1,0,0:0:0:0:
288,134,126462,1,0,0:0:0:0:
176,256,126542,6,0,L|160:192,1,57.5,0|0,0:0|0:0,0:0:0:0:
336,224,126702,1,0,0:0:0:0:
176,256,126782,1,0,0:0:0:0:
336,224,126862,2,0,L|384:144,1,57.5,0|0,0:0|0:0,0:0:0:0:
176,208,127021,1,0,0:0:0:0:
336,224,127101,1,0,0:0:0:0:
176,160,127181,5,0,0:0:0:0:
147,160,127201,1,0,0:0:0:0:
176,160,127221,1,0,0:0:0:0:
320,160,127261,5,0,0:0:0:0:
348,160,127281,1,0,0:0:0:0:
320,160,127300,1,0,0:0:0:0:
176,160,127340,5,0,0:0:0:0:
147,160,127360,1,0,0:0:0:0:
176,160,127380,1,0,0:0:0:0:
320,160,127420,5,0,0:0:0:0:
348,160,127440,1,0,0:0:0:0:
320,160,127459,1,0,0:0:0:0:
176,160,127500,5,0,0:0:0:0:
147,160,127520,1,0,0:0:0:0:
176,160,127540,1,0,0:0:0:0:
320,160,127580,5,0,0:0:0:0:
348,160,127600,1,0,0:0:0:0:
320,160,127619,1,0,0:0:0:0:
176,160,127660,5,0,0:0:0:0:
147,160,127680,1,0,0:0:0:0:
176,160,127700,1,0,0:0:0:0:
320,160,127740,5,0,0:0:0:0:
348,160,127760,1,0,0:0:0:0:
320,160,127779,1,0,0:0:0:0:
160,160,127819,1,0,0:0:0:0:
