osu file format v14

[General]
AudioFilename: audio.mp3
AudioLeadIn: 0
PreviewTime: 45489
Countdown: 0
SampleSet: Soft
StackLeniency: 0.7
Mode: 0
LetterboxInBreaks: 0
WidescreenStoryboard: 0

[Editor]
DistanceSpacing: 1.3
BeatDivisor: 4
GridSize: 32
TimelineZoom: 8

[Metadata]
Title:Sidetracked Day (Short Ver.)
TitleUnicode:Sidetracked Day (Short Ver.)
Artist:VINXIS
ArtistUnicode:VINXIS
Creator:-Juna-
Version:cockez DIMENSION
Source:
Tags:
BeatmapID:3865127
BeatmapSetID:1877692

[Difficulty]
HPDrainRate:5.2
CircleSize:4
OverallDifficulty:8.7
ApproachRate:9.2
SliderMultiplier:2
SliderTickRate:1

[Events]
//Background and Video events
0,0,"Glory Bg.jpg",0,0
//Break Periods
//Storyboard Layer 0 (Background)
//Storyboard Layer 1 (Fail)
//Storyboard Layer 2 (Pass)
//Storyboard Layer 3 (Foreground)
//Storyboard Layer 4 (Overlay)
//Storyboard Sound Samples

[TimingPoints]
170,319.148936170213,4,2,1,100,1,0
84425,-100,4,2,2,90,0,0
86978,-100,4,2,1,100,0,1
90808,-83.3333333333333,4,2,1,100,0,1
126552,-100,4,2,1,100,0,1
127191,-66.6666666666667,4,2,1,100,0,1
127271,-66.6666666666667,4,2,1,100,0,1
127829,-100,4,2,2,100,0,0

[Colours]
Combo1 : 255,191,128
Combo2 : 0,0,183
Combo3 : 21,126,255
Combo4 : 255,128,0

[HitObjects]
101,131,84425,5,2,0:0:0:0:
199,276,85063,1,2,0:0:0:0:
199,276,85143,1,0,0:0:0:0:
199,276,85223,2,0,P|238:269|247:225,1,50,2|0,0:0|0:0,0:0:0:0:
269,158,85382,1,8,0:0:0:0:
289,330,85542,1,0,0:0:0:0:
195,211,85701,1,2,0:0:0:0:
279,104,85861,5,0,0:0:0:0:
114,271,86021,1,8,0:0:0:0:
345,214,86180,1,0,0:0:0:0:
150,142,86340,1,2,0:0:0:0:
150,142,86420,1,0,0:0:0:0:
150,142,86499,2,0,P|126:176|134:200,1,50,2|0,0:0|0:0,0:0:0:0:
187,257,86659,1,8,0:0:0:0:
34,101,86818,1,0,0:0:0:0:
99,311,86978,5,6,0:0:0:0:
142,356,87058,1,0,0:0:0:0:
200,368,87138,1,0,0:0:0:0:
254,347,87217,1,0,0:0:0:0:
286,302,87297,1,8,0:0:0:0:
291,250,87377,1,0,0:0:0:0:
270,204,87457,1,0,0:0:0:0:
237,169,87537,1,0,0:0:0:0:
221,125,87616,1,2,0:0:0:0:
225,81,87696,1,0,0:0:0:0:
246,43,87776,1,2,0:0:0:0:
278,18,87856,1,0,0:0:0:0:
315,7,87935,1,8,0:0:0:0:
352,10,88015,1,0,0:0:0:0:
385,25,88095,1,0,0:0:0:0:
410,49,88175,1,0,0:0:0:0:
425,78,88255,6,0,P|419:120|403:138,3,50,2|0|0|0,0:0|0:0|0:0|0:0,0:0:0:0:
311,197,88574,2,0,P|301:174|301:149,3,50,8|0|0|0,0:0|0:0|0:0|0:0,0:0:0:0:
445,216,88893,2,0,P|455:239|455:264,3,50,2|0|2|0,0:0|0:0|0:0|0:0,0:0:0:0:
313,334,89212,2,0,P|289:328|269:313,3,50,8|0|0|0,0:0|0:0|0:0|0:0,0:0:0:0:
406,368,89531,5,6,0:0:0:0:
436,356,89611,1,0,0:0:0:0:
460,331,89691,1,0,0:0:0:0:
472,297,89770,1,0,0:0:0:0:
469,259,89850,1,8,0:0:0:0:
447,225,89930,1,0,0:0:0:0:
409,205,90010,1,0,0:0:0:0:
364,207,90090,1,0,0:0:0:0:
324,234,90169,5,2,0:0:0:0:
300,279,90249,1,0,0:0:0:0:
258,312,90329,1,2,0:0:0:0:
202,316,90409,1,0,0:0:0:0:
153,282,90488,1,8,0:0:0:0:
135,221,90568,1,0,0:0:0:0:
164,161,90648,1,0,0:0:0:0:
230,138,90728,1,0,0:0:0:0:
297,169,90808,6,0,P|275:230|258:242,3,59.9999981689454,2|0|0|0,0:0|0:0|0:0|0:0,0:0:0:0:
387,339,91127,2,0,P|384:309|370:283,3,59.9999981689454,8|0|0|0,0:0|0:0|0:0|0:0,0:0:0:0:
476,178,91446,2,0,P|462:204|459:234,3,59.9999981689454,2|0|2|0,0:0|0:0|0:0|0:0,0:0:0:0:
383,120,91765,2,0,P|386:90|400:64,3,59.9999981689454,8|0|0|0,0:0|0:0|0:0|0:0,0:0:0:0:
393,213,92084,5,6,0:0:0:0:
377,254,92164,1,0,0:0:0:0:
346,284,92244,1,0,0:0:0:0:
307,299,92323,1,0,0:0:0:0:
266,299,92403,1,8,0:0:0:0:
229,283,92483,1,0,0:0:0:0:
200,257,92563,1,0,0:0:0:0:
182,222,92643,1,0,0:0:0:0:
174,185,92722,1,2,0:0:0:0:
178,148,92802,1,0,0:0:0:0:
198,118,92882,1,2,0:0:0:0:
229,102,92962,1,0,0:0:0:0:
263,102,93041,1,8,0:0:0:0:
291,121,93121,1,0,0:0:0:0:
304,152,93201,1,0,0:0:0:0:
296,183,93281,1,0,0:0:0:0:
273,205,93361,1,2,0:0:0:0:
242,211,93440,1,0,0:0:0:0:
212,203,93520,1,0,0:0:0:0:
188,186,93600,1,0,0:0:0:0:
161,173,93680,1,8,0:0:0:0:
133,168,93760,1,0,0:0:0:0:
105,171,93839,1,0,0:0:0:0:
78,180,93919,1,0,0:0:0:0:
58,196,93999,5,2,0:0:0:0:
40,218,94079,1,0,0:0:0:0:
31,248,94159,1,2,0:0:0:0:
39,280,94238,1,0,0:0:0:0:
63,302,94318,1,8,0:0:0:0:
97,308,94398,1,0,0:0:0:0:
129,292,94478,1,0,0:0:0:0:
146,261,94558,1,0,0:0:0:0:
141,223,94637,1,2,0:0:0:0:
115,194,94717,1,0,0:0:0:0:
96,159,94797,1,0,0:0:0:0:
96,117,94877,1,0,0:0:0:0:
117,80,94956,1,8,0:0:0:0:
156,59,95036,1,0,0:0:0:0:
201,61,95116,1,0,0:0:0:0:
240,88,95196,1,0,0:0:0:0:
257,133,95276,5,2,0:0:0:0:
246,182,95355,1,0,0:0:0:0:
246,233,95435,1,2,0:0:0:0:
275,277,95515,1,0,0:0:0:0:
326,298,95595,1,8,0:0:0:0:
381,285,95675,1,0,0:0:0:0:
418,241,95754,1,0,0:0:0:0:
419,181,95834,1,0,0:0:0:0:
377,136,95914,6,0,P|353:125|294:148,3,59.9999981689454,2|0|0|0,0:0|0:0|0:0|0:0,0:0:0:0:
236,203,96233,2,0,P|260:214|319:191,3,59.9999981689454,8|0|0|0,0:0|0:0|0:0|0:0,0:0:0:0:
235,117,96552,2,0,P|211:106|152:129,3,59.9999981689454,2|0|2|0,0:0|0:0|0:0|0:0,0:0:0:0:
92,186,96872,2,0,P|116:197|175:174,3,59.9999981689454,8|0|0|0,0:0|0:0|0:0|0:0,0:0:0:0:
100,94,97191,5,6,0:0:0:0:
75,96,97271,1,0,0:0:0:0:
51,105,97351,1,0,0:0:0:0:
30,121,97430,1,0,0:0:0:0:
14,143,97510,1,8,0:0:0:0:
5,170,97590,1,0,0:0:0:0:
4,199,97670,1,0,0:0:0:0:
14,228,97750,1,0,0:0:0:0:
33,252,97829,1,2,0:0:0:0:
61,270,97909,1,0,0:0:0:0:
93,276,97989,1,2,0:0:0:0:
127,270,98069,1,0,0:0:0:0:
158,251,98148,1,8,0:0:0:0:
179,221,98228,5,0,0:0:0:0:
186,184,98308,1,0,0:0:0:0:
199,146,98388,1,0,0:0:0:0:
227,116,98468,1,2,0:0:0:0:
265,98,98547,1,0,0:0:0:0:
309,98,98627,1,0,0:0:0:0:
350,115,98707,1,0,0:0:0:0:
380,150,98787,1,8,0:0:0:0:
393,197,98867,1,0,0:0:0:0:
383,245,98946,1,0,0:0:0:0:
350,285,99026,1,0,0:0:0:0:
300,303,99106,2,0,P|251:291|229:262,3,59.9999981689454,2|0|2|0,0:0|0:0|0:0|0:0,0:0:0:0:
120,355,99425,2,0,P|149:352|175:337,3,59.9999981689454,8|0|0|0,0:0|0:0|0:0|0:0,0:0:0:0:
57,280,99744,5,6,0:0:0:0:
46,275,99824,1,0,0:0:0:0:
35,267,99904,1,0,0:0:0:0:
25,257,99983,1,0,0:0:0:0:
16,244,100063,1,8,0:0:0:0:
9,228,100143,1,0,0:0:0:0:
6,210,100223,1,0,0:0:0:0:
8,190,100303,1,0,0:0:0:0:
15,169,100382,1,2,0:0:0:0:
29,150,100462,1,0,0:0:0:0:
49,134,100542,1,2,0:0:0:0:
76,126,100622,1,0,0:0:0:0:
106,128,100701,1,8,0:0:0:0:
136,142,100781,1,0,0:0:0:0:
159,170,100861,1,0,0:0:0:0:
168,208,100941,1,0,0:0:0:0:
169,250,101021,5,2,0:0:0:0:
188,292,101100,1,0,0:0:0:0:
226,325,101180,1,0,0:0:0:0:
279,337,101260,1,0,0:0:0:0:
335,319,101340,1,8,0:0:0:0:
377,271,101420,1,0,0:0:0:0:
384,202,101499,1,0,0:0:0:0:
344,139,101579,1,0,0:0:0:0:
265,117,101659,6,0,P|222:142|208:164,1,59.9999981689454,2|0,0:0|0:0,0:0:0:0:
265,143,101818,2,0,P|222:168|208:190,1,59.9999981689454,2|0,0:0|0:0,0:0:0:0:
92,47,101978,6,0,P|135:72|149:94,1,59.9999981689454,8|0,0:0|0:0,0:0:0:0:
92,73,102137,2,0,P|135:98|149:120,1,59.9999981689454
88,207,102297,5,6,0:0:0:0:
123,273,102377,1,0,0:0:0:0:
189,292,102457,1,0,0:0:0:0:
244,263,102536,1,0,0:0:0:0:
266,211,102616,1,8,0:0:0:0:
255,161,102696,1,0,0:0:0:0:
254,113,102776,1,0,0:0:0:0:
276,77,102856,1,0,0:0:0:0:
310,58,102935,1,2,0:0:0:0:
345,56,103015,1,0,0:0:0:0:
375,67,103095,1,2,0:0:0:0:
397,86,103175,1,0,0:0:0:0:
411,109,103254,1,8,0:0:0:0:
417,132,103334,1,0,0:0:0:0:
416,154,103414,1,0,0:0:0:0:
410,173,103494,1,0,0:0:0:0:
405,188,103574,6,0,P|372:229|344:235,3,59.9999981689454,2|0|0|0,0:0|0:0|0:0|0:0,0:0:0:0:
245,123,103893,2,0,P|278:164|306:170,3,59.9999981689454,8|0|0|0,0:0|0:0|0:0|0:0,0:0:0:0:
167,280,104212,2,0,P|200:239|228:233,3,59.9999981689454,2|0|2|0,0:0|0:0|0:0|0:0,0:0:0:0:
46,158,104531,2,0,P|79:199|107:205,3,59.9999981689454,8|0|0|0,0:0|0:0|0:0|0:0,0:0:0:0:
163,107,104850,5,6,0:0:0:0:
197,59,104930,1,0,0:0:0:0:
248,46,105010,1,0,0:0:0:0:
293,62,105089,1,0,0:0:0:0:
318,97,105169,1,8,0:0:0:0:
348,121,105249,1,0,0:0:0:0:
381,129,105329,1,0,0:0:0:0:
412,124,105409,1,0,0:0:0:0:
436,110,105488,1,2,0:0:0:0:
452,91,105568,1,0,0:0:0:0:
460,70,105648,1,2,0:0:0:0:
463,50,105728,1,0,0:0:0:0:
461,32,105807,1,8,0:0:0:0:
456,17,105887,1,0,0:0:0:0:
449,4,105967,1,0,0:0:0:0:
441,0,106047,1,0,0:0:0:0:
433,0,106127,5,6,0:0:0:0:
404,62,106207,1,0,0:0:0:0:
423,125,106287,1,0,0:0:0:0:
469,169,106366,1,0,0:0:0:0:
490,224,106446,1,8,0:0:0:0:
472,277,106526,1,0,0:0:0:0:
427,305,106606,1,0,0:0:0:0:
377,302,106686,1,0,0:0:0:0:
339,272,106765,1,2,0:0:0:0:
315,233,106845,1,0,0:0:0:0:
281,205,106925,1,2,0:0:0:0:
242,191,107005,1,0,0:0:0:0:
203,191,107084,1,8,0:0:0:0:
167,201,107164,1,0,0:0:0:0:
138,220,107244,1,0,0:0:0:0:
116,245,107324,1,0,0:0:0:0:
101,273,107404,5,6,0:0:0:0:
98,219,107483,1,0,0:0:0:0:
85,167,107563,1,0,0:0:0:0:
61,119,107643,1,0,0:0:0:0:
28,76,107723,1,8,0:0:0:0:
76,100,107802,1,0,0:0:0:0:
129,108,107882,1,0,0:0:0:0:
182,100,107962,1,0,0:0:0:0:
231,76,108042,6,0,P|257:61|283:25,3,59.9999981689454,2|0|2|0,0:0|0:0|0:0|0:0,0:0:0:0:
418,155,108361,2,0,P|392:140|366:104,3,59.9999981689454,8|0|0|0,0:0|0:0|0:0|0:0,0:0:0:0:
304,257,108680,5,2,0:0:0:0:
261,315,108760,1,0,0:0:0:0:
196,324,108840,1,0,0:0:0:0:
146,292,108919,1,0,0:0:0:0:
128,241,108999,1,8,0:0:0:0:
142,195,109079,1,0,0:0:0:0:
169,159,109159,1,0,0:0:0:0:
170,119,109239,1,0,0:0:0:0:
152,86,109318,1,2,0:0:0:0:
124,68,109398,1,0,0:0:0:0:
94,65,109478,1,2,0:0:0:0:
67,72,109558,1,0,0:0:0:0:
47,88,109637,1,8,0:0:0:0:
34,107,109717,1,0,0:0:0:0:
29,127,109797,1,0,0:0:0:0:
29,145,109877,1,0,0:0:0:0:
32,162,109957,5,6,0:0:0:0:
62,229,110037,1,0,0:0:0:0:
127,256,110117,1,0,0:0:0:0:
192,237,110196,1,0,0:0:0:0:
232,185,110276,1,8,0:0:0:0:
246,122,110356,1,0,0:0:0:0:
281,73,110436,1,0,0:0:0:0:
334,47,110516,1,0,0:0:0:0:
391,48,110595,1,2,0:0:0:0:
440,72,110675,1,0,0:0:0:0:
473,113,110755,1,2,0:0:0:0:
486,162,110835,1,0,0:0:0:0:
479,210,110914,1,8,0:0:0:0:
461,240,110994,1,0,0:0:0:0:
446,250,111074,1,0,0:0:0:0:
431,260,111154,1,0,0:0:0:0:
415,268,111233,6,0,L|397:182,1,59.9999981689454,2|0,0:0|0:0,0:0:0:0:
394,263,111393,2,0,L|376:177,1,59.9999981689454
243,106,111552,6,0,L|255:165,1,59.9999981689454,8|0,0:0|0:0,0:0:0:0:
264,111,111712,2,0,L|276:170,1,59.9999981689454
283,285,111872,2,0,P|239:326|214:326,3,59.9999981689454,2|0|2|0,0:0|0:0|0:0|0:0,0:0:0:0:
60,256,112191,2,0,P|104:215|129:215,3,59.9999981689454,8|0|0|0,0:0|0:0|0:0|0:0,0:0:0:0:
132,372,112510,5,6,0:0:0:0:
184,367,112590,1,0,0:0:0:0:
226,341,112670,1,0,0:0:0:0:
249,300,112749,1,0,0:0:0:0:
251,255,112829,1,8,0:0:0:0:
233,215,112909,1,0,0:0:0:0:
203,187,112989,1,0,0:0:0:0:
169,167,113069,1,0,0:0:0:0:
148,135,113148,1,2,0:0:0:0:
142,100,113228,1,0,0:0:0:0:
150,66,113308,1,2,0:0:0:0:
169,40,113388,1,0,0:0:0:0:
196,23,113467,1,8,0:0:0:0:
225,16,113547,1,0,0:0:0:0:
254,20,113627,1,0,0:0:0:0:
278,32,113707,1,0,0:0:0:0:
297,50,113787,5,2,0:0:0:0:
313,70,113866,1,0,0:0:0:0:
333,83,113946,1,0,0:0:0:0:
354,91,114026,1,0,0:0:0:0:
376,93,114106,1,8,0:0:0:0:
397,90,114186,1,0,0:0:0:0:
415,82,114265,1,0,0:0:0:0:
431,72,114345,1,0,0:0:0:0:
443,59,114425,1,2,0:0:0:0:
452,34,114505,1,0,0:0:0:0:
440,10,114585,1,2,0:0:0:0:
415,0,114664,1,0,0:0:0:0:
389,5,114744,1,8,0:0:0:0:
369,25,114824,1,0,0:0:0:0:
365,53,114904,1,0,0:0:0:0:
380,77,114984,1,0,0:0:0:0:
404,94,115063,5,2,0:0:0:0:
420,120,115143,1,0,0:0:0:0:
425,150,115223,1,0,0:0:0:0:
418,179,115303,1,0,0:0:0:0:
408,209,115382,1,8,0:0:0:0:
406,240,115462,1,0,0:0:0:0:
414,271,115542,1,0,0:0:0:0:
431,299,115622,1,0,0:0:0:0:
454,320,115701,2,0,L|485:251,3,59.9999981689454,2|0|2|0,0:0|0:0|0:0|0:0,0:0:0:0:
325,257,116021,2,0,L|300:202,3,59.9999981689454,8|0|0|0,0:0|0:0|0:0|0:0,0:0:0:0:
190,312,116340,5,6,0:0:0:0:
155,308,116420,1,0,0:0:0:0:
129,288,116500,1,0,0:0:0:0:
118,260,116579,1,0,0:0:0:0:
122,233,116659,1,0,0:0:0:0:
139,214,116739,1,0,0:0:0:0:
147,191,116819,1,0,0:0:0:0:
148,169,116899,1,0,0:0:0:0:
143,150,116978,1,2,0:0:0:0:
133,134,117058,1,0,0:0:0:0:
121,122,117138,1,2,0:0:0:0:
107,114,117218,1,0,0:0:0:0:
93,110,117297,1,8,0:0:0:0:
79,109,117377,1,0,0:0:0:0:
67,113,117457,1,0,0:0:0:0:
58,121,117537,1,0,0:0:0:0:
55,132,117616,5,6,0:0:0:0:
97,191,117696,1,0,0:0:0:0:
161,211,117776,1,0,0:0:0:0:
222,191,117855,1,0,0:0:0:0:
255,142,117935,1,8,0:0:0:0:
292,98,118015,1,0,0:0:0:0:
341,77,118095,1,0,0:0:0:0:
392,80,118175,1,0,0:0:0:0:
434,103,118254,1,2,0:0:0:0:
461,139,118334,1,0,0:0:0:0:
472,181,118414,1,2,0:0:0:0:
467,221,118494,1,0,0:0:0:0:
450,255,118573,1,8,0:0:0:0:
424,280,118653,1,0,0:0:0:0:
394,295,118733,1,0,0:0:0:0:
363,301,118813,1,0,0:0:0:0:
333,298,118893,6,0,L|309:237,1,59.9999981689454,2|0,0:0|0:0,0:0:0:0:
310,290,119052,2,0,L|286:229,1,59.9999981689454
162,180,119212,2,0,L|186:119,1,59.9999981689454,8|0,0:0|0:0,0:0:0:0:
185,172,119371,2,0,L|209:111,1,59.9999981689454
63,142,119531,5,2,0:0:0:0:
71,213,119611,1,0,0:0:0:0:
113,244,119691,1,2,0:0:0:0:
140,269,119770,1,0,0:0:0:0:
146,294,119850,1,8,0:0:0:0:
143,313,119930,1,0,0:0:0:0:
137,324,120010,1,0,0:0:0:0:
131,332,120090,1,0,0:0:0:0:
126,336,120170,5,6,0:0:0:0:
197,289,120250,1,0,0:0:0:0:
279,299,120330,1,0,0:0:0:0:
342,345,120409,1,0,0:0:0:0:
414,334,120489,1,8,0:0:0:0:
454,277,120568,1,0,0:0:0:0:
443,211,120649,1,0,0:0:0:0:
394,171,120729,1,0,0:0:0:0:
334,172,120808,1,2,0:0:0:0:
288,207,120888,1,0,0:0:0:0:
236,223,120968,1,2,0:0:0:0:
184,218,121048,1,0,0:0:0:0:
140,196,121127,1,8,0:0:0:0:
108,161,121207,1,0,0:0:0:0:
91,120,121287,1,0,0:0:0:0:
88,78,121367,1,0,0:0:0:0:
98,39,121446,5,2,0:0:0:0:
173,71,121526,1,0,0:0:0:0:
207,140,121606,1,0,0:0:0:0:
190,209,121685,1,0,0:0:0:0:
183,276,121765,1,8,0:0:0:0:
208,333,121845,1,0,0:0:0:0:
254,370,121925,1,0,0:0:0:0:
307,384,122005,1,0,0:0:0:0:
358,376,122084,1,2,0:0:0:0:
399,351,122164,1,0,0:0:0:0:
427,316,122244,1,2,0:0:0:0:
441,276,122324,1,0,0:0:0:0:
438,233,122404,5,8,0:0:0:0:
366,204,122483,1,0,0:0:0:0:
292,224,122563,1,0,0:0:0:0:
245,284,122643,1,0,0:0:0:0:
242,363,122723,2,0,L|312:328,1,59.9999981689454,2|0,0:0|0:0,0:0:0:0:
264,372,122882,2,0,L|334:337,1,59.9999981689454
150,250,123042,6,0,L|80:215,1,59.9999981689454,8|0,0:0|0:0,0:0:0:0:
128,259,123201,2,0,L|58:224,1,59.9999981689454
254,159,123361,6,0,L|324:124,1,59.9999981689454,2|0,0:0|0:0,0:0:0:0:
276,168,123520,2,0,L|346:133,1,59.9999981689454,2|0,0:0|0:0,0:0:0:0:
442,271,123680,6,0,L|372:236,1,59.9999981689454,8|0,0:0|0:0,0:0:0:0:
295,351,123840,6,0,L|365:316,1,59.9999981689454
437,252,123999,6,0,L|367:217,1,59.9999981689454,2|0,0:0|0:0,0:0:0:0:
301,369,124159,6,0,L|371:334,1,59.9999981689454
324,134,124318,6,0,L|378:108,1,59.9999981689454,8|0,0:0|0:0,0:0:0:0:
295,251,124478,6,0,L|242:225,1,59.9999981689454
330,152,124637,6,0,L|384:126,1,59.9999981689454,2|0,0:0|0:0,0:0:0:0:
290,232,124797,6,0,L|237:206,1,59.9999981689454,2|0,0:0|0:0,0:0:0:0:
139,112,124957,2,0,L|192:85,1,59.9999981689454,8|0,0:0|0:0,0:0:0:0:
144,92,125116,2,0,L|197:65,1,59.9999981689454
43,149,125276,5,2,0:0:0:0:
48,159,125355,1,0,0:0:0:0:
53,169,125435,1,0,0:0:0:0:
58,179,125515,1,0,0:0:0:0:
63,189,125595,1,8,0:0:0:0:
68,199,125674,1,0,0:0:0:0:
73,209,125754,1,0,0:0:0:0:
78,219,125834,1,0,0:0:0:0:
83,229,125914,1,2,0:0:0:0:
88,239,125994,1,0,0:0:0:0:
93,249,126073,1,2,0:0:0:0:
98,259,126153,1,0,0:0:0:0:
103,269,126233,1,8,0:0:0:0:
108,279,126313,1,0,0:0:0:0:
113,289,126393,1,0,0:0:0:0:
118,299,126472,1,0,0:0:0:0:
123,311,126552,6,0,L|108:350,1,25,2|0,0:0|0:0,0:0:0:0:
172,343,126632,2,0,L|164:367,1,25
230,357,126712,2,0,L|220:401,1,25
290,351,126792,2,0,L|300:391,1,25
343,325,126872,2,0,L|363:361,1,25,8|0,0:0|0:0,0:0:0:0:
386,283,126951,2,0,L|412:306,1,25
411,229,127031,2,0,L|448:242,1,25
417,170,127111,2,0,L|458:164,1,25
372,92,127191,6,0,L|392:45,1,37.5000014305115,2|0,0:0|0:0,0:0:0:0:
306,57,127270,2,0,L|308:20,1,37.5000014305115
231,57,127350,2,0,L|215:11,1,37.5000014305115,2|0,0:0|0:0,0:0:0:0:
165,91,127430,2,0,L|130:52,1,37.5000014305115
122,151,127510,2,0,L|66:138,1,37.5000014305115,8|0,0:0|0:0,0:0:0:0:
112,225,127590,2,0,L|61:249,1,37.5000014305115
136,295,127669,2,0,L|108:335,1,37.5000014305115
190,346,127749,2,0,L|196:391,1,37.5000014305115
274,357,127829,6,0,P|308:270|244:171,1,200,8|0,0:0|0:0,0:0:0:0:
227,82,128308,2,0,P|180:166|213:257,1,200,8|0,0:0|0:0,0:0:0:0:
260,181,128787,2,0,P|306:96|273:5,1,200,8|0,0:0|0:0,0:0:0:0:
