osu file format v14

[General]
AudioFilename: audio.mp3
AudioLeadIn: 0
PreviewTime: 137394
Countdown: 0
SampleSet: Soft
StackLeniency: 0.4
Mode: 0
LetterboxInBreaks: 0
WidescreenStoryboard: 1

[Editor]
Bookmarks: 61436,109308,148245,168750,173776,287394
DistanceSpacing: 1.3
BeatDivisor: 4
GridSize: 32
TimelineZoom: 2.499998

[Metadata]
Title:Sidetracked Day
TitleUnicode:Sidetracked Day
Artist:VINXIS
ArtistUnicode:VINXIS
Creator:Hi5TBone
Version:Insane
Source:
Tags:drum and bass dnb drumstep Mishima Yurara featured artist
BeatmapID:1699402
BeatmapSetID:798299

[Difficulty]
HPDrainRate:5
CircleSize:4
OverallDifficulty:7
ApproachRate:9.2
SliderMultiplier:1
SliderTickRate:1

[Events]
//Background and Video events
0,0,"std.jpg",0,0
//Break Periods
//Storyboard Layer 0 (Background)
//Storyboard Layer 1 (Fail)
//Storyboard Layer 2 (Pass)
//Storyboard Layer 3 (Foreground)
//Storyboard Sound Samples

[TimingPoints]
160,638.297872340426,4,2,2,70,1,0
15479,-133.333333333333,4,2,2,70,0,0
41011,319.148936170213,4,2,2,70,1,0
41011,-117.647058823529,4,2,2,70,0,0
49947,-80,4,2,2,70,0,0
51223,-117.647058823529,4,2,2,70,0,0
60159,-79.9999999999999,4,2,2,70,0,0
108351,-47.6190476190476,4,2,2,70,0,0
108511,-80,4,2,2,70,0,0
148245,-71.4285714285714,4,2,2,70,0,1
168670,-250,4,2,2,70,0,0
209521,-80,4,2,2,70,0,0
250372,-399.999999999997,4,2,2,70,0,0
251649,-71.4285714285714,4,2,2,70,0,1
287234,-71.4285714285714,4,2,2,70,0,0
291223,-133.333333333333,4,2,2,70,0,0
291782,-80,4,2,2,70,0,0
333351,-133.333333333333,4,2,2,70,0,0

[Colours]
Combo1 : 53,50,107
Combo2 : 130,96,174
Combo3 : 253,88,92
Combo4 : 229,128,170

[HitObjects]
193,125,15479,5,0,0:0:0:0:
195,126,17394,5,0,0:0:0:0:
209,203,17713,1,0,0:0:0:0:
271,156,18032,2,0,P|278:127|231:46,1,112.500004291535
246,55,19947,5,0,0:0:0:0:
193,113,20266,1,0,0:0:0:0:
270,126,20585,2,0,P|272:152|221:228,1,112.500004291535
232,219,22500,5,0,0:0:0:0:
309,233,22819,1,0,0:0:0:0:
288,156,23138,2,0,P|250:138|166:142,1,112.500004291535
180,137,25053,5,0,0:0:0:0:
125,193,25372,1,0,0:0:0:0:
107,116,25691,2,0,P|114:89|190:53,1,112.500004291535
184,52,27606,5,0,0:0:0:0:
191,130,27925,1,0,0:0:0:0:
255,84,28245,2,0,P|274:115|238:186,1,112.500004291535
247,180,30160,5,0,0:0:0:0:
114,265,30798,1,0,0:0:0:0:
114,265,32713,5,0,0:0:0:0:
93,188,33032,1,0,0:0:0:0:
168,211,33351,2,0,P|191:240|182:321,1,112.500004291535
187,312,35266,5,0,0:0:0:0:
249,263,35585,1,0,0:0:0:0:
173,240,35904,2,0,P|174:216|257:184,1,112.500004291535
243,177,37819,5,0,0:0:0:0:
321,184,38138,1,0,0:0:0:0:
292,110,38457,2,0,P|266:103|186:131,1,112.500004291535
187,129,40372,5,0,0:0:0:0:
185,207,40691,1,0,0:0:0:0:
255,171,41011,6,0,P|281:155|304:97,2,85.0000016212464
181,228,41968,2,0,P|157:232|101:189,1,85.0000016212464
135,113,42606,1,0,0:0:0:0:
218,155,42925,1,0,0:0:0:0:
310,137,43245,1,0,0:0:0:0:
251,278,43564,6,0,P|221:278|157:258,2,85.0000016212464
343,264,44521,2,0,P|396:245|417:209,1,85.0000016212464
462,144,45159,1,0,0:0:0:0:
437,53,45479,1,0,0:0:0:0:
364,112,45798,1,0,0:0:0:0:
245,31,46117,6,0,P|217:31|160:57,2,85.0000016212464
310,97,47074,2,0,P|336:130|354:177,1,85.0000016212464
366,262,47713,1,0,0:0:0:0:
302,330,48032,1,0,0:0:0:0:
211,351,48351,1,0,0:0:0:0:
54,296,48670,6,0,P|42:257|53:195,2,85.0000016212464
139,335,49628,1,0,0:0:0:0:
230,314,49947,6,0,P|257:299|300:274,1,62.5
220,307,50266,2,0,P|247:292|290:267,1,62.5
209,299,50585,2,0,P|236:284|279:259,1,62.5
199,293,50904,2,0,P|226:278|269:253,1,62.5
396,225,51223,6,0,P|406:190|398:132,2,85.0000016212464
320,280,52181,2,0,P|296:291|227:287,1,85.0000016212464
161,238,52819,1,0,0:0:0:0:
202,154,53138,1,0,0:0:0:0:
142,81,53457,1,0,0:0:0:0:
52,193,53776,6,0,P|55:217|85:278,2,85.0000016212464
64,100,54734,2,0,P|79:64|117:38,1,85.0000016212464
197,84,55372,1,0,0:0:0:0:
279,40,55691,1,0,0:0:0:0:
353,96,56011,1,0,0:0:0:0:
466,191,56330,6,0,P|480:220|483:289,2,85.0000016212464
430,104,57287,2,0,P|398:69|349:62,1,85.0000016212464
269,53,57925,1,0,0:0:0:0:
192,107,58245,1,0,0:0:0:0:
241,186,58564,1,0,0:0:0:0:
131,181,58883,6,0,P|113:219|108:261,2,85.0000016212464
187,106,59840,1,0,0:0:0:0:
319,140,60159,6,0,L|292:220,1,62.5
339,142,60479,2,0,L|312:222,1,62.5
358,144,60798,2,0,L|331:224,1,62.5
378,147,61117,2,0,L|351:227,1,62.5
291,312,61436,6,0,P|246:326|159:276,1,125
122,214,61915,1,0,0:0:0:0:
217,185,62074,2,0,P|256:176|301:176,1,62.5
346,242,62393,2,0,P|325:289|254:318,1,125
117,254,62872,5,0,0:0:0:0:
117,254,62952,1,0,0:0:0:0:
117,254,63032,1,0,0:0:0:0:
72,132,63351,2,0,P|91:96|181:76,1,125
227,152,63830,1,0,0:0:0:0:
396,243,63989,6,0,P|377:279|287:299,1,125
204,273,64468,1,0,0:0:0:0:
258,189,64628,2,0,P|294:159|335:153,1,62.5
406,174,64947,2,0,P|406:207|335:286,1,125
231,276,65425,5,0,0:0:0:0:
231,276,65505,1,0,0:0:0:0:
231,276,65585,1,0,0:0:0:0:
299,154,65904,2,0,L|401:70,1,125
494,92,66383,1,0,0:0:0:0:
430,222,66542,6,0,P|411:254|336:309,1,125
251,263,67021,1,0,0:0:0:0:
332,204,67181,2,0,P|360:171|366:153,1,62.5
276,108,67500,2,0,P|238:132|188:227,1,125
166,326,67979,5,0,0:0:0:0:
166,326,68058,1,0,0:0:0:0:
166,326,68138,1,0,0:0:0:0:
67,152,68457,2,0,P|73:112|147:57,1,125
234,62,68936,1,0,0:0:0:0:
270,219,69096,6,0,P|269:269|276:355,1,125
373,353,69574,1,0,0:0:0:0:
378,252,69734,2,0,P|378:207|374:167,1,62.5
279,163,70053,1,0,0:0:0:0:
280,62,70213,1,0,0:0:0:0:
191,107,70372,6,0,P|162:128|142:173,1,62.5
176,94,70691,2,0,P|147:115|127:160,1,62.5
155,78,71011,2,0,P|126:99|106:144,1,62.5
139,64,71330,2,0,P|110:85|90:130,1,62.5
104,227,71649,6,0,P|106:271|171:337,1,125
256,336,72128,1,0,0:0:0:0:
248,236,72287,2,0,L|202:172,1,62.5
311,188,72606,2,0,P|353:223|369:315,1,125
242,334,73085,5,0,0:0:0:0:
242,334,73165,1,0,0:0:0:0:
242,334,73245,1,0,0:0:0:0:
400,211,73564,2,0,P|427:174|433:87,1,125
352,42,74042,1,0,0:0:0:0:
225,119,74202,6,0,P|225:167|213:257,1,125
123,281,74681,1,0,0:0:0:0:
122,181,74840,2,0,P|124:136|136:95,1,62.5
184,36,75159,2,0,P|218:27|320:32,1,125
418,105,75638,5,0,0:0:0:0:
418,105,75718,1,0,0:0:0:0:
418,105,75798,1,0,0:0:0:0:
367,298,76117,2,0,P|322:296|250:263,1,125
325,196,76596,1,0,0:0:0:0:
210,167,76755,6,0,P|178:159|89:109,1,125
186,70,77234,1,0,0:0:0:0:
277,108,77393,2,0,P|290:138|291:185,1,62.5
206,240,77713,2,0,P|160:227|73:198,1,125
68,78,78191,5,0,0:0:0:0:
68,78,78271,1,0,0:0:0:0:
68,78,78351,1,0,0:0:0:0:
255,148,78670,2,0,P|298:162|370:207,1,125
400,297,79149,1,0,0:0:0:0:
279,309,79308,6,0,P|227:300|126:294,1,125
65,338,79787,1,0,0:0:0:0:
89,240,79947,2,0,P|135:214|163:213,1,62.5
242,228,80266,2,0,P|304:233|371:254,1,125
447,206,80904,5,0,0:0:0:0:
360,68,81223,1,0,0:0:0:0:
229,165,81542,1,0,0:0:0:0:
96,89,81862,5,0,0:0:0:0:
62,178,82021,1,0,0:0:0:0:
90,270,82181,1,0,0:0:0:0:
186,269,82340,5,0,0:0:0:0:
214,177,82500,1,0,0:0:0:0:
180,88,82659,1,0,0:0:0:0:
92,79,82819,5,0,0:0:0:0:
53,177,82978,1,0,0:0:0:0:
84,278,83138,1,0,0:0:0:0:
190,278,83297,5,0,0:0:0:0:
221,176,83457,1,0,0:0:0:0:
183,78,83616,1,0,0:0:0:0:
134,180,83776,5,0,0:0:0:0:
255,105,83936,1,0,0:0:0:0:
279,245,84096,1,0,0:0:0:0:
400,171,84256,1,0,0:0:0:0:
255,109,84415,5,0,0:0:0:0:
165,74,84574,1,0,0:0:0:0:
72,104,84734,1,0,0:0:0:0:
73,200,84893,5,0,0:0:0:0:
166,228,85053,1,0,0:0:0:0:
256,193,85212,1,0,0:0:0:0:
263,105,85372,5,0,0:0:0:0:
165,68,85531,1,0,0:0:0:0:
63,98,85691,1,0,0:0:0:0:
64,204,85850,5,0,0:0:0:0:
166,235,86010,1,0,0:0:0:0:
264,197,86169,1,0,0:0:0:0:
263,105,86330,5,0,0:0:0:0:
229,290,86489,1,0,0:0:0:0:
230,25,86649,5,0,0:0:0:0:
264,197,86808,1,0,0:0:0:0:
459,172,86968,6,0,P|452:127|450:108,1,62.5
362,20,87287,1,0,0:0:0:0:
284,105,87447,1,0,0:0:0:0:
284,105,87526,1,0,0:0:0:0:
284,105,87606,1,0,0:0:0:0:
364,192,87766,1,0,0:0:0:0:
364,192,87925,2,0,P|396:218|408:258,1,62.5
288,285,88245,6,0,P|242:260|233:231,1,62.5
192,149,88564,2,0,P|238:174|247:203,1,62.5
283,314,88883,2,0,P|237:289|228:260,1,62.5
215,117,89202,2,0,P|261:142|270:171,1,62.5
130,204,89521,6,0,P|125:160|131:123,1,62.5
158,20,89840,1,0,0:0:0:0:
264,117,90000,2,0,L|264:168,2,31.25
334,13,90319,1,0,0:0:0:0:
334,13,90479,2,0,P|385:5|415:4,1,62.5
405,114,90798,6,0,P|402:144|382:168,1,62.5
425,122,91117,2,0,P|422:152|402:176,1,62.5
448,133,91436,2,0,P|445:163|425:187,1,62.5
471,144,91755,2,0,P|468:174|448:198,1,62.5
353,281,92074,6,0,P|311:274|272:248,1,62.5
216,166,92393,1,0,0:0:0:0:
336,129,92553,2,0,L|370:120,1,31.25
397,114,92713,1,0,0:0:0:0:
425,242,92872,1,0,0:0:0:0:
425,242,93032,2,0,P|401:283|376:302,1,62.5
249,298,93351,6,0,L|175:274,1,62.5
118,175,93670,2,0,L|192:199,1,62.5
253,326,93989,2,0,L|179:302,1,62.5
113,138,94308,2,0,L|187:162,1,62.5
333,203,94628,6,0,P|322:161|294:128,1,62.5
223,65,94947,1,0,0:0:0:0:
248,180,95106,1,0,0:0:0:0:
248,180,95186,1,0,0:0:0:0:
248,180,95266,1,0,0:0:0:0:
152,250,95425,1,0,0:0:0:0:
152,250,95585,2,0,L|145:176,1,62.5
90,82,95904,6,0,L|162:82,1,62.5
91,66,96223,2,0,L|163:66,1,62.5
218,39,96542,6,0,L|155:39,1,62.5
219,23,96862,2,0,L|156:23,1,62.5
330,47,97181,6,0,P|330:100|313:117,1,62.5
268,216,97500,1,0,0:0:0:0:
379,159,97659,2,0,L|420:149,2,31.25
334,287,97979,1,0,0:0:0:0:
334,287,98138,2,0,P|388:276|403:252,1,62.5
255,183,98457,6,0,P|220:204|201:234,1,62.5
213,310,98776,2,0,P|248:289|267:259,1,62.5
253,143,99096,2,0,P|218:164|199:194,1,62.5
218,340,99415,2,0,P|253:319|272:289,1,62.5
121,276,99734,6,0,P|118:320|140:348,1,62.5
212,254,100053,1,0,0:0:0:0:
331,257,100213,2,0,L|357:229,1,31.25
376,203,100372,1,0,0:0:0:0:
258,183,100532,1,0,0:0:0:0:
258,183,100691,2,0,P|223:182|181:203,1,62.5
62,180,101011,6,0,P|61:120|64:105,1,62.5
46,178,101330,2,0,P|45:118|48:103,1,62.5
32,177,101649,2,0,P|31:117|34:102,1,62.5
17,175,101968,2,0,P|16:115|19:100,1,62.5
105,36,102287,6,0,P|139:32|191:41,1,62.5
272,101,102606,1,0,0:0:0:0:
158,154,102766,1,0,0:0:0:0:
158,154,102846,1,0,0:0:0:0:
158,154,102925,1,0,0:0:0:0:
281,192,103085,1,0,0:0:0:0:
281,192,103245,2,0,P|323:161|329:146,1,62.5
366,49,103564,6,0,P|403:88|413:103,1,62.5
410,214,103883,2,0,P|373:175|363:160,1,62.5
388,23,104202,2,0,P|425:62|435:77,1,62.5
374,220,104521,2,0,P|337:181|327:166,1,62.5
461,209,104840,6,0,P|455:253|440:291,1,62.5
326,308,105159,1,0,0:0:0:0:
252,206,105319,2,0,L|282:191,2,31.25
370,145,105638,1,0,0:0:0:0:
370,145,105798,2,0,P|430:152|447:163,1,62.5
435,229,106117,6,0,L|390:287,1,62.5
446,240,106436,2,0,L|401:298,1,62.5
389,350,106755,6,0,L|434:292,1,62.5
400,361,107074,2,0,L|445:303,1,62.5
273,340,107393,5,0,0:0:0:0:
161,282,107553,1,0,0:0:0:0:
47,334,107713,1,0,0:0:0:0:
103,222,107872,1,0,0:0:0:0:
228,224,108032,1,0,0:0:0:0:
273,340,108191,1,0,0:0:0:0:
161,282,108351,6,0,L|164:143,1,104.999996795654
171,35,108670,6,0,P|207:37|250:54,1,62.5
323,130,108989,1,0,0:0:0:0:
442,91,109149,2,0,L|475:108,2,31.25
396,207,109468,1,0,0:0:0:0:
396,207,109628,2,0,L|390:284,1,62.5
259,226,109947,6,0,L|259:137,1,62.5
317,52,110266,1,0,0:0:0:0:
193,69,110425,2,0,L|160:80,1,31.25
137,87,110585,1,0,0:0:0:0:
164,209,110745,1,0,0:0:0:0:
164,209,110904,2,0,P|178:255|208:272,1,62.5
333,279,111223,6,0,L|379:226,1,62.5
349,289,111542,2,0,L|395:236,1,62.5
360,297,111862,2,0,L|406:244,1,62.5
376,307,112181,2,0,L|422:254,1,62.5
476,143,112500,6,0,P|473:102|449:59,1,62.5
353,26,112819,1,0,0:0:0:0:
280,128,112979,1,0,0:0:0:0:
280,128,113058,1,0,0:0:0:0:
280,128,113138,1,0,0:0:0:0:
375,209,113298,1,0,0:0:0:0:
375,209,113457,2,0,L|286:209,1,62.5
167,211,113776,6,0,P|138:185|137:149,1,62.5
181,46,114096,1,0,0:0:0:0:
58,67,114255,2,0,L|60:109,2,31.25
66,192,114574,1,0,0:0:0:0:
66,192,114734,2,0,P|73:231|91:262,1,62.5
191,330,115053,6,0,L|210:246,1,62.5
259,156,115372,1,0,0:0:0:0:
134,138,115532,1,0,0:0:0:0:
134,138,115612,1,0,0:0:0:0:
134,138,115691,1,0,0:0:0:0:
112,261,115851,1,0,0:0:0:0:
112,261,116011,2,0,L|105:330,1,62.5
245,343,116330,6,0,P|267:318|292:273,1,62.5
259,351,116649,2,0,P|281:326|306:281,1,62.5
359,264,116968,6,0,P|342:290|321:313,1,62.5
373,272,117287,2,0,P|356:298|335:321,1,62.5
410,198,117606,6,0,P|429:165|431:125,1,62.5
354,33,117925,1,0,0:0:0:0:
268,124,118085,2,0,L|233:169,2,31.25
190,25,118404,1,0,0:0:0:0:
190,25,118564,2,0,L|180:103,1,62.5
173,212,118883,6,0,L|192:293,1,62.5
279,357,119202,1,0,0:0:0:0:
335,245,119362,2,0,L|337:197,1,31.25
339,183,119521,1,0,0:0:0:0:
230,119,119681,1,0,0:0:0:0:
230,119,119840,2,0,L|156:129,1,62.5
38,241,120159,6,0,P|84:246|113:258,1,62.5
179,348,120479,1,0,0:0:0:0:
265,258,120638,1,0,0:0:0:0:
265,258,120718,1,0,0:0:0:0:
265,258,120798,1,0,0:0:0:0:
345,353,120957,1,0,0:0:0:0:
345,353,121117,2,0,L|413:338,1,62.5
423,214,121436,6,0,L|425:137,1,62.5
436,212,121755,2,0,L|438:135,1,62.5
453,210,122074,2,0,L|455:133,1,62.5
466,208,122393,2,0,L|468:131,1,62.5
371,39,122713,6,0,L|297:56,1,62.5
197,108,123032,1,0,0:0:0:0:
300,177,123191,2,0,L|338:178,2,31.25
188,235,123511,1,0,0:0:0:0:
188,235,123670,2,0,L|104:229,1,62.5
59,75,123989,6,0,L|131:80,1,62.5
246,91,124308,1,0,0:0:0:0:
157,179,124468,2,0,L|114:173,1,31.25
91,165,124628,1,0,0:0:0:0:
59,44,124787,1,0,0:0:0:0:
59,44,124947,2,0,P|91:34|132:34,1,62.5
265,41,125266,6,0,L|331:58,1,62.5
423,134,125585,1,0,0:0:0:0:
302,166,125745,1,0,0:0:0:0:
302,166,125824,1,0,0:0:0:0:
302,166,125904,1,0,0:0:0:0:
411,227,126064,1,0,0:0:0:0:
411,227,126223,2,0,P|352:242|328:242,1,62.5
216,249,126542,6,0,L|201:174,1,62.5
195,250,126862,2,0,L|180:175,1,62.5
176,133,127181,6,0,L|161:208,1,62.5
155,132,127500,2,0,L|140:207,1,62.5
123,61,127819,6,0,L|194:64,1,62.5
291,130,128138,1,0,0:0:0:0:
208,224,128298,2,0,L|163:262,2,31.25
332,206,128617,1,0,0:0:0:0:
332,206,128776,2,0,P|355:170|368:136,1,62.5
426,43,129096,6,0,P|470:61|482:98,1,62.5
481,197,129415,1,0,0:0:0:0:
387,279,129574,2,0,L|351:293,1,31.25
327,302,129734,1,0,0:0:0:0:
212,253,129893,1,0,0:0:0:0:
212,253,130053,2,0,L|169:207,1,62.5
223,88,130372,6,0,L|281:127,1,62.5
363,211,130691,1,0,0:0:0:0:
238,193,130851,1,0,0:0:0:0:
238,193,130931,1,0,0:0:0:0:
238,193,131011,1,0,0:0:0:0:
132,127,131170,1,0,0:0:0:0:
132,127,131330,2,0,L|67:80,1,62.5
203,61,131649,6,0,L|274:111,1,62.5
217,46,131968,2,0,L|288:96,1,62.5
230,31,132287,2,0,L|301:81,1,62.5
244,16,132606,2,0,L|315:66,1,62.5
441,118,132925,6,0,L|398:173,1,62.5
292,228,133245,1,0,0:0:0:0:
190,155,133404,2,0,L|146:127,2,31.25
294,85,133723,1,0,0:0:0:0:
294,85,133883,2,0,P|337:86|385:94,1,62.5
451,169,134202,6,0,L|450:252,1,62.5
373,330,134521,1,0,0:0:0:0:
282,243,134681,2,0,L|245:208,1,31.25
241,201,134840,1,0,0:0:0:0:
144,281,135000,1,0,0:0:0:0:
144,281,135159,2,0,P|111:250|104:223,1,62.5
78,105,135479,6,0,P|111:93|147:93,1,62.5
245,155,135798,1,0,0:0:0:0:
345,81,135957,1,0,0:0:0:0:
345,81,136037,1,0,0:0:0:0:
345,81,136117,1,0,0:0:0:0:
420,180,136276,1,0,0:0:0:0:
420,180,136436,2,0,P|381:205|354:216,1,62.5
244,263,136755,6,0,L|216:202,1,62.5
226,268,137074,2,0,L|198:207,1,62.5
160,148,137393,1,0,0:0:0:0:
215,28,137553,1,0,0:0:0:0:
267,148,137713,1,0,0:0:0:0:
326,31,137872,1,0,0:0:0:0:
421,142,138032,6,0,P|415:182|384:277,1,125
280,322,138511,1,0,0:0:0:0:
307,200,138670,2,0,P|313:161|328:112,1,62.5
417,17,138989,2,0,P|425:100|418:151,1,125
406,265,139468,5,0,0:0:0:0:
406,265,139548,1,0,0:0:0:0:
406,265,139628,1,0,0:0:0:0:
194,254,139947,2,0,P|154:242|68:195,1,125
53,82,140425,1,0,0:0:0:0:
169,36,140585,6,0,P|231:32|315:48,1,125
373,137,141064,1,0,0:0:0:0:
260,190,141223,2,0,P|219:197|189:193,1,62.5
98,118,141542,2,0,P|153:100|235:115,1,125
311,192,142021,5,0,0:0:0:0:
311,192,142101,1,0,0:0:0:0:
311,192,142181,1,0,0:0:0:0:
181,353,142500,2,0,P|129:355|33:339,1,125
35,222,142979,1,0,0:0:0:0:
177,208,143138,6,0,P|219:219|328:207,1,125
418,175,143617,1,0,0:0:0:0:
298,139,143776,2,0,P|254:140|210:133,1,62.5
141,54,144096,2,0,P|197:41|281:43,1,125
393,60,144574,5,0,0:0:0:0:
393,60,144654,1,0,0:0:0:0:
393,60,144734,1,0,0:0:0:0:
387,243,145053,2,0,L|277:327,1,125
163,334,145532,1,0,0:0:0:0:
54,254,145691,6,0,P|55:142|61:112,1,125
153,49,146170,1,0,0:0:0:0:
237,141,146330,2,0,L|239:204,1,62.5
163,303,146649,1,0,0:0:0:0:
38,295,146808,1,0,0:0:0:0:
58,183,146968,6,0,P|88:164|108:135,1,62.5
70,195,147287,2,0,P|100:176|120:147,1,62.5
195,136,147606,6,0,P|165:155|145:184,1,62.5
207,148,147925,2,0,P|177:167|157:196,1,62.5
152,55,148245,6,0,L|215:81,3,34.9999989318848
281,122,148564,2,0,L|313:167,3,34.9999989318848
320,256,148883,2,0,L|317:315,3,34.9999989318848
229,347,149202,2,0,L|179:343,1,34.9999989318848
107,282,149362,2,0,L|92:221,1,34.9999989318848
64,148,149521,6,0,L|39:111,3,34.9999989318848
136,74,149840,2,0,L|154:29,3,34.9999989318848
254,47,150159,2,0,L|321:51,3,34.9999989318848
382,99,150479,1,0,0:0:0:0:
404,138,150558,1,0,0:0:0:0:
411,182,150638,1,0,0:0:0:0:
402,227,150718,1,0,0:0:0:0:
376,264,150798,6,0,L|340:320,3,34.9999989318848
462,295,151117,2,0,P|486:260|480:244,3,34.9999989318848
484,162,151436,2,0,L|465:122,3,34.9999989318848
397,52,151755,2,0,L|344:45,1,34.9999989318848
270,101,151915,2,0,L|228:103,1,34.9999989318848
147,43,152074,6,0,L|80:42,3,34.9999989318848
52,129,152393,2,0,L|36:164,3,34.9999989318848
72,261,152713,2,0,L|114:311,3,34.9999989318848
198,305,153032,1,0,0:0:0:0:
239,286,153112,1,0,0:0:0:0:
271,254,153191,1,0,0:0:0:0:
289,212,153271,1,0,0:0:0:0:
307,170,153351,6,0,L|321:130,3,34.9999989318848
373,48,153670,2,0,L|418:32,3,34.9999989318848
501,79,153989,2,0,L|507:123,3,34.9999989318848
487,217,154308,2,0,L|480:264,1,34.9999989318848
444,351,154468,2,0,L|401:359,1,34.9999989318848
309,321,154628,6,0,L|252:324,3,34.9999989318848
177,295,154947,2,0,L|142:267,3,34.9999989318848
151,167,155266,2,0,L|158:104,3,34.9999989318848
236,65,155585,1,0,0:0:0:0:
276,55,155665,1,0,0:0:0:0:
318,54,155745,1,0,0:0:0:0:
359,64,155824,1,0,0:0:0:0:
399,86,155904,6,0,L|421:124,3,34.9999989318848
359,204,156223,2,0,L|306:212,3,34.9999989318848
219,201,156542,2,0,L|162:194,3,34.9999989318848
77,195,156862,2,0,L|30:167,1,34.9999989318848
49,71,157021,2,0,L|88:47,1,34.9999989318848
178,15,157181,6,0,L|219:12,3,34.9999989318848
306,60,157500,2,0,L|366:45,3,34.9999989318848
289,144,157819,2,0,L|233:165,3,34.9999989318848
191,239,158138,1,0,0:0:0:0:
150,257,158218,1,0,0:0:0:0:
105,252,158298,1,0,0:0:0:0:
69,225,158378,1,0,0:0:0:0:
69,179,158457,6,0,L|113:152,3,34.9999989318848
170,84,158776,2,0,L|225:83,3,34.9999989318848
304,120,159096,2,0,L|360:120,3,34.9999989318848
442,136,159415,2,0,L|504:159,1,34.9999989318848
457,252,159574,2,0,L|404:243,1,34.9999989318848
425,342,159734,6,0,L|387:361,3,34.9999989318848
297,314,160053,2,0,L|253:310,3,34.9999989318848
162,345,160372,2,0,L|102:350,3,34.9999989318848
50,275,160691,1,0,0:0:0:0:
37,231,160771,1,0,0:0:0:0:
33,186,160851,1,0,0:0:0:0:
39,141,160931,1,0,0:0:0:0:
60,99,161011,6,0,L|91:67,3,34.9999989318848
184,40,161330,2,0,L|231:42,3,34.9999989318848
308,97,161649,2,0,L|362:118,3,34.9999989318848
418,180,161968,2,0,L|436:226,1,34.9999989318848
380,306,162128,2,0,L|338:337,1,34.9999989318848
259,276,162287,6,0,L|210:280,3,34.9999989318848
140,342,162606,2,0,L|94:335,3,34.9999989318848
59,241,162925,2,0,L|56:205,3,34.9999989318848
112,115,163245,1,0,0:0:0:0:
143,82,163324,1,0,0:0:0:0:
182,59,163404,1,0,0:0:0:0:
226,48,163484,1,0,0:0:0:0:
272,51,163564,6,0,L|325:59,3,34.9999989318848
385,126,163883,2,0,L|415:152,3,34.9999989318848
427,252,164202,2,0,L|418:299,3,34.9999989318848
323,327,164521,2,0,L|267:339,1,34.9999989318848
182,323,164681,2,0,L|131:302,1,34.9999989318848
93,220,164840,6,0,L|157:226,3,34.9999989318848
233,220,165159,2,0,L|279:220,3,34.9999989318848
372,196,165479,2,0,L|418:161,3,34.9999989318848
433,75,165798,1,0,0:0:0:0:
397,46,165878,1,0,0:0:0:0:
355,29,165957,1,0,0:0:0:0:
310,26,166037,1,0,0:0:0:0:
265,33,166117,6,0,L|201:55,3,34.9999989318848
147,107,166436,2,0,L|127:152,3,34.9999989318848
142,243,166755,2,0,L|168:276,3,34.9999989318848
253,325,167074,2,0,L|286:341,1,34.9999989318848
391,342,167234,2,0,L|443:309,1,34.9999989318848
444,220,167393,6,0,L|461:179,3,34.9999989318848
438,83,167713,2,0,L|415:37,3,34.9999989318848
318,36,168032,2,0,L|262:32,3,34.9999989318848
179,49,168351,1,0,0:0:0:0:
141,73,168431,1,0,0:0:0:0:
116,111,168511,1,0,0:0:0:0:
108,156,168590,1,0,0:0:0:0:
123,185,168670,5,0,0:0:0:0:
256,192,168909,12,0,173776,0:0:0:0:
124,84,175691,5,0,0:0:0:0:
157,182,176011,1,0,0:0:0:0:
221,100,176330,2,0,P|237:128|236:215,1,120
236,213,178245,5,0,0:0:0:0:
236,213,178883,2,0,P|262:214|395:169,1,160
387,174,180798,5,0,0:0:0:0:
292,127,181117,1,0,0:0:0:0:
228,190,181436,2,0,P|222:217|271:295,1,120
265,292,183351,5,0,0:0:0:0:
342,222,183670,1,0,0:0:0:0:
290,134,183989,2,0,P|261:117|135:125,1,160
139,122,185904,5,0,0:0:0:0:
204,213,186223,1,0,0:0:0:0:
281,144,186542,2,0,P|304:127|396:136,1,120
390,132,188457,5,0,0:0:0:0:
353,227,188776,1,0,0:0:0:0:
309,126,189096,2,0,P|298:108|175:53,1,160
177,52,191011,5,0,0:0:0:0:
135,132,191330,1,0,0:0:0:0:
242,156,191649,2,0,P|165:213|140:225,1,120
143,223,193564,5,0,0:0:0:0:
222,312,193883,1,0,0:0:0:0:
376,269,194202,6,0,B|398:262|418:255|418:255|434:235|434:235|433:218|433:218|431:193|425:179|425:179|411:164|411:164|395:157|395:157|372:169|349:188|349:188|328:183|328:183|315:173|315:172|302:148|308:131|308:131|326:108|326:108|349:92|349:92|361:65|361:65|345:52|309:36|275:53|275:53|253:84|253:84|240:112|239:114|234:147|234:147|240:179|240:179|254:204,1,640
251,199,201223,5,0,0:0:0:0:
158,216,201542,1,0,0:0:0:0:
154,126,201862,2,0,P|164:118|269:97,1,120
265,96,203776,5,0,0:0:0:0:
229,198,204096,1,0,0:0:0:0:
121,211,204415,2,0,P|137:244|243:306,1,160
239,305,206330,5,0,0:0:0:0:
321,234,206649,1,0,0:0:0:0:
256,147,206968,2,0,P|238:130|152:148,1,120
153,146,208883,5,0,0:0:0:0:
177,251,209202,1,0,0:0:0:0:
357,324,209521,6,0,P|382:299|391:266,1,62.5
381,148,209840,1,0,0:0:0:0:
279,222,210000,1,0,0:0:0:0:
279,222,210080,1,0,0:0:0:0:
279,222,210159,1,0,0:0:0:0:
184,139,210319,1,0,0:0:0:0:
184,139,210479,2,0,P|205:117|238:110,1,62.5
422,80,210798,6,0,L|444:149,1,62.5
448,264,211117,1,0,0:0:0:0:
336,319,211276,2,0,L|289:310,2,31.25
294,205,211596,1,0,0:0:0:0:
294,205,211755,2,0,P|275:172|269:138,1,62.5
160,69,212074,6,0,P|153:106|136:152,1,62.5
101,246,212393,1,0,0:0:0:0:
42,135,212553,2,0,L|42:88,1,31.25
42,71,212713,1,0,0:0:0:0:
162,39,212872,1,0,0:0:0:0:
162,39,213032,2,0,P|206:42|245:51,1,62.5
312,134,213351,6,0,P|358:136|388:141,1,62.5
454,234,213670,1,0,0:0:0:0:
337,280,213830,1,0,0:0:0:0:
337,280,213909,1,0,0:0:0:0:
337,280,213989,1,0,0:0:0:0:
228,216,214149,1,0,0:0:0:0:
228,216,214308,2,0,P|214:185|213:152,1,62.5
289,52,214628,6,0,P|311:82|323:115,1,62.5
346,227,214947,1,0,0:0:0:0:
246,301,215106,2,0,L|191:287,2,31.25
240,175,215425,1,0,0:0:0:0:
240,175,215585,2,0,P|229:124|226:87,1,62.5
118,52,215904,6,0,P|106:87|89:131,1,62.5
29,216,216223,1,0,0:0:0:0:
148,254,216383,2,0,L|177:265,1,31.25
207,272,216542,1,0,0:0:0:0:
261,159,216702,1,0,0:0:0:0:
261,159,216862,2,0,P|209:140|198:121,1,62.5
297,50,217181,6,0,P|350:42|375:52,1,62.5
474,90,217500,1,0,0:0:0:0:
395,186,217659,1,0,0:0:0:0:
395,186,217739,1,0,0:0:0:0:
395,186,217819,1,0,0:0:0:0:
290,116,217979,1,0,0:0:0:0:
290,116,218138,2,0,P|250:109|212:117,1,62.5
100,185,218457,6,0,L|123:248,1,62.5
82,194,218776,2,0,L|105:257,1,62.5
67,201,219096,2,0,L|90:264,1,62.5
49,210,219415,2,0,L|72:273,1,62.5
172,341,219734,6,0,P|210:347|241:342,1,62.5
354,309,220053,1,0,0:0:0:0:
459,242,220213,2,0,L|482:201,2,31.25
363,161,220532,1,0,0:0:0:0:
363,161,220691,2,0,P|329:169|299:202,1,62.5
214,287,221011,6,0,L|157:243,1,62.5
119,132,221330,1,0,0:0:0:0:
231,77,221489,2,0,L|276:67,1,31.25
289,60,221649,1,0,0:0:0:0:
396,122,221808,1,0,0:0:0:0:
396,122,221968,2,0,L|327:168,1,62.5
238,225,222287,6,0,P|196:252|186:273,1,62.5
270,358,222606,1,0,0:0:0:0:
365,277,222766,1,0,0:0:0:0:
365,277,222846,1,0,0:0:0:0:
365,277,222925,1,0,0:0:0:0:
329,156,223085,1,0,0:0:0:0:
329,156,223245,2,0,P|286:150|256:153,1,62.5
140,193,223564,6,0,P|105:185|65:154,1,62.5
45,51,223883,1,0,0:0:0:0:
169,49,224042,2,0,L|213:51,2,31.25
239,153,224362,1,0,0:0:0:0:
239,153,224521,2,0,L|308:149,1,62.5
390,275,224840,6,0,L|302:276,1,62.5
202,276,225159,1,0,0:0:0:0:
282,180,225319,2,0,L|337:179,1,31.25
349,179,225479,1,0,0:0:0:0:
473,173,225638,1,0,0:0:0:0:
473,173,225798,2,0,P|470:129|456:108,1,62.5
343,39,226117,6,0,P|286:42|269:59,1,62.5
219,151,226436,1,0,0:0:0:0:
323,219,226596,1,0,0:0:0:0:
323,219,226675,1,0,0:0:0:0:
323,219,226755,1,0,0:0:0:0:
411,130,226915,1,0,0:0:0:0:
411,130,227074,2,0,L|323:127,1,62.5
206,106,227393,6,0,L|163:161,1,62.5
76,242,227713,1,0,0:0:0:0:
200,241,227872,2,0,L|238:238,2,31.25
100,317,228191,1,0,0:0:0:0:
100,317,228351,2,0,L|174:319,1,62.5
306,326,228670,6,0,L|337:260,1,62.5
322,331,228989,2,0,L|353:265,1,62.5
335,335,229308,2,0,L|366:269,1,62.5
351,340,229628,2,0,L|382:274,1,62.5
416,217,229947,6,0,L|352:155,1,62.5
251,136,230266,1,0,0:0:0:0:
129,176,230425,2,0,L|91:197,1,31.25
69,209,230585,1,0,0:0:0:0:
157,298,230745,1,0,0:0:0:0:
157,298,230904,2,0,L|229:296,1,62.5
383,298,231223,6,0,L|381:213,1,62.5
442,126,231542,1,0,0:0:0:0:
351,38,231702,1,0,0:0:0:0:
351,38,231782,1,0,0:0:0:0:
351,38,231862,1,0,0:0:0:0:
242,99,232021,1,0,0:0:0:0:
242,99,232181,2,0,L|242:181,1,62.5
139,285,232500,6,0,P|138:209|145:200,1,62.5
167,105,232819,1,0,0:0:0:0:
274,40,232979,2,0,L|321:40,2,31.25
150,61,233298,1,0,0:0:0:0:
150,61,233457,2,0,P|117:75|102:113,1,62.5
126,240,233776,6,0,P|114:275|109:312,2,62.5
95,233,234255,2,0,P|83:268|78:305,2,62.5
64,227,234734,2,0,P|52:262|47:299,1,62.5
167,325,235053,6,0,L|246:326,1,62.5
352,348,235372,1,0,0:0:0:0:
477,339,235532,2,0,L|476:280,1,31.25
475,271,235691,1,0,0:0:0:0:
460,146,235851,1,0,0:0:0:0:
460,146,236011,2,0,P|462:103|450:81,1,62.5
345,31,236330,6,0,P|297:27|263:38,1,62.5
255,152,236649,1,0,0:0:0:0:
194,43,236808,1,0,0:0:0:0:
194,43,236888,1,0,0:0:0:0:
194,43,236968,1,0,0:0:0:0:
127,149,237128,1,0,0:0:0:0:
127,149,237287,2,0,L|65:147,1,62.5
58,276,237606,6,0,P|89:276|146:288,1,62.5
226,346,237925,1,0,0:0:0:0:
333,281,238085,2,0,L|371:253,2,31.25
231,207,238404,1,0,0:0:0:0:
231,207,238564,2,0,P|171:204|143:207,1,62.5
84,151,238883,6,0,L|85:80,1,62.5
62,153,239202,2,0,L|63:82,1,62.5
40,155,239521,2,0,L|41:84,1,62.5
18,157,239840,2,0,L|19:86,1,62.5
101,34,240159,6,0,P|157:29|180:34,1,62.5
276,85,240479,1,0,0:0:0:0:
167,145,240638,2,0,L|111:146,1,31.25
94,144,240798,1,0,0:0:0:0:
30,36,240957,1,0,0:0:0:0:
30,36,241117,2,0,L|100:34,1,62.5
230,37,241436,6,0,P|264:39|305:55,1,62.5
383,132,241755,1,0,0:0:0:0:
467,39,241915,1,0,0:0:0:0:
467,39,241995,1,0,0:0:0:0:
467,39,242074,1,0,0:0:0:0:
493,161,242234,1,0,0:0:0:0:
493,161,242393,2,0,L|469:244,1,62.5
442,342,242713,6,0,P|393:342|363:330,1,62.5
266,285,243032,1,0,0:0:0:0:
389,268,243191,2,0,L|429:269,2,31.25
283,198,243511,1,0,0:0:0:0:
283,198,243670,2,0,L|206:172,1,62.5
141,272,243989,6,0,L|92:331,2,62.5
117,251,244468,2,0,L|68:310,2,62.5
91,232,244947,2,0,L|42:291,1,62.5
153,352,245266,6,0,L|239:353,1,62.5
337,323,245585,1,0,0:0:0:0:
446,262,245745,2,0,L|461:226,1,31.25
470,197,245904,1,0,0:0:0:0:
345,213,246064,1,0,0:0:0:0:
345,213,246223,2,0,L|271:213,1,62.5
167,263,246542,6,0,L|90:262,1,62.5
31,159,246862,1,0,0:0:0:0:
155,169,247021,1,0,0:0:0:0:
155,169,247101,1,0,0:0:0:0:
155,169,247181,1,0,0:0:0:0:
279,169,247340,1,0,0:0:0:0:
279,169,247500,2,0,L|345:169,1,62.5
434,253,247819,6,0,P|408:277|372:287,1,62.5
265,242,248138,1,0,0:0:0:0:
148,288,248298,2,0,L|88:292,2,31.25
214,181,248617,1,0,0:0:0:0:
214,181,248776,2,0,P|238:156|267:139,1,62.5
361,65,249096,6,0,L|336:138,1,62.5
381,68,249415,2,0,L|356:141,1,62.5
399,70,249734,2,0,L|374:143,1,62.5
419,73,250053,2,0,L|394:146,1,62.5
361,65,250372,6,0,L|339:125,1,62.5
371,292,251649,6,0,L|327:312,3,34.9999989318848
235,326,251968,2,0,L|176:321,3,34.9999989318848
95,333,252287,2,0,L|52:302,3,34.9999989318848
44,209,252606,2,0,L|34:167,1,34.9999989318848
95,86,252766,2,0,L|113:40,1,34.9999989318848
210,32,252925,6,0,L|267:51,3,34.9999989318848
205,142,253245,2,0,L|161:158,3,34.9999989318848
219,247,253564,2,0,L|253:263,3,34.9999989318848
343,312,253883,1,0,0:0:0:0:
377,282,253963,1,0,0:0:0:0:
401,244,254042,1,0,0:0:0:0:
412,200,254122,1,0,0:0:0:0:
420,155,254202,6,0,L|421:99,3,34.9999989318848
353,38,254521,2,0,L|305:61,3,34.9999989318848
309,157,254840,2,0,L|344:199,3,34.9999989318848
409,254,255159,2,0,L|427:312,1,34.9999989318848
325,338,255319,2,0,L|281:341,1,34.9999989318848
225,255,255479,6,0,L|173:240,3,34.9999989318848
112,315,255798,2,0,L|57:333,3,34.9999989318848
59,222,256117,2,0,L|104:202,3,34.9999989318848
191,175,256436,1,0,0:0:0:0:
235,167,256516,1,0,0:0:0:0:
281,168,256596,1,0,0:0:0:0:
325,179,256675,1,0,0:0:0:0:
361,206,256755,6,0,L|400:237,3,34.9999989318848
493,221,257074,2,0,L|470:189,3,34.9999989318848
389,128,257393,2,0,L|420:78,3,34.9999989318848
320,36,257713,2,0,L|274:71,1,34.9999989318848
190,84,257872,2,0,L|136:81,1,34.9999989318848
58,127,258032,6,0,L|60:181,3,34.9999989318848
148,217,258351,2,0,L|133:259,3,34.9999989318848
44,301,258670,2,0,L|70:344,3,34.9999989318848
167,334,258989,1,0,0:0:0:0:
208,334,259069,1,0,0:0:0:0:
250,328,259149,1,0,0:0:0:0:
290,316,259229,1,0,0:0:0:0:
333,302,259308,6,0,L|383:282,3,34.9999989318848
424,200,259628,2,0,L|423:152,3,34.9999989318848
322,134,259947,2,0,L|294:186,3,34.9999989318848
229,237,260266,2,0,L|181:252,1,34.9999989318848
97,209,260425,2,0,L|71:156,1,34.9999989318848
153,98,260585,6,0,L|216:98,3,34.9999989318848
277,42,260904,2,0,L|325:40,3,34.9999989318848
383,118,261223,2,0,L|446:114,3,34.9999989318848
477,202,261542,1,0,0:0:0:0:
477,243,261622,1,0,0:0:0:0:
465,283,261702,1,0,0:0:0:0:
441,318,261782,1,0,0:0:0:0:
402,335,261862,6,0,L|336:354,3,34.9999989318848
301,268,262181,2,0,L|253:292,3,34.9999989318848
194,352,262500,2,0,L|131:354,3,34.9999989318848
57,356,262819,2,0,L|21:338,1,34.9999989318848
43,238,262979,2,0,L|95:238,1,34.9999989318848
167,190,263138,6,0,L|229:187,3,34.9999989318848
255,101,263457,2,0,L|195:68,3,34.9999989318848
123,68,263776,2,0,L|66:88,3,34.9999989318848
48,173,264096,1,0,0:0:0:0:
40,217,264175,1,0,0:0:0:0:
48,262,264255,1,0,0:0:0:0:
69,302,264335,1,0,0:0:0:0:
100,336,264415,6,0,L|136:353,3,34.9999989318848
236,337,264734,2,0,L|288:332,3,34.9999989318848
366,289,265053,2,0,L|393:230,3,34.9999989318848
454,182,265372,2,0,L|481:129,1,34.9999989318848
442,47,265532,2,0,L|394:19,1,34.9999989318848
314,69,265691,6,0,L|256:89,3,34.9999989318848
178,49,266011,2,0,L|129:62,3,34.9999989318848
193,151,266330,2,0,L|251:151,3,34.9999989318848
332,164,266649,1,0,0:0:0:0:
343,207,266729,1,0,0:0:0:0:
339,252,266808,1,0,0:0:0:0:
319,293,266888,1,0,0:0:0:0:
280,316,266968,6,0,L|234:330,3,34.9999989318848
165,259,267287,2,0,L|129:237,3,34.9999989318848
154,137,267606,2,0,L|179:85,3,34.9999989318848
257,48,267925,2,0,L|307:42,1,34.9999989318848
356,128,268085,2,0,L|417:116,1,34.9999989318848
431,219,268245,6,0,L|378:243,3,34.9999989318848
297,207,268564,2,0,L|259:199,3,34.9999989318848
183,269,268883,2,0,L|140:251,3,34.9999989318848
90,169,269202,1,0,0:0:0:0:
89,123,269282,1,0,0:0:0:0:
107,82,269362,1,0,0:0:0:0:
140,51,269441,1,0,0:0:0:0:
182,35,269521,6,0,L|240:21,3,34.9999989318848
302,86,269840,2,0,L|349:83,3,34.9999989318848
437,116,270159,2,0,L|399:150,3,34.9999989318848
307,167,270479,2,0,L|243:166,1,34.9999989318848
181,112,270638,2,0,L|121:110,1,34.9999989318848
46,150,270798,6,0,L|29:202,3,34.9999989318848
129,230,271117,2,0,L|147:283,3,34.9999989318848
40,297,271436,2,0,L|44:343,3,34.9999989318848
147,344,271755,1,0,0:0:0:0:
192,344,271835,1,0,0:0:0:0:
236,333,271915,1,0,0:0:0:0:
276,311,271995,1,0,0:0:0:0:
317,291,272074,6,0,L|358:259,3,34.9999989318848
411,187,272393,2,0,L|417:142,3,34.9999989318848
357,63,272713,2,0,L|313:23,3,34.9999989318848
240,92,273032,2,0,L|211:131,1,34.9999989318848
288,199,273191,2,0,L|305:240,1,34.9999989318848
212,290,273351,6,0,L|166:306,3,34.9999989318848
77,272,273670,2,0,L|36:249,3,34.9999989318848
46,149,273989,2,0,L|50:86,3,34.9999989318848
129,46,274308,1,0,0:0:0:0:
174,40,274388,1,0,0:0:0:0:
219,42,274468,1,0,0:0:0:0:
263,53,274548,1,0,0:0:0:0:
304,75,274628,6,0,L|340:112,3,34.9999989318848
387,187,274947,2,0,L|388:251,3,34.9999989318848
339,315,275266,2,0,L|304:344,3,34.9999989318848
208,318,275585,2,0,L|152:303,1,34.9999989318848
67,305,275745,2,0,L|30:252,1,34.9999989318848
102,187,275904,6,0,L|153:150,3,34.9999989318848
215,227,276223,2,0,L|225:184,3,34.9999989318848
320,231,276542,2,0,L|309:172,3,34.9999989318848
328,91,276862,1,0,0:0:0:0:
282,95,276941,1,0,0:0:0:0:
237,91,277021,1,0,0:0:0:0:
193,81,277101,1,0,0:0:0:0:
149,67,277181,6,0,L|91:48,3,34.9999989318848
33,121,277500,2,0,L|67:144,3,34.9999989318848
118,229,277819,2,0,L|171:205,3,34.9999989318848
246,173,278138,2,0,L|314:177,1,34.9999989318848
377,219,278298,2,0,L|423:212,1,34.9999989318848
457,118,278457,6,0,L|421:68,3,34.9999989318848
332,74,278776,2,0,L|281:98,3,34.9999989318848
194,77,279096,2,0,L|156:33,3,34.9999989318848
67,70,279415,1,0,0:0:0:0:
56,110,279495,1,0,0:0:0:0:
54,152,279574,1,0,0:0:0:0:
61,193,279654,1,0,0:0:0:0:
83,229,279734,6,0,L|111:270,3,34.9999989318848
193,311,280053,2,0,L|233:323,3,34.9999989318848
329,341,280372,2,0,L|397:341,3,34.9999989318848
465,313,280691,2,0,L|489:282,1,34.9999989318848
382,260,280851,2,0,L|365:202,1,34.9999989318848
460,167,281011,6,0,L|496:143,3,34.9999989318848
400,90,281330,2,0,L|353:61,3,34.9999989318848
272,110,281649,2,0,L|211:130,3,34.9999989318848
140,158,281968,1,0,0:0:0:0:
116,196,282048,1,0,0:0:0:0:
108,241,282128,1,0,0:0:0:0:
118,285,282207,1,0,0:0:0:0:
148,319,282287,6,0,L|189:344,3,34.9999989318848
283,333,282606,2,0,L|325:311,3,34.9999989318848
414,346,282925,2,0,L|474:348,3,34.9999989318848
500,253,283245,2,0,L|458:208,1,34.9999989318848
373,252,283404,2,0,L|328:209,1,34.9999989318848
252,276,283564,6,0,L|228:237,3,34.9999989318848
277,150,283883,2,0,L|298:102,3,34.9999989318848
190,85,284202,2,0,L|162:38,3,34.9999989318848
70,83,284521,1,0,0:0:0:0:
50,123,284601,1,0,0:0:0:0:
50,169,284681,1,0,0:0:0:0:
69,209,284761,1,0,0:0:0:0:
96,240,284840,6,0,L|130:274,3,34.9999989318848
218,226,285159,2,0,L|267:208,3,34.9999989318848
355,246,285479,2,0,L|404:264,3,34.9999989318848
478,204,285798,2,0,L|484:163,1,34.9999989318848
462,66,285957,2,0,L|417:31,1,34.9999989318848
338,88,286117,6,0,L|286:104,3,34.9999989318848
229,171,286436,2,0,L|212:215,3,34.9999989318848
166,297,286755,2,0,L|115:295,3,34.9999989318848
36,277,287074,1,0,0:0:0:0:
54,235,287154,1,0,0:0:0:0:
87,203,287234,1,0,0:0:0:0:
130,188,287314,1,0,0:0:0:0:
184,184,287393,6,0,L|247:184,3,34.9999989318848
328,184,287713,2,0,L|265:184,3,34.9999989318848
170,223,288032,2,0,L|233:223,3,34.9999989318848
342,223,288351,2,0,L|279:223,3,34.9999989318848
153,251,288670,2,0,L|216:251,3,34.9999989318848
359,251,288989,2,0,L|296:251,3,34.9999989318848
140,277,289308,2,0,L|203:277,3,34.9999989318848
372,277,289628,2,0,L|309:277,3,34.9999989318848
120,328,289947,1,0,0:0:0:0:
81,298,290026,1,0,0:0:0:0:
56,256,290106,1,0,0:0:0:0:
50,207,290186,1,0,0:0:0:0:
62,160,290266,1,0,0:0:0:0:
90,121,290346,1,0,0:0:0:0:
133,96,290425,1,0,0:0:0:0:
180,84,290505,1,0,0:0:0:0:
225,102,290585,5,0,0:0:0:0:
248,145,290665,1,0,0:0:0:0:
281,180,290745,1,0,0:0:0:0:
327,193,290824,1,0,0:0:0:0:
374,181,290904,1,0,0:0:0:0:
415,153,290984,1,0,0:0:0:0:
432,107,291064,1,0,0:0:0:0:
426,58,291143,1,0,0:0:0:0:
357,35,291223,6,0,L|323:35,7,18.7500007152558
255,68,291862,5,0,0:0:0:0:
200,103,291941,1,0,0:0:0:0:
190,167,292021,1,0,0:0:0:0:
191,233,292101,1,0,0:0:0:0:
203,296,292181,1,0,0:0:0:0:
254,337,292261,1,0,0:0:0:0:
320,344,292340,1,0,0:0:0:0:
376,308,292420,1,0,0:0:0:0:
400,240,292500,5,0,0:0:0:0:
400,48,292819,5,0,0:0:0:0:
279,81,292979,1,0,0:0:0:0:
279,81,293058,1,0,0:0:0:0:
279,81,293138,1,0,0:0:0:0:
387,144,293298,1,0,0:0:0:0:
387,144,293457,2,0,P|420:174|435:212,1,62.5
362,330,293776,6,0,L|282:331,1,62.5
197,256,294096,1,0,0:0:0:0:
51,328,294255,2,0,L|89:310,2,31.25
83,207,294574,1,0,0:0:0:0:
83,207,294734,2,0,L|135:154,1,69.9999978637696
245,40,295053,6,0,L|286:98,1,62.5
336,205,295372,1,0,0:0:0:0:
222,258,295532,2,0,L|173:272,1,31.25
162,276,295691,1,0,0:0:0:0:
77,183,295851,1,0,0:0:0:0:
77,183,296011,2,0,L|134:129,1,69.9999978637696
236,31,296330,6,0,L|239:103,1,62.5
265,27,296649,2,0,L|268:102,1,62.5
285,21,296968,2,0,L|289:95,1,62.5
314,17,297287,2,0,L|318:92,1,62.5
393,206,297606,6,0,P|370:250|349:271,1,62.5
239,288,297925,1,0,0:0:0:0:
282,170,298085,1,0,0:0:0:0:
282,170,298165,1,0,0:0:0:0:
282,170,298245,1,0,0:0:0:0:
399,127,298404,1,0,0:0:0:0:
399,127,298564,2,0,P|404:171|402:211,1,69.9999978637696
371,316,298883,6,0,L|290:330,1,62.5
187,297,299202,1,0,0:0:0:0:
65,328,299362,2,0,L|26:346,2,31.25
60,216,299681,1,0,0:0:0:0:
60,216,299840,2,0,P|80:187|117:169,1,62.5
262,170,300159,6,0,P|318:178|346:174,1,62.5
436,141,300479,1,0,0:0:0:0:
363,39,300638,2,0,L|302:40,1,31.25
294,37,300798,1,0,0:0:0:0:
194,111,300957,1,0,0:0:0:0:
194,111,301117,2,0,L|189:177,1,62.5
301,287,301436,6,0,P|358:285|378:273,1,62.5
304,309,301755,2,0,P|361:307|381:293,1,62.5
440,327,302074,6,0,P|383:325|366:313,1,62.5
437,349,302393,2,0,P|380:347|364:333,1,62.5
460,207,302713,6,0,P|464:157|464:116,1,62.5
393,41,303032,1,0,0:0:0:0:
317,140,303191,1,0,0:0:0:0:
317,140,303271,1,0,0:0:0:0:
317,140,303351,1,0,0:0:0:0:
234,45,303511,1,0,0:0:0:0:
234,45,303670,2,0,L|162:45,1,62.5
11,24,303989,6,0,P|-3:72|-6:98,1,62.5
65,176,304308,1,0,0:0:0:0:
51,300,304468,2,0,L|14:323,2,31.25
152,256,304787,1,0,0:0:0:0:
152,256,304947,2,0,L|198:307,1,62.5
353,320,305266,6,0,P|394:305|412:281,1,69.9999978637696
460,187,305585,1,0,0:0:0:0:
402,75,305745,2,0,L|351:59,1,31.25
340,53,305904,1,0,0:0:0:0:
241,131,306064,1,0,0:0:0:0:
241,131,306223,2,0,L|306:191,1,62.5
412,265,306542,6,0,L|351:303,1,62.5
420,281,306862,2,0,L|359:318,1,62.5
426,294,307181,2,0,L|366:331,1,62.5
434,310,307500,2,0,L|372:350,1,62.5
236,361,307819,6,0,P|177:363|156:358,1,62.5
89,269,308138,1,0,0:0:0:0:
190,195,308298,1,0,0:0:0:0:
190,195,308378,1,0,0:0:0:0:
190,195,308457,1,0,0:0:0:0:
288,273,308617,1,0,0:0:0:0:
288,273,308776,2,0,P|329:260|358:240,1,62.5
450,177,309096,6,0,P|473:128|470:110,1,62.5
400,30,309415,1,0,0:0:0:0:
317,122,309574,2,0,L|285:119,2,31.25
426,183,309893,1,0,0:0:0:0:
426,183,310053,2,0,L|357:233,1,62.5
249,258,310372,6,0,P|205:257|166:247,1,62.5
106,157,310691,1,0,0:0:0:0:
208,84,310851,2,0,L|246:83,1,31.25
278,84,311011,1,0,0:0:0:0:
373,164,311170,1,0,0:0:0:0:
373,164,311330,2,0,L|331:230,1,62.5
230,310,311649,6,0,L|151:280,1,62.5
226,330,311968,2,0,L|150:301,1,62.5
84,343,312287,6,0,L|161:319,1,62.5
88,363,312606,2,0,L|163:336,1,62.5
57,241,312925,6,0,P|77:208|108:182,1,62.5
204,129,313245,1,0,0:0:0:0:
239,250,313404,1,0,0:0:0:0:
239,250,313484,1,0,0:0:0:0:
239,250,313564,1,0,0:0:0:0:
327,162,313723,1,0,0:0:0:0:
327,162,313883,2,0,P|326:121|314:80,1,62.5
188,27,314202,6,0,P|135:19|104:23,1,62.5
15,113,314521,1,0,0:0:0:0:
149,154,314681,2,0,L|194:174,2,31.25
34,203,315000,1,0,0:0:0:0:
34,203,315159,2,0,L|93:257,1,62.5
205,293,315479,6,0,L|290:288,1,62.5
386,249,315798,1,0,0:0:0:0:
462,150,315957,2,0,L|460:102,1,31.25
459,82,316117,1,0,0:0:0:0:
334,22,316276,1,0,0:0:0:0:
334,22,316436,2,0,L|334:106,1,62.5
334,241,316755,6,0,L|247:246,1,62.5
338,263,317074,2,0,L|253:266,1,62.5
344,278,317393,2,0,L|257:284,1,62.5
348,300,317713,2,0,L|260:304,1,62.5
136,308,318032,6,0,P|107:278|102:247,1,62.5
190,170,318351,1,0,0:0:0:0:
299,231,318511,1,0,0:0:0:0:
299,231,318590,1,0,0:0:0:0:
299,231,318670,1,0,0:0:0:0:
345,114,318830,1,0,0:0:0:0:
345,114,318989,2,0,P|301:96|277:105,1,62.5
156,44,319308,6,0,P|106:41|77:59,1,62.5
26,150,319628,1,0,0:0:0:0:
111,240,319787,2,0,L|147:268,2,31.25
164,143,320106,1,0,0:0:0:0:
164,143,320266,2,0,P|198:152|229:180,1,62.5
324,275,320585,6,0,P|361:311|394:328,1,62.5
470,241,320904,1,0,0:0:0:0:
376,157,321064,2,0,L|330:127,1,31.25
324,121,321223,1,0,0:0:0:0:
198,113,321383,1,0,0:0:0:0:
198,113,321542,2,0,L|238:172,1,62.5
301,285,321862,6,0,P|338:254|352:225,1,62.5
316,298,322181,2,0,P|353:267|371:240,1,62.5
449,205,322500,6,0,P|418:242|390:257,1,62.5
462,220,322819,2,0,P|431:257|406:269,1,62.5
490,172,323138,6,0,P|470:137|436:129,1,62.5
325,139,323457,1,0,0:0:0:0:
252,241,323617,1,0,0:0:0:0:
252,241,323697,1,0,0:0:0:0:
252,241,323776,1,0,0:0:0:0:
169,146,323936,1,0,0:0:0:0:
169,146,324096,2,0,P|170:106|181:72,1,62.5
293,39,324415,6,0,P|347:35|372:42,1,62.5
448,119,324734,1,0,0:0:0:0:
332,165,324893,2,0,L|294:172,2,31.25
429,217,325213,1,0,0:0:0:0:
429,217,325372,2,0,L|430:297,1,62.5
333,334,325691,6,0,L|251:337,1,62.5
144,328,326011,1,0,0:0:0:0:
189,211,326170,2,0,P|227:192|242:187,1,31.25
249,188,326330,1,0,0:0:0:0:
357,248,326489,1,0,0:0:0:0:
357,248,326649,2,0,L|353:157,1,69.9999978637696
351,50,326968,6,0,L|276:69,1,62.5
352,66,327287,2,0,L|275:85,1,62.5
353,77,327606,2,0,L|275:96,1,62.5
354,93,327925,2,0,L|271:110,1,62.5
144,95,328245,6,0,L|119:182,1,62.5
87,274,328564,1,0,0:0:0:0:
206,238,328723,1,0,0:0:0:0:
206,238,328803,1,0,0:0:0:0:
206,238,328883,1,0,0:0:0:0:
243,119,329042,1,0,0:0:0:0:
243,119,329202,2,0,P|253:69|273:48,1,62.5
391,33,329521,6,0,P|437:42|457:57,1,62.5
488,169,329840,1,0,0:0:0:0:
402,260,330000,2,0,L|363:278,2,34.9999989318848
401,149,330319,1,0,0:0:0:0:
401,149,330479,2,0,L|315:122,1,69.9999978637696
229,67,330798,6,0,P|178:101|164:126,1,62.5
146,222,331117,1,0,0:0:0:0:
259,170,331276,2,0,L|285:154,1,31.25
318,137,331436,1,0,0:0:0:0:
422,67,331596,1,0,0:0:0:0:
422,67,331755,2,0,L|416:144,1,62.5
396,263,332074,6,0,L|336:226,1,62.5
392,278,332393,2,0,L|336:243,1,62.5
249,278,332713,6,0,L|305:244,1,62.5
253,293,333032,2,0,L|313:259,1,62.5
206,206,333351,6,0,P|202:163|247:106,2,112.500004291535
