osu file format v14

[General]
AudioFilename: audio.mp3
AudioLeadIn: 0
PreviewTime: 150232
Countdown: 0
SampleSet: Soft
StackLeniency: 0.3
Mode: 0
LetterboxInBreaks: 0
EpilepsyWarning: 1
WidescreenStoryboard: 1

[Editor]
Bookmarks: 42998,63423,88317,110657,119593,127253,139380,150072,170737,191083,211508,252120,288423,294487
DistanceSpacing: 3.2
BeatDivisor: 4
GridSize: 4
TimelineZoom: 1.499999

[Metadata]
Title:Sidetracked Day
TitleUnicode:Sidetracked Day
Artist:VINXIS
ArtistUnicode:VINXIS
Creator:DendyHere
Version:Infinity Inside
Source:
Tags:drum and bass dnb drumstep stream marathon space moonl1ght snownino_ fa featured artist mishima yurara makrica -_-_Makrica_-_-
BeatmapID:1754777
BeatmapSetID:838182

[Difficulty]
HPDrainRate:5.5
CircleSize:4.4
OverallDifficulty:9.6
ApproachRate:9.5
SliderMultiplier:1.9
SliderTickRate:1

[Events]
//Background and Video events
0,0,"BG.jpg",0,0
//Break Periods
2,175963,190558
//Storyboard Layer 0 (Background)
//Storyboard Layer 1 (Fail)
//Storyboard Layer 2 (Pass)
//Storyboard Layer 3 (Foreground)
//Storyboard Sound Samples

[TimingPoints]
2146,638.297872340426,4,2,2,15,1,0
12361,-285.714285714284,4,2,2,15,0,0
17624,-285.714285714284,4,2,2,5,0,0
19380,-285.714285714284,4,2,2,15,0,0
20018,-222.222222222221,4,2,2,15,0,0
20177,-222.222222222221,4,2,2,5,0,0
21294,-222.222222222221,4,2,2,20,0,0
22731,-222.222222222221,4,2,2,5,0,0
24486,-222.222222222221,4,2,2,15,0,0
25284,-222.222222222221,4,2,2,5,0,0
26401,-222.222222222221,4,2,2,15,0,0
27677,-181.818181818181,4,2,2,25,0,0
27837,-181.818181818181,4,2,2,5,0,0
29592,-181.818181818181,4,2,2,20,0,0
30390,-181.818181818181,4,2,2,5,0,0
31507,-181.818181818181,4,2,2,20,0,0
32784,-181.818181818181,4,2,2,30,0,0
32943,-181.818181818181,4,2,2,5,0,0
34699,-181.818181818181,4,2,2,30,0,0
35497,-181.818181818181,4,2,2,5,0,0
36614,-181.818181818181,4,2,2,30,0,0
37890,-153.846153846153,4,2,2,30,0,0
38050,-153.846153846153,4,2,2,5,0,0
39486,-153.846153846153,4,2,2,30,0,0
40603,-153.846153846153,4,2,2,5,0,0
41741,-153.846153846153,4,2,2,30,0,0
42998,319.148936170213,4,2,2,30,1,0
42998,-200,4,2,2,30,0,0
62466,-166.666666666667,4,2,2,50,0,0
63423,-142.857142857143,4,2,1,50,0,0
83849,-142.857142857143,4,2,0,50,0,0
88317,-125,4,2,1,50,0,0
89434,-166.666666666667,4,2,1,60,0,0
89753,-125,4,2,1,50,0,0
90710,-166.666666666667,4,2,1,60,0,0
91029,-125,4,2,1,50,0,0
91987,-166.666666666667,4,2,1,60,0,0
92306,-125,4,2,1,50,0,0
93263,-166.666666666667,4,2,1,60,0,0
93583,-125,4,2,1,50,0,0
94540,-166.666666666667,4,2,1,60,0,0
94859,-125,4,2,1,50,0,0
95817,-166.666666666667,4,2,1,60,0,0
96136,-125,4,2,1,50,0,0
97093,-166.666666666667,4,2,1,60,0,0
97412,-125,4,2,1,50,0,0
98689,-125,4,2,1,50,0,0
103476,-166.666666666667,4,2,1,60,0,0
103795,-125,4,2,1,50,0,0
108583,-166.666666666667,4,2,1,60,0,0
108902,-125,4,2,1,50,0,0
110338,-125,4,2,1,60,0,0
110657,-111.111111111111,4,2,1,55,0,0
111136,-142.857142857143,4,2,1,65,0,0
111455,-111.111111111111,4,2,1,55,0,0
112412,-142.857142857143,4,2,1,65,0,0
112732,-111.111111111111,4,2,1,55,0,0
114966,-142.857142857143,4,2,1,65,0,0
115285,-111.111111111111,4,2,1,55,0,0
116242,-142.857142857143,4,2,1,65,0,0
116561,-111.111111111111,4,2,1,55,0,0
117519,-142.857142857143,4,2,1,65,0,0
117838,-111.111111111111,4,2,1,55,0,0
119593,-111.111111111111,4,2,1,50,0,0
120072,-166.666666666667,4,2,1,60,0,0
120391,-111.111111111111,4,2,1,50,0,0
121349,-166.666666666667,4,2,1,60,0,0
121668,-111.111111111111,4,2,1,50,0,0
122625,-166.666666666667,4,2,1,60,0,0
122944,-111.111111111111,4,2,1,50,0,0
125498,-111.111111111111,4,2,1,50,0,0
126455,-166.666666666667,4,2,1,60,0,0
126774,-111.111111111111,4,2,1,50,0,0
127253,-111.111111111111,4,2,1,55,0,0
127891,-125,4,2,1,55,0,0
128210,-111.111111111111,4,2,1,55,0,0
129168,-125,4,2,1,55,0,0
129487,-111.111111111111,4,2,1,55,0,0
130285,-142.857142857143,4,2,1,65,0,0
130604,-111.111111111111,4,2,1,55,0,0
131561,-142.857142857143,4,2,1,65,0,0
131880,-111.111111111111,4,2,1,55,0,0
132838,-142.857142857143,4,2,1,65,0,0
133157,-111.111111111111,4,2,1,55,0,0
135391,-142.857142857143,4,2,1,65,0,0
135710,-111.111111111111,4,2,1,55,0,0
136668,-142.857142857143,4,2,1,65,0,0
137146,-111.111111111111,4,2,1,55,0,0
137944,-142.857142857143,4,2,1,65,0,0
138423,-111.111111111111,4,2,1,55,0,0
139374,-125,4,2,1,55,0,0
139540,-125,4,2,1,50,0,0
139700,-125,4,2,1,45,0,0
139859,-125,4,2,1,40,0,0
140019,-142.857142857143,4,2,1,50,0,0
150232,-90.9090909090909,4,2,1,70,0,1
155338,-125,4,2,1,70,0,1
159168,-90.9090909090909,4,2,1,70,0,1
159806,-125,4,2,1,70,0,1
160444,-90.9090909090909,4,2,1,70,0,1
165551,-83.3333333333333,4,2,1,70,0,1
168104,-76.9230769230769,4,2,1,70,0,1
169380,-71.4285714285714,4,2,1,70,0,1
170021,-62.5,4,2,1,75,0,1
170737,-62.5,4,2,1,5,0,0
191083,-142.857142857143,4,2,1,35,0,0
192678,-142.857142857143,4,2,1,5,0,0
192998,-142.857142857143,4,2,1,50,0,0
200976,-142.857142857143,4,2,1,5,0,0
201136,-142.857142857143,4,2,1,35,0,0
202891,-142.857142857143,4,2,1,5,0,0
203051,-142.857142857143,4,2,1,35,0,0
207998,-142.857142857143,4,2,1,5,0,0
208157,-142.857142857143,4,2,1,35,0,0
208955,-166.666666666667,4,2,1,35,0,0
209912,-142.857142857143,4,2,1,5,0,0
210072,-166.666666666667,4,2,1,35,0,0
211487,-125,4,2,1,50,0,0
211987,-166.666666666667,4,2,1,60,0,0
212306,-125,4,2,1,50,0,0
213263,-166.666666666667,4,2,1,60,0,0
213583,-125,4,2,1,50,0,0
214540,-166.666666666667,4,2,1,60,0,0
214859,-125,4,2,1,50,0,0
215817,-166.666666666667,4,2,1,60,0,0
216136,-125,4,2,1,50,0,0
217093,-166.666666666667,4,2,1,60,0,0
217412,-125,4,2,1,50,0,0
218373,-166.666666666667,4,2,1,60,0,0
218689,-125,4,2,1,50,0,0
219646,-166.666666666667,4,2,1,60,0,0
219966,-125,4,2,1,50,0,0
220923,-166.666666666667,4,2,1,60,0,0
221242,-125,4,2,1,50,0,0
222200,-166.666666666667,4,2,1,60,0,0
222519,-125,4,2,1,50,0,0
223476,-166.666666666667,4,2,1,60,0,0
223795,-125,4,2,1,50,0,0
224753,-166.666666666667,4,2,1,60,0,0
225072,-125,4,2,1,50,0,0
226029,-166.666666666667,4,2,1,60,0,0
226349,-125,4,2,1,50,0,0
227306,-166.666666666667,4,2,1,60,0,0
227625,-125,4,2,1,50,0,0
228583,-166.666666666667,4,2,1,60,0,0
228902,-125,4,2,1,50,0,0
229859,-166.666666666667,4,2,1,60,0,0
230178,-125,4,2,1,50,0,0
230657,-111.111111111111,4,2,1,50,0,0
231934,-125,4,2,1,50,0,0
232412,-166.666666666667,4,2,1,60,0,0
232891,-125,4,2,1,50,0,0
233689,-166.666666666667,4,2,1,60,0,0
234008,-125,4,2,1,50,0,0
234966,-166.666666666667,4,2,1,60,0,0
235285,-125,4,2,1,50,0,0
237519,-166.666666666667,4,2,1,60,0,0
237838,-125,4,2,1,50,0,0
238795,-166.666666666667,4,2,1,60,0,0
239115,-125,4,2,1,50,0,0
240072,-166.666666666667,4,2,1,60,0,0
240391,-125,4,2,1,50,0,0
240870,-111.111111111111,4,2,1,50,0,0
242146,-125,4,2,1,50,0,0
242625,-166.666666666667,4,2,1,60,0,0
242944,-125,4,2,1,50,0,0
243902,-166.666666666667,4,2,1,60,0,0
244221,-125,4,2,1,50,0,0
245178,-166.666666666667,4,2,1,60,0,0
245498,-125,4,2,1,50,0,0
247732,-166.666666666667,4,2,1,60,0,0
248051,-125,4,2,1,50,0,0
249008,-166.666666666667,4,2,1,60,0,0
249327,-125,4,2,1,50,0,0
251083,-111.111111111111,4,2,1,50,0,0
252200,-1000,4,2,1,50,0,0
252279,-1000,4,2,1,10,0,0
253317,-1000,4,2,1,5,0,0
253636,-90.9090909090909,4,2,1,70,0,1
258742,-125,4,2,1,70,0,1
262572,-90.9090909090909,4,2,1,70,0,1
263210,-125,4,2,1,70,0,1
263849,-90.9090909090909,4,2,1,70,0,1
268955,-83.3333333333333,4,2,1,70,0,1
271508,-71.4285714285714,4,2,1,70,0,1
272785,-62.5,4,2,1,70,0,1
274061,-90.9090909090909,4,2,1,70,0,1
279168,-125,4,2,1,70,0,1
282998,-90.9090909090909,4,2,1,70,0,1
283636,-125,4,2,1,70,0,1
284354,-90.9090909090909,4,2,1,70,0,1
289061,-66.6666666666667,4,2,1,70,0,1
289380,-100,4,2,1,60,0,1
291934,-100,4,1,1,60,0,1
293210,-62.5,4,2,1,70,0,1
294806,-125,4,2,1,50,0,0
294966,-166.666666666667,4,2,1,60,0,0
295444,-125,4,2,1,50,0,0
296242,-166.666666666667,4,2,1,60,0,0
296721,-125,4,2,1,50,0,0
297519,-166.666666666667,4,2,1,60,0,0
297998,-125,4,2,1,50,0,0
300072,-166.666666666667,4,2,1,60,0,0
300551,-125,4,2,1,50,0,0
301349,-166.666666666667,4,2,1,60,0,0
301827,-125,4,2,1,50,0,0
302625,-166.666666666667,4,2,1,60,0,0
303104,-125,4,2,1,50,0,0
303902,-166.666666666667,4,2,1,60,0,0
304380,-125,4,2,1,50,0,0
305178,-166.666666666667,4,2,1,60,0,0
305657,-125,4,2,1,50,0,0
306455,-166.666666666667,4,2,1,60,0,0
306934,-125,4,2,1,50,0,0
307732,-166.666666666667,4,2,1,60,0,0
308210,-125,4,2,1,50,0,0
310285,-166.666666666667,4,2,1,60,0,0
310763,-125,4,2,1,50,0,0
311561,-166.666666666667,4,2,1,60,0,0
312040,-125,4,2,1,50,0,0
312838,-166.666666666667,4,2,1,60,0,0
313317,-125,4,2,1,50,0,0
316668,-166.666666666667,4,2,1,60,0,0
317146,-125,4,2,1,50,0,0
320498,-166.666666666667,4,2,1,60,0,0
320976,-125,4,2,1,50,0,0
323051,-166.666666666667,4,2,1,60,0,0
323529,-125,4,2,1,50,0,0
325604,-166.666666666667,4,2,1,60,0,0
326083,-125,4,2,1,50,0,0
326880,-166.666666666667,4,2,1,60,0,0
327359,-125,4,2,1,50,0,0
330710,-166.666666666667,4,2,1,60,0,0
331189,-125,4,2,1,50,0,0
333263,-166.666666666667,4,2,1,60,0,0
333742,-125,4,2,1,50,0,0
335338,-142.857142857143,4,2,1,40,0,0
335657,-142.857142857143,4,2,1,5,0,0
335817,-166.666666666667,4,2,1,30,0,0
336136,-166.666666666667,4,2,1,5,0,0
336295,-200,4,2,1,20,0,0
336615,-200,4,2,1,5,0,0

[Colours]
Combo1 : 255,128,64
Combo2 : 158,138,229
Combo3 : 255,255,53
Combo4 : 231,188,154

[HitObjects]
256,192,12358,12,0,17146,0:0:0:0:
84,256,17465,6,0,B|178:248|155:288|249:285,1,166.249994926453,2|0,0:0|0:0,0:0:0:0:
220,180,19380,1,2,0:0:0:0:
292,100,19699,1,2,0:0:0:0:
348,192,20018,6,0,L|356:336,1,128.249996086121,2|2,0:0|0:0,0:0:0:0:
355,320,21933,1,2,0:0:0:0:
440,252,22252,1,2,0:0:0:0:
348,192,22571,6,0,B|344:148|380:120|380:120|364:40|436:0,1,213.749993476868,2|0,0:0|0:0,0:0:0:0:
480,92,24486,1,2,0:0:0:0:
380,120,24805,1,2,0:0:0:0:
288,76,25124,6,0,P|231:59|164:84,1,128.249996086121,2|2,0:0|0:0,0:0:0:0:
167,80,27039,1,2,0:0:0:0:
222,162,27358,1,2,0:0:0:0:
166,246,27677,6,0,B|139:301|168:356|168:356|119:354|106:321|106:321|84:350|34:350,1,261.250007972718,2|0,0:0|0:0,0:0:0:0:
30,245,29592,1,2,0:0:0:0:
116,184,29911,1,2,0:0:0:0:
32,120,30231,6,0,B|23:11|23:11|63:46,1,156.750004783631,2|2,0:0|0:0,0:0:0:0:
142,101,32146,1,2,0:0:0:0:
142,101,32784,6,0,B|152:148|127:187|127:187|173:217|171:291|171:291|145:317|142:350,1,261.250007972718,2|0,0:0|0:0,0:0:0:0:
248,374,34699,1,2,0:0:0:0:
144,336,35018,1,2,0:0:0:0:
230,258,35337,6,0,B|257:209|257:209|311:229|355:202,1,156.750004783631,2|2,0:0|0:0,0:0:0:0:
353,202,37252,1,2,0:0:0:0:
323,87,37571,1,2,0:0:0:0:
223,176,37890,6,0,P|195:128|331:108,1,246.999988693238,2|0,0:0|0:0,0:0:0:0:
323,87,39805,1,2,0:0:0:0:
378,185,40124,1,2,0:0:0:0:
256,192,40443,6,0,B|232:248|232:248|264:316|264:316|240:368,1,185.249991519928,2|2,0:0|0:0,0:0:0:0:
243,360,42358,1,2,0:0:0:0:
328,244,42677,1,2,0:0:0:0:
223,176,42998,6,0,P|212:128|176:84,2,95,6|0|2,0:0|0:0|0:0,0:0:0:0:
112,176,43955,2,0,P|68:153|11:152,2,95,2|0|2,0:0|0:0|0:0,0:0:0:0:
36,264,44912,1,2,0:0:0:0:
112,176,45232,1,2,0:0:0:0:
212,256,45551,6,0,L|220:364,2,95,2|0|2,0:0|0:0|0:0,0:0:0:0:
296,192,46508,2,0,L|288:84,2,95,2|0|2,0:0|0:0|0:0,0:0:0:0:
380,268,47466,1,2,0:0:0:0:
296,192,47785,1,2,0:0:0:0:
212,256,48104,6,0,P|162:253|113:225,2,95,2|0|2,0:0|0:0|0:0,0:0:0:0:
192,146,49061,2,0,P|161:106|150:50,2,95,2|0|2,0:0|0:0|0:0,0:0:0:0:
272,52,50019,1,2,0:0:0:0:
364,120,50338,1,2,0:0:0:0:
412,224,50657,6,0,B|458:229|458:229|502:209,2,95,2|0|2,0:0|0:0|0:0,0:0:0:0:
364,120,51615,1,2,0:0:0:0:
296,192,51934,6,0,L|284:252,1,47.5,2|0,0:0|0:0,0:0:0:0:
301,315,52253,2,0,L|291:268,1,47.5,2|0,0:0|0:0,0:0:0:0:
192,192,52572,2,0,L|180:252,1,47.5,2|0,0:0|0:0,0:0:0:0:
196,312,52891,2,0,L|186:265,1,47.5,2|0,0:0|0:0,0:0:0:0:
48,192,53210,6,0,L|40:97,2,95,2|0|2,0:0|0:0|0:0,0:0:0:0:
147,205,54168,2,0,L|139:299,2,95,2|0|2,0:0|0:0|0:0,0:0:0:0:
160,92,55125,1,2,0:0:0:0:
147,205,55444,1,2,0:0:0:0:
248,156,55763,6,0,P|296:140|348:148,2,95,2|0|2,0:0|0:0|0:0,0:0:0:0:
304,232,56721,2,0,P|347:258|374:303,2,95,2|0|2,0:0|0:0|0:0,0:0:0:0:
264,340,57678,1,2,0:0:0:0:
304,232,57998,1,2,0:0:0:0:
192,252,58317,6,0,P|144:268|92:260,2,95,2|0|2,0:0|0:0|0:0,0:0:0:0:
136,176,59275,2,0,P|93:150|66:105,2,95,2|0|2,0:0|0:0|0:0,0:0:0:0:
168,72,60232,1,2,0:0:0:0:
136,176,60551,1,2,0:0:0:0:
244,148,60870,6,0,B|290:143|290:143|334:163,2,95,2|0|2,0:0|0:0|0:0,0:0:0:0:
136,176,61827,1,2,0:0:0:0:
252,268,62146,6,0,L|244:332,1,47.5,0|0,0:0|0:0,0:0:0:0:
144,232,62466,2,0,L|136:176,1,56.9999982604981,2|0,0:0|0:0,0:0:0:0:
220,64,62785,2,0,L|226:114,1,28.4999991302491,8|0,0:0|0:0,0:0:0:0:
234,175,62944,1,0,0:0:0:0:
348,54,63104,1,0,0:0:0:0:
323,269,63263,1,0,0:0:0:0:
444,280,63423,6,0,B|396:250|396:250|356:276|293:267,1,132.999995941162,2|0,0:0|0:0,0:0:0:0:
256,336,63902,1,0,0:0:0:0:
336,176,64061,2,0,P|328:128|316:108,1,66.4999979705811,8|0,0:0|0:0,0:0:0:0:
232,172,64380,2,0,B|184:202|184:202|144:176|81:185,1,132.999995941162,0|0,0:0|0:0,0:0:0:0:
122,271,64859,5,0,0:0:0:0:
114,287,64939,1,0,0:0:0:0:
108,300,65019,2,0,P|110:332|124:363,1,66.4999979705811,2|0,0:0|0:0,0:0:0:0:
232,172,65338,2,0,P|229:139|215:108,1,66.4999979705811,8|0,0:0|0:0,0:0:0:0:
200,256,65657,2,0,P|248:260|272:252,1,66.4999979705811,0|0,0:0|0:0,0:0:0:0:
396,252,65976,6,0,B|416:196|416:196|404:112,1,132.999995941162,2|0,0:0|0:0,0:0:0:0:
340,72,66455,1,0,0:0:0:0:
265,255,66615,2,0,P|267:287|281:318,1,66.4999979705811,8|0,0:0|0:0,0:0:0:0:
328,180,66934,2,0,P|248:160|192:188,1,132.999995941162,0|0,0:0|0:0,0:0:0:0:
108,300,67412,5,0,0:0:0:0:
203,178,67572,2,0,P|216:147|219:114,1,66.4999979705811,2|0,0:0|0:0,0:0:0:0:
20,292,67891,2,0,P|22:325|36:355,1,66.4999979705811,8|0,0:0|0:0,0:0:0:0:
88,212,68210,2,0,P|59:194|27:188,1,66.4999979705811,0|0,0:0|0:0,0:0:0:0:
153,324,68529,6,0,B|201:340|201:340|280:317,1,132.999995941162,2|0,0:0|0:0,0:0:0:0:
405,272,69008,1,0,0:0:0:0:
333,113,69168,2,0,L|328:180,1,66.4999979705811,8|0,0:0|0:0,0:0:0:0:
256,48,69487,2,0,B|208:32|208:32|129:55,1,132.999995941162,0|0,0:0|0:0,0:0:0:0:
71,131,69966,5,0,0:0:0:0:
72,144,70045,1,0,0:0:0:0:
74,157,70125,2,0,L|79:223,1,66.4999979705811,2|0,0:0|0:0,0:0:0:0:
200,304,70444,2,0,L|205:237,1,66.4999979705811,8|0,0:0|0:0,0:0:0:0:
328,180,70763,2,0,L|333:246,1,66.4999979705811,0|0,0:0|0:0,0:0:0:0:
268,108,71083,6,0,P|330:88|392:109,1,132.999995941162,2|0,0:0|0:0,0:0:0:0:
483,85,71561,1,0,0:0:0:0:
468,236,71721,2,0,L|463:302,1,66.4999979705811,8|0,0:0|0:0,0:0:0:0:
336,312,72040,2,0,L|331:246,1,66.4999979705811,0|0,0:0|0:0,0:0:0:0:
268,108,72359,5,0,0:0:0:0:
204,237,72519,1,0,0:0:0:0:
143,94,72678,1,2,0:0:0:0:
79,223,72838,1,0,0:0:0:0:
268,108,72998,2,0,L|344:96,1,66.4999979705811,8|0,0:0|0:0,0:0:0:0:
468,236,73317,2,0,L|392:224,1,66.4999979705811,0|8,0:0|0:0,0:0:0:0:
332,292,73636,6,0,P|308:224|328:160,1,132.999995941162,2|0,0:0|0:0,0:0:0:0:
402,225,74115,1,0,0:0:0:0:
200,304,74274,2,0,L|134:314,1,66.4999979705811,8|0,0:0|0:0,0:0:0:0:
280,248,74593,2,0,P|295:311|271:372,1,132.999995941162,0|0,0:0|0:0,0:0:0:0:
64,252,75072,5,0,0:0:0:0:
66,236,75151,1,0,0:0:0:0:
68,223,75231,2,0,L|73:157,1,66.4999979705811,2|0,0:0|0:0,0:0:0:0:
198,65,75551,2,0,L|203:131,1,66.4999979705811,8|0,0:0|0:0,0:0:0:0:
323,167,75870,2,0,L|328:101,1,66.4999979705811,0|0,0:0|0:0,0:0:0:0:
260,239,76189,6,0,P|322:260|384:239,1,132.999995941162,2|0,0:0|0:0,0:0:0:0:
469,251,76668,1,0,0:0:0:0:
348,86,76827,2,0,L|282:76,1,66.4999979705811,8|0,0:0|0:0,0:0:0:0:
73,156,77146,2,0,L|203:131,1,132.999995941162,0|0,0:0|0:0,0:0:0:0:
260,240,77625,5,0,0:0:0:0:
150,124,77785,2,0,L|238:108,1,66.4999979705811,2|0,0:0|0:0,0:0:0:0:
345,215,78104,2,0,P|349:256|339:288,1,66.4999979705811,8|0,0:0|0:0,0:0:0:0:
185,287,78423,2,0,P|172:256|173:223,1,66.4999979705811,0|0,0:0|0:0,0:0:0:0:
281,153,78742,6,0,P|321:131|412:159,1,132.999995941162,2|0,0:0|0:0,0:0:0:0:
345,215,79221,1,0,0:0:0:0:
208,203,79380,2,0,P|195:172|196:139,1,66.4999979705811,8|0,0:0|0:0,0:0:0:0:
274,254,79700,2,0,P|221:286|151:265,1,132.999995941162,0|0,0:0|0:0,0:0:0:0:
80,180,80178,5,0,0:0:0:0:
76,168,80257,1,0,0:0:0:0:
72,156,80338,2,0,L|64:89,1,66.4999979705811,2|0,0:0|0:0,0:0:0:0:
210,64,80657,2,0,L|203:129,1,66.4999979705811,8|0,0:0|0:0,0:0:0:0:
335,166,80976,2,0,L|327:99,1,66.4999979705811,0|0,0:0|0:0,0:0:0:0:
192,224,81295,6,0,P|177:287|201:348,1,132.999995941162,2|0,0:0|0:0,0:0:0:0:
336,287,81774,1,0,0:0:0:0:
200,136,81934,2,0,L|124:124,1,66.4999979705811,8|0,0:0|0:0,0:0:0:0:
16,216,82253,2,0,L|92:204,1,66.4999979705811,0|0,0:0|0:0,0:0:0:0:
190,260,82572,6,0,P|214:199|200:136,2,132.999995941162,0|0|0,0:0|0:0|0:0,0:0:0:0:
200,136,83529,1,0,0:0:0:0:
256,192,83849,12,0,88157,0:0:0:0:
310,255,88317,5,0,0:0:0:0:
310,255,88396,1,0,0:0:0:0:
310,255,88476,2,0,L|353:260,1,38,2|0,0:0|0:0,0:0:0:0:
317,336,88636,1,8,0:0:0:0:
317,336,88795,1,0,0:0:0:0:
372,180,88955,6,0,L|292:172,1,76,2|0,0:0|0:0,0:0:0:0:
236,92,89274,1,8,0:0:0:0:
356,67,89434,5,0,0:0:0:0:
371,91,89513,1,0,0:0:0:0:
378,118,89593,1,0,0:0:0:0:
376,146,89673,1,0,0:0:0:0:
372,180,89753,2,0,L|358:234,1,38,2|0,0:0|0:0,0:0:0:0:
281,275,89912,2,0,L|206:283,1,76,8|0,0:0|0:0,0:0:0:0:
112,252,90232,1,2,0:0:0:0:
184,184,90391,1,0,0:0:0:0:
205,283,90551,1,8,0:0:0:0:
40,300,90710,5,0,0:0:0:0:
29,273,90789,1,0,0:0:0:0:
27,245,90869,1,0,0:0:0:0:
33,217,90949,1,0,0:0:0:0:
47,192,91029,2,0,P|64:176|92:160,1,38,2|0,0:0|0:0,0:0:0:0:
184,136,91189,2,0,L|259:128,1,76,8|0,0:0|0:0,0:0:0:0:
408,188,91508,2,0,L|333:180,1,76,2|0,0:0|0:0,0:0:0:0:
236,284,91827,1,8,0:0:0:0:
332,179,91987,5,0,0:0:0:0:
343,152,92066,1,0,0:0:0:0:
345,124,92146,1,0,0:0:0:0:
339,96,92226,1,0,0:0:0:0:
325,71,92306,2,0,P|308:55|280:39,1,38,2|0,0:0|0:0,0:0:0:0:
196,32,92466,2,0,L|121:40,1,76,8|0,0:0|0:0,0:0:0:0:
40,128,92785,6,0,L|32:172,1,38,2|0,0:0|0:0,0:0:0:0:
112,248,92944,2,0,L|105:210,1,38,0|0,0:0|0:0,0:0:0:0:
172,132,93104,2,0,L|178:170,1,38,8|0,0:0|0:0,0:0:0:0:
256,276,93263,1,0,0:0:0:0:
260,247,93342,1,0,0:0:0:0:
264,219,93422,1,0,0:0:0:0:
268,191,93502,1,0,0:0:0:0:
272,163,93583,2,0,L|276:124,1,38,2|0,0:0|0:0,0:0:0:0:
360,32,93742,2,0,L|366:107,1,76,8|0,0:0|0:0,0:0:0:0:
444,228,94061,6,0,L|450:152,1,76,2|0,0:0|0:0,0:0:0:0:
456,48,94380,1,8,0:0:0:0:
325,190,94540,1,0,0:0:0:0:
296,194,94619,1,0,0:0:0:0:
268,191,94699,1,0,0:0:0:0:
241,182,94779,1,0,0:0:0:0:
218,166,94859,2,0,P|200:152|188:132,1,38,2|0,0:0|0:0,0:0:0:0:
256,56,95019,2,0,P|288:44|331:48,1,76,8|0,0:0|0:0,0:0:0:0:
400,116,95338,5,2,0:0:0:0:
304,144,95498,1,0,0:0:0:0:
329,47,95657,1,8,0:0:0:0:
472,68,95817,1,0,0:0:0:0:
483,95,95896,1,0,0:0:0:0:
485,123,95976,1,0,0:0:0:0:
479,151,96056,1,0,0:0:0:0:
465,176,96136,2,0,P|448:192|420:208,1,38,2|0,0:0|0:0,0:0:0:0:
328,240,96295,2,0,L|253:232,1,76,8|0,0:0|0:0,0:0:0:0:
100,292,96615,6,0,L|175:284,1,76,2|0,0:0|0:0,0:0:0:0:
292,352,96934,1,8,0:0:0:0:
176,283,97094,5,0,0:0:0:0:
165,256,97173,1,0,0:0:0:0:
163,228,97253,1,0,0:0:0:0:
169,200,97333,1,0,0:0:0:0:
183,175,97413,2,0,P|200:159|228:143,1,38,2|0,0:0|0:0,0:0:0:0:
312,136,97573,2,0,L|387:144,1,76,8|0,0:0|0:0,0:0:0:0:
452,216,97891,1,2,0:0:0:0:
356,240,98051,1,0,0:0:0:0:
387,144,98210,1,8,0:0:0:0:
420,300,98370,5,0,0:0:0:0:
396,316,98449,1,0,0:0:0:0:
369,324,98529,1,0,0:0:0:0:
341,324,98609,1,0,0:0:0:0:
316,316,98689,2,0,P|288:300|280:292,1,38,2|0,0:0|0:0,0:0:0:0:
228,204,98849,2,0,L|222:129,1,76,8|0,0:0|0:0,0:0:0:0:
328,32,99168,6,0,L|322:107,1,76,2|0,0:0|0:0,0:0:0:0:
316,200,99487,1,8,0:0:0:0:
221,128,99646,1,0,0:0:0:0:
206,240,99806,1,0,0:0:0:0:
204,254,99886,1,0,0:0:0:0:
201,270,99966,1,2,0:0:0:0:
140,168,100125,2,0,P|102:164|66:176,1,76,8|0,0:0|0:0,0:0:0:0:
156,341,100444,6,0,P|191:352|229:348,1,76,2|0,0:0|0:0,0:0:0:0:
316,203,100763,2,0,P|311:179|293:151,1,38,8|0,0:0|0:0,0:0:0:0:
233,212,100923,2,0,P|214:227|200:257,1,38,0|0,0:0|0:0,0:0:0:0:
282,276,101083,1,0,0:0:0:0:
299,283,101162,1,0,0:0:0:0:
318,285,101242,1,2,0:0:0:0:
240,132,101402,2,0,L|165:124,1,76,8|0,0:0|0:0,0:0:0:0:
52,108,101721,5,2,0:0:0:0:
116,12,101880,1,0,0:0:0:0:
164,123,102040,2,0,L|158:198,1,76,8|0,0:0|0:0,0:0:0:0:
48,96,102359,1,0,0:0:0:0:
44,84,102439,1,0,0:0:0:0:
40,72,102519,1,2,0:0:0:0:
200,40,102678,2,0,P|235:28|273:32,1,76,8|0,0:0|0:0,0:0:0:0:
336,136,102998,6,0,L|344:180,1,38,2|0,0:0|0:0,0:0:0:0:
264,256,103157,2,0,L|270:218,1,38,0|0,0:0|0:0,0:0:0:0:
212,136,103317,2,0,L|205:173,1,38,8|0,0:0|0:0,0:0:0:0:
132,272,103476,1,0,0:0:0:0:
128,243,103555,1,0,0:0:0:0:
124,215,103635,1,0,0:0:0:0:
120,187,103715,1,0,0:0:0:0:
116,159,103796,2,0,L|112:120,1,38,2|0,0:0|0:0,0:0:0:0:
218,60,103955,2,0,L|212:135,1,76,8|0,0:0|0:0,0:0:0:0:
343,227,104274,6,0,P|307:214|269:217,1,76,2|0,0:0|0:0,0:0:0:0:
200,308,104593,1,8,0:0:0:0:
180,184,104753,1,0,0:0:0:0:
104,268,104912,1,0,0:0:0:0:
97,279,104992,1,0,0:0:0:0:
91,289,105072,1,2,0:0:0:0:
269,216,105232,2,0,P|273:168|265:140,1,76,8|0,0:0|0:0,0:0:0:0:
160,64,105551,6,0,L|85:56,1,76,2|0,0:0|0:0,0:0:0:0:
29,180,105870,2,0,P|49:180|73:172,1,38,8|0,0:0|0:0,0:0:0:0:
140,140,106029,2,0,P|129:122|111:105,1,38,0|0,0:0|0:0,0:0:0:0:
48,56,106189,1,0,0:0:0:0:
38,72,106268,1,0,0:0:0:0:
33,90,106348,1,2,0:0:0:0:
144,220,106508,2,0,P|181:222|217:209,1,76,8|0,0:0|0:0,0:0:0:0:
66,175,106827,6,0,P|57:211|62:249,1,76,2|0,0:0|0:0,0:0:0:0:
156,316,107146,1,8,0:0:0:0:
217,208,107306,1,0,0:0:0:0:
260,316,107466,1,0,0:0:0:0:
264,328,107546,1,0,0:0:0:0:
268,340,107626,1,2,0:0:0:0:
343,227,107785,2,0,L|349:152,1,76,8|0,0:0|0:0,0:0:0:0:
272,56,108104,6,0,L|278:94,1,38,2|0,0:0|0:0,0:0:0:0:
204,180,108263,2,0,L|210:142,1,38,0|0,0:0|0:0,0:0:0:0:
148,56,108423,2,0,L|142:94,1,38,8|0,0:0|0:0,0:0:0:0:
60,188,108583,1,0,0:0:0:0:
55,159,108662,1,0,0:0:0:0:
50,131,108742,1,0,0:0:0:0:
45,103,108822,1,0,0:0:0:0:
41,75,108902,1,2,0:0:0:0:
108,252,109061,2,0,P|72:264|34:263,1,76,8|0,0:0|0:0,0:0:0:0:
209,142,109380,6,0,L|284:134,1,76,2|0,0:0|0:0,0:0:0:0:
300,132,109700,1,8,0:0:0:0:
418,235,109859,2,0,L|343:227,1,76,2|0,0:0|0:0,0:0:0:0:
327,225,110179,1,8,0:0:0:0:
209,142,110338,2,0,L|203:104,1,38,6|0,0:0|0:0,0:0:0:0:
192,32,110498,1,8,0:0:0:0:
60,188,110657,5,2,0:0:0:0:
203,104,110817,1,0,0:0:0:0:
68,28,110976,1,8,0:0:0:0:
164,184,111136,1,0,0:0:0:0:
195,193,111215,1,0,0:0:0:0:
228,189,111295,1,0,0:0:0:0:
257,174,111375,1,0,0:0:0:0:
279,149,111455,1,2,0:0:0:0:
88,140,111615,2,0,P|76:188|88:232,1,85.4999973907472,8|0,0:0|0:0,0:0:0:0:
184,316,111934,5,2,0:0:0:0:
220,184,112093,1,0,0:0:0:0:
83,222,112253,1,8,0:0:0:0:
284,256,112412,1,0,0:0:0:0:
302,228,112491,1,0,0:0:0:0:
311,196,112571,1,0,0:0:0:0:
310,163,112651,1,0,0:0:0:0:
299,131,112731,1,2,0:0:0:0:
220,316,112891,2,0,P|259:338|300:341,1,85.4999973907472,8|0,0:0|0:0,0:0:0:0:
418,235,113210,6,0,L|424:184,1,42.7499986953736,2|0,0:0|0:0,0:0:0:0:
440,76,113370,2,0,L|435:118,1,42.7499986953736,0|0,0:0|0:0,0:0:0:0:
340,232,113529,2,0,L|344:189,1,42.7499986953736,8|0,0:0|0:0,0:0:0:0:
362,73,113689,2,0,L|357:115,1,42.7499986953736,0|0,0:0|0:0,0:0:0:0:
260,232,113849,2,0,L|266:181,1,42.7499986953736,0|0,0:0|0:0,0:0:0:0:
282,73,114009,2,0,L|277:115,1,42.7499986953736,2|0,0:0|0:0,0:0:0:0:
184,232,114168,2,0,L|190:181,1,42.7499986953736,8|0,0:0|0:0,0:0:0:0:
206,73,114327,1,0,0:0:0:0:
180,248,114487,5,2,0:0:0:0:
276,115,114646,1,0,0:0:0:0:
336,252,114806,1,8,0:0:0:0:
188,140,114966,1,0,0:0:0:0:
183,107,115045,1,0,0:0:0:0:
192,75,115125,1,0,0:0:0:0:
212,49,115205,1,0,0:0:0:0:
241,32,115285,1,2,0:0:0:0:
252,204,115444,2,0,P|215:225|173:229,1,85.4999973907472,8|0,0:0|0:0,0:0:0:0:
48,176,115763,5,2,0:0:0:0:
152,84,115923,1,0,0:0:0:0:
172,228,116083,1,8,0:0:0:0:
48,176,116242,1,0,0:0:0:0:
45,142,116321,1,0,0:0:0:0:
42,109,116401,1,0,0:0:0:0:
39,76,116481,1,0,0:0:0:0:
36,43,116561,1,2,0:0:0:0:
178,142,116721,2,0,L|171:227,1,85.4999973907472,8|0,0:0|0:0,0:0:0:0:
160,344,117040,5,2,0:0:0:0:
96,224,117200,1,0,0:0:0:0:
36,348,117359,1,8,0:0:0:0:
211,264,117519,1,0,0:0:0:0:
239,247,117598,1,0,0:0:0:0:
271,240,117678,1,0,0:0:0:0:
305,242,117758,1,0,0:0:0:0:
336,252,117838,1,2,0:0:0:0:
148,324,117998,2,0,P|127:278|132:233,1,85.4999973907472,8|0,0:0|0:0,0:0:0:0:
251,83,118317,6,0,L|245:134,1,42.7499986953736,2|0,0:0|0:0,0:0:0:0:
229,242,118477,2,0,L|234:200,1,42.7499986953736,0|0,0:0|0:0,0:0:0:0:
327,83,118636,2,0,L|321:134,1,42.7499986953736,8|0,0:0|0:0,0:0:0:0:
305,242,118795,1,0,0:0:0:0:
251,83,118955,5,0,0:0:0:0:
172,148,119115,1,2,0:0:0:0:
116,64,119274,1,8,0:0:0:0:
36,128,119434,1,0,0:0:0:0:
200,32,119593,6,0,P|248:12|288:20,1,85.4999973907472,2|0,0:0|0:0,0:0:0:0:
364,124,119912,1,8,0:0:0:0:
201,137,120072,1,0,0:0:0:0:
186,112,120151,1,0,0:0:0:0:
181,84,120231,1,0,0:0:0:0:
186,56,120311,1,0,0:0:0:0:
199,31,120391,1,2,0:0:0:0:
256,204,120551,2,0,P|218:222|175:219,1,85.4999973907472,8|0,0:0|0:0,0:0:0:0:
56,152,120870,5,2,0:0:0:0:
76,296,121029,1,0,0:0:0:0:
52,128,121189,1,8,0:0:0:0:
152,244,121349,1,0,0:0:0:0:
165,268,121429,1,0,0:0:0:0:
170,296,121509,1,0,0:0:0:0:
164,324,121589,1,0,0:0:0:0:
150,349,121668,1,2,0:0:0:0:
88,188,121827,2,0,P|122:162|164:158,1,85.4999973907472,8|0,0:0|0:0,0:0:0:0:
256,248,122146,5,2,0:0:0:0:
300,128,122306,1,0,0:0:0:0:
376,232,122466,1,8,0:0:0:0:
180,200,122625,1,0,0:0:0:0:
167,224,122705,1,0,0:0:0:0:
162,252,122785,1,0,0:0:0:0:
168,280,122865,1,0,0:0:0:0:
182,305,122944,1,2,0:0:0:0:
292,213,123104,2,0,L|299:128,1,85.4999973907472,8|0,0:0|0:0,0:0:0:0:
80,51,123423,6,0,L|75:93,1,42.7499986953736,2|0,0:0|0:0,0:0:0:0:
58,210,123583,2,0,L|63:168,1,42.7499986953736,0|0,0:0|0:0,0:0:0:0:
158,54,123742,2,0,L|154:97,1,42.7499986953736,8|0,0:0|0:0,0:0:0:0:
136,213,123902,2,0,L|141:171,1,42.7499986953736,0|0,0:0|0:0,0:0:0:0:
238,54,124062,2,0,L|233:96,1,42.7499986953736,0|0,0:0|0:0,0:0:0:0:
216,213,124222,2,0,L|221:171,1,42.7499986953736,2|0,0:0|0:0,0:0:0:0:
314,54,124381,2,0,L|309:96,1,42.7499986953736,8|0,0:0|0:0,0:0:0:0:
292,213,124540,1,0,0:0:0:0:
154,96,124700,6,0,L|54:84,1,85.4999973907472,2|0,0:0|0:0,0:0:0:0:
24,192,125019,1,8,0:0:0:0:
220,152,125178,1,0,0:0:0:0:
234,127,125257,1,0,0:0:0:0:
239,99,125337,1,0,0:0:0:0:
236,71,125417,1,0,0:0:0:0:
224,45,125497,1,2,0:0:0:0:
141,170,125657,2,0,L|148:255,1,85.4999973907472,8|0,0:0|0:0,0:0:0:0:
72,360,125976,5,2,0:0:0:0:
148,255,126136,1,0,0:0:0:0:
216,364,126295,1,8,0:0:0:0:
56,268,126455,1,0,0:0:0:0:
56,239,126534,1,0,0:0:0:0:
66,212,126614,1,0,0:0:0:0:
82,189,126694,1,0,0:0:0:0:
106,173,126774,1,2,0:0:0:0:
120,320,126934,2,0,P|86:345|44:350,1,85.4999973907472,8|0,0:0|0:0,0:0:0:0:
216,213,127253,6,0,L|316:201,1,85.4999973907472,2|0,0:0|0:0,0:0:0:0:
436,300,127572,2,0,L|336:288,1,85.4999973907472,8|0,0:0|0:0,0:0:0:0:
210,175,127891,2,0,L|207:135,1,38,0|0,0:0|0:0,0:0:0:0:
200,56,128050,1,2,0:0:0:0:
132,248,128210,1,8,0:0:0:0:
68,112,128370,1,0,0:0:0:0:
40,264,128529,6,0,L|33:349,1,85.4999973907472,2|0,0:0|0:0,0:0:0:0:
210,175,128849,2,0,L|203:90,1,85.4999973907472,8|0,0:0|0:0,0:0:0:0:
129,210,129168,2,0,L|132:250,1,38,0|0,0:0|0:0,0:0:0:0:
139,329,129327,1,2,0:0:0:0:
210,175,129487,1,8,0:0:0:0:
256,340,129646,1,0,0:0:0:0:
129,210,129806,6,0,P|125:162|141:122,1,85.4999973907472,2|0,0:0|0:0,0:0:0:0:
264,104,130125,1,8,0:0:0:0:
196,264,130285,1,0,0:0:0:0:
169,284,130364,1,0,0:0:0:0:
138,293,130444,1,0,0:0:0:0:
105,292,130524,1,0,0:0:0:0:
74,278,130604,1,2,0:0:0:0:
210,175,130763,2,0,L|294:185,1,85.4999973907472,8|0,0:0|0:0,0:0:0:0:
448,264,131083,6,0,L|405:268,1,42.7499986953736,2|0,0:0|0:0,0:0:0:0:
310,282,131242,1,0,0:0:0:0:
472,260,131402,1,8,0:0:0:0:
280,288,131561,1,0,0:0:0:0:
247,292,131640,1,0,0:0:0:0:
214,297,131720,1,0,0:0:0:0:
181,302,131800,1,0,0:0:0:0:
148,306,131880,1,2,0:0:0:0:
344,236,132040,2,0,P|357:276|352:318,1,85.4999973907472,8|0,0:0|0:0,0:0:0:0:
228,356,132359,5,2,0:0:0:0:
212,200,132519,1,0,0:0:0:0:
120,288,132678,1,8,0:0:0:0:
296,236,132838,1,0,0:0:0:0:
302,203,132917,1,0,0:0:0:0:
297,170,132997,1,0,0:0:0:0:
280,142,133077,1,0,0:0:0:0:
254,121,133157,1,2,0:0:0:0:
127,205,133317,2,0,P|114:245|119:287,1,85.4999973907472,8|0,0:0|0:0,0:0:0:0:
356,250,133636,6,0,L|362:199,1,42.7499986953736,2|0,0:0|0:0,0:0:0:0:
378,91,133796,2,0,L|373:133,1,42.7499986953736,0|0,0:0|0:0,0:0:0:0:
278,247,133955,2,0,L|282:204,1,42.7499986953736,8|0,0:0|0:0,0:0:0:0:
300,88,134115,2,0,L|295:130,1,42.7499986953736,0|0,0:0|0:0,0:0:0:0:
198,247,134275,2,0,L|204:196,1,42.7499986953736,0|0,0:0|0:0,0:0:0:0:
220,88,134435,2,0,L|215:130,1,42.7499986953736,2|0,0:0|0:0,0:0:0:0:
122,247,134594,2,0,L|128:196,1,42.7499986953736,8|0,0:0|0:0,0:0:0:0:
144,88,134753,1,0,0:0:0:0:
198,247,134912,5,2,0:0:0:0:
300,88,135072,1,0,0:0:0:0:
356,250,135232,1,8,0:0:0:0:
224,128,135391,1,0,0:0:0:0:
215,96,135470,1,0,0:0:0:0:
218,63,135550,1,0,0:0:0:0:
235,34,135630,1,0,0:0:0:0:
261,14,135710,1,2,0:0:0:0:
348,164,135870,2,0,L|355:249,1,85.4999973907472,8|0,0:0|0:0,0:0:0:0:
256,340,136189,6,0,L|259:282,1,42.7499986953736,2|0,0:0|0:0,0:0:0:0:
264,200,136349,1,0,0:0:0:0:
360,336,136508,1,8,0:0:0:0:
192,240,136668,1,0,0:0:0:0:
158,234,136747,1,0,0:0:0:0:
125,237,136827,1,0,0:0:0:0:
93,248,136907,1,0,0:0:0:0:
65,265,136987,1,2,0:0:0:0:
256,288,137146,2,0,P|269:248|264:206,1,85.4999973907472,8|0,0:0|0:0,0:0:0:0:
144,120,137466,5,2,0:0:0:0:
120,264,137625,1,0,0:0:0:0:
263,205,137785,1,8,0:0:0:0:
60,196,137944,1,0,0:0:0:0:
40,222,138024,1,0,0:0:0:0:
31,254,138104,1,0,0:0:0:0:
33,287,138184,1,0,0:0:0:0:
47,318,138263,1,2,0:0:0:0:
192,240,138423,2,0,L|199:155,1,85.4999973907472,8|0,0:0|0:0,0:0:0:0:
328,252,138742,6,0,L|335:337,1,85.4999973907472,2|0,0:0|0:0,0:0:0:0:
428,192,139061,2,0,L|435:107,1,85.4999973907472,8|0,0:0|0:0,0:0:0:0:
328,252,139380,5,0,0:0:0:0:
272,192,139540,1,0,0:0:0:0:
208,248,139700,1,0,0:0:0:0:
152,188,139859,1,0,0:0:0:0:
96,256,140019,6,0,L|20:268,3,66.4999979705811,2|0|0|0,0:0|0:0|0:0|0:0,0:0:0:0:
152,188,140657,2,0,L|228:200,3,66.4999979705811,8|0|0|0,0:0|0:0|0:0|0:0,0:0:0:0:
92,120,141295,2,0,L|16:132,3,66.4999979705811,0|0|2|0,0:0|0:0|0:0|0:0,0:0:0:0:
188,96,141934,6,0,P|196:56|188:12,1,66.4999979705811,8|0,0:0|0:0,0:0:0:0:
90,190,142253,2,0,P|88:223|95:255,1,66.4999979705811,0|0,0:0|0:0,0:0:0:0:
184,304,142572,6,0,L|249:314,3,66.4999979705811,2|0|0|0,0:0|0:0|0:0|0:0,0:0:0:0:
274,242,143210,2,0,L|340:232,3,66.4999979705811,8|0|0|0,0:0|0:0|0:0|0:0,0:0:0:0:
444,208,143849,5,0,0:0:0:0:
356,152,144008,1,0,0:0:0:0:
448,100,144168,1,2,0:0:0:0:
360,44,144327,1,0,0:0:0:0:
264,144,144487,2,0,L|256:180,2,33.2499989852906,0|0|2,0:0|0:0|0:0,0:0:0:0:
232,52,144806,2,0,P|196:40|152:52,1,66.4999979705811,8|0,0:0|0:0,0:0:0:0:
100,124,145125,6,0,L|88:196,3,66.4999979705811,2|0|0|0,0:0|0:0|0:0|0:0,0:0:0:0:
164,244,145763,2,0,L|176:316,3,66.4999979705811,8|0|0|0,0:0|0:0|0:0|0:0,0:0:0:0:
96,352,146402,2,0,P|63:355|32:343,1,66.4999979705811,0|0,0:0|0:0,0:0:0:0:
160,216,146721,1,2,0:0:0:0:
256,312,146880,2,0,B|292:316|292:316|332:300,1,66.4999979705811,0|8,0:0|0:0,0:0:0:0:
404,212,147200,2,0,B|375:200|375:200|339:204,1,66.4999979705811,0|0,0:0|0:0,0:0:0:0:
256,312,147519,1,0,0:0:0:0:
160,216,147678,6,0,L|149:150,1,66.4999979705811,2|0,0:0|0:0,0:0:0:0:
274,78,147998,2,0,L|263:143,1,66.4999979705811,0|0,0:0|0:0,0:0:0:0:
236,296,148317,2,0,L|188:304,1,33.2499989852906,0|0,0:0|0:0,0:0:0:0:
124,320,148476,1,2,0:0:0:0:
292,352,148636,1,8,0:0:0:0:
160,216,148795,1,0,0:0:0:0:
338,221,148955,6,0,L|404:211,1,66.4999979705811,2|0,0:0|0:0,0:0:0:0:
262,143,149274,2,0,L|196:133,1,66.4999979705811,8|0,0:0|0:0,0:0:0:0:
48,240,149593,6,0,L|96:232,1,33.2499989852906,0|0,0:0|0:0,0:0:0:0:
160,216,149752,1,2,0:0:0:0:
36,148,149912,1,8,0:0:0:0:
262,143,150072,1,0,0:0:0:0:
100,284,150232,5,6,0:0:0:0:
74,239,150311,1,0,0:0:0:0:
76,187,150391,1,0,0:0:0:0:
105,145,150471,1,0,0:0:0:0:
155,132,150551,1,8,0:0:0:0:
202,113,150630,1,0,0:0:0:0:
217,65,150710,1,0,0:0:0:0:
189,23,150790,1,0,0:0:0:0:
139,18,150870,1,0,0:0:0:0:
104,54,150949,1,0,0:0:0:0:
109,104,151029,1,2,0:0:0:0:
140,145,151109,1,0,0:0:0:0:
171,186,151188,1,8,0:0:0:0:
174,237,151268,1,0,0:0:0:0:
146,281,151348,1,0,0:0:0:0:
99,301,151428,1,0,0:0:0:0:
50,282,151508,5,2,0:0:0:0:
26,236,151587,1,0,0:0:0:0:
35,186,151667,1,0,0:0:0:0:
73,151,151747,1,0,0:0:0:0:
124,146,151827,1,8,0:0:0:0:
168,173,151907,1,0,0:0:0:0:
212,200,151986,1,0,0:0:0:0:
264,200,152066,1,0,0:0:0:0:
308,174,152146,1,0,0:0:0:0:
324,124,152226,1,0,0:0:0:0:
324,73,152305,1,2,0:0:0:0:
290,34,152385,1,0,0:0:0:0:
238,22,152466,2,0,P|208:23|180:37,3,52.2500015945435,8|0|0|0,0:0|0:0|0:0|0:0,0:0:0:0:
145,61,152785,5,2,0:0:0:0:
127,110,152864,1,0,0:0:0:0:
137,161,152944,1,0,0:0:0:0:
170,200,153024,1,0,0:0:0:0:
211,232,153104,1,8,0:0:0:0:
237,276,153183,1,0,0:0:0:0:
228,326,153263,1,0,0:0:0:0:
187,358,153343,1,0,0:0:0:0:
136,355,153423,1,0,0:0:0:0:
100,319,153502,1,0,0:0:0:0:
96,268,153582,1,2,0:0:0:0:
120,221,153662,1,0,0:0:0:0:
165,196,153741,1,8,0:0:0:0:
216,201,153821,1,0,0:0:0:0:
254,235,153901,1,0,0:0:0:0:
297,265,153982,1,0,0:0:0:0:
348,266,154061,5,2,0:0:0:0:
385,231,154141,1,0,0:0:0:0:
385,180,154221,1,0,0:0:0:0:
350,144,154301,1,0,0:0:0:0:
299,144,154380,1,8,0:0:0:0:
263,180,154460,1,0,0:0:0:0:
215,202,154540,1,0,0:0:0:0:
164,196,154619,1,0,0:0:0:0:
127,161,154699,1,0,0:0:0:0:
119,110,154779,1,0,0:0:0:0:
143,64,154859,1,2,0:0:0:0:
189,42,154938,1,0,0:0:0:0:
239,53,155019,2,0,P|262:69|285:98,3,52.2500015945435,8|0|0|0,0:0|0:0|0:0|0:0,0:0:0:0:
299,118,155338,5,2,0:0:0:0:
310,154,155417,1,0,0:0:0:0:
306,191,155497,1,0,0:0:0:0:
286,223,155577,1,0,0:0:0:0:
267,256,155657,1,8,0:0:0:0:
258,293,155736,1,0,0:0:0:0:
271,328,155816,1,0,0:0:0:0:
301,350,155896,1,0,0:0:0:0:
339,350,155976,1,0,0:0:0:0:
370,330,156055,1,0,0:0:0:0:
385,296,156135,1,2,0:0:0:0:
378,259,156215,1,0,0:0:0:0:
359,225,156295,1,8,0:0:0:0:
324,209,156374,1,0,0:0:0:0:
287,210,156454,1,0,0:0:0:0:
253,227,156534,1,0,0:0:0:0:
220,247,156615,5,2,0:0:0:0:
183,252,156694,1,0,0:0:0:0:
148,238,156774,1,0,0:0:0:0:
124,210,156854,1,0,0:0:0:0:
112,173,156934,1,8,0:0:0:0:
120,136,157013,1,0,0:0:0:0:
142,106,157093,1,0,0:0:0:0:
175,88,157173,1,0,0:0:0:0:
213,87,157253,1,0,0:0:0:0:
248,101,157332,1,0,0:0:0:0:
273,129,157412,1,2,0:0:0:0:
298,157,157492,1,0,0:0:0:0:
329,179,157571,1,8,0:0:0:0:
366,182,157651,1,0,0:0:0:0:
400,166,157731,1,0,0:0:0:0:
422,135,157811,1,0,0:0:0:0:
425,98,157890,5,2,0:0:0:0:
409,64,157970,1,0,0:0:0:0:
379,42,158050,1,0,0:0:0:0:
341,39,158130,1,0,0:0:0:0:
307,55,158210,1,8,0:0:0:0:
283,85,158290,1,0,0:0:0:0:
260,114,158369,1,0,0:0:0:0:
225,129,158449,1,0,0:0:0:0:
187,127,158529,1,0,0:0:0:0:
158,101,158609,1,0,0:0:0:0:
142,66,158688,1,2,0:0:0:0:
150,30,158768,1,0,0:0:0:0:
179,7,158848,1,8,0:0:0:0:
216,4,158928,1,0,0:0:0:0:
247,24,159007,1,0,0:0:0:0:
261,59,159088,1,0,0:0:0:0:
259,97,159168,2,0,L|246:154,3,52.2500015945435,2|0|0|0,0:0|0:0|0:0|0:0,0:0:0:0:
216,223,159487,2,0,L|229:280,3,52.2500015945435,8|0|0|0,0:0|0:0|0:0|0:0,0:0:0:0:
252,302,159806,5,0,0:0:0:0:
284,321,159885,1,0,0:0:0:0:
322,322,159965,1,2,0:0:0:0:
355,304,160045,1,0,0:0:0:0:
374,272,160125,1,8,0:0:0:0:
376,235,160204,1,0,0:0:0:0:
358,202,160284,1,0,0:0:0:0:
327,182,160364,1,0,0:0:0:0:
288,183,160444,5,2,0:0:0:0:
237,194,160523,1,0,0:0:0:0:
190,173,160603,1,0,0:0:0:0:
165,129,160683,1,0,0:0:0:0:
172,78,160763,1,8,0:0:0:0:
208,41,160842,1,0,0:0:0:0:
259,34,160922,1,0,0:0:0:0:
304,58,161002,1,0,0:0:0:0:
326,106,161083,1,0,0:0:0:0:
355,147,161162,1,0,0:0:0:0:
405,159,161242,1,2,0:0:0:0:
449,133,161322,1,0,0:0:0:0:
466,85,161402,1,8,0:0:0:0:
446,38,161481,1,0,0:0:0:0:
399,16,161561,1,0,0:0:0:0:
350,31,161641,1,0,0:0:0:0:
316,70,161721,5,2,0:0:0:0:
272,97,161800,1,0,0:0:0:0:
221,93,161880,1,0,0:0:0:0:
181,61,161960,1,0,0:0:0:0:
129,50,162040,1,8,0:0:0:0:
80,66,162119,1,0,0:0:0:0:
50,108,162199,1,0,0:0:0:0:
51,159,162279,1,0,0:0:0:0:
82,200,162359,1,0,0:0:0:0:
131,215,162438,1,0,0:0:0:0:
179,198,162518,1,2,0:0:0:0:
208,156,162598,1,0,0:0:0:0:
201,104,162678,2,0,P|196:74|186:53,3,52.2500015945435,8|0|0|0,0:0|0:0|0:0|0:0,0:0:0:0:
142,24,162998,5,2,0:0:0:0:
91,27,163077,1,0,0:0:0:0:
49,56,163157,1,0,0:0:0:0:
30,104,163237,1,0,0:0:0:0:
40,155,163317,1,8,0:0:0:0:
76,192,163396,1,0,0:0:0:0:
123,214,163476,1,0,0:0:0:0:
174,204,163555,1,0,0:0:0:0:
223,219,163635,1,0,0:0:0:0:
259,256,163715,1,0,0:0:0:0:
311,262,163795,1,2,0:0:0:0:
356,239,163874,1,0,0:0:0:0:
377,192,163954,1,8,0:0:0:0:
360,143,164034,1,0,0:0:0:0:
315,117,164114,1,0,0:0:0:0:
266,127,164193,1,0,0:0:0:0:
216,146,164274,5,2,0:0:0:0:
168,129,164353,1,0,0:0:0:0:
147,83,164433,1,0,0:0:0:0:
165,36,164513,1,0,0:0:0:0:
212,16,164593,1,8,0:0:0:0:
259,36,164672,1,0,0:0:0:0:
286,81,164753,1,0,0:0:0:0:
280,132,164832,1,0,0:0:0:0:
251,175,164912,1,0,0:0:0:0:
205,200,164992,1,0,0:0:0:0:
164,233,165072,1,2,0:0:0:0:
148,281,165151,1,0,0:0:0:0:
164,330,165232,2,0,P|189:346|225:348,3,52.2500015945435,8|0|0|0,0:0|0:0|0:0|0:0,0:0:0:0:
267,344,165551,5,2,0:0:0:0:
306,304,165630,1,0,0:0:0:0:
316,248,165710,1,0,0:0:0:0:
295,196,165790,1,0,0:0:0:0:
261,150,165870,1,8,0:0:0:0:
239,99,165949,1,0,0:0:0:0:
257,46,166029,1,0,0:0:0:0:
307,20,166109,1,0,0:0:0:0:
360,35,166189,1,0,0:0:0:0:
389,83,166268,1,0,0:0:0:0:
377,138,166348,1,2,0:0:0:0:
337,178,166428,1,0,0:0:0:0:
281,187,166507,1,8,0:0:0:0:
232,160,166587,1,0,0:0:0:0:
176,142,166668,1,0,0:0:0:0:
122,155,166747,1,0,0:0:0:0:
86,198,166827,5,2,0:0:0:0:
81,254,166907,1,0,0:0:0:0:
112,301,166987,1,0,0:0:0:0:
164,322,167066,1,0,0:0:0:0:
218,308,167146,1,8,0:0:0:0:
253,264,167226,1,0,0:0:0:0:
295,225,167306,1,0,0:0:0:0:
346,201,167385,1,0,0:0:0:0:
403,208,167466,1,0,0:0:0:0:
439,251,167545,1,0,0:0:0:0:
440,308,167625,1,2,0:0:0:0:
409,354,167705,1,0,0:0:0:0:
356,374,167785,1,8,0:0:0:0:
302,358,167864,1,0,0:0:0:0:
268,313,167944,1,0,0:0:0:0:
266,257,168024,1,0,0:0:0:0:
290,205,168104,5,2,0:0:0:0:
314,149,168183,1,0,0:0:0:0:
306,88,168263,1,0,0:0:0:0:
268,41,168343,1,0,0:0:0:0:
210,21,168423,1,8,0:0:0:0:
151,35,168502,1,0,0:0:0:0:
107,77,168582,1,0,0:0:0:0:
93,136,168662,1,0,0:0:0:0:
111,194,168742,1,0,0:0:0:0:
159,233,168822,1,0,0:0:0:0:
186,286,168901,1,2,0:0:0:0:
163,341,168981,1,0,0:0:0:0:
106,359,169061,1,8,0:0:0:0:
55,327,169141,1,0,0:0:0:0:
48,267,169220,1,0,0:0:0:0:
88,223,169300,1,0,0:0:0:0:
149,213,169380,5,2,0:0:0:0:
214,210,169459,1,0,0:0:0:0:
263,167,169539,1,0,0:0:0:0:
275,103,169619,1,0,0:0:0:0:
244,46,169699,1,8,0:0:0:0:
184,20,169778,1,0,0:0:0:0:
122,37,169858,1,0,0:0:0:0:
83,90,169938,1,0,0:0:0:0:
76,157,170019,5,0,0:0:0:0:
100,227,170098,1,0,0:0:0:0:
155,281,170178,1,2,0:0:0:0:
228,299,170258,1,0,0:0:0:0:
302,282,170338,1,8,0:0:0:0:
359,233,170417,1,0,0:0:0:0:
386,163,170497,1,0,0:0:0:0:
375,88,170577,1,0,0:0:0:0:
334,26,170657,5,4,0:0:0:0:
256,192,170737,12,0,175763,0:0:0:0:
402,227,191083,6,0,B|385:130|253:129|230:216|230:216|209:297|115:344|-30:278|8:128|68:84|143:89,1,664.999979705811,2|0,0:0|0:0,0:0:0:0:
121,89,192998,5,2,0:0:0:0:
137,187,193317,1,2,0:0:0:0:
212,240,193636,2,0,B|215:272|232:296|232:296|201:328|224:380,2,132.999995941162,2|0|0,0:0|0:0|0:0,0:0:0:0:
332,224,194593,2,0,B|328:191|311:167|311:167|342:135|319:83,2,132.999995941162,2|0|0,0:0|0:0|0:0,0:0:0:0:
396,325,195551,1,2,0:0:0:0:
472,232,195870,1,2,0:0:0:0:
472,232,196189,6,0,B|441:127|441:127|360:72|360:72|416:256|416:256|344:232|344:232|296:72|296:72|224:40|224:40|288:256|288:256|248:336|248:336|160:40|160:40|88:16|88:16|192:360|192:360|120:336|120:336|80:200,1,1994.99993911743,2|0,0:0|0:0,0:0:0:0:
80,202,201295,6,0,B|119:196|139:160|139:160|221:200|257:157|257:157|293:216|293:216|293:150|385:85|481:152|498:265|398:329|326:282,1,664.999979705811,2|0,0:0|0:0,0:0:0:0:
326,282,203210,1,2,0:0:0:0:
228,352,203529,1,2,0:0:0:0:
148,264,203849,2,0,B|100:244|100:244|68:260|68:260|4:240,2,132.999995941162,2|0|0,0:0|0:0|0:0,0:0:0:0:
212,176,204806,2,0,B|260:156|260:156|292:172|292:172|356:152,2,132.999995941162,2|0|0,0:0|0:0|0:0,0:0:0:0:
136,84,205763,1,2,0:0:0:0:
56,176,206083,1,2,0:0:0:0:
136,84,206402,6,0,B|144:38|92:-10|30:28|7:105|48:168|136:202|200:144|200:144|242:96|336:84|400:156|400:208|296:272|260:180,1,664.999979705811,2|0,0:0|0:0,0:0:0:0:
276,205,208317,1,2,0:0:0:0:
328,312,208636,1,2,0:0:0:0:
412,236,208955,6,0,B|444:204|436:140|400:108|332:108|260:204|332:320,1,341.999989562989,2|2,0:0|0:0,0:0:0:0:
336,324,210870,1,2,0:0:0:0:
340,336,211189,1,2,0:0:0:0:
276,205,211508,6,0,P|236:201|200:213,1,76,2|0,0:0|0:0,0:0:0:0:
148,312,211827,1,8,0:0:0:0:
340,272,211987,1,0,0:0:0:0:
355,248,212066,1,0,0:0:0:0:
363,220,212146,1,0,0:0:0:0:
364,192,212226,1,0,0:0:0:0:
358,164,212306,1,2,0:0:0:0:
244,276,212466,2,0,L|236:352,1,76,8|0,0:0|0:0,0:0:0:0:
176,192,212785,6,0,L|168:116,1,76,2|0,0:0|0:0,0:0:0:0:
244,276,213104,1,8,0:0:0:0:
288,136,213263,1,0,0:0:0:0:
304,113,213342,1,0,0:0:0:0:
328,97,213422,1,0,0:0:0:0:
356,90,213502,1,0,0:0:0:0:
384,93,213582,1,2,0:0:0:0:
304,220,213742,2,0,P|250:213|216:186,1,76,8|0,0:0|0:0,0:0:0:0:
164,84,214061,5,2,0:0:0:0:
112,212,214221,1,0,0:0:0:0:
32,104,214380,1,8,0:0:0:0:
220,156,214540,1,0,0:0:0:0:
238,134,214619,1,0,0:0:0:0:
249,108,214699,1,0,0:0:0:0:
253,80,214779,1,0,0:0:0:0:
249,52,214859,1,2,0:0:0:0:
101,138,215019,2,0,P|101:182|113:214,1,76,8|0,0:0|0:0,0:0:0:0:
156,72,215338,6,0,P|122:55|84:54,1,76,2|0,0:0|0:0,0:0:0:0:
24,176,215657,1,8,0:0:0:0:
176,240,215817,1,0,0:0:0:0:
201,248,215896,1,0,0:0:0:0:
230,250,215976,1,0,0:0:0:0:
257,243,216056,1,0,0:0:0:0:
282,228,216136,1,2,0:0:0:0:
348,120,216295,2,0,L|356:44,1,76,8|0,0:0|0:0,0:0:0:0:
424,224,216615,6,0,L|432:300,1,76,2|0,0:0|0:0,0:0:0:0:
348,120,216934,1,8,0:0:0:0:
284,224,217093,1,0,0:0:0:0:
259,232,217172,1,0,0:0:0:0:
230,234,217252,1,0,0:0:0:0:
203,227,217332,1,0,0:0:0:0:
178,212,217412,1,2,0:0:0:0:
124,112,217572,2,0,L|116:36,1,76,8|0,0:0|0:0,0:0:0:0:
64,224,217891,6,0,L|56:300,1,76,2|0,0:0|0:0,0:0:0:0:
124,112,218210,1,8,0:0:0:0:
178,212,218370,1,0,0:0:0:0:
181,249,218449,1,0,0:0:0:0:
185,287,218529,1,0,0:0:0:0:
189,325,218609,1,0,0:0:0:0:
193,363,218689,1,2,0:0:0:0:
284,224,218849,2,0,L|292:148,1,76,8|0,0:0|0:0,0:0:0:0:
384,284,219168,6,0,L|392:360,1,76,2|0,0:0|0:0,0:0:0:0:
372,184,219487,1,8,0:0:0:0:
316,308,219646,1,0,0:0:0:0:
287,312,219725,1,0,0:0:0:0:
259,308,219805,1,0,0:0:0:0:
234,296,219885,1,0,0:0:0:0:
213,277,219965,1,2,0:0:0:0:
300,201,220125,2,0,P|333:184|371:183,1,76,8|0,0:0|0:0,0:0:0:0:
135,266,220444,6,0,P|112:257|86:234,1,38,2|0,0:0|0:0,0:0:0:0:
153,189,220604,2,0,P|171:173|203:161,1,38,0|0,0:0|0:0,0:0:0:0:
209,239,220763,2,0,P|213:262|207:296,1,38,8|0,0:0|0:0,0:0:0:0:
40,308,220923,1,0,0:0:0:0:
25,283,221002,1,0,0:0:0:0:
19,255,221082,1,0,0:0:0:0:
22,227,221162,1,0,0:0:0:0:
32,201,221242,1,2,0:0:0:0:
135,266,221402,2,0,L|127:342,1,76,8|0,0:0|0:0,0:0:0:0:
226,207,221721,6,0,P|262:196|299:200,1,76,2|0,0:0|0:0,0:0:0:0:
384,284,222040,1,8,0:0:0:0:
226,207,222200,1,0,0:0:0:0:
210,183,222279,1,0,0:0:0:0:
202,156,222359,1,0,0:0:0:0:
202,127,222439,1,0,0:0:0:0:
211,100,222519,1,2,0:0:0:0:
272,280,222678,2,0,P|235:291|198:286,1,76,8|0,0:0|0:0,0:0:0:0:
32,201,222998,6,0,P|69:190|106:195,1,76,2|0,0:0|0:0,0:0:0:0:
198,286,223317,1,8,0:0:0:0:
299,200,223476,1,0,0:0:0:0:
315,176,223555,1,0,0:0:0:0:
323,149,223635,1,0,0:0:0:0:
323,120,223715,1,0,0:0:0:0:
314,93,223795,1,2,0:0:0:0:
190,210,223955,2,0,L|198:286,1,76,8|0,0:0|0:0,0:0:0:0:
304,344,224274,6,0,L|384:332,1,76,2|0,0:0|0:0,0:0:0:0:
464,236,224593,1,8,0:0:0:0:
299,200,224753,1,0,0:0:0:0:
290,173,224833,1,0,0:0:0:0:
290,144,224913,1,0,0:0:0:0:
298,117,224993,1,0,0:0:0:0:
314,93,225072,1,2,0:0:0:0:
453,162,225232,2,0,P|464:197|463:235,1,76,8|0,0:0|0:0,0:0:0:0:
332,288,225551,6,0,P|294:292|258:281,1,76,2|0,0:0|0:0,0:0:0:0:
248,132,225870,1,8,0:0:0:0:
396,228,226029,1,0,0:0:0:0:
412,252,226108,1,0,0:0:0:0:
420,279,226188,1,0,0:0:0:0:
420,308,226268,1,0,0:0:0:0:
411,335,226348,1,2,0:0:0:0:
255,207,226508,2,0,L|247:131,1,76,8|0,0:0|0:0,0:0:0:0:
128,268,226827,6,0,L|120:344,1,76,2|0,0:0|0:0,0:0:0:0:
140,168,227146,1,8,0:0:0:0:
224,288,227306,1,0,0:0:0:0:
251,293,227385,1,0,0:0:0:0:
279,289,227465,1,0,0:0:0:0:
305,277,227545,1,0,0:0:0:0:
324,256,227625,1,2,0:0:0:0:
213,161,227785,2,0,P|175:156|139:167,1,76,8|0,0:0|0:0,0:0:0:0:
46,337,228104,6,0,P|82:347|119:342,1,76,2|0,0:0|0:0,0:0:0:0:
184,236,228423,1,8,0:0:0:0:
56,208,228583,1,0,0:0:0:0:
48,180,228662,1,0,0:0:0:0:
48,152,228742,1,0,0:0:0:0:
55,124,228822,1,0,0:0:0:0:
69,99,228902,1,2,0:0:0:0:
193,162,229061,2,0,P|194:199|183:235,1,76,8|0,0:0|0:0,0:0:0:0:
152,84,229380,6,0,P|188:74|225:79,1,76,2|0,0:0|0:0,0:0:0:0:
292,192,229700,1,8,0:0:0:0:
436,144,229859,1,0,0:0:0:0:
444,116,229938,1,0,0:0:0:0:
444,88,230018,1,0,0:0:0:0:
437,60,230098,1,0,0:0:0:0:
423,35,230178,1,2,0:0:0:0:
299,116,230338,2,0,L|291:192,1,76,8|0,0:0|0:0,0:0:0:0:
269,350,230657,6,0,L|274:308,1,42.7499986953736,2|0,0:0|0:0,0:0:0:0:
291,191,230817,2,0,L|286:233,1,42.7499986953736,0|0,0:0|0:0,0:0:0:0:
191,347,230976,2,0,L|195:304,1,42.7499986953736,8|0,0:0|0:0,0:0:0:0:
213,188,231136,2,0,L|208:230,1,42.7499986953736,0|0,0:0|0:0,0:0:0:0:
111,347,231296,2,0,L|116:305,1,42.7499986953736,0|0,0:0|0:0,0:0:0:0:
133,188,231456,2,0,L|128:230,1,42.7499986953736,2|0,0:0|0:0,0:0:0:0:
35,347,231615,2,0,L|40:305,1,42.7499986953736,8|0,0:0|0:0,0:0:0:0:
57,188,231774,1,0,0:0:0:0:
194,304,231934,6,0,P|231:309|267:299,1,76,2|0,0:0|0:0,0:0:0:0:
340,192,232253,1,8,0:0:0:0:
132,236,232412,1,0,0:0:0:0:
115,259,232491,1,0,0:0:0:0:
106,286,232571,1,0,0:0:0:0:
104,314,232651,1,0,0:0:0:0:
109,342,232731,1,2,0:0:0:0:
224,224,232891,2,0,L|216:148,1,76,8|0,0:0|0:0,0:0:0:0:
92,44,233210,6,0,L|84:120,1,76,2|0,0:0|0:0,0:0:0:0:
115,259,233529,1,8,0:0:0:0:
216,148,233689,1,0,0:0:0:0:
235,127,233769,1,0,0:0:0:0:
261,115,233849,1,0,0:0:0:0:
289,111,233929,1,0,0:0:0:0:
316,116,234008,1,2,0:0:0:0:
396,228,234168,2,0,L|404:304,1,76,8|0,0:0|0:0,0:0:0:0:
216,148,234487,6,0,P|215:110|226:74,1,76,2|0,0:0|0:0,0:0:0:0:
364,84,234806,1,8,0:0:0:0:
244,232,234966,1,0,0:0:0:0:
217,237,235045,1,0,0:0:0:0:
189,233,235125,1,0,0:0:0:0:
163,221,235205,1,0,0:0:0:0:
144,200,235285,1,2,0:0:0:0:
88,84,235444,2,0,L|80:8,1,76,8|0,0:0|0:0,0:0:0:0:
216,148,235763,6,0,P|217:186|206:222,1,76,2|0,0:0|0:0,0:0:0:0:
109,342,236083,1,8,0:0:0:0:
36,204,236242,1,0,0:0:0:0:
32,192,236322,1,0,0:0:0:0:
28,180,236402,1,0,0:0:0:0:
108,356,236561,1,2,0:0:0:0:
205,222,236721,2,0,P|241:211|278:216,1,76,8|0,0:0|0:0,0:0:0:0:
408,324,237040,6,0,P|370:329|334:318,1,76,2|0,0:0|0:0,0:0:0:0:
278,216,237359,1,8,0:0:0:0:
460,256,237519,1,0,0:0:0:0:
477,279,237598,1,0,0:0:0:0:
486,306,237678,1,0,0:0:0:0:
488,334,237758,1,0,0:0:0:0:
483,362,237838,1,2,0:0:0:0:
376,256,237998,2,0,L|368:180,1,76,8|0,0:0|0:0,0:0:0:0:
464,68,238317,6,0,L|456:144,1,76,2|0,0:0|0:0,0:0:0:0:
376,256,238636,1,8,0:0:0:0:
296,132,238795,1,0,0:0:0:0:
315,111,238875,1,0,0:0:0:0:
341,99,238955,1,0,0:0:0:0:
369,95,239035,1,0,0:0:0:0:
396,100,239114,1,2,0:0:0:0:
278,216,239274,2,0,L|202:205,1,76,8|0,0:0|0:0,0:0:0:0:
39,269,239593,6,0,L|115:258,1,76,2|0,0:0|0:0,0:0:0:0:
278,216,239912,1,8,0:0:0:0:
124,160,240072,1,0,0:0:0:0:
107,137,240151,1,0,0:0:0:0:
98,110,240231,1,0,0:0:0:0:
96,82,240311,1,0,0:0:0:0:
101,54,240391,1,2,0:0:0:0:
212,131,240551,2,0,P|213:169|202:205,1,76,8|0,0:0|0:0,0:0:0:0:
60,324,240870,6,0,L|55:282,1,42.7499986953736,2|0,0:0|0:0,0:0:0:0:
38,165,241029,2,0,L|43:207,1,42.7499986953736,0|0,0:0|0:0,0:0:0:0:
138,321,241189,2,0,L|134:278,1,42.7499986953736,8|0,0:0|0:0,0:0:0:0:
116,162,241348,2,0,L|121:204,1,42.7499986953736,0|0,0:0|0:0,0:0:0:0:
218,321,241508,2,0,L|213:279,1,42.7499986953736,0|0,0:0|0:0,0:0:0:0:
196,162,241668,2,0,L|201:204,1,42.7499986953736,2|0,0:0|0:0,0:0:0:0:
296,320,241827,2,0,L|291:278,1,42.7499986953736,8|0,0:0|0:0,0:0:0:0:
272,162,241986,1,0,0:0:0:0:
138,321,242146,6,0,P|100:326|64:315,1,76,2|0,0:0|0:0,0:0:0:0:
38,165,242466,1,8,0:0:0:0:
200,252,242625,1,0,0:0:0:0:
217,275,242704,1,0,0:0:0:0:
226,302,242784,1,0,0:0:0:0:
228,330,242864,1,0,0:0:0:0:
223,358,242944,1,2,0:0:0:0:
112,244,243104,2,0,L|120:168,1,76,8|0,0:0|0:0,0:0:0:0:
224,56,243423,6,0,L|232:132,1,76,2|0,0:0|0:0,0:0:0:0:
244,260,243742,1,8,0:0:0:0:
332,140,243902,1,0,0:0:0:0:
351,119,243982,1,0,0:0:0:0:
377,107,244062,1,0,0:0:0:0:
405,103,244142,1,0,0:0:0:0:
432,108,244221,1,2,0:0:0:0:
317,265,244380,2,0,P|279:270|243:259,1,76,8|0,0:0|0:0,0:0:0:0:
119,168,244700,6,0,P|117:130|129:93,1,76,2|0,0:0|0:0,0:0:0:0:
256,88,245019,1,8,0:0:0:0:
144,256,245178,1,0,0:0:0:0:
115,260,245257,1,0,0:0:0:0:
87,256,245337,1,0,0:0:0:0:
62,244,245417,1,0,0:0:0:0:
41,225,245497,1,2,0:0:0:0:
128,94,245657,2,0,P|164:83|201:88,1,76,8|0,0:0|0:0,0:0:0:0:
284,200,245976,6,0,L|276:276,1,76,2|0,0:0|0:0,0:0:0:0:
351,119,246295,1,8,0:0:0:0:
408,268,246455,1,0,0:0:0:0:
412,280,246535,1,0,0:0:0:0:
416,292,246615,1,0,0:0:0:0:
472,152,246774,1,2,0:0:0:0:
276,275,246934,2,0,P|238:280|202:269,1,76,8|0,0:0|0:0,0:0:0:0:
135,169,247253,6,0,L|127:93,1,76,2|0,0:0|0:0,0:0:0:0:
202,269,247572,1,8,0:0:0:0:
248,150,247732,1,0,0:0:0:0:
269,131,247812,1,0,0:0:0:0:
294,119,247892,1,0,0:0:0:0:
322,115,247972,1,0,0:0:0:0:
351,119,248051,1,2,0:0:0:0:
444,240,248210,2,0,P|445:277|433:314,1,76,8|0,0:0|0:0,0:0:0:0:
258,223,248529,6,0,P|246:187|247:149,1,76,2|0,0:0|0:0,0:0:0:0:
372,120,248849,1,8,0:0:0:0:
288,308,249008,1,0,0:0:0:0:
259,312,249087,1,0,0:0:0:0:
231,308,249167,1,0,0:0:0:0:
206,296,249247,1,0,0:0:0:0:
185,277,249327,1,2,0:0:0:0:
316,176,249487,2,0,P|353:170|389:181,1,76,8|0,0:0|0:0,0:0:0:0:
185,277,249806,6,0,L|109:266,1,76,2|0,0:0|0:0,0:0:0:0:
96,136,250125,1,8,0:0:0:0:
268,240,250285,1,0,0:0:0:0:
273,268,250365,1,0,0:0:0:0:
271,296,250445,1,0,0:0:0:0:
262,323,250525,1,0,0:0:0:0:
245,346,250604,1,2,0:0:0:0:
72,240,250763,2,0,L|64:164,1,76,8|0,0:0|0:0,0:0:0:0:
120,76,251083,6,0,L|123:33,1,42.7499986953736,2|0,0:0|0:0,0:0:0:0:
184,113,251242,2,0,L|188:156,1,42.7499986953736,0|0,0:0|0:0,0:0:0:0:
248,76,251402,2,0,L|251:33,1,42.7499986953736,8|0,0:0|0:0,0:0:0:0:
312,113,251561,2,0,L|316:156,1,42.7499986953736,0|0,0:0|0:0,0:0:0:0:
388,88,251721,1,0,0:0:0:0:
392,80,251801,1,0,0:0:0:0:
396,72,251880,2,0,L|399:29,1,42.7499986953736,2|0,0:0|0:0,0:0:0:0:
460,109,252040,2,0,L|464:152,1,42.7499986953736,8|0,0:0|0:0,0:0:0:0:
388,242,252200,6,0,L|392:176,1,66.5,0|0,0:0|0:0,0:0:0:0:
392,175,253636,5,6,0:0:0:0:
358,135,253715,1,0,0:0:0:0:
310,117,253795,1,0,0:0:0:0:
259,126,253875,1,0,0:0:0:0:
219,158,253955,1,8,0:0:0:0:
200,207,254034,1,0,0:0:0:0:
161,243,254115,1,0,0:0:0:0:
110,251,254194,1,0,0:0:0:0:
61,232,254274,1,0,0:0:0:0:
27,193,254353,1,0,0:0:0:0:
14,141,254433,1,2,0:0:0:0:
28,91,254513,1,0,0:0:0:0:
60,52,254593,1,8,0:0:0:0:
107,31,254672,1,0,0:0:0:0:
160,34,254752,1,0,0:0:0:0:
204,61,254832,1,0,0:0:0:0:
233,104,254912,5,2,0:0:0:0:
238,157,254992,1,0,0:0:0:0:
263,202,255072,1,0,0:0:0:0:
307,228,255151,1,0,0:0:0:0:
358,228,255231,1,8,0:0:0:0:
402,201,255311,1,0,0:0:0:0:
425,155,255391,1,0,0:0:0:0:
421,103,255470,1,0,0:0:0:0:
391,62,255550,1,0,0:0:0:0:
343,42,255630,1,0,0:0:0:0:
292,50,255710,1,2,0:0:0:0:
251,83,255790,1,0,0:0:0:0:
233,132,255870,2,0,P|232:160|239:191,3,52.2500015945435,8|0|0|0,0:0|0:0|0:0|0:0,0:0:0:0:
258,231,256189,5,2,0:0:0:0:
264,282,256268,1,0,0:0:0:0:
240,328,256348,1,0,0:0:0:0:
194,351,256428,1,0,0:0:0:0:
143,344,256508,1,8,0:0:0:0:
105,309,256587,1,0,0:0:0:0:
94,259,256667,1,0,0:0:0:0:
114,211,256747,1,0,0:0:0:0:
158,184,256827,1,0,0:0:0:0:
210,184,256907,1,0,0:0:0:0:
257,205,256986,1,2,0:0:0:0:
308,196,257066,1,0,0:0:0:0:
350,165,257146,1,8,0:0:0:0:
397,145,257225,1,0,0:0:0:0:
446,158,257305,1,0,0:0:0:0:
478,198,257385,1,0,0:0:0:0:
478,249,257465,5,2,0:0:0:0:
447,290,257544,1,0,0:0:0:0:
397,303,257624,1,0,0:0:0:0:
350,283,257704,1,0,0:0:0:0:
315,242,257785,1,8,0:0:0:0:
277,209,257864,1,0,0:0:0:0:
225,210,257944,1,0,0:0:0:0:
188,245,258024,1,0,0:0:0:0:
183,296,258104,1,0,0:0:0:0:
214,337,258183,1,0,0:0:0:0:
263,348,258263,1,2,0:0:0:0:
308,323,258343,1,0,0:0:0:0:
333,277,258423,2,0,P|336:250|332:217,3,52.2500015945435,8|0|0|0,0:0|0:0|0:0|0:0,0:0:0:0:
324,188,258742,5,2,0:0:0:0:
297,161,258821,1,0,0:0:0:0:
262,146,258901,1,0,0:0:0:0:
224,146,258981,1,0,0:0:0:0:
189,159,259061,1,8,0:0:0:0:
159,183,259141,1,0,0:0:0:0:
125,199,259220,1,0,0:0:0:0:
88,198,259300,1,0,0:0:0:0:
55,180,259380,1,0,0:0:0:0:
34,148,259460,1,0,0:0:0:0:
30,111,259539,1,2,0:0:0:0:
44,76,259619,1,0,0:0:0:0:
72,51,259699,1,8,0:0:0:0:
109,42,259779,1,0,0:0:0:0:
145,51,259859,1,0,0:0:0:0:
174,76,259938,1,0,0:0:0:0:
194,108,260019,5,2,0:0:0:0:
200,145,260098,1,0,0:0:0:0:
196,183,260178,1,0,0:0:0:0:
179,217,260258,1,0,0:0:0:0:
157,248,260338,1,8,0:0:0:0:
144,284,260417,1,0,0:0:0:0:
150,321,260497,1,0,0:0:0:0:
173,350,260577,1,0,0:0:0:0:
208,365,260657,1,0,0:0:0:0:
245,361,260736,1,0,0:0:0:0:
276,339,260816,1,2,0:0:0:0:
292,305,260896,1,0,0:0:0:0:
289,267,260976,1,8,0:0:0:0:
269,236,261056,1,0,0:0:0:0:
252,201,261136,1,0,0:0:0:0:
241,164,261215,1,0,0:0:0:0:
244,127,261295,5,2,0:0:0:0:
260,92,261375,1,0,0:0:0:0:
286,65,261455,1,0,0:0:0:0:
320,49,261534,1,0,0:0:0:0:
358,46,261614,1,8,0:0:0:0:
394,56,261694,1,0,0:0:0:0:
425,78,261774,1,0,0:0:0:0:
446,109,261854,1,0,0:0:0:0:
456,146,261933,1,0,0:0:0:0:
452,183,262013,1,0,0:0:0:0:
435,217,262093,1,2,0:0:0:0:
407,243,262173,1,0,0:0:0:0:
374,262,262253,1,8,0:0:0:0:
337,271,262332,1,0,0:0:0:0:
300,266,262412,1,0,0:0:0:0:
267,247,262492,1,0,0:0:0:0:
237,223,262572,6,0,P|214:211|166:208,3,52.2500015945435,2|0|0|0,0:0|0:0|0:0|0:0,0:0:0:0:
106,169,262891,2,0,P|80:174|41:203,3,52.2500015945435,8|0|0|0,0:0|0:0|0:0|0:0,0:0:0:0:
38,219,263210,1,0,0:0:0:0:
31,256,263289,1,0,0:0:0:0:
39,293,263369,1,2,0:0:0:0:
60,324,263449,1,0,0:0:0:0:
92,344,263529,1,8,0:0:0:0:
130,350,263608,1,0,0:0:0:0:
166,341,263688,1,0,0:0:0:0:
196,318,263768,1,0,0:0:0:0:
220,288,263849,5,2,0:0:0:0:
262,317,263928,1,0,0:0:0:0:
314,319,264008,1,0,0:0:0:0:
357,292,264088,1,0,0:0:0:0:
379,245,264168,1,8,0:0:0:0:
371,194,264247,1,0,0:0:0:0:
352,145,264327,1,0,0:0:0:0:
352,94,264406,1,0,0:0:0:0:
386,56,264486,1,0,0:0:0:0:
437,49,264566,1,0,0:0:0:0:
479,77,264646,1,2,0:0:0:0:
493,127,264725,1,0,0:0:0:0:
471,173,264805,1,8,0:0:0:0:
430,206,264886,1,0,0:0:0:0:
379,209,264965,1,0,0:0:0:0:
329,191,265045,1,0,0:0:0:0:
286,162,265124,5,2,0:0:0:0:
234,159,265204,1,0,0:0:0:0:
188,183,265284,1,0,0:0:0:0:
159,225,265364,1,0,0:0:0:0:
164,277,265444,1,8,0:0:0:0:
191,320,265523,1,0,0:0:0:0:
237,342,265603,1,0,0:0:0:0:
289,337,265683,1,0,0:0:0:0:
330,306,265763,1,0,0:0:0:0:
348,257,265842,1,0,0:0:0:0:
339,208,265922,1,2,0:0:0:0:
304,168,266002,1,0,0:0:0:0:
255,146,266083,2,0,P|228:147|203:154,3,52.2500015945435,8|0|0|0,0:0|0:0|0:0|0:0,0:0:0:0:
157,179,266402,5,2,0:0:0:0:
107,189,266481,1,0,0:0:0:0:
61,167,266561,1,0,0:0:0:0:
38,121,266641,1,0,0:0:0:0:
47,70,266721,1,8,0:0:0:0:
85,36,266800,1,0,0:0:0:0:
136,31,266880,1,0,0:0:0:0:
180,58,266960,1,0,0:0:0:0:
211,99,267040,1,0,0:0:0:0:
220,150,267119,1,0,0:0:0:0:
206,200,267199,1,2,0:0:0:0:
181,246,267279,1,0,0:0:0:0:
165,294,267358,1,8,0:0:0:0:
189,339,267438,1,0,0:0:0:0:
238,353,267518,1,0,0:0:0:0:
282,327,267598,1,0,0:0:0:0:
294,278,267677,5,2,0:0:0:0:
267,235,267757,1,0,0:0:0:0:
215,221,267838,1,0,0:0:0:0:
169,196,267917,1,0,0:0:0:0:
141,153,267997,1,8,0:0:0:0:
138,101,268077,1,0,0:0:0:0:
160,55,268157,1,0,0:0:0:0:
202,25,268236,1,0,0:0:0:0:
254,19,268316,1,0,0:0:0:0:
301,39,268396,1,0,0:0:0:0:
333,80,268476,1,2,0:0:0:0:
341,131,268556,1,0,0:0:0:0:
324,180,268636,2,0,P|310:207|288:228,3,52.2500015945435,8|0|0|0,0:0|0:0|0:0|0:0,0:0:0:0:
245,251,268955,5,2,0:0:0:0:
189,259,269034,1,0,0:0:0:0:
138,237,269114,1,0,0:0:0:0:
107,189,269194,1,0,0:0:0:0:
106,134,269274,1,8,0:0:0:0:
136,86,269353,1,0,0:0:0:0:
185,61,269433,1,0,0:0:0:0:
241,67,269513,1,0,0:0:0:0:
285,102,269593,1,0,0:0:0:0:
324,142,269673,1,0,0:0:0:0:
368,176,269752,1,2,0:0:0:0:
423,168,269832,1,0,0:0:0:0:
455,123,269912,1,8,0:0:0:0:
446,69,269992,1,0,0:0:0:0:
400,38,270071,1,0,0:0:0:0:
345,49,270151,1,0,0:0:0:0:
301,87,270232,5,2,0:0:0:0:
281,140,270311,1,0,0:0:0:0:
289,196,270391,1,0,0:0:0:0:
318,244,270471,1,0,0:0:0:0:
323,299,270550,1,8,0:0:0:0:
289,344,270630,1,0,0:0:0:0:
234,354,270710,1,0,0:0:0:0:
187,324,270790,1,0,0:0:0:0:
172,271,270869,1,0,0:0:0:0:
194,217,270950,1,0,0:0:0:0:
240,186,271029,1,2,0:0:0:0:
297,185,271109,1,0,0:0:0:0:
344,217,271189,1,8,0:0:0:0:
398,231,271268,1,0,0:0:0:0:
450,210,271348,1,0,0:0:0:0:
477,161,271428,1,0,0:0:0:0:
473,103,271508,5,2,0:0:0:0:
430,51,271587,1,0,0:0:0:0:
367,38,271667,1,0,0:0:0:0:
307,66,271747,1,0,0:0:0:0:
279,124,271827,1,8,0:0:0:0:
243,180,271907,1,0,0:0:0:0:
198,228,271986,1,0,0:0:0:0:
133,240,272066,1,0,0:0:0:0:
75,213,272146,1,0,0:0:0:0:
41,156,272226,1,0,0:0:0:0:
48,91,272305,1,2,0:0:0:0:
91,42,272385,1,0,0:0:0:0:
155,27,272465,1,8,0:0:0:0:
216,52,272545,1,0,0:0:0:0:
255,105,272625,1,0,0:0:0:0:
252,169,272704,1,0,0:0:0:0:
284,228,272785,5,2,0:0:0:0:
350,262,272864,1,0,0:0:0:0:
424,249,272944,1,0,0:0:0:0:
475,194,273024,1,0,0:0:0:0:
483,120,273104,1,8,0:0:0:0:
445,56,273183,1,0,0:0:0:0:
375,28,273263,1,0,0:0:0:0:
303,46,273343,1,0,0:0:0:0:
258,107,273423,1,0,0:0:0:0:
250,181,273502,1,0,0:0:0:0:
200,236,273582,1,2,0:0:0:0:
126,249,273662,1,0,0:0:0:0:
60,214,273742,1,8,0:0:0:0:
28,147,273821,1,0,0:0:0:0:
43,74,273901,1,0,0:0:0:0:
100,25,273981,1,0,0:0:0:0:
176,20,274061,5,2,0:0:0:0:
223,40,274140,1,0,0:0:0:0:
252,82,274220,1,0,0:0:0:0:
254,134,274300,1,0,0:0:0:0:
227,178,274380,1,8,0:0:0:0:
206,226,274460,1,0,0:0:0:0:
208,278,274539,1,0,0:0:0:0:
236,321,274619,1,0,0:0:0:0:
283,343,274699,1,0,0:0:0:0:
334,339,274779,1,0,0:0:0:0:
376,308,274858,1,2,0:0:0:0:
396,261,274938,1,0,0:0:0:0:
389,210,275018,1,8,0:0:0:0:
357,170,275098,1,0,0:0:0:0:
319,132,275178,1,0,0:0:0:0:
304,83,275257,1,0,0:0:0:0:
326,37,275337,5,2,0:0:0:0:
374,19,275417,1,0,0:0:0:0:
421,38,275497,1,0,0:0:0:0:
442,84,275576,1,0,0:0:0:0:
426,133,275656,1,8,0:0:0:0:
393,174,275737,1,0,0:0:0:0:
343,187,275816,1,0,0:0:0:0:
292,177,275896,1,0,0:0:0:0:
251,146,275976,1,0,0:0:0:0:
203,124,276056,1,0,0:0:0:0:
151,125,276135,1,2,0:0:0:0:
103,146,276215,1,0,0:0:0:0:
69,184,276295,2,0,P|61:214|62:247,3,52.2500015945435,8|0|0|0,0:0|0:0|0:0|0:0,0:0:0:0:
68,287,276615,5,2,0:0:0:0:
100,328,276694,1,0,0:0:0:0:
148,347,276774,1,0,0:0:0:0:
199,339,276854,1,0,0:0:0:0:
239,307,276934,1,8,0:0:0:0:
258,259,277013,1,0,0:0:0:0:
290,217,277093,1,0,0:0:0:0:
330,183,277172,1,0,0:0:0:0:
381,175,277252,1,0,0:0:0:0:
428,195,277332,1,0,0:0:0:0:
458,237,277412,1,2,0:0:0:0:
462,288,277491,1,0,0:0:0:0:
438,334,277571,1,8,0:0:0:0:
394,360,277651,1,0,0:0:0:0:
342,359,277731,1,0,0:0:0:0:
299,332,277811,1,0,0:0:0:0:
275,284,277891,5,2,0:0:0:0:
237,249,277970,1,0,0:0:0:0:
186,238,278050,1,0,0:0:0:0:
137,255,278130,1,0,0:0:0:0:
86,241,278210,1,8,0:0:0:0:
52,202,278289,1,0,0:0:0:0:
45,151,278369,1,0,0:0:0:0:
67,105,278449,1,0,0:0:0:0:
111,78,278529,1,0,0:0:0:0:
162,79,278608,1,0,0:0:0:0:
204,109,278688,1,2,0:0:0:0:
223,157,278768,1,0,0:0:0:0:
212,209,278849,2,0,P|204:237|186:275,3,52.2500015945435,8|0|0|0,0:0|0:0|0:0|0:0,0:0:0:0:
168,285,279168,5,2,0:0:0:0:
134,300,279247,1,0,0:0:0:0:
96,298,279327,1,0,0:0:0:0:
63,280,279407,1,0,0:0:0:0:
42,249,279487,1,8,0:0:0:0:
36,211,279566,1,0,0:0:0:0:
47,175,279646,1,0,0:0:0:0:
73,148,279726,1,0,0:0:0:0:
108,133,279806,1,0,0:0:0:0:
145,126,279885,1,0,0:0:0:0:
182,132,279965,1,2,0:0:0:0:
215,152,280045,1,0,0:0:0:0:
238,181,280125,1,8,0:0:0:0:
263,209,280205,1,0,0:0:0:0:
293,231,280284,1,0,0:0:0:0:
330,240,280364,1,0,0:0:0:0:
367,234,280444,5,2,0:0:0:0:
400,216,280523,1,0,0:0:0:0:
425,188,280603,1,0,0:0:0:0:
438,152,280683,1,0,0:0:0:0:
439,115,280763,1,8,0:0:0:0:
427,79,280842,1,0,0:0:0:0:
403,49,280922,1,0,0:0:0:0:
371,30,281002,1,0,0:0:0:0:
334,22,281082,1,0,0:0:0:0:
297,28,281162,1,0,0:0:0:0:
263,46,281241,1,2,0:0:0:0:
238,74,281321,1,0,0:0:0:0:
224,110,281402,1,8,0:0:0:0:
207,143,281481,1,0,0:0:0:0:
176,165,281561,1,0,0:0:0:0:
139,170,281641,1,0,0:0:0:0:
104,157,281721,5,2,0:0:0:0:
79,129,281800,1,0,0:0:0:0:
70,92,281880,1,0,0:0:0:0:
79,56,281960,1,0,0:0:0:0:
104,28,282040,1,8,0:0:0:0:
139,15,282120,1,0,0:0:0:0:
176,20,282199,1,0,0:0:0:0:
207,42,282279,1,0,0:0:0:0:
226,74,282359,1,0,0:0:0:0:
236,111,282438,1,0,0:0:0:0:
235,149,282518,1,2,0:0:0:0:
221,184,282598,1,0,0:0:0:0:
197,213,282678,1,8,0:0:0:0:
179,246,282758,1,0,0:0:0:0:
174,283,282837,1,0,0:0:0:0:
187,318,282917,1,0,0:0:0:0:
215,344,282998,6,0,P|245:359|281:360,3,52.2500015945435,2|0|0|0,0:0|0:0|0:0|0:0,0:0:0:0:
350,330,283317,2,0,P|377:311|396:280,3,52.2500015945435,8|0|0|0,0:0|0:0|0:0|0:0,0:0:0:0:
404,262,283636,1,0,0:0:0:0:
409,224,283715,1,0,0:0:0:0:
398,188,283795,1,2,0:0:0:0:
374,160,283875,1,0,0:0:0:0:
339,145,283955,1,8,0:0:0:0:
301,145,284034,1,0,0:0:0:0:
267,160,284114,1,0,0:0:0:0:
242,189,284194,1,0,0:0:0:0:
216,160,284274,5,2,0:0:0:0:
170,137,284353,1,0,0:0:0:0:
118,140,284433,1,0,0:0:0:0:
74,167,284513,1,0,0:0:0:0:
49,212,284593,1,8,0:0:0:0:
50,264,284672,1,0,0:0:0:0:
75,309,284752,1,0,0:0:0:0:
119,336,284832,1,0,0:0:0:0:
171,338,284912,1,0,0:0:0:0:
217,315,284992,1,0,0:0:0:0:
251,275,285072,1,2,0:0:0:0:
270,227,285151,1,0,0:0:0:0:
313,199,285231,1,8,0:0:0:0:
364,202,285311,1,0,0:0:0:0:
404,234,285391,1,0,0:0:0:0:
417,284,285470,1,0,0:0:0:0:
398,332,285550,5,2,0:0:0:0:
354,359,285630,1,0,0:0:0:0:
302,368,285710,1,0,0:0:0:0:
253,353,285789,1,0,0:0:0:0:
217,315,285869,1,8,0:0:0:0:
204,265,285949,1,0,0:0:0:0:
217,215,286029,1,0,0:0:0:0:
249,173,286109,1,0,0:0:0:0:
263,123,286188,1,0,0:0:0:0:
250,73,286268,1,0,0:0:0:0:
215,35,286348,1,2,0:0:0:0:
166,20,286428,1,0,0:0:0:0:
114,31,286508,2,0,P|88:40|59:63,3,52.2500015945435,8|0|0|0,0:0|0:0|0:0|0:0,0:0:0:0:
38,97,286827,5,2,0:0:0:0:
27,148,286906,1,0,0:0:0:0:
41,198,286986,1,0,0:0:0:0:
76,236,287066,1,0,0:0:0:0:
124,255,287146,1,8,0:0:0:0:
176,250,287225,1,0,0:0:0:0:
219,222,287305,1,0,0:0:0:0:
261,190,287386,1,0,0:0:0:0:
309,169,287465,1,0,0:0:0:0:
360,177,287545,1,0,0:0:0:0:
398,211,287625,1,2,0:0:0:0:
413,261,287705,1,0,0:0:0:0:
398,310,287784,1,8,0:0:0:0:
359,344,287864,1,0,0:0:0:0:
308,351,287944,1,0,0:0:0:0:
261,330,288024,1,0,0:0:0:0:
233,287,288104,5,2,0:0:0:0:
231,234,288184,1,0,0:0:0:0:
244,184,288263,1,0,0:0:0:0:
267,137,288343,1,0,0:0:0:0:
272,86,288422,1,8,0:0:0:0:
246,42,288502,1,0,0:0:0:0:
198,23,288582,1,0,0:0:0:0:
146,29,288662,1,0,0:0:0:0:
105,61,288741,1,0,0:0:0:0:
86,109,288821,1,0,0:0:0:0:
93,160,288901,1,2,0:0:0:0:
125,200,288981,1,0,0:0:0:0:
175,213,289061,5,8,0:0:0:0:
234,174,289140,1,0,0:0:0:0:
304,170,289220,1,0,0:0:0:0:
367,202,289300,1,0,0:0:0:0:
404,264,289380,6,0,L|412:312,3,47.5,2|0|0|0,0:0|0:0|0:0|0:0,0:0:0:0:
460,196,289700,2,0,L|467:149,5,47.5,8|0|0|0|0|0,0:0|0:0|0:0|0:0|0:0|0:0,0:0:0:0:
320,292,290178,6,0,L|312:340,1,47.5,2|0,0:0|0:0,0:0:0:0:
244,184,290338,2,0,L|236:137,3,47.5,8|0|0|0,0:0|0:0|0:0|0:0,0:0:0:0:
188,280,290657,2,0,L|180:326,3,47.5,2|0|0|0,0:0|0:0|0:0|0:0,0:0:0:0:
96,208,290976,2,0,L|89:162,5,47.5,8|0|0|0|0|0,0:0|0:0|0:0|0:0|0:0|0:0,0:0:0:0:
152,100,291455,6,0,L|159:53,1,47.5,2|0,0:0|0:0,0:0:0:0:
76,232,291615,2,0,L|69:278,3,47.5,8|0|0|0,0:0|0:0|0:0|0:0,0:0:0:0:
236,137,291934,6,0,L|288:125,1,47.5,2|0,0:0|0:0,0:0:0:0:
418,125,292093,2,0,L|372:136,1,47.5,0|0,0:0|0:0,0:0:0:0:
272,216,292253,2,0,L|324:204,1,47.5,8|0,0:0|0:0,0:0:0:0:
454,205,292412,2,0,L|408:216,1,47.5,0|0,0:0|0:0,0:0:0:0:
312,296,292572,2,0,L|364:284,1,47.5,0|0,0:0|0:0,0:0:0:0:
494,284,292731,2,0,L|448:295,1,47.5,2|0,0:0|0:0,0:0:0:0:
225,226,292891,2,0,L|271:215,1,47.5,8|0,0:0|0:0,0:0:0:0:
500,194,293051,2,0,L|453:204,1,47.5,0|0,0:0|0:0,0:0:0:0:
352,108,293210,6,0,L|344:64,14,38,2|0|0|0|0|0|0|0|8|0|0|0|0|0|0,0:0|0:0|0:0|0:0|0:0|0:0|0:0|0:0|0:0|0:0|0:0|0:0|0:0|0:0|0:0,0:0:0:0:
284,148,293849,6,0,L|277:185,14,38,0|0|0|0|2|0|0|0|8|0|0|0|0|0|0,0:0|0:0|0:0|0:0|0:0|0:0|0:0|0:0|0:0|0:0|0:0|0:0|0:0|0:0|0:0,0:0:0:0:
284,128,294487,5,6,0:0:0:0:
358,285,294806,5,8,0:0:0:0:
212,192,294966,1,0,0:0:0:0:
198,166,295045,1,0,0:0:0:0:
191,139,295125,1,0,0:0:0:0:
192,110,295205,1,0,0:0:0:0:
200,83,295285,2,0,P|208:64|224:48,1,28.4999991302491,2|0,0:0|0:0,0:0:0:0:
316,32,295444,2,0,L|404:20,1,76,8|0,0:0|0:0,0:0:0:0:
464,120,295763,6,0,L|476:220,1,76,2|0,0:0|0:0,0:0:0:0:
408,328,296083,1,8,0:0:0:0:
280,232,296242,1,0,0:0:0:0:
251,222,296321,1,0,0:0:0:0:
224,220,296401,1,0,0:0:0:0:
195,226,296481,1,0,0:0:0:0:
170,239,296561,2,0,P|152:250|139:268,1,28.4999991302491,2|0,0:0|0:0,0:0:0:0:
208,348,296721,2,0,P|256:356|288:344,1,76,8|0,0:0|0:0,0:0:0:0:
372,224,297040,6,0,L|381:148,1,76,2|0,0:0|0:0,0:0:0:0:
292,36,297359,1,8,0:0:0:0:
212,192,297519,1,0,0:0:0:0:
185,206,297598,1,0,0:0:0:0:
158,213,297678,1,0,0:0:0:0:
129,212,297758,1,0,0:0:0:0:
102,204,297838,2,0,P|88:199|76:191,1,28.4999991302491,2|0,0:0|0:0,0:0:0:0:
32,92,297998,2,0,P|28:52|40:16,1,76,8|0,0:0|0:0,0:0:0:0:
132,96,298317,6,0,L|124:140,1,38,2|0,0:0|0:0,0:0:0:0:
204,216,298476,2,0,L|197:178,1,38,0|0,0:0|0:0,0:0:0:0:
264,100,298636,2,0,L|270:138,1,38,8|0,0:0|0:0,0:0:0:0:
348,244,298795,1,0,0:0:0:0:
352,215,298874,1,0,0:0:0:0:
356,187,298954,1,0,0:0:0:0:
360,159,299034,1,0,0:0:0:0:
364,131,299115,2,0,L|368:92,1,38,2|0,0:0|0:0,0:0:0:0:
452,28,299274,2,0,L|458:103,1,76,8|0,0:0|0:0,0:0:0:0:
348,244,299593,6,0,P|310:244|275:227,1,76,2|0,0:0|0:0,0:0:0:0:
344,72,299912,1,8,0:0:0:0:
432,184,300072,1,0,0:0:0:0:
445,210,300151,1,0,0:0:0:0:
451,237,300231,1,0,0:0:0:0:
449,266,300311,1,0,0:0:0:0:
440,293,300391,2,0,P|431:311|414:327,1,28.4999991302491,2|0,0:0|0:0,0:0:0:0:
324,352,300551,2,0,L|248:341,1,76,8|0,0:0|0:0,0:0:0:0:
129,212,300870,6,0,L|120:136,1,76,2|0,0:0|0:0,0:0:0:0:
220,36,301189,1,8,0:0:0:0:
296,184,301349,1,0,0:0:0:0:
323,198,301428,1,0,0:0:0:0:
350,205,301508,1,0,0:0:0:0:
379,204,301588,1,0,0:0:0:0:
406,196,301668,2,0,P|420:191|432:183,1,28.4999991302491,2|0,0:0|0:0,0:0:0:0:
412,80,301827,2,0,P|377:63|340:63,1,76,8|0,0:0|0:0,0:0:0:0:
200,156,302146,6,0,P|195:193|206:229,1,76,2|0,0:0|0:0,0:0:0:0:
356,276,302466,1,8,0:0:0:0:
268,88,302625,1,0,0:0:0:0:
241,74,302704,1,0,0:0:0:0:
214,67,302784,1,0,0:0:0:0:
185,68,302864,1,0,0:0:0:0:
158,76,302944,2,0,P|144:81|132:89,1,28.4999991302491,2|0,0:0|0:0,0:0:0:0:
60,168,303104,2,0,L|51:244,1,76,8|0,0:0|0:0,0:0:0:0:
152,360,303423,5,2,0:0:0:0:
192,228,303583,1,0,0:0:0:0:
51,243,303742,1,8,0:0:0:0:
252,308,303902,1,0,0:0:0:0:
271,286,303981,1,0,0:0:0:0:
283,261,304061,1,0,0:0:0:0:
289,232,304141,1,0,0:0:0:0:
287,204,304221,2,0,P|284:189|279:176,1,28.4999991302491,2|0,0:0|0:0,0:0:0:0:
208,96,304380,2,0,P|203:58|214:22,1,76,8|0,0:0|0:0,0:0:0:0:
380,32,304700,6,0,L|456:43,1,76,2|0,0:0|0:0,0:0:0:0:
492,172,305019,1,8,0:0:0:0:
337,160,305178,1,0,0:0:0:0:
331,131,305257,1,0,0:0:0:0:
333,103,305337,1,0,0:0:0:0:
342,75,305417,1,0,0:0:0:0:
359,51,305497,2,0,P|368:40|379:31,1,28.4999991302491,2|0,0:0|0:0,0:0:0:0:
456,108,305657,2,0,L|465:184,1,76,8|0,0:0|0:0,0:0:0:0:
364,304,305976,6,0,L|288:315,1,76,2|0,0:0|0:0,0:0:0:0:
216,212,306295,1,8,0:0:0:0:
375,166,306455,1,0,0:0:0:0:
390,140,306534,1,0,0:0:0:0:
398,113,306614,1,0,0:0:0:0:
399,84,306694,1,0,0:0:0:0:
391,56,306774,2,0,P|386:42|379:30,1,28.4999991302491,2|0,0:0|0:0,0:0:0:0:
272,32,306934,2,0,P|255:65|253:103,1,76,8|0,0:0|0:0,0:0:0:0:
340,232,307253,6,0,L|416:243,1,76,2|0,0:0|0:0,0:0:0:0:
324,88,307572,1,8,0:0:0:0:
244,200,307732,1,0,0:0:0:0:
239,228,307811,1,0,0:0:0:0:
235,256,307891,1,0,0:0:0:0:
231,284,307971,1,0,0:0:0:0:
227,312,308051,2,0,L|222:353,1,28.4999991302491,2|0,0:0|0:0,0:0:0:0:
140,276,308210,2,0,L|131:200,1,76,8|0,0:0|0:0,0:0:0:0:
44,344,308529,5,2,0:0:0:0:
128,176,308689,1,0,0:0:0:0:
156,344,308849,1,8,0:0:0:0:
240,176,309009,1,0,0:0:0:0:
296,304,309168,1,0,0:0:0:0:
298,316,309248,1,0,0:0:0:0:
301,328,309327,2,0,L|308:384,1,38,2|0,0:0|0:0,0:0:0:0:
384,272,309487,2,0,L|393:196,1,76,8|0,0:0|0:0,0:0:0:0:
300,84,309806,6,0,L|224:73,1,76,2|0,0:0|0:0,0:0:0:0:
131,200,310125,1,8,0:0:0:0:
281,185,310285,1,0,0:0:0:0:
310,191,310364,1,0,0:0:0:0:
335,203,310444,1,0,0:0:0:0:
357,223,310524,1,0,0:0:0:0:
372,246,310604,2,0,P|379:258|383:272,1,28.4999991302491,2|0,0:0|0:0,0:0:0:0:
288,356,310763,2,0,P|289:318|306:284,1,76,8|0,0:0|0:0,0:0:0:0:
408,168,311083,6,0,P|407:130|390:96,1,76,2|0,0:0|0:0,0:0:0:0:
256,36,311402,1,8,0:0:0:0:
184,152,311561,1,0,0:0:0:0:
157,166,311640,1,0,0:0:0:0:
130,173,311720,1,0,0:0:0:0:
101,172,311800,1,0,0:0:0:0:
74,164,311880,2,0,P|60:159|48:151,1,28.4999991302491,2|0,0:0|0:0,0:0:0:0:
68,44,312040,2,0,P|103:27|140:27,1,76,8|0,0:0|0:0,0:0:0:0:
264,132,312359,6,0,P|297:148|335:149,1,76,2|0,0:0|0:0,0:0:0:0:
376,24,312678,1,8,0:0:0:0:
204,64,312838,1,0,0:0:0:0:
188,89,312917,1,0,0:0:0:0:
180,116,312997,1,0,0:0:0:0:
179,145,313077,1,0,0:0:0:0:
187,173,313157,2,0,P|191:186|198:198,1,28.4999991302491,2|0,0:0|0:0,0:0:0:0:
284,264,313317,2,0,L|360:275,1,76,8|0,0:0|0:0,0:0:0:0:
428,116,313636,5,2,0:0:0:0:
332,240,313795,1,0,0:0:0:0:
294,74,313955,1,8,0:0:0:0:
198,198,314114,1,0,0:0:0:0:
147,50,314274,1,0,0:0:0:0:
143,38,314354,1,0,0:0:0:0:
139,26,314434,1,2,0:0:0:0:
74,164,314593,2,0,L|65:240,1,76,8|0,0:0|0:0,0:0:0:0:
184,344,314912,6,0,L|175:268,1,76,2|0,0:0|0:0,0:0:0:0:
288,144,315232,2,0,L|284:184,1,38,8|0,0:0|0:0,0:0:0:0:
272,280,315391,1,0,0:0:0:0:
179,145,315551,2,0,L|175:107,2,38,0|0|2,0:0|0:0|0:0,0:0:0:0:
124,248,315870,2,0,P|80:260|48:256,1,76,8|0,0:0|0:0,0:0:0:0:
184,88,316189,6,0,P|220:76|257:79,1,76,2|0,0:0|0:0,0:0:0:0:
296,228,316508,1,8,0:0:0:0:
116,156,316668,1,0,0:0:0:0:
101,131,316747,1,0,0:0:0:0:
93,104,316827,1,0,0:0:0:0:
92,76,316907,1,0,0:0:0:0:
98,48,316987,1,2,0:0:0:0:
228,148,317146,2,0,L|219:224,1,76,8|0,0:0|0:0,0:0:0:0:
320,348,317466,6,0,L|311:272,1,76,2|0,0:0|0:0,0:0:0:0:
228,148,317785,1,8,0:0:0:0:
144,276,317944,2,0,L|68:287,1,76
52,284,318184,1,0,0:0:0:0:
40,280,318263,1,2,0:0:0:0:
154,156,318423,2,0,P|190:144|227:147,1,76,8|0,0:0|0:0,0:0:0:0:
311,272,318742,5,2,0:0:0:0:
348,140,318902,1,0,0:0:0:0:
444,240,319061,1,8,0:0:0:0:
348,124,319221,1,0,0:0:0:0:
308,284,319380,1,0,0:0:0:0:
304,296,319460,1,0,0:0:0:0:
300,308,319540,1,2,0:0:0:0:
200,172,319700,2,0,L|191:96,1,76,8|0,0:0|0:0,0:0:0:0:
100,256,320019,6,0,L|91:332,1,76,2|0,0:0|0:0,0:0:0:0:
200,172,320338,1,8,0:0:0:0:
308,284,320498,1,0,0:0:0:0:
335,291,320577,1,0,0:0:0:0:
363,290,320657,1,0,0:0:0:0:
390,281,320737,1,0,0:0:0:0:
413,265,320817,1,2,0:0:0:0:
236,240,320976,2,0,P|223:275|228:313,1,76,8|0,0:0|0:0,0:0:0:0:
376,352,321295,5,2,0:0:0:0:
352,212,321455,1,0,0:0:0:0:
230,303,321615,1,8,0:0:0:0:
428,256,321774,2,0,P|440:220|435:182,1,76
425,169,322013,1,0,0:0:0:0:
416,158,322093,1,2,0:0:0:0:
264,76,322253,2,0,L|188:65,1,76,8|0,0:0|0:0,0:0:0:0:
56,168,322572,6,0,L|132:157,1,76,2|0,0:0|0:0,0:0:0:0:
264,76,322891,1,8,0:0:0:0:
56,168,323051,1,0,0:0:0:0:
39,144,323130,1,0,0:0:0:0:
31,117,323210,1,0,0:0:0:0:
33,89,323290,1,0,0:0:0:0:
43,63,323370,1,2,0:0:0:0:
160,168,323529,2,0,L|151:244,1,76,8|0,0:0|0:0,0:0:0:0:
132,356,323849,5,2,0:0:0:0:
56,184,324008,1,0,0:0:0:0:
56,324,324168,1,8,0:0:0:0:
160,168,324327,1,0,0:0:0:0:
208,308,324487,2,0,L|212:346,2,38,0|0|2,0:0|0:0|0:0,0:0:0:0:
316,204,324806,2,0,P|353:200|389:212,1,76,8|0,0:0|0:0,0:0:0:0:
227,175,325125,6,0,P|216:140|219:102,1,76,2|0,0:0|0:0,0:0:0:0:
348,64,325444,1,8,0:0:0:0:
300,232,325604,1,0,0:0:0:0:
278,250,325683,1,0,0:0:0:0:
252,262,325763,1,0,0:0:0:0:
224,266,325843,1,0,0:0:0:0:
196,261,325923,1,2,0:0:0:0:
88,184,326083,2,0,L|79:108,1,76,8|0,0:0|0:0,0:0:0:0:
196,261,326402,6,0,L|187:337,1,76,2|0,0:0|0:0,0:0:0:0:
212,156,326721,1,8,0:0:0:0:
340,276,326880,1,0,0:0:0:0:
366,285,326959,1,0,0:0:0:0:
395,287,327039,1,0,0:0:0:0:
423,281,327119,1,0,0:0:0:0:
447,267,327199,1,2,0:0:0:0:
276,232,327359,2,0,P|265:268|268:305,1,76,8|0,0:0|0:0,0:0:0:0:
388,204,327678,6,0,B|411:135|363:135|387:55,1,152,2|8,0:0|0:0,0:0:0:0:
316,168,328157,1,0,0:0:0:0:
260,52,328317,2,0,L|256:14,2,38,0|0|2,0:0|0:0|0:0,0:0:0:0:
212,156,328636,2,0,P|175:160|139:148,1,76,8|0,0:0|0:0,0:0:0:0:
64,60,328955,5,2,0:0:0:0:
92,220,329115,1,0,0:0:0:0:
184,80,329274,1,8,0:0:0:0:
212,240,329434,1,0,0:0:0:0:
288,96,329593,2,0,L|292:58,2,38,0|0|2,0:0|0:0|0:0,0:0:0:0:
324,232,329912,2,0,L|333:308,1,76,8|0,0:0|0:0,0:0:0:0:
96,292,330232,6,0,P|128:240|212:240,1,152,2|8,0:0|0:0,0:0:0:0:
280,328,330710,1,0,0:0:0:0:
252,336,330789,1,0,0:0:0:0:
224,335,330869,1,0,0:0:0:0:
197,325,330949,1,0,0:0:0:0:
175,308,331029,1,2,0:0:0:0:
264,184,331189,2,0,P|299:171|337:175,1,76,8|0,0:0|0:0,0:0:0:0:
164,212,331508,6,0,P|160:174|171:138,1,76,2|0,0:0|0:0,0:0:0:0:
291,58,331827,1,8,0:0:0:0:
360,188,331987,2,0,L|369:264,1,76
368,280,332226,1,0,0:0:0:0:
368,296,332306,1,2,0:0:0:0:
464,192,332466,2,0,L|473:116,1,76,8|0,0:0|0:0,0:0:0:0:
363,67,332785,6,0,P|327:53|290:57,1,76,2|0,0:0|0:0,0:0:0:0:
204,180,333104,1,8,0:0:0:0:
285,299,333263,1,0,0:0:0:0:
313,307,333342,1,0,0:0:0:0:
341,306,333422,1,0,0:0:0:0:
368,296,333502,1,0,0:0:0:0:
390,279,333582,1,2,0:0:0:0:
216,256,333742,2,0,P|205:292|209:329,1,76,8|0,0:0|0:0,0:0:0:0:
324,224,334061,5,2,0:0:0:0:
368,348,334221,1,0,0:0:0:0:
424,192,334380,1,8,0:0:0:0:
468,316,334540,1,0,0:0:0:0:
320,196,334700,2,0,L|316:158,2,38,0|0|2,0:0|0:0|0:0,0:0:0:0:
240,300,335019,2,0,P|202:303|167:289,1,76,8|0,0:0|0:0,0:0:0:0:
128,108,335338,6,0,P|153:73|247:67,1,132.999995941162
138,193,335817,6,0,P|95:188|44:127,1,113.999996520996
206,141,336295,6,0,P|223:180|209:238,1,95
