osu file format v14

[General]
AudioFilename: audio.mp3
AudioLeadIn: 0
PreviewTime: 88317
Countdown: 0
SampleSet: Normal
StackLeniency: 0.2
Mode: 1
LetterboxInBreaks: 0
WidescreenStoryboard: 0

[Editor]
Bookmarks: 129806
DistanceSpacing: 1.2
BeatDivisor: 4
GridSize: 32
TimelineZoom: 2.6

[Metadata]
Title:Sidetracked Day
TitleUnicode:Sidetracked Day
Artist:VINXIS
ArtistUnicode:VINXIS
Creator:Axer
Version:Sidetracked Oni
Source:osu!
Tags:drum and bass dnb mappers' guild fa Featured Artist Omar Kamal
BeatmapID:1603503
BeatmapSetID:762693

[Difficulty]
HPDrainRate:4
CircleSize:2
OverallDifficulty:6
ApproachRate:10
SliderMultiplier:1.4
SliderTickRate:1

[Events]
//Background and Video events
0,0,"bg.jpg",0,-90
//Break Periods
//Storyboard Layer 0 (Background)
//Storyboard Layer 1 (Fail)
//Storyboard Layer 2 (Pass)
//Storyboard Layer 3 (Foreground)
//Storyboard Sound Samples

[TimingPoints]
2146,638.297872340426,4,1,0,5,1,0
22571,-100,4,1,0,25,0,0
37887,-100,4,1,0,25,0,0
39802,-84.2450756647147,4,1,0,25,0,0
40121,-82.0895399866358,4,1,0,25,0,0
40440,-80.0415575766938,4,1,0,25,0,0
41398,-74.4680930285205,4,1,0,25,0,0
42355,-69.6202355391809,4,1,0,25,0,0
42674,-68.141614629187,4,1,0,25,0,0
42997,319.148936170213,4,1,0,50,1,0
42997,-133.333333333333,4,1,0,50,0,0
62142,-133.333333333333,4,1,0,75,0,0
62302,-131.158721727098,4,1,0,75,0,0
62462,-129.05390581646,4,1,0,75,0,0
62781,-125.040481856001,4,1,0,75,0,0
62940,-123.126021945982,4,1,0,75,0,0
63100,-121.269301525204,4,1,0,75,0,0
63259,-119.467604567008,4,1,0,75,0,0
63419,-117.718798043984,4,1,0,75,0,0
83845,-117.647058823529,4,1,0,75,0,0
84004,-117.15487053801,4,1,0,75,0,0
84164,-116.666647222225,4,1,0,75,0,0
84323,-116.18261118095,4,1,0,75,0,0
84483,-115.702441090102,4,1,0,75,0,0
84642,-115.226356415861,4,1,0,75,0,0
84802,-114.754041924242,4,1,0,75,0,0
84962,-114.285714285714,4,1,0,75,0,0
85121,-113.821193733916,4,1,0,75,0,0
85281,-113.360305528695,4,1,0,75,0,0
85440,-112.903262226859,4,1,0,75,0,0
85600,-112.449763068349,4,1,0,75,0,0
85759,-112.000017920003,4,1,0,75,0,0
85919,-111.553731528096,4,1,0,75,0,0
86079,-111.111111111111,4,1,0,75,0,0
86238,-110.671989251536,4,1,0,75,0,0
86398,-110.236203112409,4,1,0,75,0,0
86557,-109.803956016927,4,1,0,75,0,0
86717,-109.374965820323,4,1,0,75,0,0
86876,-108.949433299523,4,1,0,75,0,0
87036,-108.527081305233,4,1,0,75,0,0
87196,-108.108108108108,4,1,0,75,0,0
87355,-107.692357396473,4,1,0,75,0,0
87515,-107.27967704526,4,1,0,75,0,0
87674,-106.870261639775,4,1,0,75,0,0
87834,-106.463845942556,4,1,0,75,0,0
87994,-106.060622130397,4,1,0,75,0,0
88153,-105.660329512304,4,1,0,75,0,0
88313,-105.263157894737,4,1,0,75,0,0
88392,-104.575163398693,4,1,0,75,0,0
88472,-103.896103896104,4,1,0,75,0,0
88632,-102.564102564103,4,1,0,75,0,0
88791,-101.26582278481,4,1,0,75,0,0
88951,-100,4,1,0,75,0,0
92781,-90.9090909090909,4,1,0,75,0,0
92861,-91.4285714285714,4,1,0,75,0,0
92940,-91.9540229885058,4,1,0,75,0,0
93020,-92.485549132948,4,1,0,75,0,0
93100,-93.0232558139535,4,1,0,75,0,0
93180,-93.5672514619883,4,1,0,75,0,0
93259,-94.1176470588235,4,1,0,75,0,0
93339,-94.6745562130178,4,1,0,75,0,0
93419,-95.2380952380952,4,1,0,75,0,0
93499,-95.8083832335329,4,1,0,75,0,0
93579,-96.3855421686747,4,1,0,75,0,0
93658,-96.969696969697,4,1,0,75,0,0
93738,-97.5609756097561,4,1,0,75,0,0
93818,-98.159509202454,4,1,0,75,0,0
93898,-98.7654320987654,4,1,0,75,0,0
93978,-99.3788819875776,4,1,0,75,0,0
94057,-100,4,1,0,75,0,0
97887,-90.9090909090909,4,1,0,75,0,0
97967,-91.5982427793105,4,1,0,75,0,0
98047,-92.2979229275424,4,1,0,75,0,0
98126,-93.0083744740376,4,1,0,75,0,0
98206,-93.7297602299004,4,1,0,75,0,0
98286,-94.462513024019,4,1,0,75,0,0
98366,-95.2068129995382,4,1,0,75,0,0
98446,-95.962935275879,4,1,0,75,0,0
98525,-96.7311637823046,4,1,0,75,0,0
98605,-97.5117916134008,4,1,0,75,0,0
98685,-98.3051214019097,4,1,0,75,0,0
98845,-99.9310475771717,4,1,0,75,0,0
102994,-90.9090909090909,4,1,0,75,0,0
103074,-91.4285714285714,4,1,0,75,0,0
103153,-91.9540229885058,4,1,0,75,0,0
103233,-92.485549132948,4,1,0,75,0,0
103313,-93.0232558139535,4,1,0,75,0,0
103393,-93.5672514619883,4,1,0,75,0,0
103472,-94.1176470588235,4,1,0,75,0,0
103552,-94.6745562130178,4,1,0,75,0,0
103632,-95.2380952380952,4,1,0,75,0,0
103712,-95.8083832335329,4,1,0,75,0,0
103792,-96.3855421686747,4,1,0,75,0,0
103871,-96.969696969697,4,1,0,75,0,0
103951,-97.5609756097561,4,1,0,75,0,0
104031,-98.159509202454,4,1,0,75,0,0
104111,-98.7654320987654,4,1,0,75,0,0
104191,-99.3788819875776,4,1,0,75,0,0
104270,-100,4,1,0,75,0,0
108100,-90.9090909090909,4,1,0,75,0,0
108180,-91.5982427793105,4,1,0,75,0,0
108260,-92.2979229275424,4,1,0,75,0,0
108339,-93.0083744740376,4,1,0,75,0,0
108419,-93.7297602299004,4,1,0,75,0,0
108499,-94.462513024019,4,1,0,75,0,0
108579,-95.2068129995382,4,1,0,75,0,0
108659,-95.962935275879,4,1,0,75,0,0
108738,-96.7311637823046,4,1,0,75,0,0
108818,-97.5117916134008,4,1,0,75,0,0
108898,-98.3051214019097,4,1,0,75,0,0
109057,-100,4,1,0,75,0,0
109376,-98.7717730027113,4,1,0,75,0,0
109536,-98.1688563230069,4,1,0,75,0,0
109696,-97.5733507664387,4,1,0,75,0,0
109855,-96.9849324208991,4,1,0,75,0,0
110015,-96.4035684744906,4,1,0,75,0,0
110174,-95.8292246553262,4,1,0,75,0,0
110334,-95.261593097726,4,1,0,75,0,0
113206,-86.9565217391304,4,1,0,75,0,0
113286,-87.4292478811522,4,1,0,75,0,0
113366,-87.9070646512507,4,1,0,75,0,0
113446,-88.3902109609165,4,1,0,75,0,0
113525,-88.8786184707545,4,1,0,75,0,0
113605,-89.3725333180804,4,1,0,75,0,0
113685,-89.8719683938262,4,1,0,75,0,0
113765,-90.3769350831513,4,1,0,75,0,0
113845,-90.8876909891216,4,1,0,75,0,0
113924,-91.4042526742599,4,1,0,75,0,0
114004,-91.9266351909868,4,1,0,75,0,0
114084,-92.4551084221056,4,1,0,75,0,0
114164,-92.9896065516757,4,1,0,75,0,0
114244,-93.530408138642,4,1,0,75,0,0
114323,-94.0775368242998,4,1,0,75,0,0
114403,-94.6310147472973,4,1,0,75,0,0
114483,-95.1911342785178,4,1,0,75,0,0
118313,-86.9565217391304,4,1,0,75,0,0
118392,-87.591215301835,4,1,0,75,0,0
118472,-88.2353200692118,4,1,0,75,0,0
118552,-88.8888888888889,4,1,0,75,0,0
118632,-89.5522120739665,4,1,0,75,0,0
118712,-90.2255910452905,4,1,0,75,0,0
118791,-90.9090909090909,4,1,0,75,0,0
118871,-91.6030254647251,4,1,0,75,0,0
118951,-92.3077207100679,4,1,0,75,0,0
119031,-93.0232558139535,4,1,0,75,0,0
119111,-93.7499707031342,4,1,0,75,0,0
119270,-95.2380952380952,4,1,0,75,0,0
123419,-86.9565217391304,4,1,0,75,0,0
123499,-87.4292478811522,4,1,0,75,0,0
123579,-87.9070646512507,4,1,0,75,0,0
123659,-88.3902109609165,4,1,0,75,0,0
123738,-88.8786184707545,4,1,0,75,0,0
123818,-89.3725333180804,4,1,0,75,0,0
123898,-89.8719683938262,4,1,0,75,0,0
123978,-90.3769350831513,4,1,0,75,0,0
124058,-90.8876909891216,4,1,0,75,0,0
124137,-91.4042526742599,4,1,0,75,0,0
124217,-91.9266351909868,4,1,0,75,0,0
124297,-92.4551084221056,4,1,0,75,0,0
124377,-92.9896065516757,4,1,0,75,0,0
124457,-93.530408138642,4,1,0,75,0,0
124536,-94.0775368242998,4,1,0,75,0,0
124616,-94.6310147472973,4,1,0,75,0,0
124696,-95.1911342785178,4,1,0,75,0,0
128526,-86.9565217391304,4,1,0,75,0,0
128605,-87.591215301835,4,1,0,75,0,0
128685,-88.2353200692118,4,1,0,75,0,0
128765,-88.8888888888889,4,1,0,75,0,0
128845,-89.5522120739665,4,1,0,75,0,0
128925,-90.2255910452905,4,1,0,75,0,0
129004,-90.9090909090909,4,1,0,75,0,0
129084,-91.6030254647251,4,1,0,75,0,0
129164,-92.3077207100679,4,1,0,75,0,0
129244,-93.0232558139535,4,1,0,75,0,0
129324,-93.7499707031342,4,1,0,75,0,0
129483,-95.2380952380952,4,1,0,75,0,0
133632,-86.9565217391304,4,1,0,75,0,0
133712,-87.4292478811522,4,1,0,75,0,0
133792,-87.9070646512507,4,1,0,75,0,0
133872,-88.3902109609165,4,1,0,75,0,0
133951,-88.8786184707545,4,1,0,75,0,0
134031,-89.3725333180804,4,1,0,75,0,0
134111,-89.8719683938262,4,1,0,75,0,0
134191,-90.3769350831513,4,1,0,75,0,0
134271,-90.8876909891216,4,1,0,75,0,0
134350,-91.4042526742599,4,1,0,75,0,0
134430,-91.9266351909868,4,1,0,75,0,0
134510,-92.4551084221056,4,1,0,75,0,0
134590,-92.9896065516757,4,1,0,75,0,0
134670,-93.530408138642,4,1,0,75,0,0
134749,-94.0775368242998,4,1,0,75,0,0
134829,-94.6310147472973,4,1,0,75,0,0
134909,-95.1911342785178,4,1,0,75,0,0
138738,-86.9565217391304,4,1,0,75,0,0
138898,-89.3725333180804,4,1,0,75,0,0
138978,-90.6315934484234,4,1,0,75,0,0
139057,-91.9266351909868,4,1,0,75,0,0
139137,-93.2592233371881,4,1,0,75,0,0
139217,-94.6310147472973,4,1,0,75,0,0
139297,-96.0437652229368,4,1,0,75,0,0
139376,-97.4993370045084,4,1,0,75,0,0
139536,-100.546975546976,4,1,0,75,0,0
139696,-103.791288174436,4,1,0,75,0,0
139855,-107.252062725296,4,1,0,75,0,0
140015,-110.95146428195,4,1,0,75,0,0
143845,-100,4,1,0,75,0,0
144164,-102.564102564103,4,1,0,75,0,0
144483,-105.263157894737,4,1,0,75,0,0
144563,-105.960264900662,4,1,0,75,0,0
144642,-106.666666666667,4,1,0,75,0,0
144802,-108.108108108108,4,1,0,75,0,0
145121,-111.111111111111,4,1,0,75,0,0
148951,-111.111111111111,4,1,0,75,0,0
149270,-105.29186378181,4,1,0,75,0,0
149589,-100.051826846306,4,1,0,75,0,0
149669,-98.8223342428282,4,1,0,75,0,0
149749,-97.6226921995564,4,1,0,75,0,0
149908,-95.3086236195737,4,1,0,75,0,0
150231,-83.3333333333333,4,1,0,75,0,1
165547,-83.3333333333333,4,1,0,75,0,1
165626,-83.1708728949452,4,1,0,75,0,1
165706,-83.0090446655068,4,1,0,75,0,1
165786,-82.8479135995679,4,1,0,75,0,1
165866,-82.687338501292,4,1,0,75,0,1
165946,-82.5273846494113,4,1,0,75,0,1
166025,-82.3681162906013,4,1,0,75,0,1
166105,-82.2093939030225,4,1,0,75,0,1
166185,-82.0512820512821,4,1,0,75,0,1
166265,-81.8937772194442,4,1,0,75,0,1
166345,-81.7368759185181,4,1,0,75,0,1
166424,-81.5806412401563,4,1,0,75,0,1
166504,-81.4249363867685,4,1,0,75,0,1
166584,-81.2698247578769,4,1,0,75,0,1
166664,-81.1153687666895,4,1,0,75,0,1
166744,-80.9614332116753,4,1,0,75,0,1
166823,-80.8080808080808,4,1,0,75,0,1
166903,-80.6553082484571,4,1,0,75,0,1
166983,-80.5031122503196,4,1,0,75,0,1
167063,-80.351554119584,4,1,0,75,0,1
167142,-80.2005012531328,4,1,0,75,0,1
167222,-80.0500152495279,4,1,0,75,0,1
167302,-79.9001567641076,4,1,0,75,0,1
167382,-79.7507947166693,4,1,0,75,0,1
167462,-79.6019900497512,4,1,0,75,0,1
167541,-79.4537396491641,4,1,0,75,0,1
167621,-79.3060404238749,4,1,0,75,0,1
167701,-79.1589519671395,4,1,0,75,0,1
167781,-79.0123456790123,4,1,0,75,0,1
167861,-78.8662814311706,4,1,0,75,0,1
167940,-78.720818192696,4,1,0,75,0,1
168020,-78.5758288178424,4,1,0,75,0,1
168100,-78.4313725490196,4,1,0,75,0,1
168180,-78.2874464513866,4,1,0,75,0,1
168259,-78.1440476116053,4,1,0,75,0,1
168339,-78.0012339795216,4,1,0,75,0,1
168419,-77.8588807785888,4,1,0,75,0,1
168499,-77.7170462237676,4,1,0,75,0,1
168579,-77.5757876657601,4,1,0,75,0,1
168658,-77.4349817176008,4,1,0,75,0,1
168738,-77.2946859903382,4,1,0,75,0,1
168818,-77.1548977157521,4,1,0,75,0,1
168898,-77.0156141456119,4,1,0,75,0,1
168978,-76.8768916520152,4,1,0,75,0,1
169057,-76.7386091127098,4,1,0,75,0,1
169137,-76.6008231524456,4,1,0,75,0,1
169217,-76.4635895679196,4,1,0,75,0,1
169297,-76.3267885656364,4,1,0,75,0,1
169376,-76.1904761904762,4,1,0,75,0,1
169456,-76.0546498291813,4,1,0,75,0,1
169536,-75.9193068870958,4,1,0,75,0,1
169616,-75.7845022208648,4,1,0,75,0,1
169696,-75.6501182033097,4,1,0,75,0,1
169775,-75.516209932043,4,1,0,75,0,1
169855,-75.3828317108435,4,1,0,75,0,1
169935,-75.2498671839844,4,1,0,75,0,1
170015,-75.1173708920188,4,1,0,75,0,1
170095,-74.9853403659585,4,1,0,75,0,1
170174,-74.8537731541434,4,1,0,75,0,1
170254,-74.7227226569009,4,1,0,75,0,1
170334,-74.5920745920746,4,1,0,75,0,1
170414,-74.4618825899928,4,1,0,75,0,1
170494,-74.3321995195167,4,1,0,75,0,1
170573,-74.2029123159026,4,1,0,75,0,1
170656,-74.0740740740741,4,1,0,75,0,0
170816,-117.647058823529,4,1,0,25,0,0
189483,-133.333333333333,4,1,0,25,0,0
189802,-129.884130367299,4,1,0,25,0,0
190121,-126.608882372752,4,1,0,25,0,0
190440,-123.494753325405,4,1,0,25,0,0
190759,-120.53013976675,4,1,0,25,0,0
191079,-117.70452632756,4,1,0,25,0,0
198100,-100,4,1,0,25,0,0
198419,-101.522842639594,4,1,0,25,0,0
198738,-103.092783505155,4,1,0,25,0,0
199696,-108.108108108108,4,1,0,25,0,0
200653,-113.636363636364,4,1,0,25,0,0
201291,-117.647058823529,4,1,0,25,0,0
206398,-117.647058823529,4,1,0,25,0,0
208313,-129.032258064516,4,1,0,25,0,0
208632,-131.147540983607,4,1,0,25,0,0
208951,-133.333333333333,4,1,0,25,0,0
211504,-100,4,1,0,75,0,0
220440,-90.9090909090909,4,1,0,75,0,0
220520,-91.4285714285714,4,1,0,75,0,0
220599,-91.9540229885058,4,1,0,75,0,0
220679,-92.485549132948,4,1,0,75,0,0
220759,-93.0232558139535,4,1,0,75,0,0
220839,-93.5672514619883,4,1,0,75,0,0
220918,-94.1176470588235,4,1,0,75,0,0
220998,-94.6745562130178,4,1,0,75,0,0
221078,-95.2380952380952,4,1,0,75,0,0
221158,-95.8083832335329,4,1,0,75,0,0
221238,-96.3855421686747,4,1,0,75,0,0
221317,-96.969696969697,4,1,0,75,0,0
221397,-97.5609756097561,4,1,0,75,0,0
221477,-98.159509202454,4,1,0,75,0,0
221557,-98.7654320987654,4,1,0,75,0,0
221637,-99.3788819875776,4,1,0,75,0,0
221716,-100,4,1,0,75,0,0
230653,-90.9090909090909,4,1,0,75,0,0
230733,-91.4285714285714,4,1,0,75,0,0
230812,-91.9540229885058,4,1,0,75,0,0
230892,-92.485549132948,4,1,0,75,0,0
230972,-93.0232558139535,4,1,0,75,0,0
231052,-93.5672514619883,4,1,0,75,0,0
231131,-94.1176470588235,4,1,0,75,0,0
231211,-94.6745562130178,4,1,0,75,0,0
231291,-95.2380952380952,4,1,0,75,0,0
231371,-95.8083832335329,4,1,0,75,0,0
231451,-96.3855421686747,4,1,0,75,0,0
231530,-96.969696969697,4,1,0,75,0,0
231610,-97.5609756097561,4,1,0,75,0,0
231690,-98.159509202454,4,1,0,75,0,0
231770,-98.7654320987654,4,1,0,75,0,0
231850,-99.3788819875776,4,1,0,75,0,0
231929,-100,4,1,0,75,0,0
235759,-90.9090909090909,4,1,0,75,0,0
235839,-91.4258965680547,4,1,0,75,0,0
235919,-91.9485272144654,4,1,0,75,0,0
235999,-92.477252907716,4,1,0,75,0,0
236079,-93.0120078502135,4,1,0,75,0,0
236238,-94.100465420902,4,1,0,75,0,0
236318,-94.6542139582783,4,1,0,75,0,0
236398,-95.2146089678832,4,1,0,75,0,0
236557,-96.3554514060187,4,1,0,75,0,0
236717,-97.5239640760726,4,1,0,75,0,0
236797,-98.1189613911699,4,1,0,75,0,0
236876,-98.7212634742184,4,1,0,75,0,0
237036,-99.948226818508,4,1,0,75,0,0
240866,-90.9090909090909,4,1,0,75,0,0
240946,-91.4285714285714,4,1,0,75,0,0
241025,-91.9540229885058,4,1,0,75,0,0
241105,-92.485549132948,4,1,0,75,0,0
241185,-93.0232558139535,4,1,0,75,0,0
241265,-93.5672514619883,4,1,0,75,0,0
241344,-94.1176470588235,4,1,0,75,0,0
241424,-94.6745562130178,4,1,0,75,0,0
241504,-95.2380952380952,4,1,0,75,0,0
241584,-95.8083832335329,4,1,0,75,0,0
241664,-96.3855421686747,4,1,0,75,0,0
241743,-96.969696969697,4,1,0,75,0,0
241823,-97.5609756097561,4,1,0,75,0,0
241903,-98.159509202454,4,1,0,75,0,0
241983,-98.7654320987654,4,1,0,75,0,0
242063,-99.3788819875776,4,1,0,75,0,0
242142,-100,4,1,0,75,0,0
245972,-90.9090909090909,4,1,0,75,0,0
246052,-91.4258965680547,4,1,0,75,0,0
246132,-91.9485272144654,4,1,0,75,0,0
246212,-92.477252907716,4,1,0,75,0,0
246291,-93.0120078502135,4,1,0,75,0,0
246451,-94.100465420902,4,1,0,75,0,0
246531,-94.6542139582783,4,1,0,75,0,0
246611,-95.2146089678832,4,1,0,75,0,0
246770,-96.3554514060187,4,1,0,75,0,0
246930,-97.5239640760726,4,1,0,75,0,0
247009,-98.1189613911699,4,1,0,75,0,0
247089,-98.7212634742184,4,1,0,75,0,0
247249,-99.948226818508,4,1,0,75,0,0
251079,-90.9090909090909,4,1,0,75,0,0
251159,-91.4285714285714,4,1,0,75,0,0
251238,-91.9540229885058,4,1,0,75,0,0
251318,-92.485549132948,4,1,0,75,0,0
251398,-93.0232558139535,4,1,0,75,0,0
251478,-93.5672514619883,4,1,0,75,0,0
251557,-94.1176470588235,4,1,0,75,0,0
251637,-94.6745562130178,4,1,0,75,0,0
251717,-95.2380952380952,4,1,0,75,0,0
251797,-95.8083832335329,4,1,0,75,0,0
251877,-96.3855421686747,4,1,0,75,0,0
251956,-96.969696969697,4,1,0,75,0,0
252036,-97.5609756097561,4,1,0,75,0,0
252116,-98.159509202454,4,1,0,75,0,0
252196,-98.7654320987654,4,1,0,75,0,0
252355,-100,4,1,0,75,0,0
253635,-83.3333333333333,4,1,0,75,0,1
268951,-83.3333333333333,4,1,0,75,0,1
269031,-83.2250021222376,4,1,0,75,0,1
269111,-83.1168831168831,4,1,0,75,0,1
269190,-83.0090446655068,4,1,0,75,0,1
269270,-82.9015544041451,4,1,0,75,0,1
269350,-82.7943421658338,4,1,0,75,0,1
269430,-82.687338501292,4,1,0,75,0,1
269509,-82.5806110634896,4,1,0,75,0,1
269589,-82.4742268041237,4,1,0,75,0,1
269669,-82.3681162906013,4,1,0,75,0,1
269749,-82.2622107969152,4,1,0,75,0,1
269829,-82.1565772912648,4,1,0,75,0,1
269908,-82.0512820512821,4,1,0,75,0,1
269988,-81.9462563672241,4,1,0,75,0,1
270068,-81.8414322250639,4,1,0,75,0,1
270148,-81.7368759185181,4,1,0,75,0,1
270228,-81.6326530612245,4,1,0,75,0,1
270307,-81.5286956550097,4,1,0,75,0,1
270387,-81.4249363867685,4,1,0,75,0,1
270467,-81.3214408858182,4,1,0,75,0,1
270547,-81.2182741116751,4,1,0,75,0,1
270626,-81.1153687666895,4,1,0,75,0,1
270706,-81.0126582278481,4,1,0,75,0,1
270786,-80.910207469954,4,1,0,75,0,1
270866,-80.8080808080808,4,1,0,75,0,1
270946,-80.7062116342846,4,1,0,75,0,1
271025,-80.6045340050378,4,1,0,75,0,1
271105,-80.5031122503196,4,1,0,75,0,1
271185,-80.4020100502513,4,1,0,75,0,1
271265,-80.3011614759996,4,1,0,75,0,1
271345,-80.2005012531328,4,1,0,75,0,1
271424,-80.1000930763082,4,1,0,75,0,1
271504,-80,4,1,0,75,0,1
271584,-79.9000929238081,4,1,0,75,0,1
271664,-79.8004987531172,4,1,0,75,0,1
271744,-79.7010890356806,4,1,0,75,0,1
271823,-79.6019900497512,4,1,0,75,0,1
271903,-79.5031371937937,4,1,0,75,0,1
271983,-79.4044665012407,4,1,0,75,0,1
272063,-79.3060404238749,4,1,0,75,0,1
272142,-79.2079207920792,4,1,0,75,0,1
272222,-79.1100436529221,4,1,0,75,0,1
272302,-79.0123456790123,4,1,0,75,0,1
272382,-78.9148887142239,4,1,0,75,0,1
272462,-78.8177339901478,4,1,0,75,0,1
272541,-78.720818192696,4,1,0,75,0,1
272621,-78.6240786240786,4,1,0,75,0,1
272701,-78.5275765290497,4,1,0,75,0,1
272781,-78.4313725490196,4,1,0,75,0,1
272861,-78.3354039991791,4,1,0,75,0,1
272940,-78.239608801956,4,1,0,75,0,1
273020,-78.1440476116053,4,1,0,75,0,1
273100,-78.0487804878049,4,1,0,75,0,1
273180,-77.953684597833,4,1,0,75,0,1
273259,-77.8588807785888,4,1,0,75,0,1
273339,-77.7642467988348,4,1,0,75,0,1
273419,-77.6699029126214,4,1,0,75,0,1
273499,-77.5757876657601,4,1,0,75,0,1
273579,-77.4818401937046,4,1,0,75,0,1
273658,-77.3881199949233,4,1,0,75,0,1
273738,-77.2946859903382,4,1,0,75,0,1
273818,-77.2014773274701,4,1,0,75,0,1
273898,-77.1084337349398,4,1,0,75,0,1
273978,-77.0156141456119,4,1,0,75,0,1
274057,-76.9230769230769,4,1,0,75,0,1
279164,-76.9230769230769,4,1,0,75,0,1
279244,-77.0463510848126,4,1,0,75,0,1
279323,-77.1699614381703,4,1,0,75,0,1
279403,-77.2940288043928,4,1,0,75,0,1
279483,-77.418495743144,4,1,0,75,0,1
279563,-77.5433641878379,4,1,0,75,0,1
279642,-77.6685757602588,4,1,0,75,0,1
279722,-77.7942528717748,4,1,0,75,0,1
279802,-77.9203373638927,4,1,0,75,0,1
279882,-78.0468312206056,4,1,0,75,0,1
279962,-78.1736753275281,4,1,0,75,0,1
280041,-78.3009937179113,4,1,0,75,0,1
280121,-78.4287275017392,4,1,0,75,0,1
280201,-78.5568170034659,4,1,0,75,0,1
280281,-78.6853874940593,4,1,0,75,0,1
280361,-78.8143795259157,4,1,0,75,0,1
280440,-78.9437951755868,4,1,0,75,0,1
280520,-79.0735740069347,4,1,0,75,0,1
280600,-79.2038429704609,4,1,0,75,0,1
280680,-79.3345418628544,4,1,0,75,0,1
280759,-79.4656096681039,4,1,0,75,0,1
280839,-79.5971746186897,4,1,0,75,0,1
280919,-79.7291759351834,4,1,0,75,0,1
280999,-79.8616157921554,4,1,0,75,0,1
281079,-79.9944323875058,4,1,0,75,0,1
281158,-80.127755693678,4,1,0,75,0,1
281238,-80.2615241502913,4,1,0,75,0,1
281318,-80.3957399905294,4,1,0,75,0,1
281398,-80.5303406111287,4,1,0,75,0,1
281478,-80.6654577603397,4,1,0,75,0,1
281557,-80.8010290819064,4,1,0,75,0,1
281637,-80.9369913615949,4,1,0,75,0,1
281717,-81.0734777035775,4,1,0,75,0,1
281797,-81.2104251446967,4,1,0,75,0,1
281876,-81.34783602554,4,1,0,75,0,1
281956,-81.4856463034037,4,1,0,75,0,1
282036,-81.6239909234122,4,1,0,75,0,1
282116,-81.7628060995053,4,1,0,75,0,1
282196,-81.9020271570742,4,1,0,75,0,1
282275,-82.041790447218,4,1,0,75,0,1
282355,-82.1820315562565,4,1,0,75,0,1
282435,-82.3227529387165,4,1,0,75,0,1
282515,-82.4638890629793,4,1,0,75,0,1
282595,-82.605578189484,4,1,0,75,0,1
282674,-82.7477550534054,4,1,0,75,0,1
282754,-82.8904221774982,4,1,0,75,0,1
282834,-83.033513156245,4,1,0,75,0,1
282914,-83.1771682000378,4,1,0,75,0,1
282994,-83.3333333333333,4,1,0,75,0,1
283073,-82.7586435196258,4,1,0,75,0,1
283153,-82.1917583036279,4,1,0,75,0,1
283233,-81.6326530612245,4,1,0,75,0,1
283313,-81.0811029948927,4,1,0,75,0,1
283392,-80.5368911310359,4,1,0,75,0,1
283472,-80,4,1,0,75,0,1
283552,-79.4702197272105,4,1,0,75,0,1
283632,-78.9473476454348,4,1,0,75,0,1
283712,-78.4313725490196,4,1,0,75,0,1
283791,-77.9220981615839,4,1,0,75,0,1
283871,-77.4193348595265,4,1,0,75,0,1
283951,-76.9230769230769,4,1,0,75,0,1
289379,-76.9230769230769,4,1,0,75,0,1
291933,-86.9565217391304,4,1,0,75,0,1
293206,-90.9090909090909,4,1,0,75,0,1
293286,-89.8980645845676,4,1,0,75,0,1
293366,-88.9092787501489,4,1,0,75,0,1
293446,-87.9420075225593,4,1,0,75,0,1
293525,-86.9954805847836,4,1,0,75,0,1
293605,-86.0691858543572,4,1,0,75,0,1
293685,-85.1624089720301,4,1,0,75,0,1
293765,-84.274539481779,4,1,0,75,0,1
293845,-83.3333333333333,4,1,0,75,0,1
293924,-81.6326530612245,4,1,0,75,0,1
294004,-80,4,1,0,75,0,1
294084,-78.4313725490196,4,1,0,75,0,1
294164,-76.9230769230769,4,1,0,75,0,1
294244,-75.4716981132076,4,1,0,75,0,1
294323,-74.0740740740741,4,1,0,75,0,1
294403,-72.7272727272727,4,1,0,75,0,1
294486,-71.4285714285714,4,1,0,75,0,0
294642,-72.9166438802155,4,1,0,75,0,0
294802,-74.4680930285205,4,1,0,75,0,0
294962,-76.0869399811,4,1,0,75,0,0
295041,-76.9230769230769,4,1,0,75,0,0
295121,-77.7777950617322,4,1,0,75,0,0
295201,-78.6516588814633,4,1,0,75,0,0
295281,-79.5454455061994,4,1,0,75,0,0
295440,-81.3953772309455,4,1,0,75,0,0
295759,-85.3658224271381,4,1,0,75,0,0
295919,-87.5000109375014,4,1,0,75,0,0
296079,-89.7435667324188,4,1,0,75,0,0
296238,-92.1052873961283,4,1,0,75,0,0
296318,-93.3332960000149,4,1,0,75,0,0
296478,-95.8904240945786,4,1,0,75,0,0
296557,-97.2222627314984,4,1,0,75,0,0
296717,-100,4,1,0,75,0,0
298313,-90.9090909090909,4,1,0,75,0,0
298393,-91.4285714285714,4,1,0,75,0,0
298472,-91.9540229885058,4,1,0,75,0,0
298552,-92.485549132948,4,1,0,75,0,0
298632,-93.0232558139535,4,1,0,75,0,0
298712,-93.5672514619883,4,1,0,75,0,0
298791,-94.1176470588235,4,1,0,75,0,0
298871,-94.6745562130178,4,1,0,75,0,0
298951,-95.2380952380952,4,1,0,75,0,0
299031,-95.8083832335329,4,1,0,75,0,0
299111,-96.3855421686747,4,1,0,75,0,0
299190,-96.969696969697,4,1,0,75,0,0
299270,-97.5609756097561,4,1,0,75,0,0
299350,-98.159509202454,4,1,0,75,0,0
299430,-98.7654320987654,4,1,0,75,0,0
299510,-99.3788819875776,4,1,0,75,0,0
299589,-100,4,1,0,75,0,0
303419,-90.9090909090909,4,1,0,75,0,0
303499,-91.5982427793105,4,1,0,75,0,0
303579,-92.2979229275424,4,1,0,75,0,0
303658,-93.0083744740376,4,1,0,75,0,0
303738,-93.7297602299004,4,1,0,75,0,0
303818,-94.462513024019,4,1,0,75,0,0
303898,-95.2068129995382,4,1,0,75,0,0
303978,-95.962935275879,4,1,0,75,0,0
304057,-96.7311637823046,4,1,0,75,0,0
304137,-97.5117916134008,4,1,0,75,0,0
304217,-98.3051214019097,4,1,0,75,0,0
304377,-99.9310475771717,4,1,0,75,0,0
308525,-90.9090909090909,4,1,0,75,0,0
308605,-91.4285714285714,4,1,0,75,0,0
308684,-91.9540229885058,4,1,0,75,0,0
308764,-92.485549132948,4,1,0,75,0,0
308844,-93.0232558139535,4,1,0,75,0,0
308924,-93.5672514619883,4,1,0,75,0,0
309003,-94.1176470588235,4,1,0,75,0,0
309083,-94.6745562130178,4,1,0,75,0,0
309163,-95.2380952380952,4,1,0,75,0,0
309243,-95.8083832335329,4,1,0,75,0,0
309323,-96.3855421686747,4,1,0,75,0,0
309402,-96.969696969697,4,1,0,75,0,0
309482,-97.5609756097561,4,1,0,75,0,0
309562,-98.159509202454,4,1,0,75,0,0
309642,-98.7654320987654,4,1,0,75,0,0
309722,-99.3788819875776,4,1,0,75,0,0
309801,-100,4,1,0,75,0,0
313632,-90.9090909090909,4,1,0,75,0,0
313712,-91.5982427793105,4,1,0,75,0,0
313792,-92.2979229275424,4,1,0,75,0,0
313871,-93.0083744740376,4,1,0,75,0,0
313951,-93.7297602299004,4,1,0,75,0,0
314031,-94.462513024019,4,1,0,75,0,0
314111,-95.2068129995382,4,1,0,75,0,0
314191,-95.962935275879,4,1,0,75,0,0
314270,-96.7311637823046,4,1,0,75,0,0
314350,-97.5117916134008,4,1,0,75,0,0
314430,-98.3051214019097,4,1,0,75,0,0
314590,-99.9310475771717,4,1,0,75,0,0
318738,-90.9090909090909,4,1,0,75,0,0
318818,-91.4285714285714,4,1,0,75,0,0
318897,-91.9540229885058,4,1,0,75,0,0
318977,-92.485549132948,4,1,0,75,0,0
319057,-93.0232558139535,4,1,0,75,0,0
319137,-93.5672514619883,4,1,0,75,0,0
319216,-94.1176470588235,4,1,0,75,0,0
319296,-94.6745562130178,4,1,0,75,0,0
319376,-95.2380952380952,4,1,0,75,0,0
319456,-95.8083832335329,4,1,0,75,0,0
319536,-96.3855421686747,4,1,0,75,0,0
319615,-96.969696969697,4,1,0,75,0,0
319695,-97.5609756097561,4,1,0,75,0,0
319775,-98.159509202454,4,1,0,75,0,0
319855,-98.7654320987654,4,1,0,75,0,0
319935,-99.3788819875776,4,1,0,75,0,0
320014,-100,4,1,0,75,0,0
323845,-90.9090909090909,4,1,0,75,0,0
323925,-91.5982427793105,4,1,0,75,0,0
324005,-92.2979229275424,4,1,0,75,0,0
324084,-93.0083744740376,4,1,0,75,0,0
324164,-93.7297602299004,4,1,0,75,0,0
324244,-94.462513024019,4,1,0,75,0,0
324324,-95.2068129995382,4,1,0,75,0,0
324404,-95.962935275879,4,1,0,75,0,0
324483,-96.7311637823046,4,1,0,75,0,0
324563,-97.5117916134008,4,1,0,75,0,0
324643,-98.3051214019097,4,1,0,75,0,0
324803,-99.9310475771717,4,1,0,75,0,0
328951,-90.9090909090909,4,1,0,75,0,0
329031,-91.4285714285714,4,1,0,75,0,0
329110,-91.9540229885058,4,1,0,75,0,0
329190,-92.485549132948,4,1,0,75,0,0
329270,-93.0232558139535,4,1,0,75,0,0
329350,-93.5672514619883,4,1,0,75,0,0
329429,-94.1176470588235,4,1,0,75,0,0
329509,-94.6745562130178,4,1,0,75,0,0
329589,-95.2380952380952,4,1,0,75,0,0
329669,-95.8083832335329,4,1,0,75,0,0
329749,-96.3855421686747,4,1,0,75,0,0
329828,-96.969696969697,4,1,0,75,0,0
329908,-97.5609756097561,4,1,0,75,0,0
329988,-98.159509202454,4,1,0,75,0,0
330068,-98.7654320987654,4,1,0,75,0,0
330148,-99.3788819875776,4,1,0,75,0,0
330227,-100,4,1,0,75,0,0
334057,-90.9090909090909,4,1,0,75,0,0
334137,-91.5982427793105,4,1,0,75,0,0
334217,-92.2979229275424,4,1,0,75,0,0
334296,-93.0083744740376,4,1,0,75,0,0
334376,-93.7297602299004,4,1,0,75,0,0
334456,-94.462513024019,4,1,0,75,0,0
334536,-95.2068129995382,4,1,0,75,0,0
334616,-95.962935275879,4,1,0,75,0,0
334695,-96.7311637823046,4,1,0,75,0,0
334775,-97.5117916134008,4,1,0,75,0,0
334855,-98.3051214019097,4,1,0,75,0,0
335015,-99.9310475771717,4,1,0,75,0,0
335334,-83.3333333333333,4,1,0,30,0,0

[HitObjects]
256,192,2146,12,0,12039,0:0:0:0:
256,192,12358,12,0,22252,0:0:0:0:
256,192,22571,5,8,0:0:0:0:
256,192,24486,1,8,0:0:0:0:
256,192,24805,1,0,0:0:0:0:
256,192,25124,1,8,0:0:0:0:
256,192,26082,1,0,0:0:0:0:
256,192,27039,1,8,0:0:0:0:
256,192,27358,1,0,0:0:0:0:
256,192,27677,1,8,0:0:0:0:
256,192,29592,1,8,0:0:0:0:
256,192,29911,1,0,0:0:0:0:
256,192,30231,1,8,0:0:0:0:
256,192,31188,1,0,0:0:0:0:
256,192,32146,1,8,0:0:0:0:
256,192,32784,1,0,0:0:0:0:
256,192,34699,1,8,0:0:0:0:
256,192,35018,1,0,0:0:0:0:
256,192,35337,1,8,0:0:0:0:
256,192,36294,1,0,0:0:0:0:
256,192,37252,1,8,0:0:0:0:
256,192,37571,1,0,0:0:0:0:
256,192,37890,1,0,0:0:0:0:
256,192,39805,1,8,0:0:0:0:
256,192,40124,1,0,0:0:0:0:
256,192,40443,1,8,0:0:0:0:
256,192,41401,1,0,0:0:0:0:
256,192,42358,1,8,0:0:0:0:
256,192,42677,1,0,0:0:0:0:
256,192,42997,1,12,0:0:0:0:
256,192,43316,1,0,0:0:0:0:
256,192,43635,1,0,0:0:0:0:
256,192,43954,1,8,0:0:0:0:
256,192,44273,1,0,0:0:0:0:
256,192,44592,1,0,0:0:0:0:
256,192,44911,1,8,0:0:0:0:
256,192,45231,1,0,0:0:0:0:
256,192,45550,1,0,0:0:0:0:
256,192,45869,1,8,0:0:0:0:
256,192,46188,1,0,0:0:0:0:
256,192,46507,1,0,0:0:0:0:
256,192,46826,1,8,0:0:0:0:
256,192,47145,1,0,0:0:0:0:
256,192,47465,1,0,0:0:0:0:
256,192,47784,1,8,0:0:0:0:
256,192,48103,1,8,0:0:0:0:
256,192,48422,1,0,0:0:0:0:
256,192,48741,1,0,0:0:0:0:
256,192,49060,1,8,0:0:0:0:
256,192,49379,1,0,0:0:0:0:
256,192,49699,1,0,0:0:0:0:
256,192,50018,1,8,0:0:0:0:
256,192,50337,1,0,0:0:0:0:
256,192,50656,1,0,0:0:0:0:
256,192,50975,1,8,0:0:0:0:
256,192,51294,1,0,0:0:0:0:
256,192,51614,1,0,0:0:0:0:
256,192,51933,1,8,0:0:0:0:
256,192,52252,1,8,0:0:0:0:
256,192,52571,1,8,0:0:0:0:
256,192,52890,1,8,0:0:0:0:
256,192,53209,1,8,0:0:0:0:
256,192,53528,1,0,0:0:0:0:
256,192,53848,1,0,0:0:0:0:
256,192,54167,1,8,0:0:0:0:
256,192,54486,1,0,0:0:0:0:
256,192,54805,1,0,0:0:0:0:
256,192,55124,1,8,0:0:0:0:
256,192,55443,1,0,0:0:0:0:
256,192,55762,1,0,0:0:0:0:
256,192,56082,1,8,0:0:0:0:
256,192,56401,1,0,0:0:0:0:
256,192,56720,1,0,0:0:0:0:
256,192,57039,1,8,0:0:0:0:
256,192,57358,1,0,0:0:0:0:
256,192,57677,1,0,0:0:0:0:
256,192,57997,1,8,0:0:0:0:
256,192,58316,1,8,0:0:0:0:
256,192,58635,1,0,0:0:0:0:
256,192,58954,1,0,0:0:0:0:
256,192,59273,1,8,0:0:0:0:
256,192,59592,1,0,0:0:0:0:
256,192,59911,1,0,0:0:0:0:
256,192,60231,1,8,0:0:0:0:
256,192,60550,1,0,0:0:0:0:
256,192,60869,1,0,0:0:0:0:
256,192,61188,1,8,0:0:0:0:
256,192,61507,1,0,0:0:0:0:
256,192,61826,1,0,0:0:0:0:
256,192,62145,1,0,0:0:0:0:
256,192,62305,1,8,0:0:0:0:
256,192,62465,1,0,0:0:0:0:
256,192,62784,1,8,0:0:0:0:
256,192,62943,1,8,0:0:0:0:
256,192,63103,1,0,0:0:0:0:
256,192,63262,1,0,0:0:0:0:
256,192,63422,1,0,0:0:0:0:
256,192,63741,1,0,0:0:0:0:
256,192,64060,1,8,0:0:0:0:
256,192,64379,1,0,0:0:0:0:
256,192,64539,1,8,0:0:0:0:
256,192,64699,1,0,0:0:0:0:
256,192,64858,1,8,0:0:0:0:
256,192,64938,1,0,0:0:0:0:
256,192,65018,1,0,0:0:0:0:
256,192,65337,1,8,0:0:0:0:
256,192,65656,1,0,0:0:0:0:
256,192,65816,1,8,0:0:0:0:
256,192,65975,1,0,0:0:0:0:
256,192,66294,1,0,0:0:0:0:
256,192,66454,1,0,0:0:0:0:
256,192,66614,1,8,0:0:0:0:
256,192,66933,1,0,0:0:0:0:
256,192,67252,1,0,0:0:0:0:
256,192,67411,1,8,0:0:0:0:
256,192,67571,1,0,0:0:0:0:
256,192,67731,1,0,0:0:0:0:
256,192,67890,1,8,0:0:0:0:
256,192,68209,1,8,0:0:0:0:
256,192,68369,1,8,0:0:0:0:
256,192,68528,1,0,0:0:0:0:
256,192,68848,1,0,0:0:0:0:
256,192,69007,1,0,0:0:0:0:
256,192,69167,1,8,0:0:0:0:
256,192,69486,1,0,0:0:0:0:
256,192,69645,1,8,0:0:0:0:
256,192,69805,1,0,0:0:0:0:
256,192,69965,1,8,0:0:0:0:
256,192,70044,1,0,0:0:0:0:
256,192,70124,1,0,0:0:0:0:
256,192,70443,1,8,0:0:0:0:
256,192,70762,1,0,0:0:0:0:
256,192,70922,1,8,0:0:0:0:
256,192,71082,1,0,0:0:0:0:
256,192,71401,1,0,0:0:0:0:
256,224,71560,1,0,0:0:0:0:
256,192,71720,1,8,0:0:0:0:
256,192,72039,1,0,0:0:0:0:
256,192,72199,1,8,0:0:0:0:
256,192,72358,1,0,0:0:0:0:
256,192,72518,1,0,0:0:0:0:
256,192,72677,1,8,0:0:0:0:
256,192,72837,1,0,0:0:0:0:
256,192,72997,1,8,0:0:0:0:
256,192,73156,1,8,0:0:0:0:
256,192,73316,1,0,0:0:0:0:
256,192,73475,1,8,0:0:0:0:
256,192,73635,1,0,0:0:0:0:
256,192,73954,1,0,0:0:0:0:
256,192,74114,1,0,0:0:0:0:
256,192,74273,1,8,0:0:0:0:
256,192,74592,1,0,0:0:0:0:
256,192,74752,1,8,0:0:0:0:
256,192,74911,1,0,0:0:0:0:
256,192,75071,1,8,0:0:0:0:
256,192,75151,1,0,0:0:0:0:
256,192,75231,1,0,0:0:0:0:
256,192,75390,1,0,0:0:0:0:
256,192,75550,1,8,0:0:0:0:
256,192,75869,1,0,0:0:0:0:
256,192,76028,1,8,0:0:0:0:
256,192,76188,1,0,0:0:0:0:
256,192,76507,1,0,0:0:0:0:
256,192,76667,1,0,0:0:0:0:
256,192,76826,1,8,0:0:0:0:
256,192,77145,1,0,0:0:0:0:
256,192,77465,1,0,0:0:0:0:
256,192,77624,1,8,0:0:0:0:
256,192,77784,1,0,0:0:0:0:
256,192,77943,1,0,0:0:0:0:
256,192,78103,1,8,0:0:0:0:
256,192,78422,1,8,0:0:0:0:
256,192,78582,1,8,0:0:0:0:
256,192,78741,1,0,0:0:0:0:
256,192,79060,1,0,0:0:0:0:
256,192,79220,1,0,0:0:0:0:
256,192,79379,1,8,0:0:0:0:
256,192,79699,1,0,0:0:0:0:
256,192,79858,1,8,0:0:0:0:
256,192,80018,1,0,0:0:0:0:
256,192,80177,1,8,0:0:0:0:
256,192,80257,1,0,0:0:0:0:
256,192,80337,1,0,0:0:0:0:
256,192,80497,1,0,0:0:0:0:
256,192,80656,1,8,0:0:0:0:
256,192,80975,1,0,0:0:0:0:
256,192,81135,1,8,0:0:0:0:
256,192,81294,1,0,0:0:0:0:
256,192,81614,1,0,0:0:0:0:
256,192,81773,1,0,0:0:0:0:
256,192,81933,1,8,0:0:0:0:
256,192,82252,1,0,0:0:0:0:
256,192,82571,1,0,0:0:0:0:
256,192,82890,2,0,L|288:192,4,29.7500005674362
256,192,83528,1,0,0:0:0:0:
256,192,83848,1,8,0:0:0:0:
256,192,84007,1,0,0:0:0:0:
256,192,84167,1,0,0:0:0:0:
256,192,84326,1,8,0:0:0:0:
256,192,84486,1,0,0:0:0:0:
256,192,84645,1,0,0:0:0:0:
256,192,84805,1,8,0:0:0:0:
256,192,84965,1,0,0:0:0:0:
256,192,85124,1,0,0:0:0:0:
256,192,85284,1,8,0:0:0:0:
256,192,85443,1,0,0:0:0:0:
256,192,85603,1,0,0:0:0:0:
256,192,85762,1,8,0:0:0:0:
256,192,85922,1,0,0:0:0:0:
256,192,86082,1,0,0:0:0:0:
256,192,86241,1,8,0:0:0:0:
256,192,86401,1,8,0:0:0:0:
256,192,86560,1,0,0:0:0:0:
256,192,86720,1,0,0:0:0:0:
256,192,86879,1,8,0:0:0:0:
256,192,87039,1,0,0:0:0:0:
256,192,87199,1,0,0:0:0:0:
256,192,87358,1,8,0:0:0:0:
256,192,87518,1,0,0:0:0:0:
256,192,87677,1,0,0:0:0:0:
256,192,87837,1,8,0:0:0:0:
256,192,87997,1,0,0:0:0:0:
256,192,88156,1,0,0:0:0:0:
256,192,88316,1,8,0:0:0:0:
256,192,88395,1,0,0:0:0:0:
256,192,88475,1,0,0:0:0:0:
256,192,88635,1,8,0:0:0:0:
256,192,88794,1,8,0:0:0:0:
256,192,88954,1,0,0:0:0:0:
256,192,89114,1,0,0:0:0:0:
256,192,89273,1,8,0:0:0:0:
256,192,89433,1,0,0:0:0:0:
256,192,89512,1,0,0:0:0:0:
256,192,89592,1,8,0:0:0:0:
256,192,89672,1,8,0:0:0:0:
256,192,89752,1,0,0:0:0:0:
256,192,89911,1,8,0:0:0:0:
256,192,90231,1,0,0:0:0:0:
256,192,90390,1,0,0:0:0:0:
256,192,90550,1,8,0:0:0:0:
256,192,90709,1,0,0:0:0:0:
256,192,90789,1,8,0:0:0:0:
256,192,90949,1,8,0:0:0:0:
256,192,91028,1,0,0:0:0:0:
256,192,91188,1,8,0:0:0:0:
256,192,91507,1,0,0:0:0:0:
256,192,91667,1,0,0:0:0:0:
256,192,91826,1,8,0:0:0:0:
256,192,91986,1,0,0:0:0:0:
256,192,92066,1,8,0:0:0:0:
256,192,92145,1,0,0:0:0:0:
256,192,92225,1,8,0:0:0:0:
256,192,92305,1,0,0:0:0:0:
256,192,92465,1,8,0:0:0:0:
256,192,92784,1,8,0:0:0:0:
256,192,92864,1,8,0:0:0:0:
256,192,92943,1,0,0:0:0:0:
256,192,93023,1,0,0:0:0:0:
256,192,93103,1,8,0:0:0:0:
256,192,93183,1,8,0:0:0:0:
256,192,93262,1,0,0:0:0:0:
256,192,93342,1,0,0:0:0:0:
256,192,93422,1,8,0:0:0:0:
256,192,93502,1,8,0:0:0:0:
256,192,93582,1,8,0:0:0:0:
256,192,93661,1,0,0:0:0:0:
256,192,93741,1,8,0:0:0:0:
256,192,93821,1,8,0:0:0:0:
256,192,93901,1,0,0:0:0:0:
256,192,93981,1,0,0:0:0:0:
256,192,94060,1,8,0:0:0:0:
256,192,94220,1,0,0:0:0:0:
256,192,94379,1,8,0:0:0:0:
256,192,94539,1,0,0:0:0:0:
256,192,94619,1,8,0:0:0:0:
256,192,94699,1,8,0:0:0:0:
256,192,94778,1,8,0:0:0:0:
256,192,94858,1,0,0:0:0:0:
256,192,95018,1,8,0:0:0:0:
256,192,95337,1,0,0:0:0:0:
256,192,95497,1,0,0:0:0:0:
256,192,95656,1,8,0:0:0:0:
256,192,95816,1,0,0:0:0:0:
256,192,95895,1,8,0:0:0:0:
256,192,96055,1,8,0:0:0:0:
256,192,96135,1,0,0:0:0:0:
256,192,96294,1,8,0:0:0:0:
256,192,96614,1,0,0:0:0:0:
256,192,96773,1,0,0:0:0:0:
256,192,96933,1,8,0:0:0:0:
256,192,97092,1,8,0:0:0:0:
256,192,97172,1,8,0:0:0:0:
256,192,97252,1,0,0:0:0:0:
256,192,97332,1,8,0:0:0:0:
256,192,97411,1,0,0:0:0:0:
256,192,97571,1,8,0:0:0:0:
256,192,97890,1,8,0:0:0:0:
256,192,97970,1,8,0:0:0:0:
256,192,98050,1,0,0:0:0:0:
256,192,98129,1,0,0:0:0:0:
256,192,98209,1,8,0:0:0:0:
256,192,98289,1,8,0:0:0:0:
256,192,98369,1,0,0:0:0:0:
256,192,98449,1,0,0:0:0:0:
256,192,98528,1,8,0:0:0:0:
256,192,98608,1,8,0:0:0:0:
256,192,98688,1,0,0:0:0:0:
256,192,98848,1,8,0:0:0:0:
256,192,99167,1,0,0:0:0:0:
256,192,99326,1,0,0:0:0:0:
256,192,99486,1,8,0:0:0:0:
256,192,99645,1,0,0:0:0:0:
256,192,99725,1,0,0:0:0:0:
256,192,99805,1,8,0:0:0:0:
256,192,99885,1,8,0:0:0:0:
256,192,99965,1,0,0:0:0:0:
256,192,100124,1,8,0:0:0:0:
256,192,100443,1,0,0:0:0:0:
256,192,100603,1,0,0:0:0:0:
256,192,100762,1,8,0:0:0:0:
256,192,100922,1,0,0:0:0:0:
256,192,101002,1,8,0:0:0:0:
256,192,101161,1,8,0:0:0:0:
256,192,101241,1,0,0:0:0:0:
256,192,101401,1,8,0:0:0:0:
256,192,101720,1,0,0:0:0:0:
256,192,101879,1,0,0:0:0:0:
256,192,102039,1,8,0:0:0:0:
256,192,102199,1,0,0:0:0:0:
256,192,102278,1,8,0:0:0:0:
256,192,102358,1,0,0:0:0:0:
256,192,102438,1,8,0:0:0:0:
256,192,102518,1,0,0:0:0:0:
256,192,102677,1,8,0:0:0:0:
256,192,102997,1,8,0:0:0:0:
256,192,103076,1,8,0:0:0:0:
256,192,103156,1,0,0:0:0:0:
256,192,103236,1,0,0:0:0:0:
256,192,103316,1,8,0:0:0:0:
256,192,103395,1,8,0:0:0:0:
256,192,103475,1,0,0:0:0:0:
256,192,103555,1,0,0:0:0:0:
256,192,103635,1,8,0:0:0:0:
256,192,103715,1,8,0:0:0:0:
256,192,103794,1,8,0:0:0:0:
256,192,103874,1,0,0:0:0:0:
256,192,103954,1,8,0:0:0:0:
256,192,104034,1,8,0:0:0:0:
256,192,104114,1,0,0:0:0:0:
256,192,104193,1,0,0:0:0:0:
256,192,104273,1,8,0:0:0:0:
256,192,104433,1,0,0:0:0:0:
256,192,104592,1,8,0:0:0:0:
256,192,104752,1,0,0:0:0:0:
256,192,104832,1,8,0:0:0:0:
256,192,104911,1,8,0:0:0:0:
256,192,104991,1,8,0:0:0:0:
256,192,105071,1,0,0:0:0:0:
256,192,105231,1,8,0:0:0:0:
256,192,105550,1,0,0:0:0:0:
256,192,105709,1,0,0:0:0:0:
256,192,105869,1,8,0:0:0:0:
256,192,106028,1,0,0:0:0:0:
256,192,106108,1,8,0:0:0:0:
256,192,106268,1,8,0:0:0:0:
256,192,106348,1,0,0:0:0:0:
256,192,106507,1,8,0:0:0:0:
256,192,106667,1,8,0:0:0:0:
256,192,106747,1,8,0:0:0:0:
256,192,106826,1,0,0:0:0:0:
256,192,106986,1,0,0:0:0:0:
256,192,107145,1,8,0:0:0:0:
256,192,107305,1,8,0:0:0:0:
256,192,107385,1,8,0:0:0:0:
256,192,107465,1,0,0:0:0:0:
256,192,107544,1,8,0:0:0:0:
256,192,107624,1,0,0:0:0:0:
256,192,107784,1,8,0:0:0:0:
256,192,108103,1,8,0:0:0:0:
256,192,108183,1,8,0:0:0:0:
256,192,108262,1,0,0:0:0:0:
256,192,108342,1,0,0:0:0:0:
256,192,108422,1,8,0:0:0:0:
256,192,108502,1,8,0:0:0:0:
256,192,108582,1,0,0:0:0:0:
256,192,108661,1,0,0:0:0:0:
256,192,108741,1,8,0:0:0:0:
256,192,108821,1,8,0:0:0:0:
256,192,108901,1,0,0:0:0:0:
256,192,109060,1,8,0:0:0:0:
256,192,109379,1,0,0:0:0:0:
256,192,109539,1,0,0:0:0:0:
256,192,109699,1,8,0:0:0:0:
256,192,109858,1,0,0:0:0:0:
256,192,110018,1,0,0:0:0:0:
256,192,110177,1,8,0:0:0:0:
256,192,110337,1,12,0:0:0:0:
256,192,110497,1,0,0:0:0:0:
256,192,110656,1,0,0:0:0:0:
256,192,110736,1,8,0:0:0:0:
256,192,110816,1,0,0:0:0:0:
256,192,110975,1,8,0:0:0:0:
256,192,111135,1,0,0:0:0:0:
256,192,111215,1,0,0:0:0:0:
256,192,111294,1,8,0:0:0:0:
256,192,111374,1,8,0:0:0:0:
256,192,111454,1,0,0:0:0:0:
256,192,111614,1,8,0:0:0:0:
256,192,111773,1,8,0:0:0:0:
256,192,111933,1,0,0:0:0:0:
256,192,112012,1,8,0:0:0:0:
256,192,112092,1,0,0:0:0:0:
256,192,112252,1,8,0:0:0:0:
256,192,112411,1,0,0:0:0:0:
256,192,112491,1,8,0:0:0:0:
256,192,112651,1,8,0:0:0:0:
256,192,112731,1,0,0:0:0:0:
256,192,112890,1,8,0:0:0:0:
256,192,113050,1,0,0:0:0:0:
256,192,113209,1,8,0:0:0:0:
256,192,113289,1,8,0:0:0:0:
256,192,113369,1,0,0:0:0:0:
256,192,113449,1,0,0:0:0:0:
256,192,113528,1,8,0:0:0:0:
256,192,113608,1,8,0:0:0:0:
256,192,113688,1,0,0:0:0:0:
256,192,113768,1,0,0:0:0:0:
256,192,113848,1,8,0:0:0:0:
256,192,113927,1,8,0:0:0:0:
256,192,114007,1,8,0:0:0:0:
256,192,114087,1,0,0:0:0:0:
256,192,114167,1,8,0:0:0:0:
256,192,114247,1,8,0:0:0:0:
256,192,114326,1,0,0:0:0:0:
256,192,114406,1,0,0:0:0:0:
256,192,114486,1,8,0:0:0:0:
256,192,114645,1,0,0:0:0:0:
256,192,114805,1,8,0:0:0:0:
256,192,114965,1,0,0:0:0:0:
256,192,115044,1,0,0:0:0:0:
256,192,115124,1,8,0:0:0:0:
256,192,115204,1,8,0:0:0:0:
256,192,115284,1,0,0:0:0:0:
256,192,115443,1,8,0:0:0:0:
256,192,115603,1,8,0:0:0:0:
256,192,115762,1,0,0:0:0:0:
256,192,115842,1,8,0:0:0:0:
256,192,115922,1,0,0:0:0:0:
256,192,116082,1,8,0:0:0:0:
256,192,116241,1,0,0:0:0:0:
256,192,116321,1,8,0:0:0:0:
256,192,116481,1,8,0:0:0:0:
256,192,116560,1,0,0:0:0:0:
256,192,116720,1,8,0:0:0:0:
256,192,116879,1,8,0:0:0:0:
256,192,117039,1,0,0:0:0:0:
256,192,117119,1,8,0:0:0:0:
256,192,117199,1,0,0:0:0:0:
256,192,117358,1,8,0:0:0:0:
256,192,117518,1,0,0:0:0:0:
256,192,117598,1,8,0:0:0:0:
256,192,117677,1,0,0:0:0:0:
256,192,117757,1,8,0:0:0:0:
256,192,117837,1,0,0:0:0:0:
256,192,117997,1,8,0:0:0:0:
256,192,118156,1,0,0:0:0:0:
256,192,118316,1,8,0:0:0:0:
256,192,118395,1,8,0:0:0:0:
256,192,118475,1,0,0:0:0:0:
256,192,118555,1,0,0:0:0:0:
256,192,118635,1,8,0:0:0:0:
256,192,118715,1,8,0:0:0:0:
256,192,118794,1,0,0:0:0:0:
256,192,118874,1,0,0:0:0:0:
256,192,118954,1,8,0:0:0:0:
256,192,119034,1,8,0:0:0:0:
256,192,119114,1,0,0:0:0:0:
256,192,119273,1,8,0:0:0:0:
256,192,119433,1,8,0:0:0:0:
256,192,119592,1,0,0:0:0:0:
256,192,119672,1,8,0:0:0:0:
256,192,119752,1,0,0:0:0:0:
256,192,119911,1,8,0:0:0:0:
256,192,120071,1,0,0:0:0:0:
256,192,120151,1,0,0:0:0:0:
256,192,120231,1,8,0:0:0:0:
256,192,120310,1,8,0:0:0:0:
256,192,120390,1,0,0:0:0:0:
256,192,120550,1,8,0:0:0:0:
256,192,120709,1,8,0:0:0:0:
256,192,120869,1,0,0:0:0:0:
256,192,120949,1,8,0:0:0:0:
256,192,121028,1,0,0:0:0:0:
256,192,121188,1,8,0:0:0:0:
256,192,121348,1,0,0:0:0:0:
256,192,121427,1,8,0:0:0:0:
256,192,121587,1,8,0:0:0:0:
256,192,121667,1,0,0:0:0:0:
256,192,121826,1,8,0:0:0:0:
256,192,121986,1,8,0:0:0:0:
256,192,122145,1,0,0:0:0:0:
256,192,122225,1,8,0:0:0:0:
256,192,122305,1,0,0:0:0:0:
256,192,122465,1,8,0:0:0:0:
256,192,122624,1,0,0:0:0:0:
256,192,122704,1,8,0:0:0:0:
256,192,122784,1,0,0:0:0:0:
256,192,122864,1,8,0:0:0:0:
256,192,122943,1,0,0:0:0:0:
256,192,123103,1,8,0:0:0:0:
256,192,123262,1,0,0:0:0:0:
256,192,123422,1,8,0:0:0:0:
256,192,123502,1,8,0:0:0:0:
256,192,123582,1,0,0:0:0:0:
256,192,123661,1,0,0:0:0:0:
256,192,123741,1,8,0:0:0:0:
256,192,123821,1,8,0:0:0:0:
256,192,123901,1,0,0:0:0:0:
256,192,123981,1,0,0:0:0:0:
256,192,124060,1,8,0:0:0:0:
256,192,124140,1,8,0:0:0:0:
256,192,124220,1,8,0:0:0:0:
256,192,124300,1,0,0:0:0:0:
256,192,124379,1,8,0:0:0:0:
256,192,124459,1,8,0:0:0:0:
256,192,124539,1,0,0:0:0:0:
256,192,124619,1,0,0:0:0:0:
256,192,124699,1,8,0:0:0:0:
256,192,124858,1,0,0:0:0:0:
256,192,125018,1,8,0:0:0:0:
256,192,125177,1,0,0:0:0:0:
256,192,125257,1,0,0:0:0:0:
256,192,125337,1,8,0:0:0:0:
256,192,125417,1,8,0:0:0:0:
256,192,125497,1,0,0:0:0:0:
256,192,125656,1,8,0:0:0:0:
256,192,125816,1,8,0:0:0:0:
256,192,125975,1,0,0:0:0:0:
256,192,126055,1,8,0:0:0:0:
256,192,126135,1,0,0:0:0:0:
256,192,126294,1,8,0:0:0:0:
256,192,126454,1,0,0:0:0:0:
256,192,126534,1,8,0:0:0:0:
256,192,126693,1,8,0:0:0:0:
256,192,126773,1,0,0:0:0:0:
256,192,126933,1,8,0:0:0:0:
256,192,127092,1,8,0:0:0:0:
256,192,127252,1,0,0:0:0:0:
256,192,127332,1,8,0:0:0:0:
256,192,127411,1,0,0:0:0:0:
256,192,127571,1,8,0:0:0:0:
256,192,127731,1,0,0:0:0:0:
256,192,127810,1,8,0:0:0:0:
256,192,127890,1,0,0:0:0:0:
256,192,127970,1,8,0:0:0:0:
256,192,128050,1,0,0:0:0:0:
256,192,128209,1,8,0:0:0:0:
256,192,128369,1,0,0:0:0:0:
256,192,128528,1,8,0:0:0:0:
256,192,128608,1,8,0:0:0:0:
256,192,128688,1,0,0:0:0:0:
256,192,128768,1,0,0:0:0:0:
256,192,128848,1,8,0:0:0:0:
256,192,128927,1,8,0:0:0:0:
256,192,129007,1,0,0:0:0:0:
256,192,129087,1,0,0:0:0:0:
256,192,129167,1,8,0:0:0:0:
256,192,129247,1,8,0:0:0:0:
256,192,129326,1,0,0:0:0:0:
256,192,129486,1,8,0:0:0:0:
256,192,129645,1,8,0:0:0:0:
256,192,129805,1,0,0:0:0:0:
256,192,129885,1,8,0:0:0:0:
256,192,129965,1,0,0:0:0:0:
256,192,130124,1,8,0:0:0:0:
256,192,130284,1,0,0:0:0:0:
256,192,130364,1,0,0:0:0:0:
256,192,130443,1,8,0:0:0:0:
256,192,130523,1,8,0:0:0:0:
256,192,130603,1,0,0:0:0:0:
256,192,130683,1,0,0:0:0:0:
256,192,130762,1,8,0:0:0:0:
256,192,130922,1,8,0:0:0:0:
256,192,131002,1,8,0:0:0:0:
256,192,131082,1,0,0:0:0:0:
256,192,131161,1,8,0:0:0:0:
256,192,131241,1,0,0:0:0:0:
256,192,131401,1,8,0:0:0:0:
256,192,131560,1,0,0:0:0:0:
256,192,131640,1,8,0:0:0:0:
256,192,131800,1,8,0:0:0:0:
256,192,131879,1,0,0:0:0:0:
256,192,132039,1,8,0:0:0:0:
256,192,132199,1,8,0:0:0:0:
256,192,132278,1,8,0:0:0:0:
256,192,132358,1,0,0:0:0:0:
256,192,132518,1,0,0:0:0:0:
256,192,132677,1,8,0:0:0:0:
256,192,132837,1,0,0:0:0:0:
256,192,132917,1,8,0:0:0:0:
256,192,132997,1,0,0:0:0:0:
256,192,133076,1,8,0:0:0:0:
256,192,133156,1,0,0:0:0:0:
256,192,133236,1,0,0:0:0:0:
256,192,133316,1,8,0:0:0:0:
256,192,133475,1,0,0:0:0:0:
256,192,133635,1,8,0:0:0:0:
256,192,133715,1,8,0:0:0:0:
256,192,133794,1,0,0:0:0:0:
256,192,133874,1,0,0:0:0:0:
256,192,133954,1,8,0:0:0:0:
256,192,134034,1,8,0:0:0:0:
256,192,134114,1,0,0:0:0:0:
256,192,134193,1,0,0:0:0:0:
256,192,134273,1,8,0:0:0:0:
256,192,134353,1,8,0:0:0:0:
256,192,134433,1,8,0:0:0:0:
256,192,134512,1,0,0:0:0:0:
256,192,134592,1,8,0:0:0:0:
256,192,134672,1,8,0:0:0:0:
256,192,134752,1,0,0:0:0:0:
256,192,134832,1,0,0:0:0:0:
256,192,134911,1,8,0:0:0:0:
256,192,135071,1,0,0:0:0:0:
256,192,135231,1,8,0:0:0:0:
256,192,135390,1,0,0:0:0:0:
256,192,135470,1,0,0:0:0:0:
256,192,135550,1,8,0:0:0:0:
256,192,135629,1,8,0:0:0:0:
256,192,135709,1,0,0:0:0:0:
256,192,135789,1,0,0:0:0:0:
256,192,135869,1,8,0:0:0:0:
256,192,136028,1,8,0:0:0:0:
256,192,136188,1,0,0:0:0:0:
256,192,136268,1,8,0:0:0:0:
256,192,136348,1,0,0:0:0:0:
256,192,136507,1,8,0:0:0:0:
256,192,136667,1,0,0:0:0:0:
256,192,136747,1,8,0:0:0:0:
256,192,136906,1,8,0:0:0:0:
256,192,136986,1,0,0:0:0:0:
256,192,137145,1,8,0:0:0:0:
256,192,137305,1,8,0:0:0:0:
256,192,137385,1,8,0:0:0:0:
256,192,137465,1,0,0:0:0:0:
256,192,137624,1,0,0:0:0:0:
256,192,137784,1,8,0:0:0:0:
256,192,137943,1,0,0:0:0:0:
256,192,138023,1,8,0:0:0:0:
256,192,138103,1,0,0:0:0:0:
256,192,138183,1,8,0:0:0:0:
256,192,138262,1,0,0:0:0:0:
256,192,138342,1,0,0:0:0:0:
256,192,138422,1,8,0:0:0:0:
256,192,138582,1,8,0:0:0:0:
256,192,138741,1,0,0:0:0:0:
256,192,138901,1,0,0:0:0:0:
256,192,138981,1,0,0:0:0:0:
256,192,139060,1,8,0:0:0:0:
256,192,139140,1,8,0:0:0:0:
256,192,139220,1,0,0:0:0:0:
256,192,139300,1,0,0:0:0:0:
256,192,139379,1,8,0:0:0:0:
256,192,139539,1,0,0:0:0:0:
256,192,139699,1,8,0:0:0:0:
256,192,139858,1,8,0:0:0:0:
256,192,140018,1,4,0:0:0:0:
256,192,140656,1,8,0:0:0:0:
256,192,140816,1,0,0:0:0:0:
256,192,140895,1,0,0:0:0:0:
256,192,140975,1,8,0:0:0:0:
256,192,141135,1,8,0:0:0:0:
256,192,141294,1,0,0:0:0:0:
256,192,141454,1,0,0:0:0:0:
256,192,141534,1,8,0:0:0:0:
256,192,141614,1,0,0:0:0:0:
256,192,141933,1,8,0:0:0:0:
256,192,142252,1,0,0:0:0:0:
256,192,142571,1,0,0:0:0:0:
256,192,143050,1,0,0:0:0:0:
256,192,143209,1,8,0:0:0:0:
256,192,143369,1,0,0:0:0:0:
256,192,143449,1,0,0:0:0:0:
256,192,143528,1,0,0:0:0:0:
256,192,143688,1,0,0:0:0:0:
256,192,143848,1,8,0:0:0:0:
256,192,144167,1,0,0:0:0:0:
256,192,144486,1,0,0:0:0:0:
256,192,144566,1,8,0:0:0:0:
256,192,144645,1,0,0:0:0:0:
256,192,144805,1,8,0:0:0:0:
256,192,145124,1,0,0:0:0:0:
256,192,145762,1,8,0:0:0:0:
256,192,146082,1,8,0:0:0:0:
256,192,146241,1,0,0:0:0:0:
256,192,146560,1,0,0:0:0:0:
256,192,146640,1,8,0:0:0:0:
256,192,146720,1,0,0:0:0:0:
256,192,146879,1,0,0:0:0:0:
256,192,147039,1,8,0:0:0:0:
256,192,147677,1,0,0:0:0:0:
256,192,148316,1,0,0:0:0:0:
256,192,148395,1,8,0:0:0:0:
256,192,148475,1,0,0:0:0:0:
256,192,148635,1,8,0:0:0:0:
256,192,148954,1,0,0:0:0:0:
256,192,149273,1,8,0:0:0:0:
256,192,149592,1,0,0:0:0:0:
256,192,149672,1,8,0:0:0:0:
256,192,149752,1,0,0:0:0:0:
256,192,149911,1,8,0:0:0:0:
256,192,150231,1,12,0:0:0:0:
256,192,150390,1,0,0:0:0:0:
256,192,150470,1,0,0:0:0:0:
256,192,150550,1,8,0:0:0:0:
256,192,150629,1,8,0:0:0:0:
256,192,150709,1,0,0:0:0:0:
256,192,150789,1,8,0:0:0:0:
256,192,150869,1,0,0:0:0:0:
256,192,150949,1,0,0:0:0:0:
256,192,151028,1,8,0:0:0:0:
256,192,151108,1,0,0:0:0:0:
256,192,151188,1,8,0:0:0:0:
256,192,151268,1,8,0:0:0:0:
256,192,151348,1,0,0:0:0:0:
256,192,151427,1,0,0:0:0:0:
256,192,151507,1,8,0:0:0:0:
256,192,151587,1,8,0:0:0:0:
256,192,151667,1,0,0:0:0:0:
256,192,151747,1,8,0:0:0:0:
256,192,151826,1,0,0:0:0:0:
256,192,151906,1,0,0:0:0:0:
256,192,151986,1,8,0:0:0:0:
256,192,152066,1,0,0:0:0:0:
256,192,152145,1,8,0:0:0:0:
256,192,152225,1,8,0:0:0:0:
256,192,152305,1,0,0:0:0:0:
256,192,152385,1,0,0:0:0:0:
256,192,152465,1,8,0:0:0:0:
256,192,152544,1,8,0:0:0:0:
256,192,152624,1,8,0:0:0:0:
256,192,152704,1,0,0:0:0:0:
256,192,152784,1,8,0:0:0:0:
256,192,152864,1,8,0:0:0:0:
256,192,152943,1,0,0:0:0:0:
256,192,153023,1,8,0:0:0:0:
256,192,153103,1,0,0:0:0:0:
256,192,153183,1,0,0:0:0:0:
256,192,153262,1,8,0:0:0:0:
256,192,153342,1,0,0:0:0:0:
256,192,153422,1,8,0:0:0:0:
256,192,153502,1,8,0:0:0:0:
256,192,153582,1,0,0:0:0:0:
256,192,153661,1,0,0:0:0:0:
256,192,153741,1,8,0:0:0:0:
256,192,153821,1,0,0:0:0:0:
256,192,153901,1,0,0:0:0:0:
256,192,153981,1,0,0:0:0:0:
256,192,154060,1,8,0:0:0:0:
256,192,154140,1,8,0:0:0:0:
256,192,154220,1,0,0:0:0:0:
256,192,154300,1,0,0:0:0:0:
256,192,154379,1,8,0:0:0:0:
256,192,154459,1,8,0:0:0:0:
256,192,154539,1,0,0:0:0:0:
256,192,154619,1,0,0:0:0:0:
256,192,154699,1,8,0:0:0:0:
256,192,154778,1,0,0:0:0:0:
256,192,154858,1,8,0:0:0:0:
256,192,154938,1,0,0:0:0:0:
256,192,155018,1,8,0:0:0:0:
256,192,155098,1,8,0:0:0:0:
256,192,155177,1,0,0:0:0:0:
256,192,155257,1,0,0:0:0:0:
256,192,155337,1,8,0:0:0:0:
256,192,155417,1,0,0:0:0:0:
256,192,155497,1,0,0:0:0:0:
256,192,155576,1,0,0:0:0:0:
256,192,155656,1,8,0:0:0:0:
256,192,155736,1,8,0:0:0:0:
256,192,155816,1,0,0:0:0:0:
256,192,155895,1,8,0:0:0:0:
256,192,155975,1,0,0:0:0:0:
256,192,156055,1,0,0:0:0:0:
256,192,156135,1,8,0:0:0:0:
256,192,156215,1,0,0:0:0:0:
256,192,156294,1,8,0:0:0:0:
256,192,156374,1,8,0:0:0:0:
256,192,156454,1,0,0:0:0:0:
256,192,156534,1,0,0:0:0:0:
256,192,156614,1,8,0:0:0:0:
256,192,156693,1,8,0:0:0:0:
256,192,156773,1,0,0:0:0:0:
256,192,156853,1,8,0:0:0:0:
256,192,156933,1,0,0:0:0:0:
256,192,157012,1,0,0:0:0:0:
256,192,157092,1,8,0:0:0:0:
256,192,157172,1,0,0:0:0:0:
256,192,157252,1,8,0:0:0:0:
256,192,157332,1,8,0:0:0:0:
256,192,157411,1,0,0:0:0:0:
256,192,157491,1,0,0:0:0:0:
256,192,157571,1,8,0:0:0:0:
256,192,157651,1,8,0:0:0:0:
256,192,157731,1,8,0:0:0:0:
256,192,157810,1,0,0:0:0:0:
256,192,157890,1,8,0:0:0:0:
256,192,157970,1,8,0:0:0:0:
256,192,158050,1,0,0:0:0:0:
256,192,158129,1,8,0:0:0:0:
256,192,158209,1,0,0:0:0:0:
256,192,158289,1,0,0:0:0:0:
256,192,158369,1,8,0:0:0:0:
256,192,158449,1,0,0:0:0:0:
256,192,158528,1,8,0:0:0:0:
256,192,158608,1,8,0:0:0:0:
256,192,158688,1,0,0:0:0:0:
256,192,158768,1,0,0:0:0:0:
256,192,158848,1,8,0:0:0:0:
256,192,158927,1,0,0:0:0:0:
256,192,159007,1,0,0:0:0:0:
256,192,159087,1,0,0:0:0:0:
256,192,159167,1,8,0:0:0:0:
256,192,159247,1,8,0:0:0:0:
256,192,159326,1,0,0:0:0:0:
256,192,159406,1,0,0:0:0:0:
256,192,159486,1,8,0:0:0:0:
256,192,159566,1,8,0:0:0:0:
256,192,159645,1,0,0:0:0:0:
256,192,159725,1,0,0:0:0:0:
256,192,159805,1,8,0:0:0:0:
256,192,159885,1,8,0:0:0:0:
256,192,159965,1,8,0:0:0:0:
256,192,160044,1,8,0:0:0:0:
256,192,160124,1,0,0:0:0:0:
256,192,160204,1,0,0:0:0:0:
256,192,160284,1,0,0:0:0:0:
256,192,160364,1,0,0:0:0:0:
256,192,160443,1,8,0:0:0:0:
256,192,160523,1,0,0:0:0:0:
256,192,160603,1,0,0:0:0:0:
256,192,160683,1,0,0:0:0:0:
256,192,160762,1,8,0:0:0:0:
256,192,160842,1,8,0:0:0:0:
256,192,160922,1,0,0:0:0:0:
256,192,161002,1,8,0:0:0:0:
256,192,161082,1,0,0:0:0:0:
256,192,161161,1,0,0:0:0:0:
256,192,161241,1,8,0:0:0:0:
256,192,161321,1,0,0:0:0:0:
256,192,161401,1,8,0:0:0:0:
256,192,161481,1,8,0:0:0:0:
256,192,161560,1,0,0:0:0:0:
256,192,161640,1,0,0:0:0:0:
256,192,161720,1,8,0:0:0:0:
256,192,161800,1,8,0:0:0:0:
256,192,161879,1,0,0:0:0:0:
256,192,161959,1,8,0:0:0:0:
256,192,162039,1,0,0:0:0:0:
256,192,162119,1,0,0:0:0:0:
256,192,162199,1,8,0:0:0:0:
256,192,162278,1,0,0:0:0:0:
256,192,162358,1,8,0:0:0:0:
256,192,162438,1,8,0:0:0:0:
256,192,162518,1,0,0:0:0:0:
256,192,162598,1,0,0:0:0:0:
256,192,162677,1,8,0:0:0:0:
256,192,162757,1,8,0:0:0:0:
256,192,162837,1,8,0:0:0:0:
256,192,162917,1,0,0:0:0:0:
256,192,162997,1,8,0:0:0:0:
256,192,163076,1,8,0:0:0:0:
256,192,163156,1,0,0:0:0:0:
256,192,163236,1,8,0:0:0:0:
256,192,163316,1,0,0:0:0:0:
256,192,163395,1,0,0:0:0:0:
256,192,163475,1,8,0:0:0:0:
256,192,163555,1,0,0:0:0:0:
256,192,163635,1,8,0:0:0:0:
256,192,163715,1,8,0:0:0:0:
256,192,163794,1,0,0:0:0:0:
256,192,163874,1,0,0:0:0:0:
256,192,163954,1,8,0:0:0:0:
256,192,164034,1,0,0:0:0:0:
256,192,164114,1,0,0:0:0:0:
256,192,164193,1,0,0:0:0:0:
256,192,164273,1,8,0:0:0:0:
256,192,164353,1,8,0:0:0:0:
256,192,164433,1,0,0:0:0:0:
256,192,164512,1,0,0:0:0:0:
256,192,164592,1,8,0:0:0:0:
256,192,164672,1,8,0:0:0:0:
256,192,164752,1,0,0:0:0:0:
256,192,164832,1,0,0:0:0:0:
256,192,164911,1,8,0:0:0:0:
256,192,164991,1,8,0:0:0:0:
256,192,165071,1,0,0:0:0:0:
256,192,165151,1,0,0:0:0:0:
256,192,165231,1,8,0:0:0:0:
256,192,165310,1,8,0:0:0:0:
256,192,165390,1,8,0:0:0:0:
256,192,165470,1,0,0:0:0:0:
256,192,165550,1,8,0:0:0:0:
256,192,165629,1,0,0:0:0:0:
256,192,165709,1,8,0:0:0:0:
256,192,165789,1,8,0:0:0:0:
256,192,165869,1,8,0:0:0:0:
256,192,165949,1,0,0:0:0:0:
256,192,166028,1,8,0:0:0:0:
256,192,166108,1,8,0:0:0:0:
256,192,166188,1,0,0:0:0:0:
256,192,166268,1,0,0:0:0:0:
256,192,166348,1,8,0:0:0:0:
256,192,166427,1,0,0:0:0:0:
256,192,166507,1,8,0:0:0:0:
256,192,166587,1,8,0:0:0:0:
256,192,166667,1,0,0:0:0:0:
256,192,166747,1,0,0:0:0:0:
256,192,166826,1,8,0:0:0:0:
256,192,166906,1,8,0:0:0:0:
256,192,166986,1,0,0:0:0:0:
256,192,167066,1,8,0:0:0:0:
256,192,167145,1,0,0:0:0:0:
256,192,167225,1,0,0:0:0:0:
256,192,167305,1,8,0:0:0:0:
256,192,167385,1,0,0:0:0:0:
256,192,167465,1,8,0:0:0:0:
256,192,167544,1,8,0:0:0:0:
256,192,167624,1,0,0:0:0:0:
256,192,167704,1,0,0:0:0:0:
256,192,167784,1,8,0:0:0:0:
256,192,167864,1,8,0:0:0:0:
256,192,167943,1,8,0:0:0:0:
256,192,168023,1,0,0:0:0:0:
256,192,168103,1,8,0:0:0:0:
256,192,168183,1,8,0:0:0:0:
256,192,168262,1,0,0:0:0:0:
256,192,168342,1,8,0:0:0:0:
256,192,168422,1,0,0:0:0:0:
256,192,168502,1,0,0:0:0:0:
256,192,168582,1,8,0:0:0:0:
256,192,168661,1,0,0:0:0:0:
256,192,168741,1,8,0:0:0:0:
256,192,168821,1,8,0:0:0:0:
256,192,168901,1,0,0:0:0:0:
256,192,168981,1,0,0:0:0:0:
256,192,169060,1,8,0:0:0:0:
256,192,169140,1,8,0:0:0:0:
256,192,169220,1,8,0:0:0:0:
256,192,169300,1,0,0:0:0:0:
256,192,169379,1,8,0:0:0:0:
256,192,169459,1,8,0:0:0:0:
256,192,169539,1,0,0:0:0:0:
256,192,169619,1,0,0:0:0:0:
256,192,169699,1,8,0:0:0:0:
256,192,169778,1,8,0:0:0:0:
256,192,169858,1,0,0:0:0:0:
256,192,169938,1,0,0:0:0:0:
256,192,170018,1,8,0:0:0:0:
256,192,170098,1,0,0:0:0:0:
256,192,170177,1,8,0:0:0:0:
256,192,170257,1,8,0:0:0:0:
256,192,170337,1,0,0:0:0:0:
256,192,170417,1,8,0:0:0:0:
256,192,170497,1,0,0:0:0:0:
256,192,170576,1,0,0:0:0:0:
256,192,170656,1,12,0:0:0:0:
256,192,172571,5,8,0:0:0:0:
256,192,172890,1,0,0:0:0:0:
256,192,173209,1,8,0:0:0:0:
256,192,174167,1,0,0:0:0:0:
256,192,175124,1,8,0:0:0:0:
256,192,175443,1,0,0:0:0:0:
256,192,175762,1,8,0:0:0:0:
256,192,177677,1,8,0:0:0:0:
256,192,177997,1,0,0:0:0:0:
256,192,178316,1,8,0:0:0:0:
256,192,179273,1,0,0:0:0:0:
256,192,180231,1,8,0:0:0:0:
256,192,180869,1,0,0:0:0:0:
256,192,182784,1,8,0:0:0:0:
256,192,183103,1,0,0:0:0:0:
256,192,183422,1,8,0:0:0:0:
256,192,184379,1,0,0:0:0:0:
256,192,185337,1,8,0:0:0:0:
256,192,185656,1,0,0:0:0:0:
256,192,185975,1,0,0:0:0:0:
256,192,187890,1,8,0:0:0:0:
256,192,188209,1,0,0:0:0:0:
256,192,188528,1,8,0:0:0:0:
256,192,189486,1,0,0:0:0:0:
256,192,189805,1,8,0:0:0:0:
256,192,190124,1,8,0:0:0:0:
256,192,190443,1,0,0:0:0:0:
256,192,190762,1,0,0:0:0:0:
256,192,191082,1,8,0:0:0:0:
256,192,192997,1,8,0:0:0:0:
256,192,193316,1,0,0:0:0:0:
256,192,193635,1,8,0:0:0:0:
256,192,194592,1,0,0:0:0:0:
256,192,195550,1,8,0:0:0:0:
256,192,195869,1,0,0:0:0:0:
256,192,196188,1,8,0:0:0:0:
256,192,198103,1,8,0:0:0:0:
256,192,198422,1,8,0:0:0:0:
256,192,198741,1,0,0:0:0:0:
256,192,199699,1,0,0:0:0:0:
256,192,200656,1,0,0:0:0:0:
256,192,201294,1,8,0:0:0:0:
256,192,203209,1,8,0:0:0:0:
256,192,203528,1,0,0:0:0:0:
256,192,203848,1,8,0:0:0:0:
256,192,204805,1,0,0:0:0:0:
256,192,205762,1,8,0:0:0:0:
256,192,206082,1,0,0:0:0:0:
256,192,206401,1,0,0:0:0:0:
256,192,208316,1,8,0:0:0:0:
256,192,208635,1,0,0:0:0:0:
256,192,208954,1,8,0:0:0:0:
256,192,209592,1,8,0:0:0:0:
256,192,209911,1,0,0:0:0:0:
256,192,210231,1,8,0:0:0:0:
256,192,210869,1,0,0:0:0:0:
256,192,211188,1,8,0:0:0:0:
256,192,211507,1,12,0:0:0:0:
256,192,211667,1,0,0:0:0:0:
256,192,211826,1,8,0:0:0:0:
256,192,211986,1,0,0:0:0:0:
256,192,212066,1,0,0:0:0:0:
256,192,212145,1,8,0:0:0:0:
256,192,212225,1,8,0:0:0:0:
256,192,212305,1,0,0:0:0:0:
256,192,212465,1,8,0:0:0:0:
256,192,212784,1,0,0:0:0:0:
256,192,212943,1,0,0:0:0:0:
256,192,213103,1,8,0:0:0:0:
256,192,213262,1,0,0:0:0:0:
256,192,213342,1,8,0:0:0:0:
256,192,213502,1,8,0:0:0:0:
256,192,213582,1,0,0:0:0:0:
256,192,213741,1,8,0:0:0:0:
256,192,214060,1,0,0:0:0:0:
256,192,214220,1,0,0:0:0:0:
256,192,214379,1,8,0:0:0:0:
256,192,214539,1,0,0:0:0:0:
256,192,214619,1,8,0:0:0:0:
256,192,214699,1,0,0:0:0:0:
256,192,214778,1,8,0:0:0:0:
256,192,214858,1,0,0:0:0:0:
256,192,215018,1,8,0:0:0:0:
256,192,215337,1,0,0:0:0:0:
256,192,215497,1,0,0:0:0:0:
256,192,215656,1,8,0:0:0:0:
256,192,215816,1,0,0:0:0:0:
256,192,215895,1,8,0:0:0:0:
256,192,216055,1,8,0:0:0:0:
256,192,216135,1,0,0:0:0:0:
256,192,216294,1,8,0:0:0:0:
256,192,216614,1,0,0:0:0:0:
256,192,216773,1,0,0:0:0:0:
256,192,216933,1,8,0:0:0:0:
256,192,217092,1,0,0:0:0:0:
256,192,217172,1,0,0:0:0:0:
256,192,217252,1,8,0:0:0:0:
256,192,217332,1,8,0:0:0:0:
256,192,217411,1,0,0:0:0:0:
256,192,217571,1,8,0:0:0:0:
256,192,217890,1,0,0:0:0:0:
256,192,218050,1,0,0:0:0:0:
256,192,218209,1,8,0:0:0:0:
256,192,218369,1,0,0:0:0:0:
256,192,218449,1,8,0:0:0:0:
256,192,218608,1,8,0:0:0:0:
256,192,218688,1,0,0:0:0:0:
256,192,218848,1,8,0:0:0:0:
256,192,219167,1,0,0:0:0:0:
256,192,219326,1,0,0:0:0:0:
256,192,219486,1,8,0:0:0:0:
256,192,219645,1,0,0:0:0:0:
256,192,219725,1,8,0:0:0:0:
256,192,219805,1,0,0:0:0:0:
256,192,219885,1,8,0:0:0:0:
256,192,219965,1,0,0:0:0:0:
256,192,220124,1,8,0:0:0:0:
256,192,220443,1,8,0:0:0:0:
256,192,220523,1,8,0:0:0:0:
256,192,220603,1,0,0:0:0:0:
256,192,220683,1,0,0:0:0:0:
256,192,220762,1,8,0:0:0:0:
256,192,220842,1,8,0:0:0:0:
256,192,220922,1,0,0:0:0:0:
256,192,221002,1,0,0:0:0:0:
256,192,221082,1,8,0:0:0:0:
256,192,221161,1,8,0:0:0:0:
256,192,221241,1,8,0:0:0:0:
256,192,221321,1,0,0:0:0:0:
256,192,221401,1,8,0:0:0:0:
256,192,221481,1,8,0:0:0:0:
256,192,221560,1,0,0:0:0:0:
256,192,221640,1,0,0:0:0:0:
256,192,221720,1,8,0:0:0:0:
256,192,221879,1,0,0:0:0:0:
256,192,222039,1,8,0:0:0:0:
256,192,222199,1,0,0:0:0:0:
256,192,222278,1,0,0:0:0:0:
256,192,222358,1,8,0:0:0:0:
256,192,222438,1,8,0:0:0:0:
256,192,222518,1,0,0:0:0:0:
256,192,222677,1,8,0:0:0:0:
256,192,222997,1,0,0:0:0:0:
256,192,223156,1,0,0:0:0:0:
256,192,223316,1,8,0:0:0:0:
256,192,223475,1,0,0:0:0:0:
256,192,223555,1,8,0:0:0:0:
256,192,223715,1,8,0:0:0:0:
256,192,223794,1,0,0:0:0:0:
256,192,223954,1,8,0:0:0:0:
256,192,224273,1,0,0:0:0:0:
256,192,224433,1,0,0:0:0:0:
256,192,224592,1,8,0:0:0:0:
256,192,224752,1,0,0:0:0:0:
256,192,224832,1,8,0:0:0:0:
256,192,224911,1,0,0:0:0:0:
256,192,224991,1,8,0:0:0:0:
256,192,225071,1,0,0:0:0:0:
256,192,225231,1,8,0:0:0:0:
256,192,225550,1,0,0:0:0:0:
256,192,225709,1,0,0:0:0:0:
256,192,225869,1,8,0:0:0:0:
256,192,226028,1,0,0:0:0:0:
256,192,226108,1,8,0:0:0:0:
256,192,226268,1,8,0:0:0:0:
256,192,226348,1,0,0:0:0:0:
256,192,226507,1,8,0:0:0:0:
256,192,226826,1,0,0:0:0:0:
256,192,226986,1,0,0:0:0:0:
256,192,227145,1,8,0:0:0:0:
256,192,227305,1,0,0:0:0:0:
256,192,227385,1,0,0:0:0:0:
256,192,227465,1,8,0:0:0:0:
256,192,227544,1,8,0:0:0:0:
256,192,227624,1,0,0:0:0:0:
256,192,227784,1,8,0:0:0:0:
256,192,228103,1,0,0:0:0:0:
256,192,228262,1,0,0:0:0:0:
256,192,228422,1,8,0:0:0:0:
256,192,228582,1,0,0:0:0:0:
256,192,228661,1,8,0:0:0:0:
256,192,228821,1,8,0:0:0:0:
256,192,228901,1,0,0:0:0:0:
256,192,229060,1,8,0:0:0:0:
256,192,229379,1,0,0:0:0:0:
256,192,229539,1,0,0:0:0:0:
256,192,229699,1,8,0:0:0:0:
256,192,229858,1,0,0:0:0:0:
256,192,229938,1,8,0:0:0:0:
256,192,230018,1,0,0:0:0:0:
256,192,230098,1,8,0:0:0:0:
256,192,230177,1,0,0:0:0:0:
256,192,230257,1,0,0:0:0:0:
256,192,230337,1,8,0:0:0:0:
256,192,230656,1,8,0:0:0:0:
256,192,230736,1,8,0:0:0:0:
256,192,230816,1,0,0:0:0:0:
256,192,230895,1,0,0:0:0:0:
256,192,230975,1,8,0:0:0:0:
256,192,231055,1,8,0:0:0:0:
256,192,231135,1,0,0:0:0:0:
256,192,231215,1,0,0:0:0:0:
256,192,231294,1,8,0:0:0:0:
256,192,231374,1,8,0:0:0:0:
256,192,231454,1,8,0:0:0:0:
256,192,231534,1,0,0:0:0:0:
256,192,231614,1,8,0:0:0:0:
256,192,231693,1,8,0:0:0:0:
256,192,231773,1,0,0:0:0:0:
256,192,231853,1,0,0:0:0:0:
256,192,231933,1,8,0:0:0:0:
256,192,232092,1,0,0:0:0:0:
256,192,232252,1,8,0:0:0:0:
256,192,232411,1,0,0:0:0:0:
256,192,232491,1,8,0:0:0:0:
256,192,232651,1,8,0:0:0:0:
256,192,232731,1,0,0:0:0:0:
256,192,232890,1,8,0:0:0:0:
256,192,233209,1,0,0:0:0:0:
256,192,233289,1,8,0:0:0:0:
256,192,233369,1,0,0:0:0:0:
256,192,233449,1,0,0:0:0:0:
256,192,233528,1,8,0:0:0:0:
256,192,233688,1,0,0:0:0:0:
256,192,233768,1,8,0:0:0:0:
256,192,233927,1,8,0:0:0:0:
256,192,234007,1,0,0:0:0:0:
256,192,234167,1,8,0:0:0:0:
256,192,234486,1,8,0:0:0:0:
256,192,234566,1,8,0:0:0:0:
256,192,234645,1,0,0:0:0:0:
256,192,234725,1,0,0:0:0:0:
256,192,234805,1,8,0:0:0:0:
256,192,234965,1,0,0:0:0:0:
256,192,235044,1,8,0:0:0:0:
256,192,235204,1,8,0:0:0:0:
256,192,235284,1,0,0:0:0:0:
256,192,235443,1,8,0:0:0:0:
256,192,235762,1,0,0:0:0:0:
256,192,235842,1,0,0:0:0:0:
256,192,235922,1,0,0:0:0:0:
256,192,236002,1,0,0:0:0:0:
256,192,236082,1,8,0:0:0:0:
256,192,236241,1,0,0:0:0:0:
256,192,236321,1,0,0:0:0:0:
256,192,236401,1,0,0:0:0:0:
256,192,236560,1,8,0:0:0:0:
256,192,236720,1,0,0:0:0:0:
256,192,236800,1,0,0:0:0:0:
256,192,236879,1,8,0:0:0:0:
256,192,237039,1,0,0:0:0:0:
256,192,237119,1,8,0:0:0:0:
256,192,237199,1,0,0:0:0:0:
256,192,237278,1,0,0:0:0:0:
256,192,237358,1,8,0:0:0:0:
256,192,237518,1,0,0:0:0:0:
256,192,237598,1,8,0:0:0:0:
256,192,237757,1,8,0:0:0:0:
256,192,237837,1,0,0:0:0:0:
256,192,237997,1,8,0:0:0:0:
256,192,238316,1,0,0:0:0:0:
256,192,238395,1,8,0:0:0:0:
256,192,238475,1,0,0:0:0:0:
256,192,238555,1,0,0:0:0:0:
256,192,238635,1,8,0:0:0:0:
256,192,238794,1,0,0:0:0:0:
256,192,238874,1,8,0:0:0:0:
256,192,239034,1,8,0:0:0:0:
256,192,239114,1,0,0:0:0:0:
256,192,239273,1,8,0:0:0:0:
256,192,239592,1,8,0:0:0:0:
256,192,239672,1,8,0:0:0:0:
256,192,239752,1,0,0:0:0:0:
256,192,239832,1,0,0:0:0:0:
256,192,239911,1,8,0:0:0:0:
256,192,240071,1,0,0:0:0:0:
256,192,240151,1,8,0:0:0:0:
256,192,240310,1,8,0:0:0:0:
256,192,240390,1,0,0:0:0:0:
256,192,240550,1,8,0:0:0:0:
256,192,240869,1,8,0:0:0:0:
256,192,240949,1,8,0:0:0:0:
256,192,241028,1,0,0:0:0:0:
256,192,241108,1,0,0:0:0:0:
256,192,241188,1,8,0:0:0:0:
256,192,241268,1,8,0:0:0:0:
256,192,241348,1,0,0:0:0:0:
256,192,241427,1,0,0:0:0:0:
256,192,241507,1,8,0:0:0:0:
256,192,241587,1,8,0:0:0:0:
256,192,241667,1,8,0:0:0:0:
256,192,241747,1,0,0:0:0:0:
256,192,241826,1,8,0:0:0:0:
256,192,241906,1,8,0:0:0:0:
256,192,241986,1,0,0:0:0:0:
256,192,242066,1,0,0:0:0:0:
256,192,242145,1,8,0:0:0:0:
256,192,242305,1,0,0:0:0:0:
256,192,242465,1,8,0:0:0:0:
256,192,242624,1,0,0:0:0:0:
256,192,242704,1,8,0:0:0:0:
256,192,242864,1,8,0:0:0:0:
256,192,242943,1,0,0:0:0:0:
256,192,243103,1,8,0:0:0:0:
256,192,243262,1,8,0:0:0:0:
256,192,243342,1,8,0:0:0:0:
256,192,243422,1,0,0:0:0:0:
256,192,243502,1,8,0:0:0:0:
256,192,243582,1,0,0:0:0:0:
256,192,243661,1,0,0:0:0:0:
256,192,243741,1,8,0:0:0:0:
256,192,243901,1,0,0:0:0:0:
256,192,243981,1,8,0:0:0:0:
256,192,244140,1,8,0:0:0:0:
256,192,244220,1,0,0:0:0:0:
256,192,244379,1,8,0:0:0:0:
256,192,244539,1,8,0:0:0:0:
256,192,244619,1,0,0:0:0:0:
256,192,244699,1,8,0:0:0:0:
256,192,244778,1,8,0:0:0:0:
256,192,244858,1,0,0:0:0:0:
256,192,244938,1,0,0:0:0:0:
256,192,245018,1,8,0:0:0:0:
256,192,245177,1,0,0:0:0:0:
256,192,245257,1,8,0:0:0:0:
256,192,245417,1,8,0:0:0:0:
256,192,245497,1,0,0:0:0:0:
256,192,245656,1,8,0:0:0:0:
256,192,245816,1,8,0:0:0:0:
256,192,245975,1,0,0:0:0:0:
256,192,246055,1,0,0:0:0:0:
256,192,246135,1,0,0:0:0:0:
256,192,246215,1,0,0:0:0:0:
256,192,246294,1,8,0:0:0:0:
256,192,246454,1,0,0:0:0:0:
256,192,246534,1,0,0:0:0:0:
256,192,246614,1,0,0:0:0:0:
256,192,246773,1,8,0:0:0:0:
256,192,246933,1,0,0:0:0:0:
256,192,247012,1,0,0:0:0:0:
256,192,247092,1,8,0:0:0:0:
256,192,247252,1,0,0:0:0:0:
256,192,247332,1,8,0:0:0:0:
256,192,247411,1,0,0:0:0:0:
256,192,247491,1,0,0:0:0:0:
256,192,247571,1,8,0:0:0:0:
256,192,247731,1,0,0:0:0:0:
256,192,247810,1,8,0:0:0:0:
256,192,247970,1,8,0:0:0:0:
256,192,248050,1,0,0:0:0:0:
256,192,248209,1,8,0:0:0:0:
256,192,248369,1,8,0:0:0:0:
256,192,248449,1,8,0:0:0:0:
256,192,248528,1,0,0:0:0:0:
256,192,248608,1,8,0:0:0:0:
256,192,248688,1,0,0:0:0:0:
256,192,248768,1,0,0:0:0:0:
256,192,248848,1,8,0:0:0:0:
256,192,249007,1,0,0:0:0:0:
256,192,249087,1,8,0:0:0:0:
256,192,249247,1,8,0:0:0:0:
256,192,249326,1,0,0:0:0:0:
256,192,249486,1,8,0:0:0:0:
256,192,249645,1,8,0:0:0:0:
256,192,249725,1,0,0:0:0:0:
256,192,249805,1,8,0:0:0:0:
256,192,249885,1,8,0:0:0:0:
256,192,249965,1,0,0:0:0:0:
256,192,250044,1,0,0:0:0:0:
256,192,250124,1,8,0:0:0:0:
256,192,250284,1,0,0:0:0:0:
256,192,250364,1,8,0:0:0:0:
256,192,250523,1,8,0:0:0:0:
256,192,250603,1,0,0:0:0:0:
256,192,250762,1,8,0:0:0:0:
256,192,250922,1,0,0:0:0:0:
256,192,251082,1,8,0:0:0:0:
256,192,251161,1,8,0:0:0:0:
256,192,251241,1,0,0:0:0:0:
256,192,251321,1,0,0:0:0:0:
256,192,251401,1,8,0:0:0:0:
256,192,251481,1,8,0:0:0:0:
256,192,251560,1,0,0:0:0:0:
256,192,251640,1,0,0:0:0:0:
256,192,251720,1,8,0:0:0:0:
256,192,251800,1,8,0:0:0:0:
256,192,251879,1,8,0:0:0:0:
256,192,251959,1,0,0:0:0:0:
256,192,252039,1,8,0:0:0:0:
256,192,252119,1,8,0:0:0:0:
256,192,252199,1,0,0:0:0:0:
256,192,252358,12,0,253475,0:0:0:0:
256,192,253635,5,12,0:0:0:0:
256,192,253794,1,0,0:0:0:0:
256,192,253874,1,0,0:0:0:0:
256,192,253954,1,8,0:0:0:0:
256,192,254034,1,8,0:0:0:0:
256,192,254114,1,0,0:0:0:0:
256,192,254193,1,8,0:0:0:0:
256,192,254273,1,0,0:0:0:0:
256,192,254353,1,0,0:0:0:0:
256,192,254433,1,8,0:0:0:0:
256,192,254512,1,0,0:0:0:0:
256,192,254592,1,8,0:0:0:0:
256,192,254672,1,8,0:0:0:0:
256,192,254752,1,0,0:0:0:0:
256,192,254832,1,0,0:0:0:0:
256,192,254911,1,8,0:0:0:0:
256,192,254991,1,8,0:0:0:0:
256,192,255071,1,0,0:0:0:0:
256,192,255151,1,8,0:0:0:0:
256,192,255231,1,0,0:0:0:0:
256,192,255310,1,0,0:0:0:0:
256,192,255390,1,8,0:0:0:0:
256,192,255470,1,0,0:0:0:0:
256,192,255550,1,8,0:0:0:0:
256,192,255629,1,8,0:0:0:0:
256,192,255709,1,0,0:0:0:0:
256,192,255789,1,0,0:0:0:0:
256,192,255869,1,8,0:0:0:0:
256,192,255949,1,8,0:0:0:0:
256,192,256028,1,8,0:0:0:0:
256,192,256108,1,0,0:0:0:0:
256,192,256188,1,8,0:0:0:0:
256,192,256268,1,8,0:0:0:0:
256,192,256348,1,0,0:0:0:0:
256,192,256427,1,8,0:0:0:0:
256,192,256507,1,0,0:0:0:0:
256,192,256587,1,0,0:0:0:0:
256,192,256667,1,8,0:0:0:0:
256,192,256747,1,0,0:0:0:0:
256,192,256826,1,8,0:0:0:0:
256,192,256906,1,8,0:0:0:0:
256,192,256986,1,0,0:0:0:0:
256,192,257066,1,0,0:0:0:0:
256,192,257145,1,8,0:0:0:0:
256,192,257225,1,0,0:0:0:0:
256,192,257305,1,0,0:0:0:0:
256,192,257385,1,0,0:0:0:0:
256,192,257465,1,8,0:0:0:0:
256,192,257544,1,8,0:0:0:0:
256,192,257624,1,0,0:0:0:0:
256,192,257704,1,0,0:0:0:0:
256,192,257784,1,8,0:0:0:0:
256,192,257864,1,8,0:0:0:0:
256,192,257943,1,0,0:0:0:0:
256,192,258023,1,0,0:0:0:0:
256,192,258103,1,8,0:0:0:0:
256,192,258183,1,0,0:0:0:0:
256,192,258262,1,8,0:0:0:0:
256,192,258342,1,0,0:0:0:0:
256,192,258422,1,8,0:0:0:0:
256,192,258502,1,8,0:0:0:0:
256,192,258582,1,0,0:0:0:0:
256,192,258661,1,0,0:0:0:0:
256,192,258741,1,8,0:0:0:0:
256,192,258821,1,0,0:0:0:0:
256,192,258901,1,8,0:0:0:0:
256,192,258981,1,0,0:0:0:0:
256,192,259060,1,8,0:0:0:0:
256,192,259140,1,8,0:0:0:0:
256,192,259220,1,0,0:0:0:0:
256,192,259300,1,8,0:0:0:0:
256,192,259379,1,0,0:0:0:0:
256,192,259459,1,0,0:0:0:0:
256,192,259539,1,8,0:0:0:0:
256,192,259619,1,0,0:0:0:0:
256,192,259699,1,8,0:0:0:0:
256,192,259778,1,8,0:0:0:0:
256,192,259858,1,0,0:0:0:0:
256,192,259938,1,0,0:0:0:0:
256,192,260018,1,8,0:0:0:0:
256,192,260098,1,8,0:0:0:0:
256,192,260177,1,0,0:0:0:0:
256,192,260257,1,8,0:0:0:0:
256,192,260337,1,0,0:0:0:0:
256,192,260417,1,0,0:0:0:0:
256,192,260497,1,8,0:0:0:0:
256,192,260576,1,0,0:0:0:0:
256,192,260656,1,8,0:0:0:0:
256,192,260736,1,8,0:0:0:0:
256,192,260816,1,0,0:0:0:0:
256,192,260895,1,0,0:0:0:0:
256,192,260975,1,8,0:0:0:0:
256,192,261055,1,8,0:0:0:0:
256,192,261135,1,8,0:0:0:0:
256,192,261215,1,0,0:0:0:0:
256,192,261294,1,8,0:0:0:0:
256,192,261374,1,8,0:0:0:0:
256,192,261454,1,0,0:0:0:0:
256,192,261534,1,8,0:0:0:0:
256,192,261614,1,0,0:0:0:0:
256,192,261693,1,0,0:0:0:0:
256,192,261773,1,8,0:0:0:0:
256,192,261853,1,0,0:0:0:0:
256,192,261933,1,8,0:0:0:0:
256,192,262012,1,8,0:0:0:0:
256,192,262092,1,0,0:0:0:0:
256,192,262172,1,0,0:0:0:0:
256,192,262252,1,8,0:0:0:0:
256,192,262332,1,0,0:0:0:0:
256,192,262411,1,0,0:0:0:0:
256,192,262491,1,0,0:0:0:0:
256,192,262571,1,8,0:0:0:0:
256,192,262651,1,8,0:0:0:0:
256,192,262731,1,0,0:0:0:0:
256,192,262810,1,0,0:0:0:0:
256,192,262890,1,8,0:0:0:0:
256,192,262970,1,8,0:0:0:0:
256,192,263050,1,0,0:0:0:0:
256,192,263129,1,0,0:0:0:0:
256,192,263209,1,8,0:0:0:0:
256,192,263289,1,8,0:0:0:0:
256,192,263369,1,8,0:0:0:0:
256,192,263449,1,8,0:0:0:0:
256,192,263528,1,0,0:0:0:0:
256,192,263608,1,0,0:0:0:0:
256,192,263688,1,0,0:0:0:0:
256,192,263768,1,0,0:0:0:0:
256,192,263848,1,8,0:0:0:0:
256,192,263927,1,0,0:0:0:0:
256,192,264007,1,0,0:0:0:0:
256,192,264087,1,0,0:0:0:0:
256,192,264167,1,8,0:0:0:0:
256,192,264247,1,8,0:0:0:0:
256,192,264326,1,0,0:0:0:0:
256,192,264406,1,8,0:0:0:0:
256,192,264486,1,0,0:0:0:0:
256,192,264566,1,0,0:0:0:0:
256,192,264645,1,8,0:0:0:0:
256,192,264725,1,0,0:0:0:0:
256,192,264805,1,8,0:0:0:0:
256,192,264885,1,8,0:0:0:0:
256,192,264965,1,0,0:0:0:0:
256,192,265044,1,0,0:0:0:0:
256,192,265124,1,8,0:0:0:0:
256,192,265204,1,8,0:0:0:0:
256,192,265284,1,0,0:0:0:0:
256,192,265364,1,8,0:0:0:0:
256,192,265443,1,0,0:0:0:0:
256,192,265523,1,0,0:0:0:0:
256,192,265603,1,8,0:0:0:0:
256,192,265683,1,0,0:0:0:0:
256,192,265762,1,8,0:0:0:0:
256,192,265842,1,8,0:0:0:0:
256,192,265922,1,0,0:0:0:0:
256,192,266002,1,0,0:0:0:0:
256,192,266082,1,8,0:0:0:0:
256,192,266161,1,8,0:0:0:0:
256,192,266241,1,8,0:0:0:0:
256,192,266321,1,0,0:0:0:0:
256,192,266401,1,8,0:0:0:0:
256,192,266481,1,8,0:0:0:0:
256,192,266560,1,0,0:0:0:0:
256,192,266640,1,8,0:0:0:0:
256,192,266720,1,0,0:0:0:0:
256,192,266800,1,0,0:0:0:0:
256,192,266879,1,8,0:0:0:0:
256,192,266959,1,0,0:0:0:0:
256,192,267039,1,8,0:0:0:0:
256,192,267119,1,8,0:0:0:0:
256,192,267199,1,0,0:0:0:0:
256,192,267278,1,0,0:0:0:0:
256,192,267358,1,8,0:0:0:0:
256,192,267438,1,0,0:0:0:0:
256,192,267518,1,0,0:0:0:0:
256,192,267598,1,0,0:0:0:0:
256,192,267677,1,8,0:0:0:0:
256,192,267757,1,8,0:0:0:0:
256,192,267837,1,0,0:0:0:0:
256,192,267917,1,0,0:0:0:0:
256,192,267997,1,8,0:0:0:0:
256,192,268076,1,8,0:0:0:0:
256,192,268156,1,0,0:0:0:0:
256,192,268236,1,0,0:0:0:0:
256,192,268316,1,8,0:0:0:0:
256,192,268395,1,8,0:0:0:0:
256,192,268475,1,0,0:0:0:0:
256,192,268555,1,0,0:0:0:0:
256,192,268635,1,8,0:0:0:0:
256,192,268715,1,8,0:0:0:0:
256,192,268794,1,8,0:0:0:0:
256,192,268874,1,0,0:0:0:0:
256,192,268954,1,8,0:0:0:0:
256,192,269034,1,0,0:0:0:0:
256,192,269114,1,8,0:0:0:0:
256,192,269193,1,8,0:0:0:0:
256,192,269273,1,8,0:0:0:0:
256,192,269353,1,0,0:0:0:0:
256,192,269433,1,8,0:0:0:0:
256,192,269512,1,8,0:0:0:0:
256,192,269592,1,0,0:0:0:0:
256,192,269672,1,0,0:0:0:0:
256,192,269752,1,8,0:0:0:0:
256,192,269832,1,0,0:0:0:0:
256,192,269911,1,8,0:0:0:0:
256,192,269991,1,8,0:0:0:0:
256,192,270071,1,0,0:0:0:0:
256,192,270151,1,0,0:0:0:0:
256,192,270231,1,8,0:0:0:0:
256,192,270310,1,8,0:0:0:0:
256,192,270390,1,0,0:0:0:0:
256,192,270470,1,8,0:0:0:0:
256,192,270550,1,0,0:0:0:0:
256,192,270629,1,0,0:0:0:0:
256,192,270709,1,8,0:0:0:0:
256,192,270789,1,0,0:0:0:0:
256,192,270869,1,8,0:0:0:0:
256,192,270949,1,8,0:0:0:0:
256,192,271028,1,0,0:0:0:0:
256,192,271108,1,0,0:0:0:0:
256,192,271188,1,8,0:0:0:0:
256,192,271268,1,8,0:0:0:0:
256,192,271348,1,8,0:0:0:0:
256,192,271427,1,0,0:0:0:0:
256,192,271507,1,8,0:0:0:0:
256,192,271587,1,8,0:0:0:0:
256,192,271667,1,0,0:0:0:0:
256,192,271747,1,8,0:0:0:0:
256,192,271826,1,0,0:0:0:0:
256,192,271906,1,0,0:0:0:0:
256,192,271986,1,8,0:0:0:0:
256,192,272066,1,0,0:0:0:0:
256,192,272145,1,8,0:0:0:0:
256,192,272225,1,8,0:0:0:0:
256,192,272305,1,0,0:0:0:0:
256,192,272385,1,0,0:0:0:0:
256,192,272465,1,8,0:0:0:0:
256,192,272544,1,8,0:0:0:0:
256,192,272624,1,8,0:0:0:0:
256,192,272704,1,0,0:0:0:0:
256,192,272784,1,8,0:0:0:0:
256,192,272864,1,8,0:0:0:0:
256,192,272943,1,0,0:0:0:0:
256,192,273023,1,0,0:0:0:0:
256,192,273103,1,8,0:0:0:0:
256,192,273183,1,8,0:0:0:0:
256,192,273262,1,0,0:0:0:0:
256,192,273342,1,0,0:0:0:0:
256,192,273422,1,8,0:0:0:0:
256,192,273502,1,0,0:0:0:0:
256,192,273582,1,8,0:0:0:0:
256,192,273661,1,8,0:0:0:0:
256,192,273741,1,0,0:0:0:0:
256,192,273821,1,8,0:0:0:0:
256,192,273901,1,0,0:0:0:0:
256,192,273981,1,0,0:0:0:0:
256,192,274060,1,8,0:0:0:0:
256,192,274140,1,0,0:0:0:0:
256,192,274220,1,0,0:0:0:0:
256,192,274300,1,0,0:0:0:0:
256,192,274379,1,8,0:0:0:0:
256,192,274459,1,8,0:0:0:0:
256,192,274539,1,0,0:0:0:0:
256,192,274619,1,8,0:0:0:0:
256,192,274699,1,0,0:0:0:0:
256,192,274778,1,0,0:0:0:0:
256,192,274858,1,8,0:0:0:0:
256,192,274938,1,0,0:0:0:0:
256,192,275018,1,8,0:0:0:0:
256,192,275098,1,8,0:0:0:0:
256,192,275177,1,0,0:0:0:0:
256,192,275257,1,0,0:0:0:0:
256,192,275337,1,8,0:0:0:0:
256,192,275417,1,8,0:0:0:0:
256,192,275497,1,0,0:0:0:0:
256,192,275576,1,8,0:0:0:0:
256,192,275656,1,0,0:0:0:0:
256,192,275736,1,0,0:0:0:0:
256,192,275816,1,8,0:0:0:0:
256,192,275895,1,0,0:0:0:0:
256,192,275975,1,8,0:0:0:0:
256,192,276055,1,8,0:0:0:0:
256,192,276135,1,0,0:0:0:0:
256,192,276215,1,0,0:0:0:0:
256,192,276294,1,8,0:0:0:0:
256,192,276374,1,8,0:0:0:0:
256,192,276454,1,8,0:0:0:0:
256,192,276534,1,0,0:0:0:0:
256,192,276614,1,8,0:0:0:0:
256,192,276693,1,8,0:0:0:0:
256,192,276773,1,0,0:0:0:0:
256,192,276853,1,8,0:0:0:0:
256,192,276933,1,0,0:0:0:0:
256,192,277012,1,0,0:0:0:0:
256,192,277092,1,8,0:0:0:0:
256,192,277172,1,0,0:0:0:0:
256,192,277252,1,8,0:0:0:0:
256,192,277332,1,8,0:0:0:0:
256,192,277411,1,0,0:0:0:0:
256,192,277491,1,0,0:0:0:0:
256,192,277571,1,8,0:0:0:0:
256,192,277651,1,0,0:0:0:0:
256,192,277731,1,0,0:0:0:0:
256,192,277810,1,0,0:0:0:0:
256,192,277890,1,8,0:0:0:0:
256,192,277970,1,8,0:0:0:0:
256,192,278050,1,0,0:0:0:0:
256,192,278129,1,0,0:0:0:0:
256,192,278209,1,8,0:0:0:0:
256,192,278289,1,8,0:0:0:0:
256,192,278369,1,0,0:0:0:0:
256,192,278449,1,0,0:0:0:0:
256,192,278528,1,8,0:0:0:0:
256,192,278608,1,0,0:0:0:0:
256,192,278688,1,8,0:0:0:0:
256,192,278768,1,0,0:0:0:0:
256,192,278848,1,8,0:0:0:0:
256,192,278927,1,8,0:0:0:0:
256,192,279007,1,0,0:0:0:0:
256,192,279087,1,0,0:0:0:0:
256,192,279167,1,8,0:0:0:0:
256,192,279247,1,0,0:0:0:0:
256,192,279326,1,0,0:0:0:0:
256,192,279406,1,0,0:0:0:0:
256,192,279486,1,8,0:0:0:0:
256,192,279566,1,8,0:0:0:0:
256,192,279645,1,0,0:0:0:0:
256,192,279725,1,8,0:0:0:0:
256,192,279805,1,0,0:0:0:0:
256,192,279885,1,0,0:0:0:0:
256,192,279965,1,8,0:0:0:0:
256,192,280044,1,0,0:0:0:0:
256,192,280124,1,8,0:0:0:0:
256,192,280204,1,8,0:0:0:0:
256,192,280284,1,0,0:0:0:0:
256,192,280364,1,0,0:0:0:0:
256,192,280443,1,8,0:0:0:0:
256,192,280523,1,8,0:0:0:0:
256,192,280603,1,0,0:0:0:0:
256,192,280683,1,8,0:0:0:0:
256,192,280762,1,0,0:0:0:0:
256,192,280842,1,0,0:0:0:0:
256,192,280922,1,8,0:0:0:0:
256,192,281002,1,0,0:0:0:0:
256,192,281082,1,8,0:0:0:0:
256,192,281161,1,8,0:0:0:0:
256,192,281241,1,0,0:0:0:0:
256,192,281321,1,0,0:0:0:0:
256,192,281401,1,8,0:0:0:0:
256,192,281481,1,8,0:0:0:0:
256,192,281560,1,8,0:0:0:0:
256,192,281640,1,0,0:0:0:0:
256,192,281720,1,8,0:0:0:0:
256,192,281800,1,8,0:0:0:0:
256,192,281879,1,0,0:0:0:0:
256,192,281959,1,8,0:0:0:0:
256,192,282039,1,0,0:0:0:0:
256,192,282119,1,0,0:0:0:0:
256,192,282199,1,8,0:0:0:0:
256,192,282278,1,0,0:0:0:0:
256,192,282358,1,8,0:0:0:0:
256,192,282438,1,8,0:0:0:0:
256,192,282518,1,0,0:0:0:0:
256,192,282598,1,0,0:0:0:0:
256,192,282677,1,8,0:0:0:0:
256,192,282757,1,0,0:0:0:0:
256,192,282837,1,0,0:0:0:0:
256,192,282917,1,0,0:0:0:0:
256,192,282997,1,8,0:0:0:0:
256,192,283076,1,8,0:0:0:0:
256,192,283156,1,0,0:0:0:0:
256,192,283236,1,0,0:0:0:0:
256,192,283316,1,8,0:0:0:0:
256,192,283395,1,8,0:0:0:0:
256,192,283475,1,0,0:0:0:0:
256,192,283555,1,0,0:0:0:0:
256,192,283635,1,8,0:0:0:0:
256,192,283715,1,8,0:0:0:0:
256,192,283794,1,8,0:0:0:0:
256,192,283874,1,8,0:0:0:0:
256,192,283954,1,0,0:0:0:0:
256,192,284034,1,0,0:0:0:0:
256,192,284114,1,0,0:0:0:0:
256,192,284193,1,0,0:0:0:0:
256,192,284273,1,8,0:0:0:0:
256,192,284353,1,0,0:0:0:0:
256,192,284433,1,0,0:0:0:0:
256,192,284512,1,0,0:0:0:0:
256,192,284592,1,8,0:0:0:0:
256,192,284672,1,8,0:0:0:0:
256,192,284752,1,0,0:0:0:0:
256,192,284832,1,8,0:0:0:0:
256,192,284911,1,0,0:0:0:0:
256,192,284991,1,0,0:0:0:0:
256,192,285071,1,8,0:0:0:0:
256,192,285151,1,0,0:0:0:0:
256,192,285231,1,8,0:0:0:0:
256,192,285310,1,8,0:0:0:0:
256,192,285390,1,0,0:0:0:0:
256,192,285470,1,0,0:0:0:0:
256,192,285550,1,8,0:0:0:0:
256,192,285629,1,8,0:0:0:0:
256,192,285709,1,0,0:0:0:0:
256,192,285789,1,8,0:0:0:0:
256,192,285869,1,0,0:0:0:0:
256,192,285949,1,0,0:0:0:0:
256,192,286028,1,8,0:0:0:0:
256,192,286108,1,0,0:0:0:0:
256,192,286188,1,8,0:0:0:0:
256,192,286268,1,8,0:0:0:0:
256,192,286348,1,0,0:0:0:0:
256,192,286427,1,0,0:0:0:0:
256,192,286507,1,8,0:0:0:0:
256,192,286587,1,8,0:0:0:0:
256,192,286667,1,8,0:0:0:0:
256,192,286747,1,0,0:0:0:0:
256,192,286826,1,8,0:0:0:0:
256,192,286906,1,8,0:0:0:0:
256,192,286986,1,0,0:0:0:0:
256,192,287066,1,8,0:0:0:0:
256,192,287145,1,0,0:0:0:0:
256,192,287225,1,0,0:0:0:0:
256,192,287305,1,8,0:0:0:0:
256,192,287385,1,0,0:0:0:0:
256,192,287465,1,8,0:0:0:0:
256,192,287544,1,8,0:0:0:0:
256,192,287624,1,0,0:0:0:0:
256,192,287704,1,0,0:0:0:0:
256,192,287784,1,8,0:0:0:0:
256,192,287864,1,0,0:0:0:0:
256,192,287943,1,0,0:0:0:0:
256,192,288023,1,0,0:0:0:0:
256,192,288103,1,8,0:0:0:0:
256,192,288183,1,8,0:0:0:0:
256,192,288262,1,0,0:0:0:0:
256,192,288342,1,0,0:0:0:0:
256,192,288422,1,8,0:0:0:0:
256,192,288502,1,8,0:0:0:0:
256,192,288582,1,0,0:0:0:0:
256,192,288661,1,0,0:0:0:0:
256,192,288741,1,8,0:0:0:0:
256,192,288821,1,8,0:0:0:0:
256,192,288901,1,0,0:0:0:0:
256,192,288981,1,0,0:0:0:0:
256,192,289060,1,8,0:0:0:0:
256,192,289140,1,8,0:0:0:0:
256,192,289220,1,0,0:0:0:0:
256,192,289379,1,8,0:0:0:0:
256,192,289459,1,0,0:0:0:0:
256,192,289539,1,8,0:0:0:0:
256,192,289619,1,0,0:0:0:0:
256,192,289699,1,8,0:0:0:0:
256,192,289778,1,0,0:0:0:0:
256,192,289858,1,8,0:0:0:0:
256,192,289938,1,0,0:0:0:0:
256,192,290018,1,8,0:0:0:0:
256,192,290098,1,0,0:0:0:0:
256,192,290177,1,8,0:0:0:0:
256,192,290257,1,0,0:0:0:0:
256,192,290337,1,8,0:0:0:0:
256,192,290417,1,0,0:0:0:0:
256,192,290497,1,8,0:0:0:0:
256,192,290576,1,0,0:0:0:0:
256,192,290656,1,8,0:0:0:0:
256,192,290736,1,0,0:0:0:0:
256,192,290816,1,8,0:0:0:0:
256,192,290895,1,0,0:0:0:0:
256,192,290975,1,8,0:0:0:0:
256,192,291055,1,0,0:0:0:0:
256,192,291135,1,8,0:0:0:0:
256,192,291215,1,0,0:0:0:0:
256,192,291294,1,8,0:0:0:0:
256,192,291374,1,0,0:0:0:0:
256,192,291454,1,8,0:0:0:0:
256,192,291534,1,0,0:0:0:0:
256,192,291614,1,8,0:0:0:0:
256,192,291693,1,0,0:0:0:0:
256,192,291773,1,8,0:0:0:0:
256,192,291933,1,0,0:0:0:0:
256,192,292012,1,8,0:0:0:0:
256,192,292092,1,0,0:0:0:0:
256,192,292172,1,8,0:0:0:0:
256,192,292252,1,0,0:0:0:0:
256,192,292332,1,8,0:0:0:0:
256,192,292411,1,0,0:0:0:0:
256,192,292491,1,8,0:0:0:0:
256,192,292571,1,0,0:0:0:0:
256,192,292651,1,8,0:0:0:0:
256,192,292731,1,0,0:0:0:0:
256,192,292810,1,8,0:0:0:0:
256,192,292890,1,0,0:0:0:0:
256,192,292970,1,8,0:0:0:0:
256,192,293050,1,0,0:0:0:0:
256,192,293209,1,8,0:0:0:0:
256,192,293289,1,0,0:0:0:0:
256,192,293369,1,0,0:0:0:0:
256,192,293449,1,0,0:0:0:0:
256,128,293528,1,8,0:0:0:0:
256,192,293608,1,0,0:0:0:0:
256,192,293688,1,0,0:0:0:0:
256,192,293768,1,0,0:0:0:0:
256,192,293848,1,8,0:0:0:0:
256,192,293927,1,8,0:0:0:0:
256,192,294007,1,0,0:0:0:0:
256,192,294087,1,0,0:0:0:0:
256,192,294167,1,8,0:0:0:0:
256,192,294247,1,8,0:0:0:0:
256,192,294326,1,0,0:0:0:0:
256,192,294406,1,0,0:0:0:0:
256,192,294486,1,12,0:0:0:0:
256,192,294645,1,0,0:0:0:0:
256,192,294805,1,8,0:0:0:0:
256,192,294965,1,0,0:0:0:0:
256,192,295044,1,0,0:0:0:0:
256,192,295124,1,8,0:0:0:0:
256,192,295204,1,8,0:0:0:0:
256,192,295284,1,0,0:0:0:0:
256,192,295443,1,8,0:0:0:0:
256,192,295762,1,0,0:0:0:0:
256,192,295922,1,0,0:0:0:0:
256,192,296082,1,8,0:0:0:0:
256,192,296241,1,0,0:0:0:0:
256,192,296321,1,8,0:0:0:0:
256,192,296481,1,8,0:0:0:0:
256,192,296560,1,0,0:0:0:0:
256,192,296720,1,8,0:0:0:0:
256,192,297039,1,0,0:0:0:0:
256,192,297199,1,0,0:0:0:0:
256,192,297358,1,8,0:0:0:0:
256,192,297518,1,0,0:0:0:0:
256,192,297598,1,8,0:0:0:0:
256,192,297677,1,0,0:0:0:0:
256,192,297757,1,8,0:0:0:0:
256,192,297837,1,0,0:0:0:0:
256,192,297997,1,8,0:0:0:0:
256,192,298316,1,8,0:0:0:0:
256,192,298395,1,8,0:0:0:0:
256,192,298475,1,0,0:0:0:0:
256,192,298555,1,0,0:0:0:0:
256,192,298635,1,8,0:0:0:0:
256,192,298715,1,8,0:0:0:0:
256,192,298794,1,0,0:0:0:0:
256,192,298874,1,0,0:0:0:0:
256,192,298954,1,8,0:0:0:0:
256,192,299034,1,8,0:0:0:0:
256,192,299114,1,8,0:0:0:0:
256,192,299193,1,0,0:0:0:0:
256,192,299273,1,8,0:0:0:0:
256,192,299353,1,8,0:0:0:0:
256,192,299433,1,0,0:0:0:0:
256,192,299512,1,0,0:0:0:0:
256,192,299592,1,8,0:0:0:0:
256,192,299752,1,0,0:0:0:0:
256,192,299911,1,8,0:0:0:0:
256,192,300071,1,0,0:0:0:0:
256,192,300151,1,8,0:0:0:0:
256,192,300231,1,8,0:0:0:0:
256,192,300310,1,8,0:0:0:0:
256,192,300390,1,0,0:0:0:0:
256,192,300550,1,8,0:0:0:0:
256,192,300869,1,0,0:0:0:0:
256,192,301028,1,0,0:0:0:0:
256,192,301188,1,8,0:0:0:0:
256,192,301348,1,0,0:0:0:0:
256,192,301427,1,8,0:0:0:0:
256,192,301587,1,8,0:0:0:0:
256,192,301667,1,0,0:0:0:0:
256,192,301826,1,8,0:0:0:0:
256,192,302145,1,0,0:0:0:0:
256,192,302305,1,0,0:0:0:0:
256,192,302465,1,8,0:0:0:0:
256,192,302624,1,8,0:0:0:0:
256,192,302704,1,8,0:0:0:0:
256,192,302784,1,0,0:0:0:0:
256,192,302864,1,8,0:0:0:0:
256,192,302943,1,0,0:0:0:0:
256,192,303103,1,8,0:0:0:0:
256,192,303422,1,8,0:0:0:0:
256,192,303502,1,8,0:0:0:0:
256,192,303582,1,0,0:0:0:0:
256,192,303661,1,0,0:0:0:0:
256,192,303741,1,8,0:0:0:0:
256,192,303821,1,8,0:0:0:0:
256,192,303901,1,0,0:0:0:0:
256,192,303981,1,0,0:0:0:0:
256,192,304060,1,8,0:0:0:0:
256,192,304140,1,8,0:0:0:0:
256,192,304220,1,0,0:0:0:0:
256,192,304379,1,8,0:0:0:0:
256,192,304699,1,0,0:0:0:0:
256,192,304858,1,0,0:0:0:0:
256,192,305018,1,8,0:0:0:0:
256,192,305177,1,0,0:0:0:0:
256,192,305257,1,0,0:0:0:0:
256,192,305337,1,8,0:0:0:0:
256,192,305417,1,8,0:0:0:0:
256,192,305497,1,0,0:0:0:0:
256,192,305656,1,8,0:0:0:0:
256,192,305975,1,0,0:0:0:0:
256,192,306135,1,0,0:0:0:0:
256,192,306294,1,8,0:0:0:0:
256,192,306454,1,0,0:0:0:0:
256,192,306534,1,8,0:0:0:0:
256,192,306693,1,8,0:0:0:0:
256,192,306773,1,0,0:0:0:0:
256,192,306933,1,8,0:0:0:0:
256,192,307252,1,0,0:0:0:0:
256,192,307411,1,0,0:0:0:0:
256,192,307571,1,8,0:0:0:0:
256,192,307731,1,0,0:0:0:0:
256,192,307810,1,8,0:0:0:0:
256,192,307890,1,0,0:0:0:0:
256,192,307970,1,8,0:0:0:0:
256,192,308050,1,0,0:0:0:0:
256,192,308209,1,8,0:0:0:0:
256,192,308528,1,8,0:0:0:0:
256,192,308608,1,8,0:0:0:0:
256,192,308688,1,0,0:0:0:0:
256,192,308768,1,0,0:0:0:0:
256,192,308848,1,8,0:0:0:0:
256,192,308927,1,8,0:0:0:0:
256,192,309007,1,0,0:0:0:0:
256,192,309087,1,0,0:0:0:0:
256,192,309167,1,8,0:0:0:0:
256,192,309247,1,8,0:0:0:0:
256,192,309326,1,8,0:0:0:0:
256,192,309406,1,0,0:0:0:0:
256,192,309486,1,8,0:0:0:0:
256,192,309566,1,8,0:0:0:0:
256,192,309645,1,0,0:0:0:0:
256,192,309725,1,0,0:0:0:0:
256,192,309805,1,8,0:0:0:0:
256,192,309965,1,0,0:0:0:0:
256,192,310124,1,8,0:0:0:0:
256,192,310284,1,0,0:0:0:0:
256,192,310364,1,8,0:0:0:0:
256,192,310443,1,8,0:0:0:0:
256,192,310523,1,8,0:0:0:0:
256,192,310603,1,0,0:0:0:0:
256,192,310762,1,8,0:0:0:0:
256,192,311082,1,0,0:0:0:0:
256,192,311241,1,0,0:0:0:0:
256,192,311401,1,8,0:0:0:0:
256,192,311560,1,0,0:0:0:0:
256,192,311640,1,8,0:0:0:0:
256,192,311800,1,8,0:0:0:0:
256,192,311879,1,0,0:0:0:0:
256,192,312039,1,8,0:0:0:0:
256,192,312358,1,0,0:0:0:0:
256,192,312518,1,0,0:0:0:0:
256,192,312677,1,8,0:0:0:0:
256,192,312837,1,8,0:0:0:0:
256,192,312917,1,8,0:0:0:0:
256,192,312997,1,0,0:0:0:0:
256,192,313076,1,8,0:0:0:0:
256,192,313156,1,0,0:0:0:0:
256,192,313316,1,8,0:0:0:0:
256,192,313635,1,8,0:0:0:0:
256,192,313715,1,8,0:0:0:0:
256,192,313794,1,0,0:0:0:0:
256,192,313874,1,0,0:0:0:0:
256,192,313954,1,8,0:0:0:0:
256,192,314034,1,8,0:0:0:0:
256,192,314114,1,0,0:0:0:0:
256,192,314193,1,0,0:0:0:0:
256,192,314273,1,8,0:0:0:0:
256,192,314353,1,8,0:0:0:0:
256,192,314433,1,0,0:0:0:0:
256,192,314592,1,8,0:0:0:0:
256,192,314911,1,0,0:0:0:0:
256,192,315071,1,0,0:0:0:0:
256,192,315231,1,8,0:0:0:0:
256,192,315390,1,0,0:0:0:0:
256,192,315470,1,0,0:0:0:0:
256,192,315550,1,8,0:0:0:0:
256,192,315629,1,8,0:0:0:0:
256,192,315709,1,0,0:0:0:0:
256,192,315869,1,8,0:0:0:0:
256,192,316188,1,0,0:0:0:0:
256,192,316348,1,0,0:0:0:0:
256,192,316507,1,8,0:0:0:0:
256,192,316667,1,0,0:0:0:0:
256,192,316747,1,8,0:0:0:0:
256,192,316906,1,8,0:0:0:0:
256,192,316986,1,0,0:0:0:0:
256,192,317145,1,8,0:0:0:0:
256,192,317305,1,8,0:0:0:0:
256,192,317385,1,8,0:0:0:0:
256,192,317465,1,0,0:0:0:0:
256,192,317624,1,0,0:0:0:0:
256,192,317784,1,8,0:0:0:0:
256,192,317943,1,0,0:0:0:0:
256,192,318023,1,8,0:0:0:0:
256,192,318103,1,0,0:0:0:0:
256,192,318183,1,8,0:0:0:0:
256,192,318262,1,0,0:0:0:0:
256,192,318422,1,8,0:0:0:0:
256,192,318741,1,8,0:0:0:0:
256,192,318821,1,8,0:0:0:0:
256,192,318901,1,0,0:0:0:0:
256,192,318981,1,0,0:0:0:0:
256,192,319060,1,8,0:0:0:0:
256,192,319140,1,8,0:0:0:0:
256,192,319220,1,0,0:0:0:0:
256,192,319300,1,0,0:0:0:0:
256,192,319379,1,8,0:0:0:0:
256,192,319459,1,8,0:0:0:0:
256,192,319539,1,8,0:0:0:0:
256,192,319619,1,0,0:0:0:0:
256,192,319699,1,8,0:0:0:0:
256,192,319778,1,8,0:0:0:0:
256,192,319858,1,0,0:0:0:0:
256,192,319938,1,0,0:0:0:0:
256,192,320018,1,8,0:0:0:0:
256,192,320177,1,0,0:0:0:0:
256,192,320337,1,8,0:0:0:0:
256,192,320497,1,0,0:0:0:0:
256,192,320576,1,8,0:0:0:0:
256,192,320656,1,8,0:0:0:0:
256,192,320736,1,8,0:0:0:0:
256,192,320816,1,0,0:0:0:0:
256,192,320975,1,8,0:0:0:0:
256,192,321294,1,0,0:0:0:0:
256,192,321454,1,0,0:0:0:0:
256,192,321614,1,8,0:0:0:0:
256,192,321773,1,0,0:0:0:0:
256,192,321853,1,8,0:0:0:0:
256,192,322012,1,8,0:0:0:0:
256,192,322092,1,0,0:0:0:0:
256,192,322252,1,8,0:0:0:0:
256,192,322411,1,8,0:0:0:0:
256,192,322491,1,8,0:0:0:0:
256,192,322571,1,0,0:0:0:0:
256,192,322731,1,0,0:0:0:0:
256,192,322890,1,8,0:0:0:0:
256,192,323050,1,8,0:0:0:0:
256,192,323129,1,8,0:0:0:0:
256,192,323209,1,0,0:0:0:0:
256,192,323289,1,8,0:0:0:0:
256,192,323369,1,0,0:0:0:0:
256,192,323528,1,8,0:0:0:0:
256,192,323848,1,8,0:0:0:0:
256,192,323927,1,8,0:0:0:0:
256,192,324007,1,0,0:0:0:0:
256,192,324087,1,0,0:0:0:0:
256,192,324167,1,8,0:0:0:0:
256,192,324247,1,8,0:0:0:0:
256,192,324326,1,0,0:0:0:0:
256,192,324406,1,0,0:0:0:0:
256,192,324486,1,8,0:0:0:0:
256,192,324566,1,8,0:0:0:0:
256,192,324645,1,0,0:0:0:0:
256,192,324805,1,8,0:0:0:0:
256,192,325124,1,0,0:0:0:0:
256,192,325284,1,0,0:0:0:0:
256,192,325443,1,8,0:0:0:0:
256,192,325603,1,0,0:0:0:0:
256,192,325683,1,0,0:0:0:0:
256,192,325762,1,8,0:0:0:0:
256,192,325842,1,8,0:0:0:0:
256,192,325922,1,0,0:0:0:0:
256,192,326082,1,8,0:0:0:0:
256,192,326241,1,0,0:0:0:0:
256,192,326321,1,8,0:0:0:0:
256,192,326401,1,0,0:0:0:0:
256,192,326560,1,0,0:0:0:0:
256,192,326720,1,8,0:0:0:0:
256,192,326879,1,0,0:0:0:0:
256,192,326959,1,8,0:0:0:0:
256,192,327119,1,8,0:0:0:0:
256,192,327199,1,0,0:0:0:0:
256,192,327358,1,8,0:0:0:0:
256,192,327518,1,8,0:0:0:0:
256,192,327598,1,8,0:0:0:0:
256,192,327677,1,0,0:0:0:0:
256,192,327757,1,8,0:0:0:0:
256,192,327837,1,0,0:0:0:0:
256,192,327997,1,8,0:0:0:0:
256,192,328156,1,0,0:0:0:0:
256,192,328236,1,8,0:0:0:0:
256,192,328316,1,0,0:0:0:0:
256,192,328395,1,8,0:0:0:0:
256,192,328475,1,0,0:0:0:0:
256,192,328635,1,8,0:0:0:0:
256,192,328954,1,8,0:0:0:0:
256,192,329034,1,8,0:0:0:0:
256,192,329114,1,0,0:0:0:0:
256,192,329193,1,0,0:0:0:0:
256,192,329273,1,8,0:0:0:0:
256,192,329353,1,8,0:0:0:0:
256,192,329433,1,0,0:0:0:0:
256,192,329512,1,0,0:0:0:0:
256,192,329592,1,8,0:0:0:0:
256,192,329672,1,8,0:0:0:0:
256,192,329752,1,8,0:0:0:0:
256,192,329832,1,0,0:0:0:0:
256,192,329911,1,8,0:0:0:0:
256,192,329991,1,8,0:0:0:0:
256,192,330071,1,0,0:0:0:0:
256,192,330151,1,0,0:0:0:0:
256,192,330231,1,8,0:0:0:0:
256,192,330390,1,0,0:0:0:0:
256,192,330550,1,8,0:0:0:0:
256,192,330709,1,0,0:0:0:0:
256,192,330789,1,8,0:0:0:0:
256,192,330869,1,8,0:0:0:0:
256,192,330949,1,8,0:0:0:0:
256,192,331028,1,0,0:0:0:0:
256,192,331188,1,8,0:0:0:0:
256,192,331348,1,0,0:0:0:0:
256,192,331427,1,8,0:0:0:0:
256,192,331507,1,0,0:0:0:0:
256,192,331667,1,0,0:0:0:0:
256,192,331826,1,8,0:0:0:0:
256,192,331986,1,0,0:0:0:0:
256,192,332066,1,8,0:0:0:0:
256,192,332225,1,8,0:0:0:0:
256,192,332305,1,0,0:0:0:0:
256,192,332465,1,8,0:0:0:0:
256,192,332624,1,8,0:0:0:0:
256,192,332704,1,8,0:0:0:0:
256,192,332784,1,0,0:0:0:0:
256,192,332864,1,8,0:0:0:0:
256,192,332943,1,0,0:0:0:0:
256,192,333103,1,8,0:0:0:0:
256,192,333262,1,0,0:0:0:0:
256,192,333342,1,8,0:0:0:0:
256,192,333422,1,0,0:0:0:0:
256,192,333502,1,8,0:0:0:0:
256,192,333582,1,0,0:0:0:0:
256,192,333741,1,8,0:0:0:0:
256,192,334060,1,8,0:0:0:0:
256,192,334140,1,8,0:0:0:0:
256,192,334220,1,0,0:0:0:0:
256,192,334300,1,0,0:0:0:0:
256,192,334379,1,8,0:0:0:0:
256,192,334459,1,8,0:0:0:0:
256,192,334539,1,0,0:0:0:0:
256,192,334619,1,0,0:0:0:0:
256,192,334699,1,8,0:0:0:0:
256,192,334778,1,8,0:0:0:0:
256,192,334858,1,0,0:0:0:0:
256,192,335018,1,8,0:0:0:0:
256,192,335337,1,0,0:0:0:0:
256,192,335816,1,0,0:0:0:0:
256,192,336294,1,0,0:0:0:0:
