osu file format v14

[General]
AudioFilename: audio.mp3
AudioLeadIn: 0
PreviewTime: 44766
Countdown: 0
SampleSet: Soft
StackLeniency: 0.7
Mode: 0
LetterboxInBreaks: 0
WidescreenStoryboard: 1

[Editor]
DistanceSpacing: 1.1
BeatDivisor: 4
GridSize: 32
TimelineZoom: 3.299999

[Metadata]
Title:Sent from my ipod recorder (VINXIS Edit)
TitleUnicode:Sent from my ipod recorder (VINXIS Edit)
Artist:VINXIS
ArtistUnicode:VINXIS
Creator:wafer
Version:Normal Klein
Source:ソードアート・オンライン
Tags:japanese electronic gabber techno anime iwaifu ioexception deadcode ceo_of_osu ceo of osu door weapon xiced jasontime12345 crossing field LiSA highscore panda eyes opening sword art online sao 500 Tortures call me it. t+pazolite hardcore electronic japanese clover z santa san Quick Brown Fox The Big Black Renard svort
BeatmapID:2383043
BeatmapSetID:1140226

[Difficulty]
HPDrainRate:3
CircleSize:3
OverallDifficulty:4
ApproachRate:5.3
SliderMultiplier:1.1
SliderTickRate:1

[Events]
//Background and Video events
0,0,"KLEINSWAG42.png",0,0
//Break Periods
//Storyboard Layer 0 (Background)
//Storyboard Layer 1 (Fail)
//Storyboard Layer 2 (Pass)
//Storyboard Layer 3 (Foreground)
//Storyboard Layer 4 (Overlay)
//Storyboard Sound Samples

[TimingPoints]
6315,315.789473684211,4,2,1,70,1,0
11367,-111.111111111111,4,2,1,50,0,0
16420,-100,4,2,1,65,0,0
31578,-111.111111111111,4,2,1,55,0,0
36630,-100,4,2,1,50,0,0
37893,-100,4,2,1,55,0,0
39157,-100,4,2,1,60,0,0
41683,-100,4,2,1,50,0,0
44209,-100,4,2,1,30,0,0
44845,315.789473684211,4,2,2,80,1,0
44845,-90.9090909090909,4,2,2,80,0,0
49266,-90.9090909090909,4,2,2,40,0,0
49897,-90.9090909090909,4,2,2,80,0,0
54318,-90.9090909090909,4,2,2,40,0,0
54950,-90.9090909090909,4,2,2,80,0,0
59371,-90.9090909090909,4,2,2,40,0,0
60002,-90.9090909090909,4,2,2,80,0,0
64423,-90.9090909090909,4,2,1,80,0,0
65134,-90.9090909090909,4,2,2,80,0,0
69476,-90.9090909090909,4,2,2,40,0,0
70108,-90.9090909090909,4,2,2,80,0,0
74529,-90.9090909090909,4,2,2,40,0,0
75160,-100,4,2,2,70,0,0
84002,-100,4,2,1,5,0,0

[Colours]
Combo1 : 112,123,143
Combo2 : 255,72,72
Combo3 : 250,209,124
Combo4 : 235,114,92
Combo5 : 255,177,100

[HitObjects]
49,147,6315,6,0,P|78:103|130:87,1,110,6|0,1:2|1:2,0:0:0:0:
221,24,6946,2,0,P|274:32|310:72,1,110,0|0,1:2|1:2,0:0:0:0:
329,181,7578,6,0,P|299:225|247:241,1,110,2|0,1:2|1:2,0:0:0:0:
157,305,8209,2,0,P|103:296|67:256,1,110,2|0,1:2|1:2,0:0:0:0:
137,171,8841,5,2,1:2:0:0:
246,158,9157,1,0,1:2:0:0:
354,139,9472,2,0,L|487:119,1,110,0|0,1:2|1:2,0:0:0:0:
500,163,9946,2,0,L|486:283,1,110,14|2,0:0|1:2,0:0:0:0:
479,327,10420,1,10,0:0:0:0:
376,365,10736,6,0,P|355:315|384:253,1,110,2|0,3:0|3:0,0:0:0:0:
343,169,11367,6,0,P|359:129|336:80,1,98.9999969787598,6|0,1:2|1:2,0:0:0:0:
291,60,11841,1,2,0:0:0:0:
192,50,12157,1,2,0:0:0:0:
139,133,12472,2,0,B|76:124|101:163|41:158,1,98.9999969787598,2|0,0:0|0:0,0:0:0:0:
0,176,12946,1,0,1:2:0:0:
51,260,13262,1,2,1:2:0:0:
12,351,13578,1,2,1:2:0:0:
108,369,13893,6,0,L|215:357,1,98.9999969787598,2|0,1:2|1:2,0:0:0:0:
246,327,14367,1,2,0:0:0:0:
344,312,14683,1,2,0:0:0:0:
427,365,14999,2,0,P|431:325|439:257,1,98.9999969787598,2|0,0:0|0:0,0:0:0:0:
463,224,15472,1,0,1:2:0:0:
400,146,15788,1,2,1:2:0:0:
451,61,16104,2,0,P|446:32|440:6,1,49.4999984893799,14|0,3:0|0:0,0:0:0:0:
386,5,16420,6,0,P|336:25|318:75,1,110,10|8,1:1|0:0,0:0:0:0:
285,119,16893,1,2,0:0:0:0:
285,119,17051,2,0,L|294:231,1,110,0|8,1:2|0:0,0:0:0:0:
255,332,17683,2,0,P|224:297|146:297,1,110,2|8,1:2|0:0,0:0:0:0:
108,282,18157,1,2,0:0:0:0:
108,282,18315,2,0,P|79:295|45:292,1,55,0|0,1:2|1:2,0:0:0:0:
7,269,18630,1,10,0:0:0:0:
46,166,18946,6,0,L|57:90,1,55,2|0,1:2|0:0,0:0:0:0:
34,59,19262,1,8,0:0:0:0:
136,20,19578,2,0,P|192:15|238:58,1,110,2|8,1:2|0:0,0:0:0:0:
333,90,20209,2,0,P|389:95|435:52,1,110,2|8,1:2|0:0,0:0:0:0:
487,54,20683,1,0,1:2:0:0:
487,54,20841,2,0,L|496:186,1,110,8|8,0:0|0:0,0:0:0:0:
455,266,21472,6,0,P|405:246|387:196,1,110,2|8,1:1|0:0,0:0:0:0:
334,179,21946,2,0,P|323:153|324:121,1,55,2|0,0:0|1:2,0:0:0:0:
363,89,22262,2,0,P|374:63|373:31,1,55,2|8,0:0|0:0,0:0:0:0:
335,0,22578,1,2,0:0:0:0:
335,0,22736,2,0,L|208:-3,1,110,0|0,1:2|0:0,0:0:0:0:
127,47,23367,5,2,1:2:0:0:
17,40,23683,1,10,0:0:0:0:
24,154,23999,1,6,1:2:0:0:
24,154,24157,2,0,L|34:212,1,55,2|8,0:0|0:0,0:0:0:0:
77,240,24472,2,0,L|67:298,1,55,2|0,0:0|1:2,0:0:0:0:
59,349,24788,1,2,0:0:0:0:
166,333,25104,6,0,P|213:305|268:309,1,110,2|0,0:0|0:0,0:0:0:0:
311,343,25578,2,0,P|342:353|387:347,1,55,10|0,0:0|0:0,0:0:0:0:
414,331,25893,1,2,1:2:0:0:
492,254,26209,1,14,3:3:0:0:
501,144,26525,6,0,P|481:94|431:76,1,110,2|10,1:1|0:0,0:0:0:0:
387,43,26998,1,0,0:0:0:0:
387,43,27156,2,0,L|275:52,1,110,0|0,1:2|0:0,0:0:0:0:
173,14,27788,2,0,P|138:45|138:123,1,110,2|8,0:0|0:0,0:0:0:0:
123,161,28262,1,2,0:0:0:0:
123,161,28420,2,0,P|136:190|133:224,1,55,0|0,0:0|1:2,0:0:0:0:
110,262,28735,1,10,0:0:0:0:
167,355,29051,6,0,L|243:344,1,55,6|0,1:2|0:0,0:0:0:0:
274,367,29367,1,8,0:0:0:0:
382,349,29683,2,0,P|387:293|344:247,1,110,2|2,1:0|0:0,0:0:0:0:
312,152,30314,2,0,P|307:96|350:50,1,110,2|8,0:0|0:0,0:0:0:0:
445,26,30946,2,0,L|426:209,1,165,10|4,0:0|3:0,0:0:0:0:
458,229,31578,6,0,P|397:225|343:305,1,148.49999546814,6|4,1:2|3:0,0:0:0:0:
205,340,32525,1,10,0:0:0:0:
132,272,32841,2,0,L|141:115,2,148.49999546814,2|4|4,1:2|3:0|3:0,0:0:0:0:
43,315,34104,5,6,1:2:0:0:
7,170,34578,1,4,3:0:0:0:
59,86,34893,1,0,1:2:0:0:
59,86,35051,1,10,0:0:0:0:
153,114,35367,2,0,P|199:121|247:83,1,98.9999969787599,2|0,1:2|1:2,0:0:0:0:
283,67,35841,2,0,L|288:10,2,49.4999984893799,8|0|0,3:0|0:0|1:2,0:0:0:0:
318,101,36315,1,12,0:0:0:0:
421,58,36630,5,14,1:2:0:0:
421,58,36788,1,10,0:0:0:0:
485,147,37104,2,0,L|478:202,1,55,10|8,0:0|1:2,0:0:0:0:
433,234,37420,2,0,L|440:289,1,55,10|8,0:0|1:2,0:0:0:0:
415,338,37736,2,0,P|363:309|296:322,1,110,10|10,0:0|0:0,0:0:0:0:
269,344,38209,1,8,1:2:0:0:
170,295,38525,6,0,L|163:240,1,55,10|8,1:2|0:0,0:0:0:0:
118,208,38841,2,0,L|125:153,1,55,10|8,1:2|0:0,0:0:0:0:
145,102,39157,2,0,P|81:109|30:73,1,110,14|8,1:2|1:2,0:0:0:0:
3,49,39630,1,10,0:0:0:0:
105,9,39946,1,10,0:0:0:0:
189,79,40262,2,0,B|258:80|211:37|310:42,1,110,10|10,0:0|0:0,0:0:0:0:
338,64,40736,1,14,3:0:0:0:
411,145,41051,6,0,P|454:146|493:125,2,82.5,8|0|0,1:1|1:2|1:2,0:0:0:0:
256,192,41683,12,0,43420,1:2:0:0:
58,166,44845,5,4,1:1:0:0:
59,44,45160,1,0,1:2:0:0:
180,44,45476,1,0,1:2:0:0:
182,165,45791,1,2,1:2:0:0:
115,266,46108,6,0,B|190:254|159:303|251:284,1,121.000003692627,2|0,1:2|1:2,0:0:0:0:
346,251,46739,2,0,P|371:236|407:233,1,60.5000018463135,2|0,1:2|0:0,0:0:0:0:
456,258,47055,1,0,1:2:0:0:
456,258,47213,1,2,1:2:0:0:
456,258,47371,5,6,1:2:0:0:
497,143,47686,1,0,1:2:0:0:
383,101,48002,1,0,1:2:0:0:
271,68,48318,1,2,1:2:0:0:
271,68,48476,2,0,L|281:140,1,60.5000018463135,2|0,0:0|1:2,0:0:0:0:
241,175,48792,2,0,L|231:247,1,60.5000018463135,2|0,0:0|1:2,0:0:0:0:
198,286,49108,1,2,0:0:0:0:
198,286,49266,2,0,B|179:277|179:277|170:261|170:261|151:259|151:259|126:244|126:244|106:245|106:245|97:232|97:232|76:225,1,121.000003692627,8|8,0:0|0:0,0:0:0:0:
26,136,49897,6,0,P|76:116|78:36,1,121.000003692627,6|0,1:2|1:2,0:0:0:0:
143,29,50371,1,2,0:0:0:0:
143,29,50529,2,0,P|163:79|243:81,1,121.000003692627,2|0,1:2|1:2,0:0:0:0:
257,142,51003,1,2,0:0:0:0:
257,142,51160,2,0,P|207:162|205:242,1,121.000003692627,2|0,1:2|1:2,0:0:0:0:
143,260,51634,1,2,0:0:0:0:
143,260,51792,2,0,P|123:210|42:208,1,121.000003692627,2|0,1:2|1:2,0:0:0:0:
17,314,52423,5,2,1:2:0:0:
17,314,52581,1,0,1:2:0:0:
17,314,52739,1,2,1:2:0:0:
17,314,52897,2,0,P|53:326|74:361,1,60.5000018463135,2|0,0:0|1:2,0:0:0:0:
125,325,53213,1,2,0:0:0:0:
233,272,53529,5,2,0:0:0:0:
350,233,53845,1,2,0:0:0:0:
350,233,54002,1,2,1:2:0:0:
465,198,54318,2,0,L|469:131,1,60.5000018463135,8|8,0:0|0:0,0:0:0:0:
437,85,54634,2,0,L|433:18,1,60.5000018463135,8|8,0:0|0:0,0:0:0:0:
372,31,54950,5,6,1:1:0:0:
248,32,55265,1,0,1:2:0:0:
250,153,55581,1,0,1:2:0:0:
371,153,55896,1,2,1:2:0:0:
425,261,56213,6,0,B|350:273|381:224|289:243,1,121.000003692627,2|0,1:2|1:2,0:0:0:0:
203,298,56845,2,0,P|178:283|142:280,1,60.5000018463135,2|0,1:2|0:0,0:0:0:0:
93,305,57161,1,0,1:2:0:0:
93,305,57319,1,2,1:2:0:0:
93,305,57477,5,6,1:2:0:0:
52,190,57792,1,0,1:2:0:0:
7,77,58108,1,0,1:2:0:0:
117,27,58424,1,2,1:2:0:0:
117,27,58581,2,0,L|189:17,1,60.5000018463135,2|0,0:0|1:2,0:0:0:0:
224,57,58897,2,0,L|296:67,1,60.5000018463135,2|0,0:0|1:2,0:0:0:0:
335,100,59213,1,2,0:0:0:0:
335,100,59371,2,0,B|355:98|355:98|370:87|370:87|388:92|388:92|417:88|417:88|435:96|435:96|448:87|448:87|470:89,1,121.000003692627,8|8,0:0|0:0,0:0:0:0:
494,200,60002,6,0,P|444:220|442:300,1,121.000003692627,6|0,1:2|1:2,0:0:0:0:
375,309,60476,1,2,0:0:0:0:
375,309,60634,2,0,P|355:259|275:257,1,121.000003692627,2|0,1:2|1:2,0:0:0:0:
267,190,61108,1,2,0:0:0:0:
267,190,61265,2,0,P|317:170|319:90,1,121.000003692627,2|0,1:2|1:2,0:0:0:0:
386,82,61739,1,2,0:0:0:0:
386,82,61897,2,0,P|406:132|487:134,1,121.000003692627,2|0,1:2|1:2,0:0:0:0:
500,34,62529,5,6,1:2:0:0:
500,34,62687,1,0,1:2:0:0:
500,34,62845,1,2,1:2:0:0:
441,18,63002,2,0,L|363:35,1,60.5000018463135,2|0,0:0|1:2,0:0:0:0:
330,63,63318,1,2,0:0:0:0:
210,42,63634,5,2,0:0:0:0:
180,163,63950,1,2,0:0:0:0:
180,163,64107,1,2,1:2:0:0:
63,197,64423,6,0,P|42:247|76:316,1,121.000003692627,2|8,1:3|0:0,0:0:0:0:
121,330,64897,1,8,0:0:0:0:
121,330,65055,5,2,1:1:0:0:
239,305,65371,1,2,1:2:0:0:
352,348,65687,1,0,1:2:0:0:
463,302,66002,2,0,L|475:238,1,60.5000018463135,2|0,1:2|0:0,0:0:0:0:
454,185,66318,5,2,1:2:0:0:
363,104,66634,1,2,1:2:0:0:
262,36,66950,2,0,L|235:101,1,60.5000018463135,2|2,1:2|0:0,0:0:0:0:
260,148,67266,1,0,1:2:0:0:
260,148,67423,1,4,1:2:0:0:
260,148,67581,6,0,P|295:195|283:252,1,121.000003692627,0|0,1:2|1:2,0:0:0:0:
223,257,68055,2,0,P|187:304|199:361,1,121.000003692627,6|0,0:0|0:0,0:0:0:0:
319,359,68687,2,0,P|356:300|466:300,1,181.500005538941,6|0,0:0|1:2,0:0:0:0:
512,266,69318,1,2,0:0:0:0:
512,266,69476,2,0,P|495:203|493:128,1,121.000003692627,10|8,0:0|0:0,0:0:0:0:
406,60,70108,5,6,1:2:0:0:
306,119,70423,1,2,1:2:0:0:
306,119,70581,2,0,L|228:111,1,60.5000018463135,2|0,0:0|1:2,0:0:0:0:
191,139,70897,2,0,P|167:110|78:106,1,121.000003692627,2|0,0:0|0:0,0:0:0:0:
40,138,71371,5,2,1:2:0:0:
22,261,71687,1,2,1:2:0:0:
22,261,71845,2,0,L|30:339,1,60.5000018463135,2|0,0:0|1:2,0:0:0:0:
63,371,72161,2,0,P|87:342|176:338,1,121.000003692627,2|0,0:0|1:2,0:0:0:0:
211,372,72634,5,2,1:2:0:0:
211,372,72792,1,0,1:2:0:0:
327,331,73108,1,2,0:0:0:0:
327,331,73266,1,8,0:0:0:0:
437,278,73581,1,2,1:2:0:0:
437,278,73739,1,0,0:0:0:0:
437,278,73897,6,0,P|407:236|433:156,1,121.000003692627,8|0,0:0|1:2,0:0:0:0:
510,90,74529,2,0,B|432:86|469:47|386:46,1,121.000003692627,10|10,0:0|0:0,0:0:0:0:
340,50,75002,1,10,0:0:0:0:
340,50,75160,6,0,B|305:80|305:80|322:166,1,110,4|2,1:1|3:2,0:0:0:0:
281,249,75792,1,10,0:0:0:0:
281,249,75950,1,2,0:0:0:0:
222,342,76266,1,2,0:0:0:0:
222,342,76423,2,0,B|192:307|192:307|106:324,1,110,0|0,1:2|3:2,0:0:0:0:
37,268,77055,1,8,0:0:0:0:
37,268,77213,1,2,0:0:0:0:
52,159,77529,1,2,0:0:0:0:
52,159,77687,6,0,B|38:34,1,110,6|2,1:2|3:2,0:0:0:0:
151,29,78318,1,10,0:0:0:0:
151,29,78476,1,2,0:0:0:0:
255,64,78792,2,0,L|258:118,1,55,10|0,0:0|0:0,0:0:0:0:
305,147,79108,2,0,L|295:265,1,110,10|2,0:0|0:0,0:0:0:0:
269,304,79581,1,8,0:0:0:0:
269,304,79739,1,2,0:0:0:0:
364,358,80055,1,4,1:1:0:0:
256,192,80213,12,0,84002,0:0:0:0:
