osu file format v14

[General]
AudioFilename: audio.mp3
AudioLeadIn: 0
PreviewTime: 110380
Countdown: 0
SampleSet: None
StackLeniency: 0.7
Mode: 3
LetterboxInBreaks: 0
SpecialStyle: 0
WidescreenStoryboard: 1

[Editor]
Bookmarks: 23980,43180,62380,81580,91180,110380,129580,148780
DistanceSpacing: 1.5
BeatDivisor: 2
GridSize: 32
TimelineZoom: 1.4

[Metadata]
Title:Left Behind
TitleUnicode:Left Behind
Artist:VINXIS
ArtistUnicode:VINXIS
Creator:Leniane
Version:Normal
Source:
Tags:Drum and bass DnB featured artist mishima yurara FAMoss KeppSado
BeatmapID:1711265
BeatmapSetID:814020

[Difficulty]
HPDrainRate:7.3
CircleSize:4
OverallDifficulty:7.2
ApproachRate:5
SliderMultiplier:1.4
SliderTickRate:1

[Events]
//Background and Video events
0,0,"BG.jpg",0,0
//Break Periods
//Storyboard Layer 0 (Background)
//Storyboard Layer 1 (Fail)
//Storyboard Layer 2 (Pass)
//Storyboard Layer 3 (Foreground)
//Storyboard Sound Samples

[TimingPoints]
4780,300.0,4,2,1,40,1,0
43180,-100.0,4,2,1,40,0,1
62380,-100.0,4,2,1,40,0,0
91180,-100.0,4,2,1,40,0,1
110380,-100.0,4,2,1,40,0,0

[HitObjects]
64,192,4780,1,0,0:0:0:0:
448,192,4780,1,0,0:0:0:0:
320,192,5230,1,0,0:0:0:0:
320,192,5680,1,0,0:0:0:0:
64,192,7180,1,0,0:0:0:0:
320,192,7180,1,0,0:0:0:0:
192,192,7630,1,0,0:0:0:0:
192,192,8080,1,0,0:0:0:0:
64,192,9580,1,0,0:0:0:0:
192,192,9580,1,0,0:0:0:0:
448,192,10030,1,0,0:0:0:0:
448,192,10480,1,0,0:0:0:0:
192,192,11980,1,0,0:0:0:0:
448,192,11980,1,0,0:0:0:0:
64,192,12430,1,0,0:0:0:0:
64,192,12880,1,0,0:0:0:0:
320,192,14380,1,0,0:0:0:0:
448,192,14380,1,0,0:0:0:0:
192,192,14830,1,0,0:0:0:0:
192,192,15280,1,0,0:0:0:0:
64,192,16780,1,0,0:0:0:0:
320,192,16780,1,0,0:0:0:0:
448,192,17230,1,0,0:0:0:0:
448,192,17680,1,0,0:0:0:0:
64,192,19180,1,0,0:0:0:0:
192,192,19180,1,0,0:0:0:0:
320,192,19630,1,0,0:0:0:0:
320,192,20080,1,0,0:0:0:0:
192,192,21580,1,0,0:0:0:0:
448,192,21580,1,0,0:0:0:0:
64,192,22030,1,0,0:0:0:0:
64,192,22480,1,0,0:0:0:0:
64,192,23980,128,0,25180:0:0:0:0:
448,192,23980,1,0,0:0:0:0:
320,192,25180,128,0,26380:0:0:0:0:
64,192,25780,1,0,0:0:0:0:
192,192,26380,1,0,0:0:0:0:
448,192,26380,128,0,27580:0:0:0:0:
192,192,27580,128,0,28780:0:0:0:0:
64,192,28780,128,0,29980:0:0:0:0:
320,192,29980,128,0,31180:0:0:0:0:
192,192,30580,1,0,0:0:0:0:
192,192,31180,128,0,32380:0:0:0:0:
320,192,32380,128,0,33580:0:0:0:0:
192,192,32980,1,0,0:0:0:0:
64,192,33580,128,0,34780:0:0:0:0:
320,192,34780,128,0,35980:0:0:0:0:
192,192,35380,1,0,0:0:0:0:
448,192,35980,128,0,37180:0:0:0:0:
192,192,37180,128,0,38380:0:0:0:0:
64,192,38380,128,0,39580:0:0:0:0:
448,192,39580,128,0,40780:0:0:0:0:
192,192,39880,1,0,0:0:0:0:
64,192,40330,1,0,0:0:0:0:
192,192,40780,128,2,41980:0:0:0:20:
320,192,41080,1,8,0:0:0:20:
448,192,41530,1,8,0:0:0:30:
64,192,41980,1,2,0:0:0:0:
448,192,41980,128,0,42580:0:0:0:0:
192,192,42580,128,2,43180:0:0:0:0:
320,192,42580,1,0,0:0:0:0:
320,192,43180,1,2,0:0:0:0:
448,192,43180,1,4,0:0:0:0:
64,192,43480,1,8,0:0:0:0:
192,192,43480,1,0,0:0:0:0:
448,192,43630,1,0,0:0:0:0:
320,192,43780,1,0,0:0:0:0:
64,192,43930,1,8,0:0:0:0:
192,192,43930,1,0,0:0:0:0:
192,192,44380,1,2,0:0:0:0:
448,192,44380,1,0,0:0:0:0:
320,192,44680,1,8,0:0:0:0:
448,192,44680,1,0,0:0:0:0:
64,192,44830,1,0,0:0:0:0:
192,192,44980,1,0,0:0:0:0:
320,192,45130,1,8,0:0:0:0:
448,192,45130,1,0,0:0:0:0:
64,192,45580,1,2,0:0:0:0:
192,192,45580,1,0,0:0:0:0:
192,192,45880,1,8,0:0:0:0:
448,192,45880,1,0,0:0:0:0:
320,192,46030,1,0,0:0:0:0:
64,192,46180,1,0,0:0:0:0:
192,192,46330,1,8,0:0:0:0:
448,192,46330,1,0,0:0:0:0:
64,192,46780,1,2,0:0:0:0:
320,192,46780,1,0,0:0:0:0:
192,192,47080,1,8,0:0:0:0:
64,192,47230,1,2,0:0:0:0:
448,192,47230,1,0,0:0:0:0:
192,192,47530,1,8,0:0:0:0:
320,192,47680,1,2,0:0:0:0:
448,192,47680,1,0,0:0:0:0:
320,192,47980,1,2,0:0:0:0:
448,192,47980,1,0,0:0:0:0:
64,192,48280,1,8,0:0:0:0:
320,192,48280,1,0,0:0:0:0:
192,192,48430,1,0,0:0:0:0:
448,192,48580,1,0,0:0:0:0:
64,192,48730,1,8,0:0:0:0:
320,192,48730,1,0,0:0:0:0:
192,192,49180,1,2,0:0:0:0:
320,192,49180,1,0,0:0:0:0:
192,192,49480,1,8,0:0:0:0:
448,192,49480,1,0,0:0:0:0:
64,192,49630,1,0,0:0:0:0:
320,192,49780,1,0,0:0:0:0:
192,192,49930,1,8,0:0:0:0:
448,192,49930,1,0,0:0:0:0:
64,192,50380,1,2,0:0:0:0:
320,192,50380,128,0,50680:0:0:0:0:
192,192,50680,128,8,50980:0:0:0:0:
448,192,50980,128,0,51280:0:0:0:0:
64,192,51280,128,0,51580:0:0:0:0:
320,192,51580,1,2,0:0:0:0:
448,192,51580,1,0,0:0:0:0:
192,192,51880,1,8,0:0:0:0:
64,192,52030,1,2,0:0:0:0:
320,192,52030,1,0,0:0:0:0:
448,192,52330,1,8,0:0:0:0:
64,192,52480,1,2,0:0:0:0:
192,192,52480,1,0,0:0:0:0:
64,192,52780,1,2,0:0:0:0:
192,192,52780,1,0,0:0:0:0:
64,192,53080,1,8,0:0:0:0:
320,192,53080,1,0,0:0:0:0:
192,192,53230,1,0,0:0:0:0:
448,192,53380,1,0,0:0:0:0:
64,192,53530,1,8,0:0:0:0:
320,192,53530,1,0,0:0:0:0:
64,192,53980,1,2,0:0:0:0:
448,192,53980,1,0,0:0:0:0:
192,192,54280,1,8,0:0:0:0:
320,192,54280,1,0,0:0:0:0:
448,192,54430,1,0,0:0:0:0:
64,192,54580,1,0,0:0:0:0:
192,192,54730,1,8,0:0:0:0:
320,192,54730,1,0,0:0:0:0:
320,192,55180,1,2,0:0:0:0:
448,192,55180,1,0,0:0:0:0:
64,192,55480,1,8,0:0:0:0:
192,192,55480,1,0,0:0:0:0:
320,192,55630,1,0,0:0:0:0:
448,192,55780,1,0,0:0:0:0:
64,192,55930,1,8,0:0:0:0:
192,192,55930,1,0,0:0:0:0:
192,192,56380,1,2,0:0:0:0:
448,192,56380,1,0,0:0:0:0:
320,192,56680,1,8,0:0:0:0:
64,192,56830,1,2,0:0:0:0:
448,192,56830,1,0,0:0:0:0:
192,192,57130,1,8,0:0:0:0:
64,192,57280,1,2,0:0:0:0:
320,192,57280,1,0,0:0:0:0:
64,192,57580,1,2,0:0:0:0:
320,192,57580,1,0,0:0:0:0:
320,192,57880,1,8,0:0:0:0:
448,192,57880,1,0,0:0:0:0:
192,192,58030,1,0,0:0:0:0:
64,192,58180,1,0,0:0:0:0:
320,192,58330,1,8,0:0:0:0:
448,192,58330,1,0,0:0:0:0:
64,192,58780,1,2,0:0:0:0:
320,192,58780,1,0,0:0:0:0:
192,192,59080,1,8,0:0:0:0:
320,192,59080,1,0,0:0:0:0:
448,192,59230,1,0,0:0:0:0:
64,192,59380,1,0,0:0:0:0:
192,192,59530,1,8,0:0:0:0:
320,192,59530,1,0,0:0:0:0:
320,192,59980,1,2,0:0:0:0:
448,192,59980,128,0,60280:0:0:0:0:
64,192,60280,128,8,60580:0:0:0:0:
320,192,60580,128,0,60880:0:0:0:0:
192,192,60880,128,0,61180:0:0:0:0:
448,192,61180,128,2,61630:0:0:0:0:
64,192,61630,128,0,62080:0:0:0:0:
320,192,62080,128,8,62380:0:0:0:0:
64,192,62380,1,2,0:0:0:0:
448,192,62380,1,4,0:0:0:0:
192,192,62680,1,8,0:0:0:0:
320,192,62680,1,0,0:0:0:0:
64,192,63130,1,2,0:0:0:0:
448,192,63130,1,0,0:0:0:0:
192,192,63280,1,8,0:0:0:0:
320,192,63280,1,0,0:0:0:0:
64,192,63580,1,2,0:0:0:0:
192,192,63580,1,0,0:0:0:0:
320,192,63880,1,8,0:0:0:0:
448,192,63880,1,0,0:0:0:0:
64,192,64330,1,2,0:0:0:0:
320,192,64330,1,0,0:0:0:0:
192,192,64480,1,8,0:0:0:0:
448,192,64480,1,0,0:0:0:0:
192,192,64780,1,2,0:0:0:0:
320,192,64780,1,0,0:0:0:0:
64,192,65080,1,8,0:0:0:0:
448,192,65080,1,0,0:0:0:0:
320,192,65530,1,2,0:0:0:0:
448,192,65530,1,0,0:0:0:0:
64,192,65680,1,8,0:0:0:0:
192,192,65680,1,0,0:0:0:0:
64,192,65980,1,2,0:0:0:0:
320,192,65980,1,0,0:0:0:0:
448,192,66280,1,8,0:0:0:0:
64,192,66430,1,0,0:0:0:0:
192,192,66580,1,0,0:0:0:0:
448,192,66730,1,8,0:0:0:0:
64,192,66880,128,8,67180:0:0:0:0:
192,192,67180,1,2,0:0:0:0:
448,192,67180,1,0,0:0:0:0:
64,192,67480,1,8,0:0:0:0:
320,192,67480,1,0,0:0:0:0:
64,192,67930,1,2,0:0:0:0:
448,192,67930,1,0,0:0:0:0:
192,192,68080,1,8,0:0:0:0:
320,192,68080,1,0,0:0:0:0:
192,192,68380,1,2,0:0:0:0:
320,192,68380,1,0,0:0:0:0:
64,192,68680,1,8,0:0:0:0:
448,192,68680,1,0,0:0:0:0:
192,192,69130,1,2,0:0:0:0:
448,192,69130,1,0,0:0:0:0:
64,192,69280,1,8,0:0:0:0:
320,192,69280,1,0,0:0:0:0:
64,192,69580,1,2,0:0:0:0:
192,192,69580,1,0,0:0:0:0:
320,192,69880,1,8,0:0:0:0:
448,192,69880,1,0,0:0:0:0:
192,192,70330,1,2,0:0:0:0:
448,192,70330,1,0,0:0:0:0:
64,192,70480,1,8,0:0:0:0:
320,192,70480,1,0,0:0:0:0:
320,192,70780,1,2,0:0:0:0:
448,192,70780,128,0,71230:0:0:0:0:
192,192,71230,128,0,71680:0:0:0:0:
64,192,71680,128,8,71980:0:0:0:0:
192,192,71980,1,2,0:0:0:0:
448,192,71980,1,0,0:0:0:0:
192,192,72280,1,8,0:0:0:0:
320,192,72280,1,0,0:0:0:0:
64,192,72730,1,2,0:0:0:0:
448,192,72730,1,0,0:0:0:0:
192,192,72880,1,8,0:0:0:0:
320,192,72880,1,0,0:0:0:0:
320,192,73180,1,2,0:0:0:0:
448,192,73180,1,0,0:0:0:0:
64,192,73480,1,8,0:0:0:0:
192,192,73480,1,0,0:0:0:0:
320,192,73930,1,2,0:0:0:0:
448,192,73930,1,0,0:0:0:0:
64,192,74080,1,8,0:0:0:0:
192,192,74080,1,0,0:0:0:0:
64,192,74380,1,2,0:0:0:0:
448,192,74380,1,0,0:0:0:0:
192,192,74680,1,8,0:0:0:0:
320,192,74680,1,0,0:0:0:0:
64,192,75130,1,2,0:0:0:0:
192,192,75130,1,0,0:0:0:0:
320,192,75280,1,8,0:0:0:0:
448,192,75280,1,0,0:0:0:0:
64,192,75580,1,2,0:0:0:0:
320,192,75580,1,0,0:0:0:0:
192,192,75880,1,8,0:0:0:0:
448,192,76030,1,0,0:0:0:0:
320,192,76180,1,0,0:0:0:0:
64,192,76330,1,8,0:0:0:0:
448,192,76480,128,8,76780:0:0:0:0:
192,192,76780,1,2,0:0:0:0:
320,192,76780,1,0,0:0:0:0:
64,192,77080,1,8,0:0:0:0:
448,192,77080,1,0,0:0:0:0:
192,192,77530,1,2,0:0:0:0:
448,192,77530,1,0,0:0:0:0:
64,192,77680,1,8,0:0:0:0:
320,192,77680,1,0,0:0:0:0:
64,192,77980,1,2,0:0:0:0:
192,192,77980,1,0,0:0:0:0:
320,192,78280,1,8,0:0:0:0:
448,192,78280,1,0,0:0:0:0:
192,192,78730,1,2,0:0:0:0:
320,192,78730,1,0,0:0:0:0:
64,192,78880,1,8,0:0:0:0:
448,192,78880,1,0,0:0:0:0:
192,192,79180,128,2,79480:0:0:0:0:
448,192,79180,1,0,0:0:0:0:
320,192,79480,128,8,79780:0:0:0:0:
64,192,79780,128,0,80080:0:0:0:0:
448,192,80080,128,8,80380:0:0:0:0:
64,192,80380,1,2,0:0:0:0:
320,192,80380,1,0,0:0:0:0:
192,192,80680,1,8,0:0:0:0:
320,192,80830,1,2,0:0:0:0:
448,192,80830,1,0,0:0:0:0:
192,192,81280,1,2,0:0:0:0:
320,192,81280,1,0,0:0:0:0:
64,192,81580,128,0,82780:0:0:0:0:
448,192,81580,1,0,0:0:0:0:
320,192,82780,128,0,83980:0:0:0:0:
192,192,83380,1,0,0:0:0:0:
64,192,83980,1,0,0:0:0:0:
448,192,83980,128,0,85180:0:0:0:0:
192,192,85180,128,0,86380:0:0:0:0:
64,192,86380,128,0,87580:0:0:0:0:
320,192,87580,128,0,88780:0:0:0:0:
64,192,88180,1,0,0:0:0:0:
192,192,88780,128,2,89980:0:0:0:20:
448,192,88780,1,0,0:0:0:0:
64,192,89080,1,8,0:0:0:20:
64,192,89530,1,8,0:0:0:30:
320,192,89980,128,2,90580:0:0:0:0:
448,192,89980,1,0,0:0:0:0:
64,192,90580,128,2,91180:0:0:0:0:
192,192,90580,1,0,0:0:0:0:
192,192,91180,1,4,0:0:0:0:
448,192,91180,1,2,0:0:0:0:
64,192,91480,1,8,0:0:0:0:
320,192,91480,1,0,0:0:0:0:
192,192,91630,1,0,0:0:0:0:
64,192,91780,1,0,0:0:0:0:
320,192,91930,1,2,0:0:0:0:
448,192,91930,1,0,0:0:0:0:
64,192,92080,1,8,0:0:0:0:
192,192,92080,1,0,0:0:0:0:
64,192,92380,1,2,0:0:0:0:
320,192,92380,1,0,0:0:0:0:
64,192,92680,1,8,0:0:0:0:
192,192,92680,1,0,0:0:0:0:
320,192,92830,1,0,0:0:0:0:
448,192,92980,1,0,0:0:0:0:
64,192,93130,1,2,0:0:0:0:
192,192,93130,1,0,0:0:0:0:
320,192,93280,1,8,0:0:0:0:
448,192,93280,1,0,0:0:0:0:
64,192,93580,1,2,0:0:0:0:
448,192,93580,1,0,0:0:0:0:
64,192,93880,1,8,0:0:0:0:
192,192,93880,1,0,0:0:0:0:
448,192,94030,1,0,0:0:0:0:
320,192,94180,1,0,0:0:0:0:
64,192,94330,1,2,0:0:0:0:
192,192,94330,1,0,0:0:0:0:
320,192,94480,1,8,0:0:0:0:
448,192,94480,1,0,0:0:0:0:
192,192,94780,1,2,0:0:0:0:
320,192,94780,1,0,0:0:0:0:
64,192,95080,1,8,0:0:0:0:
320,192,95230,1,0,0:0:0:0:
192,192,95380,1,0,0:0:0:0:
448,192,95530,1,8,0:0:0:0:
64,192,95980,1,2,0:0:0:0:
448,192,95980,1,0,0:0:0:0:
64,192,96280,1,8,0:0:0:0:
320,192,96280,1,0,0:0:0:0:
192,192,96430,1,0,0:0:0:0:
448,192,96580,1,0,0:0:0:0:
64,192,96730,1,2,0:0:0:0:
320,192,96730,1,0,0:0:0:0:
192,192,96880,1,8,0:0:0:0:
448,192,96880,1,0,0:0:0:0:
320,192,97180,1,2,0:0:0:0:
448,192,97180,1,0,0:0:0:0:
64,192,97480,1,8,0:0:0:0:
192,192,97480,1,0,0:0:0:0:
448,192,97630,1,0,0:0:0:0:
320,192,97780,1,0,0:0:0:0:
64,192,97930,1,2,0:0:0:0:
192,192,97930,1,0,0:0:0:0:
320,192,98080,1,8,0:0:0:0:
448,192,98080,1,0,0:0:0:0:
64,192,98380,1,2,0:0:0:0:
320,192,98380,1,0,0:0:0:0:
192,192,98680,1,8,0:0:0:0:
448,192,98680,1,0,0:0:0:0:
320,192,98830,1,0,0:0:0:0:
64,192,98980,1,0,0:0:0:0:
320,192,99130,1,2,0:0:0:0:
448,192,99130,1,0,0:0:0:0:
64,192,99280,1,8,0:0:0:0:
192,192,99280,1,0,0:0:0:0:
64,192,99580,1,2,0:0:0:0:
448,192,99580,1,0,0:0:0:0:
320,192,99880,1,8,0:0:0:0:
64,192,100030,1,0,0:0:0:0:
192,192,100180,1,0,0:0:0:0:
448,192,100330,1,8,0:0:0:0:
64,192,100480,1,0,0:0:0:0:
192,192,100780,1,2,0:0:0:0:
448,192,100780,1,0,0:0:0:0:
320,192,101080,1,8,0:0:0:0:
448,192,101080,1,0,0:0:0:0:
64,192,101230,1,0,0:0:0:0:
192,192,101380,1,0,0:0:0:0:
320,192,101530,1,2,0:0:0:0:
448,192,101530,1,0,0:0:0:0:
64,192,101680,1,8,0:0:0:0:
192,192,101680,1,0,0:0:0:0:
192,192,101980,1,2,0:0:0:0:
320,192,101980,1,0,0:0:0:0:
320,192,102280,1,8,0:0:0:0:
448,192,102280,1,0,0:0:0:0:
64,192,102430,1,0,0:0:0:0:
192,192,102580,1,0,0:0:0:0:
64,192,102730,1,2,0:0:0:0:
320,192,102730,1,0,0:0:0:0:
192,192,102880,1,8,0:0:0:0:
448,192,102880,1,0,0:0:0:0:
64,192,103180,1,2,0:0:0:0:
192,192,103180,1,0,0:0:0:0:
192,192,103480,1,8,0:0:0:0:
320,192,103480,1,0,0:0:0:0:
448,192,103630,1,0,0:0:0:0:
64,192,103780,1,0,0:0:0:0:
192,192,103930,1,2,0:0:0:0:
448,192,103930,1,0,0:0:0:0:
64,192,104080,1,8,0:0:0:0:
320,192,104080,1,0,0:0:0:0:
64,192,104380,1,2,0:0:0:0:
192,192,104380,1,0,0:0:0:0:
448,192,104680,1,8,0:0:0:0:
192,192,104830,1,0,0:0:0:0:
320,192,104980,1,0,0:0:0:0:
64,192,105130,1,8,0:0:0:0:
448,192,105280,1,0,0:0:0:0:
64,192,105580,1,2,0:0:0:0:
320,192,105580,1,0,0:0:0:0:
192,192,105880,1,8,0:0:0:0:
448,192,105880,1,0,0:0:0:0:
64,192,106030,1,0,0:0:0:0:
320,192,106180,1,0,0:0:0:0:
64,192,106330,1,2,0:0:0:0:
448,192,106330,1,0,0:0:0:0:
192,192,106480,1,8,0:0:0:0:
320,192,106480,1,0,0:0:0:0:
320,192,106780,1,2,0:0:0:0:
448,192,106780,1,0,0:0:0:0:
64,192,107080,1,8,0:0:0:0:
192,192,107080,1,0,0:0:0:0:
320,192,107230,1,0,0:0:0:0:
192,192,107380,1,0,0:0:0:0:
64,192,107530,1,2,0:0:0:0:
320,192,107530,1,0,0:0:0:0:
192,192,107680,1,8,0:0:0:0:
448,192,107680,1,0,0:0:0:0:
64,192,107980,1,2,0:0:0:0:
192,192,107980,1,0,0:0:0:0:
192,192,108280,1,8,0:0:0:0:
448,192,108280,1,0,0:0:0:0:
320,192,108430,1,0,0:0:0:0:
64,192,108580,1,0,0:0:0:0:
192,192,108730,1,2,0:0:0:0:
448,192,108730,1,0,0:0:0:0:
64,192,108880,1,8,0:0:0:0:
320,192,108880,1,0,0:0:0:0:
192,192,109180,1,2,0:0:0:0:
448,192,109180,128,0,109630:0:0:0:0:
64,192,109630,128,0,110080:0:0:0:0:
320,192,110080,128,8,110380:0:0:0:0:
64,192,110380,1,4,0:0:0:0:
448,192,110380,1,2,0:0:0:0:
192,192,110530,1,0,0:0:0:0:
320,192,110680,1,8,0:0:0:0:
448,192,110830,1,0,0:0:0:0:
64,192,110980,1,0,0:0:0:0:
320,192,111280,1,0,0:0:0:0:
64,192,111580,1,2,0:0:0:0:
192,192,111580,1,0,0:0:0:0:
448,192,111880,1,8,0:0:0:0:
192,192,112030,1,0,0:0:0:0:
320,192,112180,1,0,0:0:0:0:
64,192,112330,1,8,0:0:0:0:
320,192,112780,1,2,0:0:0:0:
448,192,112780,1,0,0:0:0:0:
192,192,112930,1,0,0:0:0:0:
64,192,113080,1,8,0:0:0:0:
320,192,113380,1,0,0:0:0:0:
192,192,113680,1,0,0:0:0:0:
64,192,113980,1,2,0:0:0:0:
448,192,113980,1,0,0:0:0:0:
320,192,114280,1,8,0:0:0:0:
64,192,114430,1,2,0:0:0:0:
192,192,114430,1,0,0:0:0:0:
320,192,114730,1,8,0:0:0:0:
192,192,114880,1,2,0:0:0:0:
448,192,114880,1,0,0:0:0:0:
64,192,115180,1,2,0:0:0:0:
192,192,115180,1,0,0:0:0:0:
448,192,115480,1,8,0:0:0:0:
192,192,115630,1,0,0:0:0:0:
320,192,115780,1,0,0:0:0:0:
64,192,115930,1,8,0:0:0:0:
448,192,116080,128,0,116380:0:0:0:0:
64,192,116380,1,2,0:0:0:0:
320,192,116380,1,0,0:0:0:0:
192,192,116680,1,8,0:0:0:0:
448,192,116830,1,0,0:0:0:0:
320,192,116980,128,0,117280:0:0:0:0:
64,192,117280,128,0,117580:0:0:0:0:
192,192,117580,1,2,0:0:0:0:
448,192,117580,1,0,0:0:0:0:
320,192,117730,1,0,0:0:0:0:
64,192,117880,1,8,0:0:0:0:
192,192,118030,1,0,0:0:0:0:
448,192,118180,1,0,0:0:0:0:
64,192,118330,1,8,0:0:0:0:
320,192,118480,1,0,0:0:0:0:
64,192,118780,1,2,0:0:0:0:
192,192,118780,1,0,0:0:0:0:
320,192,119080,1,8,0:0:0:0:
64,192,119230,1,2,0:0:0:0:
448,192,119230,1,0,0:0:0:0:
192,192,119530,1,8,0:0:0:0:
320,192,119680,1,2,0:0:0:0:
448,192,119680,1,0,0:0:0:0:
64,192,119980,1,2,0:0:0:0:
448,192,119980,1,0,0:0:0:0:
320,192,120130,1,0,0:0:0:0:
192,192,120280,1,8,0:0:0:0:
64,192,120430,1,0,0:0:0:0:
448,192,120580,1,0,0:0:0:0:
192,192,120880,1,0,0:0:0:0:
320,192,121180,1,2,0:0:0:0:
448,192,121180,1,0,0:0:0:0:
64,192,121480,1,8,0:0:0:0:
320,192,121630,1,0,0:0:0:0:
192,192,121780,1,0,0:0:0:0:
448,192,121930,1,8,0:0:0:0:
64,192,122380,1,2,0:0:0:0:
192,192,122380,1,0,0:0:0:0:
320,192,122530,1,0,0:0:0:0:
448,192,122680,1,8,0:0:0:0:
64,192,122830,1,0,0:0:0:0:
192,192,122980,1,0,0:0:0:0:
320,192,123280,1,0,0:0:0:0:
64,192,123580,1,2,0:0:0:0:
448,192,123580,1,0,0:0:0:0:
192,192,123880,1,8,0:0:0:0:
320,192,124030,1,2,0:0:0:0:
448,192,124030,1,0,0:0:0:0:
192,192,124330,1,8,0:0:0:0:
64,192,124480,1,2,0:0:0:0:
320,192,124480,1,0,0:0:0:0:
320,192,124780,1,2,0:0:0:0:
448,192,124780,1,0,0:0:0:0:
192,192,124930,1,0,0:0:0:0:
64,192,125080,1,8,0:0:0:0:
448,192,125230,1,0,0:0:0:0:
192,192,125380,1,0,0:0:0:0:
320,192,125530,1,8,0:0:0:0:
64,192,125680,128,0,125980:0:0:0:0:
192,192,125980,1,2,0:0:0:0:
448,192,125980,1,0,0:0:0:0:
320,192,126280,1,8,0:0:0:0:
64,192,126430,1,0,0:0:0:0:
192,192,126580,128,0,126880:0:0:0:0:
448,192,126880,128,0,127180:0:0:0:0:
64,192,127180,1,2,0:0:0:0:
320,192,127180,1,0,0:0:0:0:
192,192,127330,1,0,0:0:0:0:
448,192,127480,1,8,0:0:0:0:
320,192,127630,1,0,0:0:0:0:
64,192,127780,1,0,0:0:0:0:
448,192,127930,1,8,0:0:0:0:
192,192,128080,1,0,0:0:0:0:
64,192,128230,1,0,0:0:0:0:
320,192,128380,1,2,0:0:0:0:
448,192,128380,1,0,0:0:0:0:
64,192,128980,1,2,0:0:0:0:
448,192,128980,1,0,0:0:0:0:
192,192,129280,1,8,0:0:0:0:
320,192,129430,1,2,0:0:0:0:
448,192,129430,1,0,0:0:0:0:
64,192,129580,1,0,0:0:0:0:
192,192,129580,1,0,0:0:0:0:
320,192,130030,1,0,0:0:0:0:
320,192,130480,1,0,0:0:0:0:
64,192,131980,1,0,0:0:0:0:
448,192,131980,1,0,0:0:0:0:
192,192,132430,1,0,0:0:0:0:
192,192,132880,1,0,0:0:0:0:
64,192,134380,1,0,0:0:0:0:
192,192,134380,1,0,0:0:0:0:
448,192,134830,1,0,0:0:0:0:
448,192,135280,1,0,0:0:0:0:
192,192,136780,1,0,0:0:0:0:
448,192,136780,1,0,0:0:0:0:
64,192,137230,1,0,0:0:0:0:
64,192,137680,1,0,0:0:0:0:
192,192,139180,128,0,140380:0:0:0:0:
320,192,139180,1,0,0:0:0:0:
448,192,139630,1,0,0:0:0:0:
448,192,140080,1,0,0:0:0:0:
320,192,140380,128,0,141580:0:0:0:0:
64,192,141580,1,0,0:0:0:0:
448,192,141580,128,0,142780:0:0:0:0:
320,192,142030,1,0,0:0:0:0:
320,192,142480,1,0,0:0:0:0:
192,192,142780,128,0,143980:0:0:0:0:
64,192,143980,128,0,145180:0:0:0:0:
320,192,143980,1,0,0:0:0:0:
448,192,144430,1,0,0:0:0:0:
448,192,144880,1,0,0:0:0:0:
320,192,145180,128,0,146380:0:0:0:0:
192,192,145480,1,0,0:0:0:0:
192,192,145930,1,0,0:0:0:0:
64,192,146380,128,2,147580:0:0:0:20:
448,192,146680,1,8,0:0:0:20:
448,192,147130,1,8,0:0:0:30:
192,192,147580,1,2,0:0:0:0:
448,192,147580,128,0,148180:0:0:0:0:
64,192,148180,1,2,0:0:0:0:
192,192,148180,128,0,148780:0:0:0:0:
320,192,148480,1,8,0:0:0:0:
320,192,148780,1,4,0:0:0:0:
448,192,148780,1,2,0:0:0:0:
