osu file format v14

[General]
AudioFilename: audio.mp3
AudioLeadIn: 0
PreviewTime: 91180
Countdown: 0
SampleSet: Drum
StackLeniency: 1
Mode: 0
LetterboxInBreaks: 0
WidescreenStoryboard: 1

[Editor]
Bookmarks: 39580,43180,62380,81580,91180,100780,110380,119980,129580
DistanceSpacing: 1
BeatDivisor: 4
GridSize: 16
TimelineZoom: 1

[Metadata]
Title:Left Behind
TitleUnicode:Left Behind
Artist:VINXIS
ArtistUnicode:VINXIS
Creator:EririSawamura
Version:Normal
Source:osu!
Tags:dnb drum n bass electronic english featured artist fa
BeatmapID:2109363
BeatmapSetID:780372

[Difficulty]
HPDrainRate:4
CircleSize:3.4
OverallDifficulty:5
ApproachRate:6
SliderMultiplier:1.09
SliderTickRate:2

[Events]
//Background and Video events
0,0,"58351244_p0.jpg",0,0
//Break Periods
2,81780,86530
//Storyboard Layer 0 (Background)
//Storyboard Layer 1 (Fail)
//Storyboard Layer 2 (Pass)
//Storyboard Layer 3 (Foreground)
//Storyboard Layer 4 (Overlay)
//Storyboard Sound Samples

[TimingPoints]
4780,300,4,3,33,22,1,0
39580,-25,4,3,33,22,0,0
40180,-25,4,3,33,33,0,0
40780,-25,4,3,33,44,0,0
41380,-25,4,3,33,55,0,0
41980,-25,4,3,33,44,0,0
42880,-100,4,3,33,44,0,0
43180,-100,4,3,33,66,0,1
43480,-100,4,3,33,66,0,0
44080,-100,4,3,33,66,0,0
44380,-100,4,3,33,66,0,0
44680,-100,4,3,33,66,0,0
44830,-100,4,3,33,66,0,0
45130,-100,4,3,33,66,0,0
45280,-100,4,3,33,66,0,0
45580,-100,4,3,33,66,0,0
45880,-100,4,3,33,66,0,0
46480,-100,4,3,33,66,0,0
46780,-100,4,3,33,66,0,0
47080,-100,4,3,33,66,0,0
47230,-100,4,3,33,66,0,0
47530,-100,4,3,33,66,0,0
47980,-100,4,3,33,66,0,0
48880,-100,4,3,33,66,0,0
49180,-100,4,3,33,66,0,0
49480,-100,4,3,33,66,0,0
51280,-100,4,3,33,66,0,0
52780,-100,4,3,33,66,0,0
53080,-100,4,3,33,66,0,0
53680,-100,4,3,33,66,0,0
53980,-100,4,3,33,66,0,0
54280,-100,4,3,33,66,0,0
54880,-100,4,3,33,66,0,0
55180,-100,4,3,33,66,0,0
55480,-100,4,3,33,66,0,0
56080,-100,4,3,33,66,0,0
56380,-100,4,3,33,66,0,0
56680,-100,4,3,33,66,0,0
56830,-100,4,3,33,66,0,0
57130,-100,4,3,33,66,0,0
57280,-100,4,3,33,66,0,0
57880,-100,4,3,33,66,0,0
58480,-100,4,3,33,66,0,0
58780,-100,4,3,33,66,0,0
59080,-100,4,3,33,66,0,0
60880,-100,4,3,33,66,0,0
61180,-100,4,2,33,55,0,0
61255,-100,4,2,33,33,0,0
61780,-100,4,2,33,55,0,0
61855,-100,4,2,33,44,0,0
62080,-100,4,2,33,55,0,0
62155,-100,4,2,33,44,0,0
62230,-100,4,2,33,55,0,0
62305,-100,4,2,33,44,0,0
62380,-100,4,3,33,66,0,1
62530,-100,4,3,33,66,0,0
64780,-100,4,3,33,66,0,0
80980,-100,4,3,33,66,0,0
81580,-100,4,3,33,55,0,0
82780,-100,4,2,33,44,0,0
87580,-100,4,3,33,22,0,0
88180,-100,4,3,33,33,0,0
88780,-100,4,3,33,44,0,0
89380,-100,4,3,33,55,0,0
89980,-100,4,3,33,44,0,0
90880,-100,4,3,33,44,0,0
91180,-100,4,3,33,66,0,1
91480,-100,4,3,33,66,0,0
95080,-100,4,3,33,66,0,0
95380,-100,4,3,33,66,0,0
95680,-100,4,3,33,66,0,0
95980,-100,4,3,33,66,0,0
96280,-100,4,3,33,66,0,0
100330,-100,4,3,33,66,0,0
100780,-100,4,3,33,66,0,0
101080,-100,4,3,33,66,0,0
104080,-100,4,3,33,66,0,0
104380,-100,4,3,33,66,0,0
104680,-100,4,3,33,66,0,0
104980,-100,4,3,33,66,0,0
105580,-100,4,3,33,66,0,0
105880,-100,4,3,33,66,0,0
109180,-100,4,3,33,66,0,0
109480,-100,4,3,33,66,0,0
110080,-100,4,3,33,66,0,0
110230,-100,4,3,33,66,0,0
110380,-100,4,3,33,66,0,1
110980,-100,4,3,33,66,0,0
111580,-100,4,3,33,66,0,0
111880,-100,4,3,33,66,0,0
112030,-100,4,3,33,66,0,0
112180,-100,4,3,33,66,0,0
112480,-100,4,3,33,66,0,0
112780,-100,4,3,33,66,0,1
113380,-100,4,3,33,66,0,0
113980,-100,4,3,33,66,0,0
114280,-100,4,3,33,66,0,0
114430,-100,4,3,33,66,0,0
114730,-100,4,3,33,66,0,0
114880,-100,4,3,33,66,0,0
115180,-100,4,3,33,66,0,1
115780,-100,4,3,33,66,0,0
116080,-100,4,3,33,66,0,0
116380,-100,4,3,33,66,0,0
116680,-100,4,3,33,66,0,0
116830,-100,4,3,33,66,0,0
116980,-100,4,3,33,66,0,0
117580,-100,4,3,33,66,0,1
118180,-100,4,3,33,66,0,0
118780,-100,4,3,33,66,0,0
119980,-100,4,3,33,66,0,1
120580,-100,4,3,33,66,0,0
121180,-100,4,3,33,66,0,0
121480,-100,4,3,33,66,0,0
121630,-100,4,3,33,66,0,0
122080,-100,4,3,33,66,0,0
122380,-100,4,3,33,66,0,1
122980,-100,4,3,33,66,0,0
123580,-100,4,3,33,66,0,0
123880,-100,4,3,33,66,0,0
124030,-100,4,3,33,66,0,0
124330,-100,4,3,33,66,0,0
124780,-100,4,3,33,66,0,1
125380,-100,4,3,33,66,0,0
125980,-100,4,3,33,66,0,0
126280,-100,4,3,33,66,0,0
127180,-100,4,3,33,66,0,1
127780,-100,4,3,33,66,0,0
128230,-100,4,3,33,66,0,0
128380,-100,4,2,33,55,0,0
128455,-100,4,2,33,33,0,0
128980,-100,4,2,33,55,0,0
129055,-100,4,2,33,33,0,0
129280,-100,4,2,33,55,0,0
129355,-100,4,2,33,44,0,0
129430,-100,4,2,33,55,0,0
129505,-100,4,2,33,44,0,0
129580,-100,4,2,33,22,0,0

[Colours]
Combo1 : 223,207,115
Combo2 : 176,176,176
Combo3 : 154,147,191
Combo4 : 115,115,115
Combo5 : 100,87,117
Combo6 : 220,149,118

[HitObjects]
256,192,39580,12,2,41980,0:0:0:0:
15,220,42580,5,2,0:0:0:0:
133,203,42880,2,0,L|124:274,1,54.5,8|2,0:0|0:0,0:0:0:0:
118,316,43180,6,0,B|197:325|197:325|238:297,1,109,4|8,1:1|0:0,0:0:0:0:
300,217,43780,2,0,P|270:195|243:190,2,54.5,2|8|2,0:2|0:0|0:2,0:0:0:0:
366,316,44380,2,0,P|430:361|476:367,1,109,2|8,0:3|0:0,0:0:0:0:
501,325,44830,2,0,P|468:254|431:225,1,109,2|8,0:2|0:0,0:0:0:0:
393,263,45280,1,2,0:2:0:0:
358,148,45580,6,0,L|349:30,1,109,2|8,0:0|0:0,0:0:0:0:
234,71,46180,2,0,P|203:61|167:31,1,54.5,2|8,0:2|0:0,0:0:0:0:
147,1,46480,1,2,0:2:0:0:
42,59,46780,2,0,P|57:155|73:181,1,109,2|8,0:0|0:0,0:0:0:0:
57,224,47230,2,0,P|118:265|167:269,1,109,2|8,0:0|0:0,0:0:0:0:
199,306,47680,2,0,P|233:288|255:269,1,54.5,2|0,1:3|1:2,0:0:0:0:
277,227,47980,5,2,1:3:0:0:
394,202,48280,1,8,0:0:0:0:
491,271,48580,2,0,L|502:343,2,54.5,2|8|2,0:2|0:0|0:2,0:0:0:0:
398,347,49180,2,0,P|350:362|273:359,1,109,2|8,0:0|0:0,0:0:0:0:
260,311,49630,2,0,P|212:296|135:299,1,109,2|8,3:2|3:0,0:0:0:0:
105,331,50080,1,2,0:2:0:0:
48,225,50380,38,0,P|59:194|85:170,1,54.5,2|2,0:0|0:2,0:0:0:0:
127,152,50680,2,0,L|239:174,1,109,8|2,0:0|0:2,0:0:0:0:
274,59,51280,2,0,L|210:70,1,54.5,2|0,0:2|0:0,0:0:0:0:
173,30,51580,2,0,L|351:5,2,163.5,2|2|2,1:3|0:0|0:0,0:0:0:0:
55,52,52780,6,0,P|27:107|33:168,1,109,4|8,1:1|0:0,0:0:0:0:
133,210,53380,2,0,P|146:174|142:140,2,54.5,2|8|2,0:2|0:0|0:2,0:0:0:0:
220,292,53980,2,0,P|260:257|288:196,1,109,2|8,0:0|0:0,0:0:0:0:
331,246,54430,2,0,P|290:280|262:341,1,109,2|8,0:2|0:0,0:0:0:0:
304,376,54880,1,2,0:2:0:0:
421,351,55180,6,0,L|430:230,1,109,2|8,0:0|0:0,0:0:0:0:
465,127,55780,2,0,P|509:151|521:168,2,54.5,2|8|2,0:2|0:0|0:2,0:0:0:0:
344,126,56380,2,0,P|303:82|288:30,1,109,2|8,0:0|0:0,0:0:0:0:
237,3,56830,2,0,P|212:73|172:104,1,109,2|8,0:0|0:0,0:0:0:0:
155,146,57280,2,0,P|202:179|212:193,1,54.5,2|0,1:3|1:0,0:0:0:0:
234,225,57580,5,2,1:3:0:0:
118,257,57880,1,8,0:0:0:0:
166,366,58180,2,0,L|238:376,2,54.5,0|8|2,0:0|0:0|0:2,0:0:0:0:
48,352,58780,2,0,P|15:312|3:246,1,109,2|8,0:0|0:0,0:0:0:0:
33,205,59230,2,0,P|67:135|65:80,1,109,2|8,0:2|0:0,0:0:0:0:
46,49,59680,1,2,0:2:0:0:
163,74,59980,38,0,L|236:83,1,54.5,2|0,0:0|0:0,0:0:0:0:
268,50,60280,2,0,P|311:15|387:12,1,109,8|2,0:0|0:2,0:0:0:0:
466,66,60880,2,0,P|467:91|450:142,1,54.5,2|0,0:2|0:0,0:0:0:0:
429,170,61180,1,2,0:3:0:0:
191,135,61780,5,2,0:3:0:0:
184,254,62080,2,0,L|243:245,1,54.5,8|2,0:3|0:3,0:0:0:0:
297,245,62380,5,4,1:0:0:0:
388,322,62680,1,8,0:0:0:0:
465,230,62980,1,2,0:2:0:0:
371,155,63280,5,8,0:0:0:0:
448,63,63580,2,0,P|475:68|505:82,2,54.5,2|2|8,0:0|0:2|0:0,0:0:0:0:
346,0,64180,2,0,P|319:4|294:15,2,54.5,2|2|8,0:2|0:0|0:0,0:0:0:0:
287,104,64780,38,0,P|195:91|121:34,1,163.5,2|2,0:0|0:2,0:0:0:0:
100,5,65380,1,2,0:2:0:0:
36,100,65680,5,8,0:0:0:0:
96,203,65980,2,0,L|88:268,2,54.5,2|2|8,0:0|0:2|0:0,0:0:0:0:
206,250,66580,2,0,L|214:315,2,54.5,2|8|0,0:2|0:0|1:0,0:0:0:0:
298,173,67180,5,2,1:3:0:0:
413,140,67480,1,8,0:0:0:0:
480,239,67780,1,2,0:2:0:0:
410,336,68080,5,8,0:0:0:0:
295,301,68380,2,0,P|276:359|277:370,2,54.5,2|2|8,0:0|0:2|0:0,0:0:0:0:
197,230,68980,2,0,P|183:206|178:179,2,54.5,2|2|8,0:2|0:0|0:0,0:0:0:0:
137,334,69580,38,0,P|75:290|39:207,1,163.5,2|2,0:0|0:2,0:0:0:0:
54,153,70180,1,2,0:2:0:0:
154,86,70480,6,0,L|211:97,1,54.5,8|2,0:0|0:2,0:0:0:0:
266,109,70780,1,2,0:0:0:0:
423,21,71230,2,0,P|494:71|508:146,1,163.5,2|0,0:2|1:0,0:0:0:0:
435,237,71980,5,4,1:0:0:0:
331,176,72280,1,8,0:0:0:0:
289,288,72580,1,2,0:2:0:0:
183,345,72880,5,8,0:0:0:0:
123,240,73180,1,2,0:0:0:0:
64,228,73330,1,2,0:2:0:0:
4,217,73480,1,8,0:0:0:0:
70,117,73780,1,2,0:2:0:0:
130,126,73930,1,2,0:0:0:0:
190,136,74080,1,8,0:0:0:0:
276,218,74380,38,0,P|333:207|422:121,1,163.5,2|2,0:0|0:2,0:0:0:0:
439,87,74980,1,2,0:2:0:0:
346,10,75280,5,8,0:0:0:0:
236,58,75580,1,2,0:0:0:0:
176,58,75730,1,2,0:2:0:0:
129,20,75880,1,8,0:0:0:0:
63,120,76180,1,2,0:2:0:0:
115,148,76330,1,8,0:0:0:0:
134,204,76480,2,0,L|126:265,1,54.5,0|0,1:0|1:0,0:0:0:0:
94,308,76780,5,2,1:3:0:0:
210,336,77080,1,8,0:0:0:0:
312,273,77380,1,2,0:2:0:0:
430,288,77680,5,8,0:0:0:0:
380,179,77980,1,2,0:0:0:0:
368,120,78130,1,2,0:2:0:0:
357,60,78280,1,8,0:0:0:0:
472,91,78580,1,2,0:2:0:0:
483,151,78730,1,2,0:0:0:0:
495,210,78880,1,8,0:0:0:0:
415,299,79180,38,0,L|406:367,2,54.5,2|0|8,0:0|0:0|0:0,0:0:0:0:
298,271,79780,1,2,0:2:0:0:
198,338,80080,2,0,P|168:333|126:313,1,54.5,8|2,0:0|0:2,0:0:0:0:
98,288,80380,2,0,L|77:111,1,163.5,2|2,0:0|0:3,0:0:0:0:
94,67,80980,1,8,0:0:0:0:
207,104,81280,1,10,0:0:0:0:
263,83,81430,1,8,0:0:0:0:
319,64,81580,1,4,0:3:0:0:
256,192,87580,12,2,89980,0:0:0:0:
23,40,90580,37,2,0:0:0:0:
142,30,90880,2,0,L|134:105,1,54.5,8|2,0:0|0:0,0:0:0:0:
159,139,91180,70,0,P|222:136|270:103,1,109,4|8,1:1|0:0,0:0:0:0:
358,43,91780,2,0,P|381:88|375:169,1,109,2|8,0:2|0:0,0:0:0:0:
347,260,92380,1,2,0:0:0:0:
466,270,92680,2,0,P|448:337|413:375,1,109,8|2,0:0|0:2,0:0:0:0:
363,363,93130,1,2,0:0:0:0:
303,359,93280,1,8,0:0:0:0:
184,378,93580,6,0,L|166:261,1,109,2|8,0:3|0:0,0:0:0:0:
190,214,94030,2,0,L|209:95,1,109,2|2,0:2|0:0,0:0:0:0:
180,52,94480,1,8,0:0:0:0:
73,4,94780,1,2,0:0:0:0:
16,110,95080,2,0,P|51:187|81:209,2,109,8|2|2,0:0|0:2|0:2,0:0:0:0:
73,4,95980,37,2,0:0:0:0:
180,52,96280,1,8,0:0:0:0:
297,28,96580,2,0,P|351:45|363:57,1,54.5,2|2,0:2|0:0,0:0:0:0:
386,89,96880,1,8,0:0:0:0:
283,150,97180,2,0,P|265:197|268:271,1,109,2|8,0:0|0:0,0:0:0:0:
358,329,97780,2,0,L|423:316,2,54.5,2|2|8,0:2|0:0|0:0,0:0:0:0:
240,352,98380,6,0,L|117:375,1,109,2|8,0:0|0:0,0:0:0:0:
73,383,98830,2,0,L|90:260,1,109,2|2,0:2|0:0,0:0:0:0:
65,219,99280,2,0,L|53:88,2,109,8|2|8,0:0|0:0|0:0,0:0:0:0:
167,155,100180,2,0,L|176:78,2,54.5,2|8|2,0:2|0:0|0:2,0:0:0:0:
246,244,100780,6,0,P|323:218|354:181,1,109,4|8,1:0|0:0,0:0:0:0:
405,97,101380,2,0,P|438:125|468:185,1,109,2|8,0:2|0:0,0:0:0:0:
494,299,101980,2,0,L|367:313,1,109,2|8,0:3|0:0,0:0:0:0:
340,350,102430,2,0,L|211:337,1,109,2|2,0:2|0:0,0:0:0:0:
176,362,102880,1,8,0:0:0:0:
98,270,103180,5,2,0:3:0:0:
210,227,103480,2,0,P|235:156|227:103,1,109,8|2,0:0|0:2,0:0:0:0:
215,65,103930,1,2,0:0:0:0:
180,15,104080,1,8,0:0:0:0:
62,36,104380,1,2,0:0:0:0:
124,138,104680,1,8,0:0:0:0:
21,200,104980,2,0,P|-6:270|-1:322,1,109,2|2,0:2|0:2,0:0:0:0:
86,381,105580,37,2,0:0:0:0:
165,291,105880,2,0,P|208:272|282:274,1,109,8|2,0:0|0:2,0:0:0:0:
325,293,106330,1,2,0:0:0:0:
380,315,106480,2,0,L|399:186,1,109,8|2,0:0|0:0,0:0:0:0:
414,88,107080,1,8,0:0:0:0:
321,11,107380,1,2,0:2:0:0:
203,33,107680,1,8,0:0:0:0:
146,138,107980,6,0,P|186:235|200:246,1,109,2|8,0:0|0:0,0:0:0:0:
302,203,108580,2,0,P|349:181|410:189,1,109,2|8,0:2|0:0,0:0:0:0:
469,287,109180,2,0,P|444:346|400:376,1,109,2|8,0:0|0:0,0:0:0:0:
355,343,109630,2,0,P|306:320|240:329,1,109,2|8,0:2|0:0,0:0:0:0:
200,354,110080,1,2,0:2:0:0:
93,298,110380,38,0,L|83:239,1,54.5,4|2,1:0|0:2,0:0:0:0:
118,194,110680,2,0,L|108:135,1,54.5,8|2,0:0|0:2,0:0:0:0:
127,82,110980,2,0,B|160:72|160:72|195:83|195:83|246:68,1,109,2|2,0:2|0:2,0:0:0:0:
339,19,111580,2,0,P|407:39|439:82,1,109,2|8,0:0|0:0,0:0:0:0:
415,124,112030,1,2,0:2:0:0:
458,165,112180,2,0,P|460:214|421:264,1,109,2|2,0:2|0:2,0:0:0:0:
326,327,112780,6,0,L|260:317,1,54.5,4|2,1:0|0:2,0:0:0:0:
220,287,113080,1,8,0:0:0:0:
114,343,113380,1,2,0:2:0:0:
47,243,113680,1,2,0:2:0:0:
156,195,113980,2,0,P|188:137|169:33,2,163.5,2|2|2,0:0|0:0|1:3,0:0:0:0:
47,243,115180,69,4,1:0:0:0:
114,343,115480,1,8,0:0:0:0:
220,287,115780,2,0,L|291:278,1,54.5,2|8,0:2|0:0,0:0:0:0:
333,273,116080,1,2,0:2:0:0:
264,174,116380,2,0,P|303:112|340:95,1,109,2|8,0:0|0:0,0:0:0:0:
386,126,116830,1,2,0:2:0:0:
428,83,116980,2,0,P|498:119|519:154,1,109,2|2,0:2|0:2,0:0:0:0:
455,247,117580,6,0,L|446:314,1,54.5,4|2,1:0|0:2,0:0:0:0:
478,352,117880,1,8,0:0:0:0:
359,371,118180,1,2,0:2:0:0:
248,325,118480,2,0,L|178:336,1,54.5,2|0,0:2|0:0,0:0:0:0:
134,342,118780,2,0,P|88:286|88:197,2,163.5,2|2|2,0:0|0:0|0:0,0:0:0:0:
204,244,119980,70,0,L|217:178,1,54.5,4|2,1:0|0:2,0:0:0:0:
252,143,120280,2,0,L|265:77,1,54.5,8|2,0:0|0:2,0:0:0:0:
271,29,120580,2,0,B|219:42|219:42|184:-1,1,109,2|2,0:2|0:2,0:0:0:0:
65,12,121180,2,0,L|46:134,1,109,2|8,0:0|0:0,0:0:0:0:
92,160,121630,1,2,0:2:0:0:
59,210,121780,2,0,L|80:328,1,109,2|2,0:2|0:2,0:0:0:0:
174,245,122380,6,0,P|220:254|243:277,1,54.5,4|2,1:0|0:2,0:0:0:0:
285,255,122680,2,0,P|308:295|309:328,1,54.5,8|2,0:0|0:2,0:0:0:0:
359,336,122980,2,0,B|370:299|370:299|364:266|364:266|377:216,1,109,2|2,0:2|0:2,0:0:0:0:
459,147,123580,2,0,P|500:72|491:-9,2,163.5,2|2|2,0:0|0:0|1:3,0:0:0:0:
343,115,124780,70,0,L|269:108,1,54.5,4|2,1:0|0:2,0:0:0:0:
246,66,125080,2,0,L|172:59,1,54.5,8|2,0:0|0:2,0:0:0:0:
149,18,125380,2,0,B|121:12|121:12|84:42,2,54.5,2|8|2,0:2|0:0|0:2,0:0:0:0:
87,121,125980,2,0,P|64:153|69:237,1,109,2|8,0:0|0:0,0:0:0:0:
109,257,126430,2,0,P|181:216|225:222,1,109,0|8,0:0|0:0,0:0:0:0:
254,250,126880,1,2,0:2:0:0:
355,186,127180,6,0,L|367:253,1,54.5,4|2,1:0|0:2,0:0:0:0:
414,272,127480,2,0,L|426:339,1,54.5,8|2,0:0|0:2,0:0:0:0:
471,361,127780,1,2,0:2:0:0:
511,248,128080,2,0,L|500:180,1,54.5,2|2,0:2|0:2,0:0:0:0:
460,151,128380,1,2,0:3:0:0:
233,230,128980,5,2,0:3:0:0:
172,129,129280,2,0,L|114:118,1,54.5,8|2,0:3|0:3,0:0:0:0:
75,76,129580,1,4,2:2:0:0:
