osu file format v14

[General]
AudioFilename: audio.mp3
AudioLeadIn: 0
PreviewTime: 91180
Countdown: 0
SampleSet: Soft
StackLeniency: 1
Mode: 0
LetterboxInBreaks: 0
WidescreenStoryboard: 1

[Editor]
Bookmarks: 39580,43180,62380,81580,91180,100780,110380,119980,129580
DistanceSpacing: 0.7
BeatDivisor: 4
GridSize: 8
TimelineZoom: 1

[Metadata]
Title:Left Behind
TitleUnicode:Left Behind
Artist:VINXIS
ArtistUnicode:VINXIS
Creator:EririSawamura
Version:Insane
Source:osu!
Tags:dnb drum n bass electronic english featured artist fa
BeatmapID:1639561
BeatmapSetID:780372

[Difficulty]
HPDrainRate:6
CircleSize:4
OverallDifficulty:7.5
ApproachRate:9
SliderMultiplier:1.3
SliderTickRate:2

[Events]
//Background and Video events
0,0,"58351244_p0.jpg",0,0
//Break Periods
//Storyboard Layer 0 (Background)
//Storyboard Layer 1 (Fail)
//Storyboard Layer 2 (Pass)
//Storyboard Layer 3 (Foreground)
//Storyboard Layer 4 (Overlay)
//Storyboard Sound Samples

[TimingPoints]
4780,300,4,3,33,22,1,0
39580,-25,4,3,33,22,0,0
40180,-25,4,3,33,33,0,0
40780,-25,4,3,33,44,0,0
41380,-25,4,3,33,55,0,0
41980,-25,4,3,33,44,0,0
42880,-100,4,3,33,44,0,0
43180,-71.4285714285714,4,3,33,66,0,1
43480,-71.4285714285714,4,3,33,66,0,0
44080,-71.4285714285714,4,3,33,66,0,0
44380,-71.4285714285714,4,3,33,66,0,0
44680,-71.4285714285714,4,3,33,66,0,0
44830,-71.4285714285714,4,3,33,66,0,0
45130,-71.4285714285714,4,3,33,66,0,0
45280,-71.4285714285714,4,3,33,66,0,0
45580,-71.4285714285714,4,3,33,66,0,0
45880,-71.4285714285714,4,3,33,66,0,0
46480,-71.4285714285714,4,3,33,66,0,0
46780,-71.4285714285714,4,3,33,66,0,0
47080,-71.4285714285714,4,3,33,66,0,0
47230,-71.4285714285714,4,3,33,66,0,0
47530,-71.4285714285714,4,3,33,66,0,0
47980,-71.4285714285714,4,3,33,66,0,0
48880,-71.4285714285714,4,3,33,66,0,0
49180,-71.4285714285714,4,3,33,66,0,0
49480,-71.4285714285714,4,3,33,66,0,0
51280,-71.4285714285714,4,3,33,66,0,0
52780,-71.4285714285714,4,3,33,66,0,0
53080,-71.4285714285714,4,3,33,66,0,0
53680,-71.4285714285714,4,3,33,66,0,0
53980,-71.4285714285714,4,3,33,66,0,0
54280,-71.4285714285714,4,3,33,66,0,0
54880,-71.4285714285714,4,3,33,66,0,0
55180,-71.4285714285714,4,3,33,66,0,0
55480,-71.4285714285714,4,3,33,66,0,0
56080,-71.4285714285714,4,3,33,66,0,0
56380,-71.4285714285714,4,3,33,66,0,0
56680,-71.4285714285714,4,3,33,66,0,0
56830,-71.4285714285714,4,3,33,66,0,0
57130,-71.4285714285714,4,3,33,66,0,0
57280,-71.4285714285714,4,3,33,66,0,0
57880,-71.4285714285714,4,3,33,66,0,0
58480,-71.4285714285714,4,3,33,66,0,0
58780,-71.4285714285714,4,3,33,66,0,0
59080,-71.4285714285714,4,3,33,66,0,0
60880,-71.4285714285714,4,3,33,66,0,0
61180,-133.333333333333,4,2,33,55,0,0
61255,-71.4285714285714,4,2,33,33,0,0
61780,-71.4285714285714,4,2,33,55,0,0
61855,-100,4,2,33,44,0,0
62080,-100,4,2,33,55,0,0
62155,-100,4,2,33,44,0,0
62230,-100,4,2,33,55,0,0
62305,-100,4,2,33,44,0,0
62380,-66.6666666666667,4,3,33,66,0,1
62530,-66.6666666666667,4,3,33,66,0,0
64780,-66.6666666666667,4,3,33,66,0,0
81580,-100,4,3,33,55,0,0
82780,-100,4,2,33,44,0,0
87580,-100,4,3,33,22,0,0
88180,-100,4,3,33,33,0,0
88780,-100,4,3,33,44,0,0
89380,-100,4,3,33,55,0,0
89980,-100,4,3,33,44,0,0
91180,-66.6666666666667,4,3,33,66,0,1
91480,-66.6666666666667,4,3,33,66,0,0
95080,-66.6666666666667,4,3,33,66,0,0
95380,-66.6666666666667,4,3,33,66,0,0
95680,-66.6666666666667,4,3,33,66,0,0
95980,-66.6666666666667,4,3,33,66,0,0
96280,-66.6666666666667,4,3,33,66,0,0
100330,-66.6666666666667,4,3,33,66,0,0
100780,-66.6666666666667,4,3,33,66,0,0
101080,-66.6666666666667,4,3,33,66,0,0
104080,-66.6666666666667,4,3,33,66,0,0
104380,-66.6666666666667,4,3,33,66,0,0
104680,-66.6666666666667,4,3,33,66,0,0
104980,-66.6666666666667,4,3,33,66,0,0
105580,-66.6666666666667,4,3,33,66,0,0
105880,-66.6666666666667,4,3,33,66,0,0
109180,-66.6666666666667,4,3,33,66,0,0
109480,-66.6666666666667,4,3,33,66,0,0
110080,-66.6666666666667,4,3,33,66,0,0
110230,-66.6666666666667,4,3,33,66,0,0
110380,-66.6666666666667,4,3,33,66,0,1
110980,-66.6666666666667,4,3,33,66,0,0
111580,-66.6666666666667,4,3,33,66,0,0
111880,-66.6666666666667,4,3,33,66,0,0
112030,-66.6666666666667,4,3,33,66,0,0
112180,-66.6666666666667,4,3,33,66,0,0
112480,-66.6666666666667,4,3,33,66,0,0
112780,-66.6666666666667,4,3,33,66,0,1
113380,-66.6666666666667,4,3,33,66,0,0
113980,-66.6666666666667,4,3,33,66,0,0
114280,-66.6666666666667,4,3,33,66,0,0
114430,-66.6666666666667,4,3,33,66,0,0
114730,-66.6666666666667,4,3,33,66,0,0
114880,-66.6666666666667,4,3,33,66,0,0
115180,-58.8235294117647,4,3,33,66,0,1
115780,-66.6666666666667,4,3,33,66,0,0
116080,-66.6666666666667,4,3,33,66,0,0
116380,-66.6666666666667,4,3,33,66,0,0
116680,-66.6666666666667,4,3,33,66,0,0
116830,-66.6666666666667,4,3,33,66,0,0
116980,-66.6666666666667,4,3,33,66,0,0
117580,-66.6666666666667,4,3,33,66,0,1
118180,-66.6666666666667,4,3,33,66,0,0
118780,-66.6666666666667,4,3,33,66,0,0
119980,-66.6666666666667,4,3,33,66,0,1
120580,-66.6666666666667,4,3,33,66,0,0
121180,-66.6666666666667,4,3,33,66,0,0
121480,-66.6666666666667,4,3,33,66,0,0
121630,-66.6666666666667,4,3,33,66,0,0
122080,-66.6666666666667,4,3,33,66,0,0
122380,-66.6666666666667,4,3,33,66,0,1
122980,-66.6666666666667,4,3,33,66,0,0
123580,-66.6666666666667,4,3,33,66,0,0
123880,-66.6666666666667,4,3,33,66,0,0
124030,-66.6666666666667,4,3,33,66,0,0
124330,-66.6666666666667,4,3,33,66,0,0
124780,-66.6666666666667,4,3,33,66,0,1
125380,-66.6666666666667,4,3,33,66,0,0
125980,-66.6666666666667,4,3,33,66,0,0
126280,-66.6666666666667,4,3,33,66,0,0
127180,-66.6666666666667,4,3,33,66,0,1
127780,-66.6666666666667,4,3,33,66,0,0
128230,-66.6666666666667,4,3,33,66,0,0
128380,-133.333333333333,4,2,33,55,0,0
128455,-66.6666666666667,4,2,33,33,0,0
128980,-66.6666666666667,4,2,33,55,0,0
129055,-66.6666666666667,4,2,33,33,0,0
129280,-100,4,2,33,55,0,0
129355,-66.6666666666667,4,2,33,44,0,0
129430,-66.6666666666667,4,2,33,55,0,0
129505,-66.6666666666667,4,2,33,44,0,0
129580,-66.6666666666667,4,2,33,22,0,0

[Colours]
Combo1 : 223,207,115
Combo2 : 176,176,176
Combo3 : 154,147,191
Combo4 : 115,115,115
Combo5 : 100,87,117
Combo6 : 220,149,118

[HitObjects]
256,192,39580,12,2,41680,0:2:0:0:
18,138,41980,5,2,0:0:0:0:
18,138,42580,1,2,0:0:0:0:
159,182,42880,6,0,L|148:110,1,65,8|2,0:0|0:0,0:0:0:0:
149,117,43180,6,0,B|109:139|109:139|83:198|89:297,1,181.999994445801,4|8,1:1|0:0,0:0:0:0:
262,220,43630,1,0,0:0:0:0:
262,220,43705,1,0,0:0:0:0:
262,220,43780,2,0,P|218:230|170:252,1,90.9999972229005,2|8,0:2|0:0,0:0:0:0:
382,348,44080,2,0,P|321:313|262:307,1,90.9999972229005,2|0,0:2|0:2,0:0:0:0:
302,309,44305,1,0,0:0:0:0:
302,309,44380,6,0,P|392:303|479:276,1,181.999994445801,2|8,0:3|0:0,0:0:0:0:
450,98,44830,2,0,P|359:103|272:130,1,181.999994445801,2|8,0:2|0:0,0:0:0:0:
422,195,45280,1,2,0:2:0:0:
335,220,45430,1,0,1:0:0:0:
335,220,45505,1,0,1:2:0:0:
335,220,45580,37,2,0:0:0:0:
65,118,45880,2,0,P|52:73|50:28,1,90.9999972229005,8|0,0:0|0:0,0:0:0:0:
133,2,46180,1,2,0:2:0:0:
198,137,46330,1,8,0:0:0:0:
270,89,46480,2,0,P|267:43|255:0,1,90.9999972229005,2|0,0:2|0:0,0:0:0:0:
335,147,46780,6,0,B|382:169|382:169|432:166|498:130,1,136.499995834351,2|0,0:0|2:0,0:0:0:0:
463,147,47080,1,8,0:0:0:0:
314,232,47230,6,0,B|343:274|343:274|388:296|463:298,1,136.499995834351,2|0,0:0|2:0,0:0:0:0:
424,296,47530,1,8,0:0:0:0:
260,297,47680,6,0,P|264:348|264:348,1,45.4999986114502,2|0,1:3|1:2,0:0:0:0:
185,327,47830,2,0,P|189:378|189:378,1,45.4999986114502,0|0,1:2|1:2,0:0:0:0:
112,355,47980,38,0,P|94:309|71:163,1,181.999994445801,2|8,1:3|0:0,0:0:0:0:
205,39,48430,1,0,0:0:0:0:
205,39,48505,1,0,0:0:0:0:
205,39,48580,2,0,P|170:62|133:116,1,90.9999972229005,2|8,0:2|0:0,0:0:0:0:
260,209,48880,2,0,P|294:185|331:131,1,90.9999972229005,2|0,0:2|0:0,0:0:0:0:
234,125,49180,6,0,P|358:165|435:171,1,181.999994445801,2|8,0:0|0:0,0:0:0:0:
372,337,49630,2,0,P|248:297|171:291,1,181.999994445801,2|8,3:2|3:0,0:0:0:0:
78,372,50080,1,2,0:2:0:0:
31,299,50230,1,0,1:0:0:0:
31,299,50305,1,0,1:0:0:0:
31,299,50380,6,0,L|21:199,2,90.9999972229005,2|2|8,0:0|0:2|0:0,0:0:0:0:
124,227,50830,1,0,0:0:0:0:
124,227,50905,1,0,0:0:0:0:
124,227,50980,2,0,L|133:136,1,90.9999972229005,2|8,0:2|0:0,0:0:0:0:
197,291,51280,1,2,0:2:0:0:
270,196,51430,1,0,0:0:0:0:
318,302,51580,21,2,1:3:0:0:
53,173,52030,5,2,0:0:0:0:
296,23,52480,69,2,0:0:0:0:
296,23,52780,22,0,B|287:68|287:68|311:123|417:158,1,181.999994445801,4|8,1:1|0:0,0:0:0:0:
473,223,53230,1,0,0:0:0:0:
473,223,53305,1,0,0:0:0:0:
473,223,53380,2,0,P|418:243|375:269,1,90.9999972229005,2|8,0:2|0:0,0:0:0:0:
221,166,53680,2,0,P|264:180|304:201,1,90.9999972229005,2|0,0:2|0:0,0:0:0:0:
172,271,53980,6,0,P|142:202|121:81,1,181.999994445801,2|8,0:0|0:0,0:0:0:0:
50,0,54430,2,0,P|34:89|0:173,1,181.999994445801,2|8,0:2|0:0,0:0:0:0:
60,240,54880,1,2,0:2:0:0:
35,327,55030,1,0,1:0:0:0:
35,327,55105,1,0,1:0:0:0:
35,327,55180,5,2,0:0:0:0:
209,86,55480,2,0,P|289:54|316:52,1,90.9999972229005,8|0,0:0|0:0,0:0:0:0:
381,46,55780,1,2,0:2:0:0:
456,167,55930,1,8,0:0:0:0:
369,178,56080,2,0,P|324:166|284:145,1,90.9999972229005,2|0,0:2|0:0,0:0:0:0:
127,52,56380,6,0,B|112:98|112:98|131:140|186:181,1,136.499995834351,2|0,0:0|2:0,0:0:0:0:
167,165,56680,1,8,0:0:0:0:
27,253,56830,38,0,B|57:284|57:284|108:281|176:246,1,136.499995834351,2|0,0:0|2:0,0:0:0:0:
146,259,57130,1,8,0:0:0:0:
257,363,57280,6,0,B|241:320,1,45.4999986114502,2|0,1:3|1:0,0:0:0:0:
320,314,57430,2,0,B|304:271,1,45.4999986114502,0|0,1:0|1:0,0:0:0:0:
379,255,57580,6,0,P|410:189|426:64,1,181.999994445801,2|8,1:3|0:0,0:0:0:0:
240,187,58030,1,0,0:0:0:0:
240,187,58105,1,0,0:0:0:0:
240,187,58180,2,0,P|291:167|332:142,1,90.9999972229005,0|8,0:0|0:0,0:0:0:0:
106,58,58480,2,0,P|182:79|207:81,1,90.9999972229005,2|0,0:2|0:0,0:0:0:0:
322,148,58780,6,0,P|210:179|130:223,1,181.999994445801,2|8,0:0|0:0,0:0:0:0:
224,380,59230,2,0,P|336:349|416:305,1,181.999994445801,2|8,0:2|0:0,0:0:0:0:
501,181,59680,1,2,0:2:0:0:
512,275,59830,1,0,1:0:0:0:
512,275,59905,1,0,1:0:0:0:
512,275,59980,38,0,L|497:382,2,90.9999972229005,2|0|8,0:0|0:0|0:0,0:0:0:0:
411,142,60430,1,0,0:0:0:0:
411,142,60505,1,0,0:0:0:0:
411,142,60580,2,0,L|423:242,1,90.9999972229005,2|8,0:2|0:0,0:0:0:0:
283,202,60880,1,2,0:2:0:0:
314,95,61030,1,0,0:0:0:0:
208,117,61180,54,0,B|166:143|166:143|70:135|70:135|21:163,1,195.00000743866,2|2,0:3|0:3,0:0:0:0:
11,312,62080,6,0,L|-1:240,1,65,8|2,0:3|0:3,0:0:0:0:
0,247,62380,6,0,P|62:274|104:283,1,97.50000371933,4|2,1:0|0:2,0:0:0:0:
217,248,62680,2,0,P|263:260|307:281,1,97.50000371933,8|2,0:0|0:2,0:0:0:0:
390,378,62980,1,2,0:2:0:0:
416,104,63280,5,8,0:0:0:0:
388,113,63430,1,2,0:2:0:0:
342,184,63580,5,2,0:0:0:0:
314,173,63730,1,2,0:2:0:0:
286,164,63880,1,8,0:0:0:0:
237,83,64030,1,2,0:2:0:0:
163,138,64180,5,2,0:2:0:0:
135,147,64330,1,2,0:0:0:0:
107,158,64480,1,8,0:0:0:0:
19,134,64630,1,2,0:2:0:0:
65,236,64780,38,0,P|61:127|33:42,1,195.00000743866,2|8,0:0|0:0,0:0:0:0:
34,45,65230,1,2,0:2:0:0:
126,19,65380,1,2,0:2:0:0:
83,325,65680,5,8,0:0:0:0:
111,316,65830,1,2,0:2:0:0:
186,360,65980,5,2,0:0:0:0:
214,371,66130,1,2,0:2:0:0:
242,380,66280,1,8,0:0:0:0:
306,317,66430,1,2,0:2:0:0:
380,364,66580,5,2,0:2:0:0:
408,355,66730,1,8,0:0:0:0:
470,290,66880,37,0,1:0:0:0:
459,279,66955,1,0,1:0:0:0:
451,266,67030,1,0,1:0:0:0:
445,252,67105,1,0,1:0:0:0:
441,237,67180,6,0,P|452:188|437:110,1,97.50000371933,2|2,1:3|0:2,0:0:0:0:
296,128,67480,2,0,P|284:175|288:223,1,97.50000371933,8|2,0:0|0:2,0:0:0:0:
368,181,67780,1,2,0:2:0:0:
54,23,68080,5,8,0:0:0:0:
79,36,68230,1,2,0:2:0:0:
129,108,68380,5,2,0:0:0:0:
102,117,68530,1,2,0:2:0:0:
75,127,68680,1,8,0:0:0:0:
124,202,68830,1,2,0:2:0:0:
94,282,68980,37,2,0:2:0:0:
122,291,69130,1,2,0:0:0:0:
150,300,69280,1,8,0:0:0:0:
95,372,69430,1,2,0:2:0:0:
272,365,69580,6,0,P|293:310|299:252,1,97.50000371933,2|0,0:0|0:0,0:0:0:0:
190,143,69880,2,0,P|198:190|216:235,1,97.50000371933,8|2,0:0|0:2,0:0:0:0:
400,345,70180,2,0,P|380:230|343:156,1,195.00000743866,2|8,0:2|0:0,0:0:0:0:
263,71,70630,1,2,0:2:0:0:
371,45,70780,6,0,P|238:25|174:4,1,195.00000743866,2|8,0:0|0:0,0:0:0:0:
86,42,71230,1,2,0:2:0:0:
163,103,71380,5,2,0:2:0:0:
146,177,71530,1,8,0:0:0:0:
67,235,71680,37,0,1:0:0:0:
92,324,71830,1,0,1:0:0:0:
0,302,71980,5,4,1:0:0:0:
318,377,72280,2,0,P|334:298|334:259,1,97.50000371933,8|2,0:0|0:2,0:0:0:0:
285,203,72580,5,2,0:2:0:0:
311,191,72730,1,2,0:0:0:0:
302,101,72880,5,8,0:0:0:0:
330,108,73030,1,2,0:2:0:0:
376,32,73180,37,2,0:0:0:0:
397,52,73330,1,2,0:2:0:0:
418,72,73480,1,8,0:0:0:0:
485,13,73630,1,2,0:2:0:0:
505,99,73780,5,2,0:2:0:0:
490,124,73930,1,2,0:0:0:0:
476,149,74080,1,8,0:0:0:0:
418,72,74230,1,2,0:2:0:0:
398,202,74380,6,0,P|285:224|208:262,1,195.00000743866,2|8,0:0|0:0,0:0:0:0:
148,317,74830,1,2,0:2:0:0:
35,198,74980,2,0,P|42:246|61:290,1,97.50000371933,2|2,0:2|0:0,0:0:0:0:
155,182,75280,5,8,0:0:0:0:
127,171,75430,1,2,0:2:0:0:
59,108,75580,37,2,0:0:0:0:
79,87,75730,1,2,0:2:0:0:
99,66,75880,1,8,0:0:0:0:
180,39,76030,1,2,0:2:0:0:
217,119,76180,5,2,0:2:0:0:
245,110,76330,1,8,0:0:0:0:
302,41,76480,5,0,1:0:0:0:
315,45,76555,1,0,1:0:0:0:
327,52,76630,1,0,1:0:0:0:
337,61,76705,1,0,1:0:0:0:
346,71,76780,6,0,P|372:155|370:186,1,97.50000371933,2|2,1:3|0:2,0:0:0:0:
306,231,77080,2,0,P|312:279|332:323,1,97.50000371933,8|2,0:0|0:2,0:0:0:0:
409,370,77380,37,2,0:2:0:0:
437,363,77530,1,2,0:0:0:0:
475,282,77680,5,8,0:0:0:0:
447,275,77830,1,2,0:2:0:0:
469,191,77980,5,2,0:0:0:0:
487,168,78130,1,2,0:2:0:0:
505,145,78280,1,8,0:0:0:0:
452,70,78430,1,2,0:2:0:0:
373,109,78580,5,2,0:2:0:0:
345,98,78730,1,2,0:0:0:0:
317,88,78880,1,8,0:0:0:0:
234,117,79030,1,2,0:2:0:0:
174,49,79180,38,0,P|111:34|54:33,2,97.50000371933,2|0|8,0:0|0:0|0:0,0:0:0:0:
261,16,79630,1,2,0:2:0:0:
234,117,79780,2,0,P|266:247|299:318,1,195.00000743866,2|8,0:2|0:0,0:0:0:0:
230,370,80230,1,2,0:2:0:0:
161,212,80380,6,0,P|139:284|55:406,1,195.00000743866,2|2,0:0|0:2,0:0:0:0:
55,262,80830,1,2,0:3:0:0:
161,106,80980,37,8,0:0:0:0:
73,144,81130,1,8,0:0:0:0:
172,117,81280,1,10,0:0:0:0:
62,133,81430,1,8,0:0:0:0:
102,35,81580,5,4,0:3:0:0:
301,165,82780,5,2,0:0:0:0:
211,219,83380,1,2,0:0:0:0:
325,176,83980,21,2,0:0:0:0:
187,208,85180,53,2,0:0:0:0:
347,184,86380,21,2,0:0:0:0:
256,192,87580,12,2,89680,0:2:0:0:
322,116,89980,53,2,0:0:0:0:
322,116,90580,1,2,0:0:0:0:
423,197,90880,6,0,L|410:113,1,65,8|2,0:0|0:0,0:0:0:0:
413,132,91180,6,0,B|388:178|388:178|330:220|221:200,1,195.00000743866,4|8,1:1|0:0,0:0:0:0:
134,157,91630,1,0,1:0:0:0:
134,157,91705,1,0,1:0:0:0:
134,157,91780,2,0,P|163:224|171:271,1,97.50000371933,2|2,1:2|0:0,0:0:0:0:
38,293,92080,2,0,P|9:226|1:179,1,97.50000371933,8|0,0:0|0:0,0:0:0:0:
3,202,92305,1,0,1:0:0:0:
3,202,92380,6,0,P|49:127|90:-1,2,195.00000743866,2|8|2,0:0|0:0|0:2,0:0:0:0:
134,157,93130,1,2,0:0:0:0:
176,236,93280,2,0,P|231:256|278:262,1,97.50000371933,8|0,0:0|0:0,0:0:0:0:
452,279,93580,38,0,P|381:303|274:365,1,195.00000743866,2|8,0:3|0:0,0:0:0:0:
349,221,94030,2,0,P|372:133|374:97,1,97.50000371933,2|2,0:2|1:2,0:0:0:0:
372,126,94255,1,0,1:2:0:0:
372,126,94330,1,2,0:0:0:0:
202,80,94480,2,0,P|210:128|273:267,1,195.00000743866,8|2,0:0|0:0,0:0:0:0:
268,261,95080,6,0,P|208:274|156:293,1,97.50000371933,8|0,0:0|0:0,0:0:0:0:
35,175,95380,2,0,P|81:189|129:199,1,97.50000371933,2|8,0:2|0:0,0:0:0:0:
202,80,95680,2,0,P|154:89|107:104,1,97.50000371933,2|0,0:2|0:0,0:0:0:0:
265,165,95980,6,0,P|298:91|323:10,1,146.250005578995,2|2,0:0|2:2,0:0:0:0:
318,29,96280,2,0,P|370:64|406:112,1,97.50000371933,8|0,0:0|0:0,0:0:0:0:
377,231,96580,1,2,0:2:0:0:
446,162,96730,1,2,0:0:0:0:
435,298,96880,2,0,P|401:333|360:359,1,97.50000371933,8|0,0:0|0:0,0:0:0:0:
301,192,97180,6,0,P|404:203|496:236,2,195.00000743866,2|8|2,0:0|0:0|0:2,0:0:0:0:
229,135,97930,1,2,0:0:0:0:
141,297,98080,2,0,P|170:234|184:184,1,97.50000371933,8|2,0:0|0:2,0:0:0:0:
6,37,98380,38,0,P|39:134|89:216,1,195.00000743866,2|8,0:0|0:0,0:0:0:0:
309,310,98830,2,0,P|276:213|226:131,1,195.00000743866,2|2,0:2|0:0,0:0:0:0:
101,13,99280,2,0,P|182:37|309:54,1,195.00000743866,8|2,0:0|0:0,0:0:0:0:
291,53,99880,6,0,P|370:26|416:23,1,97.50000371933,8|2,0:0|0:2,0:0:0:0:
371,154,100180,2,0,P|419:159|465:175,1,97.50000371933,2|8,0:2|0:0,0:0:0:0:
379,278,100480,2,0,P|417:307|450:343,1,97.50000371933,2|0,0:2|0:0,0:0:0:0:
318,353,100780,6,0,P|208:330|84:328,1,195.00000743866,4|8,1:0|0:0,0:0:0:0:
25,353,101230,1,0,1:0:0:0:
25,353,101305,1,0,1:0:0:0:
25,353,101380,2,0,P|47:280|52:238,1,97.50000371933,2|2,1:2|0:0,0:0:0:0:
84,95,101680,2,0,P|93:142|109:188,1,97.50000371933,8|0,0:0|0:0,0:0:0:0:
216,254,101980,6,0,P|304:216|390:153,1,195.00000743866,2|8,0:3|0:0,0:0:0:0:
503,56,102430,2,0,P|469:54|376:25,1,97.50000371933,2|0,0:2|1:0,0:0:0:0:
407,39,102655,1,0,1:0:0:0:
407,39,102730,1,2,0:0:0:0:
294,115,102880,2,0,P|274:70|263:22,1,97.50000371933,8|0,0:0|0:0,0:0:0:0:
480,140,103180,38,0,P|455:220|428:262,1,97.50000371933,2|0,0:3|0:0,0:0:0:0:
483,348,103480,2,0,P|376:300|274:280,1,195.00000743866,8|2,0:0|0:2,0:0:0:0:
170,342,103930,1,2,0:0:0:0:
174,178,104080,6,0,P|202:250|234:297,1,97.50000371933,8|0,0:0|0:0,0:0:0:0:
94,119,104380,2,0,P|82:195|86:252,1,97.50000371933,2|0,0:0|0:0,0:0:0:0:
348,245,104680,2,0,P|306:219|270:186,1,97.50000371933,8|0,0:0|0:0,0:0:0:0:
417,75,104980,1,2,0:2:0:0:
455,159,105130,2,0,P|406:157|358:147,1,97.50000371933,8|2,0:0|0:2,0:0:0:0:
237,46,105430,1,0,1:2:0:0:
237,46,105505,1,0,1:0:0:0:
237,46,105580,6,0,P|161:68|124:95,1,97.50000371933,2|0,0:0|0:0,0:0:0:0:
19,121,105880,2,0,P|136:173|206:234,1,195.00000743866,8|2,0:0|0:2,0:0:0:0:
232,294,106330,1,2,0:0:0:0:
112,317,106480,2,0,P|190:259|280:223,1,195.00000743866,8|2,0:0|0:0,0:0:0:0:
280,223,107080,6,0,P|380:256|416:258,1,97.50000371933,8|0,0:0|0:0,0:0:0:0:
458,100,107380,2,0,P|379:170|359:200,1,97.50000371933,2|2,0:2|0:0,0:0:0:0:
474,315,107680,2,0,P|452:211|436:179,1,97.50000371933,8|0,0:0|0:0,0:0:0:0:
343,69,107980,38,0,P|241:50|131:58,1,195.00000743866,2|8,0:0|0:0,0:0:0:0:
34,45,108430,1,2,1:2:0:0:
34,45,108505,1,0,1:2:0:0:
34,45,108580,2,0,P|79:115|93:160,1,97.50000371933,2|2,0:2|0:0,0:0:0:0:
118,332,108880,2,0,P|163:262|177:217,1,97.50000371933,8|0,0:0|0:0,0:0:0:0:
228,123,109180,6,0,P|298:209|379:256,1,195.00000743866,2|8,0:0|0:0,0:0:0:0:
477,230,109630,2,0,P|498:187|511:140,1,97.50000371933,2|0,0:2|1:0,0:0:0:0:
511,140,109855,1,0,1:0:0:0:
511,140,109930,1,8,1:3:0:0:
383,62,110080,2,0,P|406:166|417:192,1,97.50000371933,2|0,0:2|0:0,0:0:0:0:
455,364,110380,37,4,1:0:0:0:
369,252,110530,1,2,0:2:0:0:
372,334,110680,5,8,0:0:0:0:
260,262,110830,1,2,0:2:0:0:
172,331,110980,38,0,P|103:305|53:273,1,97.50000371933,2|8,0:2|0:0,0:0:0:0:
372,334,111280,2,0,P|287:380|260:384,1,97.50000371933,2|0,0:2|0:0,0:0:0:0:
145,216,111580,6,0,P|117:126|116:15,1,195.00000743866,2|8,0:0|0:0,0:0:0:0:
357,56,112030,2,0,P|351:32|342:10,1,48.750001859665,2|0,0:2|0:0,0:0:0:0:
319,0,112180,2,0,P|347:90|348:201,1,195.00000743866,2|2,0:2|0:2,0:0:0:0:
263,285,112630,1,0,1:0:0:0:
263,285,112705,1,0,1:0:0:0:
263,285,112780,5,4,1:0:0:0:
380,321,112930,1,2,0:2:0:0:
465,233,113080,2,0,P|486:141|486:106,1,97.50000371933,8|0,0:0|0:0,0:0:0:0:
292,193,113380,2,0,P|356:123|373:93,1,97.50000371933,2|8,0:2|0:0,0:0:0:0:
144,80,113680,2,0,P|234:52|264:34,1,97.50000371933,2|0,0:2|0:0,0:0:0:0:
39,160,113980,38,0,B|84:143|84:143|136:154|197:206,1,146.250005578995,2|0,0:0|2:0,0:0:0:0:
171,185,114280,1,8,0:0:0:0:
105,377,114430,6,0,B|112:329|112:329|148:289|223:263,1,146.250005578995,2|0,0:0|2:0,0:0:0:0:
192,275,114730,1,8,0:0:0:0:
342,379,114880,6,0,P|304:348|304:348,1,48.750001859665,2|0,1:3|1:0,0:0:0:0:
374,304,115030,2,0,P|336:273|336:273,1,48.750001859665,0|0,1:0|1:0,0:0:0:0:
412,233,115180,6,0,B|490:155|490:155|461:35,2,221.000004215241,4|8|2,1:0|0:0|0:2,0:0:0:0:
319,71,115930,1,8,0:0:0:0:
396,131,116080,2,0,P|352:153|306:168,1,97.50000371933,2|0,0:2|0:0,0:0:0:0:
42,55,116380,22,0,P|168:79|265:129,1,195.00000743866,2|8,0:0|0:0,0:0:0:0:
121,293,116830,2,0,P|180:300|205:299,1,48.750001859665,2|0,0:2|0:0,0:0:0:0:
186,284,116980,2,0,P|60:260|-37:210,1,195.00000743866,2|2,0:2|0:2,0:0:0:0:
114,168,117430,1,0,1:0:0:0:
114,168,117505,1,0,1:0:0:0:
114,168,117580,53,4,1:0:0:0:
217,200,117730,1,2,0:2:0:0:
307,142,117880,2,0,P|333:73|341:19,1,97.50000371933,8|0,0:0|0:0,0:0:0:0:
445,240,118180,2,0,P|419:171|411:117,1,97.50000371933,2|8,0:2|0:0,0:0:0:0:
257,284,118480,1,2,0:2:0:0:
344,229,118630,1,0,0:0:0:0:
353,333,118780,5,2,0:0:0:0:
254,41,119230,69,2,0:0:0:0:
51,273,119680,5,2,0:0:0:0:
51,273,119980,69,4,1:0:0:0:
101,181,120130,1,2,0:2:0:0:
179,241,120280,5,8,0:0:0:0:
184,125,120430,1,2,0:2:0:0:
255,181,120580,6,0,P|341:153|385:129,1,97.50000371933,2|8,0:2|0:0,0:0:0:0:
415,47,120880,2,0,P|462:59|507:77,1,97.50000371933,2|0,0:2|0:0,0:0:0:0:
496,326,121180,6,0,P|456:242|437:126,1,195.00000743866,2|8,0:0|0:0,0:0:0:0:
320,234,121630,2,0,P|308:210|290:184,1,48.750001859665,2|0,0:2|0:0,0:0:0:0:
277,189,121780,2,0,P|317:273|336:389,1,195.00000743866,2|2,0:2|0:2,0:0:0:0:
232,302,122230,1,0,1:0:0:0:
232,302,122305,1,0,1:0:0:0:
232,302,122380,37,4,1:0:0:0:
144,233,122530,1,2,0:2:0:0:
114,314,122680,5,8,0:0:0:0:
43,202,122830,1,2,0:2:0:0:
3,295,122980,38,0,P|33:366|60:403,1,97.50000371933,2|8,0:2|0:0,0:0:0:0:
115,153,123280,2,0,P|145:82|172:45,1,97.50000371933,2|0,0:2|0:0,0:0:0:0:
376,66,123580,6,0,B|356:113|356:113|316:141|249:131,1,146.250005578995,2|0,0:0|2:0,0:0:0:0:
264,132,123880,1,8,0:0:0:0:
477,210,124030,38,0,B|436:240|436:240|387:244|334:202,1,146.250005578995,2|0,0:0|2:0,0:0:0:0:
347,212,124330,1,8,0:0:0:0:
503,351,124480,6,0,B|452:357|452:357,1,48.750001859665,2|0,1:3|1:0,0:0:0:0:
389,314,124630,2,0,B|338:320|338:320,1,48.750001859665,0|0,1:0|1:0,0:0:0:0:
273,360,124780,37,4,1:0:0:0:
197,260,124930,1,2,0:2:0:0:
160,344,125080,5,8,0:0:0:0:
133,196,125230,1,2,0:2:0:0:
14,265,125380,38,0,P|-16:217|-32:146,1,97.50000371933,2|8,0:2|0:0,0:0:0:0:
205,32,125680,2,0,P|187:77|158:116,1,97.50000371933,2|0,0:2|0:0,0:0:0:0:
48,137,125980,6,0,P|178:147|268:178,1,195.00000743866,2|8,0:0|0:0,0:0:0:0:
473,284,126430,2,0,P|343:274|253:243,1,195.00000743866,2|8,0:2|0:0,0:0:0:0:
240,70,126880,2,0,P|309:106|336:134,1,97.50000371933,2|0,0:2|0:0,0:0:0:0:
372,317,127180,5,4,1:0:0:0:
398,204,127330,1,2,0:2:0:0:
449,274,127480,5,8,0:0:0:0:
495,166,127630,1,2,0:2:0:0:
323,244,127780,6,0,P|275:232|230:213,1,97.50000371933,2|8,0:2|0:0,0:0:0:0:
172,111,128080,1,2,0:2:0:0:
69,144,128230,1,2,0:2:0:0:
133,374,128380,54,0,B|150:328|150:328|129:234|129:234|148:186,1,195.00000743866,2|2,0:3|0:3,0:0:0:0:
344,114,129280,6,0,L|262:85,1,65,8|2,0:3|0:3,0:0:0:0:
213,19,129580,69,4,2:2:0:0:
