osu file format v14

[General]
AudioFilename: audio.mp3
AudioLeadIn: 0
PreviewTime: 91180
Countdown: 0
SampleSet: Soft
StackLeniency: 1
Mode: 0
LetterboxInBreaks: 0
WidescreenStoryboard: 1

[Editor]
Bookmarks: 39580,43180,62380,81580,91180,100780,110380,119980,129580
DistanceSpacing: 0.7
BeatDivisor: 4
GridSize: 8
TimelineZoom: 1

[Metadata]
Title:Left Behind
TitleUnicode:Left Behind
Artist:VINXIS
ArtistUnicode:VINXIS
Creator:EririSawamura
Version:Hollow
Source:osu!
Tags:dnb drum n bass electronic english featured artist fa
BeatmapID:1639315
BeatmapSetID:780372

[Difficulty]
HPDrainRate:7
CircleSize:4
OverallDifficulty:8.5
ApproachRate:9.5
SliderMultiplier:1.5
SliderTickRate:2

[Events]
//Background and Video events
0,0,"58351244_p0.jpg",0,0
//Break Periods
//Storyboard Layer 0 (Background)
//Storyboard Layer 1 (Fail)
//Storyboard Layer 2 (Pass)
//Storyboard Layer 3 (Foreground)
//Storyboard Layer 4 (Overlay)
//Storyboard Sound Samples

[TimingPoints]
4780,300,4,3,33,22,1,0
39580,-25,4,3,33,22,0,0
40180,-25,4,3,33,33,0,0
40780,-25,4,3,33,44,0,0
41380,-25,4,3,33,55,0,0
41980,-25,4,3,33,44,0,0
42880,-100,4,3,33,44,0,0
43180,-50,4,3,33,66,0,1
43480,-66.6666666666667,4,3,33,66,0,0
44080,-80,4,3,33,66,0,0
44380,-100,4,3,33,66,0,0
44680,-66.6666666666667,4,3,33,66,0,0
44830,-100,4,3,33,66,0,0
45130,-66.6666666666667,4,3,33,66,0,0
45280,-80,4,3,33,66,0,0
45580,-57.1428571428571,4,3,33,66,0,0
45880,-66.6666666666667,4,3,33,66,0,0
46480,-80,4,3,33,66,0,0
46780,-100,4,3,33,66,0,0
47080,-66.6666666666667,4,3,33,66,0,0
47230,-100,4,3,33,66,0,0
47530,-66.6666666666667,4,3,33,66,0,0
47980,-66.6666666666667,4,3,33,66,0,0
48880,-80,4,3,33,66,0,0
49180,-100,4,3,33,66,0,0
49480,-66.6666666666667,4,3,33,66,0,0
51280,-80,4,3,33,66,0,0
51580,-50,4,3,33,66,0,0
52780,-57.1428571428571,4,3,33,66,0,0
53080,-66.6666666666667,4,3,33,66,0,0
53680,-80,4,3,33,66,0,0
53980,-100,4,3,33,66,0,0
54280,-66.6666666666667,4,3,33,66,0,0
54880,-80,4,3,33,66,0,0
55180,-57.1428571428571,4,3,33,66,0,0
55480,-66.6666666666667,4,3,33,66,0,0
56080,-80,4,3,33,66,0,0
56380,-100,4,3,33,66,0,0
56680,-66.6666666666667,4,3,33,66,0,0
56830,-100,4,3,33,66,0,0
57130,-66.6666666666667,4,3,33,66,0,0
57280,-100,4,3,33,66,0,0
57880,-66.6666666666667,4,3,33,66,0,0
58480,-80,4,3,33,66,0,0
58780,-100,4,3,33,66,0,0
59080,-66.6666666666667,4,3,33,66,0,0
60880,-80,4,3,33,66,0,0
61180,-333.333333333333,4,2,33,55,0,0
61255,-333.333333333333,4,2,33,33,0,0
61780,-200,4,2,33,55,0,0
61855,-200,4,2,33,44,0,0
62080,-133.333333333333,4,2,33,55,0,0
62155,-133.333333333333,4,2,33,44,0,0
62230,-100,4,2,33,55,0,0
62305,-100,4,2,33,44,0,0
62380,-100,4,3,33,66,0,1
62530,-100,4,3,33,66,0,0
64780,-66.6666666666667,4,3,33,66,0,0
81580,-66.6666666666667,4,3,33,55,0,0
81730,-222.222222222221,4,2,33,44,0,0
87580,-333.333333333333,4,3,33,22,0,0
88180,-333.333333333333,4,3,33,33,0,0
88780,-333.333333333333,4,3,33,44,0,0
89380,-333.333333333333,4,3,33,55,0,0
89980,-333.333333333333,4,3,33,44,0,0
91180,-50,4,3,33,66,0,1
91480,-66.6666666666667,4,3,33,66,0,0
95080,-80,4,3,33,66,0,0
95380,-66.6666666666667,4,3,33,66,0,0
95680,-80,4,3,33,66,0,0
95980,-57.1428571428571,4,3,33,66,0,0
96280,-66.6666666666667,4,3,33,66,0,0
100330,-100,4,3,33,66,0,0
100780,-57.1428571428571,4,3,33,66,0,0
101080,-66.6666666666667,4,3,33,66,0,0
104080,-66.6666666666667,4,3,33,66,0,0
104380,-71.4285714285714,4,3,33,66,0,0
104680,-76.9230769230769,4,3,33,66,0,0
104980,-83.3333333333333,4,3,33,66,0,0
105580,-57.1428571428571,4,3,33,66,0,0
105880,-66.6666666666667,4,3,33,66,0,0
109180,-100,4,3,33,66,0,0
109480,-66.6666666666667,4,3,33,66,0,0
110080,-100,4,3,33,66,0,0
110230,-66.6666666666667,4,3,33,66,0,0
110380,-66.6666666666667,4,3,33,66,0,1
110980,-66.6666666666667,4,3,33,66,0,0
111580,-100,4,3,33,66,0,0
111880,-66.6666666666667,4,3,33,66,0,0
112030,-50,4,3,33,66,0,0
112180,-66.6666666666667,4,3,33,66,0,0
112480,-80,4,3,33,66,0,0
112780,-66.6666666666667,4,3,33,66,0,1
113380,-66.6666666666667,4,3,33,66,0,0
113980,-100,4,3,33,66,0,0
114280,-66.6666666666667,4,3,33,66,0,0
114430,-100,4,3,33,66,0,0
114730,-66.6666666666667,4,3,33,66,0,0
114880,-100,4,3,33,66,0,0
115180,-50,4,3,33,66,0,1
115780,-50,4,3,33,66,0,0
116080,-66.6666666666667,4,3,33,66,0,0
116380,-100,4,3,33,66,0,0
116680,-66.6666666666667,4,3,33,66,0,0
116830,-50,4,3,33,66,0,0
116980,-80,4,3,33,66,0,0
117580,-66.6666666666667,4,3,33,66,0,1
118180,-66.6666666666667,4,3,33,66,0,0
118780,-44.4444444444445,4,3,33,66,0,0
119980,-44.4444444444445,4,3,33,66,0,1
120580,-66.6666666666667,4,3,33,66,0,0
121180,-100,4,3,33,66,0,0
121480,-66.6666666666667,4,3,33,66,0,0
121630,-50,4,3,33,66,0,0
122080,-80,4,3,33,66,0,0
122380,-80,4,3,33,66,0,1
122980,-66.6666666666667,4,3,33,66,0,0
123580,-100,4,3,33,66,0,0
123880,-66.6666666666667,4,3,33,66,0,0
124030,-100,4,3,33,66,0,0
124330,-66.6666666666667,4,3,33,66,0,0
124780,-66.6666666666667,4,3,33,66,0,1
125380,-66.6666666666667,4,3,33,66,0,0
125980,-100,4,3,33,66,0,0
126280,-66.6666666666667,4,3,33,66,0,0
127180,-66.6666666666667,4,3,33,66,0,1
127780,-66.6666666666667,4,3,33,66,0,0
128230,-50,4,3,33,66,0,0
128380,-333.333333333333,4,2,33,55,0,0
128455,-333.333333333333,4,2,33,33,0,0
128980,-200,4,2,33,55,0,0
129055,-200,4,2,33,33,0,0
129280,-133.333333333333,4,2,33,55,0,0
129355,-133.333333333333,4,2,33,44,0,0
129430,-100,4,2,33,55,0,0
129505,-100,4,2,33,44,0,0
129580,-100,4,2,33,22,0,0

[Colours]
Combo1 : 223,207,115
Combo2 : 176,176,176
Combo3 : 154,147,191
Combo4 : 115,115,115
Combo5 : 100,87,117
Combo6 : 220,149,118

[HitObjects]
256,192,39580,12,2,41680,0:2:0:0:
48,48,41980,5,2,0:0:0:0:
211,207,42580,1,2,0:0:0:0:
211,207,42880,5,8,0:0:0:0:
48,48,43030,1,2,0:0:0:0:
211,207,43180,6,0,B|323:183|286:58|177:103|197:181,1,225,4|0,1:1|2:0,0:0:0:0:
195,164,43480,2,0,B|254:190|295:143|295:143|338:93|397:119,1,225.000008583069,8|2,0:0|0:2,0:0:0:0:
512,57,43930,2,0,L|471:98,1,56.2500021457673,8|0,0:0|0:2,0:0:0:0:
452,170,44080,2,0,P|458:216|433:257,1,93.75,2|0,0:2|0:2,0:2:0:0:
256,309,44380,6,0,L|381:290,1,112.5,2|0,0:3|2:0,0:0:0:0:
386,313,44680,2,0,L|330:321,1,56.2500021457673,8|0,0:0|0:0,0:0:0:0:
235,164,44830,1,2,0:2:0:0:
264,174,45130,2,0,L|298:218,1,56.2500021457673,8|0,0:0|0:0,0:0:0:0:
195,384,45280,2,0,L|236:287,1,93.75,2|0,0:2|0:0,0:0:0:0:
231,297,45505,1,0,1:2:0:0:
231,297,45580,38,0,B|179:319|143:278|143:278|106:234|54:257,1,196.875001877546,2|0,0:0|2:2,0:0:0:0:
53,257,45880,2,0,P|130:244|150:195,1,112.500004291535,8|0,0:0|0:0,0:0:0:0:
123,33,46180,1,2,0:2:0:0:
181,152,46330,2,0,L|144:73,1,56.2500021457673,8|0,0:0|0:0,0:0:0:0:
82,96,46480,2,0,P|36:94|5:127,1,93.75,2|0,0:2|0:0,0:0:0:0:
271,195,46780,6,0,L|319:83,1,112.5,2|0,0:0|2:0,0:0:0:0:
300,66,47080,2,0,L|273:131,1,56.2500021457673,8|0,0:0|0:0,0:0:0:0:
340,255,47230,6,0,L|437:182,1,112.5,2|0,0:0|2:0,0:0:0:0:
429,157,47530,2,0,L|373:199,1,56.2500021457673,8|0,0:0|0:0,0:0:0:0:
369,341,47680,5,2,1:3:0:0:
396,337,47755,1,0,1:2:0:0:
424,334,47830,1,0,1:2:0:0:
452,331,47905,1,0,1:2:0:0:
481,328,47980,38,0,B|531:287|509:228|509:228|484:167|535:127,2,225.000008583069,2|8|2,1:3|0:0|0:2,0:0:0:0:
327,196,48730,2,0,L|393:211,1,56.2500021457673,8|0,0:0|0:0,0:0:0:0:
439,261,48880,2,0,P|381:284|328:266,1,93.75,2|0,0:2|0:0,0:0:0:0:
215,101,49180,6,0,L|234:226,1,112.5,2|0,0:0|2:0,0:0:0:0:
255,230,49480,2,0,L|247:174,1,56.2500021457673,8|0,0:0|0:0,0:0:0:0:
72,80,49630,1,2,3:2:0:0:
86,104,49930,2,0,L|137:125,1,56.2500021457673,8|0,3:0|3:0,3:0:0:0:
336,73,50080,2,0,L|294:110,1,56.2500021457673,2|0,0:2|3:0,3:0:0:0:
206,23,50230,5,0,1:0:0:0:
206,23,50305,1,0,1:0:0:0:
206,23,50380,1,2,0:0:0:0:
215,101,50530,1,2,0:2:0:0:
228,176,50680,2,0,L|247:301,1,112.5,8|0,0:0|0:0,0:0:0:0:
427,366,50980,1,2,0:2:0:0:
492,281,51130,2,0,L|416:295,1,56.2500021457673,8|0,0:0|0:0,0:0:0:0:
366,317,51280,2,0,P|335:282|330:236,1,93.75,2|0,0:2|0:0,0:0:0:0:
448,67,51580,22,0,B|339:44|273:130|273:130|221:105|221:105|159:194|50:169,2,450,2|2|2,1:3|0:0|0:0,0:0:0:0:
448,67,52630,1,2,0:2:0:0:
367,271,52780,22,0,B|346:213|346:213|400:144|476:189,1,196.875001877546,4|0,1:1|2:0,0:0:0:0:
466,184,53080,2,8,B|407:156|365:203|365:203|321:252|263:225,1,225.000008583069,8|2,0:0|0:2,0:0:0:0:
179,155,53530,2,0,L|193:233,1,56.2500021457673,8|0,0:0|0:0,0:0:0:0:
141,270,53680,2,0,P|95:273|55:249,1,93.75,2|0,0:2|0:0,0:0:0:0:
108,50,53980,6,0,L|239:65,1,112.5,2|0,0:0|2:0,0:0:0:0:
233,86,54280,2,0,L|155:78,1,56.2500021457673,8|0,0:0|0:0,0:0:0:0:
5,55,54430,1,2,0:2:0:0:
33,60,54730,2,0,L|65:131,1,56.2500021457673,8|0,0:0|0:0,0:0:0:0:
96,275,54880,2,0,L|151:200,1,93.75,2|0,0:2|0:0,0:0:0:0:
151,199,55105,1,0,1:0:0:0:
151,199,55180,6,0,B|205:196|225:253|225:253|215:308|257:338,1,196.875001877546,2|0,0:0|2:0,0:0:0:0:
257,338,55480,2,0,P|349:336|382:265,1,168.750006437302,8|0,0:0|2:0,0:0:0:0:
382,277,55780,1,2,0:2:0:0:
173,254,55930,2,0,L|228:244,1,56.2500021457673,8|0,0:0|0:0,0:0:0:0:
301,271,56080,2,0,P|303:224|278:186,1,93.75,2|0,0:2|0:0,0:0:0:0:
136,118,56380,6,0,L|19:72,1,112.5,2|0,0:0|2:0,0:0:0:0:
22,50,56680,2,0,L|107:83,1,56.2500021457673,8|0,0:0|0:0,0:0:0:0:
183,177,56830,38,0,L|201:301,1,112.5,2|0,0:0|2:0,0:0:0:0:
181,309,57130,2,0,L|167:218,1,56.2500021457673,8|0,0:0|0:0,0:0:0:0:
210,106,57280,5,2,1:3:0:0:
231,88,57355,1,0,1:0:0:0:
253,70,57430,1,0,1:0:0:0:
275,53,57505,1,0,1:0:0:0:
301,39,57580,5,2,1:3:0:0:
301,39,57880,2,0,P|296:137|406:155,1,225.000008583069,8|0,0:0|0:0,0:0:0:0:
507,83,58330,2,0,L|474:128,1,56.2500021457673,8|0,0:0|0:0,0:0:0:0:
464,202,58480,2,0,P|466:244|416:297,1,93.75,2|0,0:2|0:0,0:0:0:0:
276,368,58780,6,0,L|254:237,1,112.5,2|0,0:0|2:0,0:0:0:0:
276,233,59080,2,0,L|287:301,1,56.2500021457673,8|0,0:0|0:0,0:0:0:0:
136,260,59230,1,2,0:2:0:0:
133,230,59530,2,0,L|186:186,1,56.2500021457673,8|0,0:0|0:0,0:0:0:0:
201,355,59680,2,0,L|136:330,1,56.2500021457673,2|0,0:2|0:0,0:0:0:0:
57,296,59830,37,0,1:0:0:0:
57,296,59905,1,0,1:0:0:0:
57,296,59980,1,2,0:0:0:0:
37,219,60130,1,0,0:0:0:0:
19,142,60280,2,0,P|55:57|85:46,1,112.500004291535,8|0,0:0|0:0,0:0:0:0:
262,66,60580,1,2,0:2:0:0:
137,91,60730,2,0,L|213:104,1,56.2500021457673,8|0,0:0|0:0,0:0:0:0:
258,141,60880,2,0,P|299:176|348:175,1,93.75,2|0,0:2|0:0,0:0:0:0:
471,71,61180,54,0,L|418:122,1,67.4999979400635,2|0,0:3|0:0,0:0:0:0:
511,225,61780,6,0,L|468:208,1,37.5,2|0,0:3|0:0,0:0:0:0:
445,322,62080,70,0,L|436:272,1,28.1250010728836,8|0,0:3|0:0,0:0:0:0:
337,337,62230,2,0,L|366:313,1,37.5,2|0,0:3|0:0,0:0:0:0:
385,240,62380,21,4,1:0:0:0:
263,200,62530,1,2,0:2:0:0:
173,153,62680,5,8,0:0:0:0:
84,178,62830,1,2,0:2:0:0:
25,127,62980,5,2,0:2:0:0:
263,200,63130,1,2,0:0:0:0:
75,65,63280,5,8,0:0:0:0:
220,266,63430,1,2,0:2:0:0:
173,153,63580,37,2,0:0:0:0:
191,80,63730,1,2,0:2:0:0:
208,7,63880,1,8,0:0:0:0:
295,83,64030,5,2,0:2:0:0:
316,154,64180,1,2,0:2:0:0:
337,226,64330,1,2,0:0:0:0:
466,170,64480,5,8,0:0:0:0:
412,119,64630,1,2,0:2:0:0:
380,326,64780,6,0,B|291:312|291:312|262:329|262:329|161:315,1,225.000008583069,2|8,0:0|0:0,0:0:0:0:
63,371,65230,1,2,0:2:0:0:
242,352,65380,2,0,L|100:331,1,112.500004291535,2|2,0:2|0:0,0:0:0:0:
33,146,65680,37,8,0:0:0:0:
64,294,65830,1,2,0:2:0:0:
163,80,65980,5,2,0:0:0:0:
234,58,66130,1,2,0:2:0:0:
308,40,66280,1,8,0:0:0:0:
271,210,66430,5,2,0:2:0:0:
198,189,66580,1,2,0:2:0:0:
126,173,66730,1,8,0:0:0:0:
344,115,66880,21,0,1:0:0:0:
315,138,66955,1,0,1:0:0:0:
344,133,67030,1,0,1:0:0:0:
329,146,67105,1,0,1:0:0:0:
346,154,67180,22,0,B|365:175|365:175|479:198,1,112.500004291535,2|2,1:3|0:2,1:0:0:0:
349,249,67480,5,8,0:0:0:0:
440,295,67630,1,2,0:2:0:0:
398,362,67780,5,2,0:2:0:0:
265,204,67930,1,2,0:0:0:0:
440,295,68080,5,8,0:0:0:0:
222,273,68230,1,2,0:2:0:0:
59,161,68380,37,2,0:0:0:0:
84,87,68530,1,2,0:2:0:0:
154,54,68680,1,8,0:0:0:0:
265,204,68830,5,2,0:2:0:0:
190,185,68980,1,2,0:2:0:0:
124,225,69130,1,2,0:0:0:0:
218,318,69280,5,8,0:0:0:0:
142,305,69430,1,2,0:2:0:0:
0,329,69580,6,0,B|89:315|89:315|118:332|118:332|219:318,1,225.000008583069,2|8,0:0|0:0,0:0:0:0:
317,193,70030,1,2,0:2:0:0:
237,344,70180,2,0,L|259:206,1,112.500004291535,2|2,0:2|0:0,0:0:0:0:
371,28,70480,37,8,0:0:0:0:
390,103,70630,1,2,0:2:0:0:
197,181,70780,5,2,0:0:0:0:
209,107,70930,1,2,0:2:0:0:
322,167,71080,2,0,L|267:156,1,56.2500021457673,8|0,0:0|0:0,0:0:0:0:
72,166,71230,5,2,0:2:0:0:
85,240,71380,1,2,0:2:0:0:
197,181,71530,2,0,L|141:192,1,56.2500021457673,8|0,0:0|0:0,0:0:0:0:
31,27,71680,21,0,1:0:0:0:
63,38,71755,1,0,1:0:0:0:
63,72,71830,1,0,1:0:0:0:
31,82,71905,1,0,1:0:0:0:
11,55,71980,22,0,B|30:28|30:28|239:0,1,225.000008583069,4|8,1:0|0:0,0:0:0:0:
296,23,72430,1,2,0:2:0:0:
168,96,72580,5,2,0:2:0:0:
354,151,72730,1,2,0:0:0:0:
498,190,72880,5,8,0:0:0:0:
374,232,73030,1,2,0:2:0:0:
245,273,73180,5,2,0:0:0:0:
172,254,73330,1,2,0:2:0:0:
99,234,73480,1,8,0:0:0:0:
228,78,73630,37,2,0:2:0:0:
265,142,73780,1,2,0:2:0:0:
302,207,73930,1,2,0:0:0:0:
91,147,74080,5,8,0:0:0:0:
139,87,74230,1,2,0:2:0:0:
212,351,74380,6,0,B|239:332|239:332|267:123,1,225.000008583069,2|8,0:0|0:0,0:0:0:0:
276,65,74830,1,2,0:2:0:0:
383,230,74980,2,0,L|340:125,1,112.500004291535,2|2,0:2|0:0,0:0:0:0:
125,196,75280,2,0,L|194:107,1,112.500004291535,8|2,0:0|0:2,0:0:0:0:
21,63,75580,5,2,0:0:0:0:
30,139,75730,1,2,0:2:0:0:
38,216,75880,1,8,0:0:0:0:
113,328,76030,37,2,0:2:0:0:
171,278,76180,1,2,0:2:0:0:
186,352,76330,1,8,0:0:0:0:
372,252,76480,53,0,1:0:0:0:
364,224,76555,1,0,1:0:0:0:
337,232,76630,1,0,1:0:0:0:
344,259,76705,1,0,1:0:0:0:
355,242,76780,54,0,B|374:213|374:213|359:95,1,112.500004291535,2|2,1:3|0:2,1:0:0:0:
326,3,77080,5,8,0:0:0:0:
223,64,77230,1,2,0:2:0:0:
164,10,77380,53,2,0:2:0:0:
364,135,77530,1,2,0:0:0:0:
144,86,77680,21,8,0:0:0:0:
380,59,77830,1,2,0:2:0:0:
161,178,77980,69,2,0:0:0:0:
236,200,78130,1,2,0:2:0:0:
310,222,78280,1,8,0:0:0:0:
215,373,78430,5,2,0:2:0:0:
161,317,78580,1,2,0:2:0:0:
108,261,78730,1,2,0:0:0:0:
31,383,78880,69,8,0:0:0:0:
16,308,79030,1,2,0:2:0:0:
34,157,79180,6,0,B|53:130|53:130|262:102,1,225.000008583069,2|8,0:0|0:0,0:0:0:0:
305,23,79630,1,2,0:2:0:0:
143,95,79780,2,0,L|267:77,1,112.500004291535,2|2,0:2|0:0,0:0:0:0:
499,139,80080,69,8,0:0:0:0:
425,120,80230,1,2,0:2:0:0:
362,331,80380,5,2,0:0:0:0:
430,288,80530,1,2,0:2:0:0:
316,266,80680,2,0,L|256:254,1,56.2500021457673,2|0,0:2|0:0,0:0:0:0:
169,185,80830,2,0,L|188:242,1,56.2500021457673,2|0,0:3|0:0,0:0:0:0:
210,313,80980,5,8,0:0:0:0:
405,205,81130,1,8,0:0:0:0:
297,10,81280,1,10,0:0:0:0:
102,118,81430,1,8,0:0:0:0:
24,96,81580,5,4,0:3:0:0:
234,33,82780,37,2,0:0:0:0:
256,192,83380,1,2,0:0:0:0:
278,351,83980,1,2,0:0:0:0:
234,33,85180,1,2,0:0:0:0:
278,351,86380,1,2,0:0:0:0:
256,192,87580,12,2,89680,0:2:0:0:
340,96,89980,53,2,0:0:0:0:
290,310,90580,1,2,0:0:0:0:
290,310,90880,5,8,0:0:0:0:
340,96,91030,1,2,0:0:0:0:
290,310,91180,6,0,B|293:324|333:326|336:283|339:246|298:241|259:235|261:193|263:150|310:154|324:178,1,225,4|0,1:1|2:0,0:0:0:0:
320,173,91480,2,0,P|248:214|198:177,1,112.500004291535,8|0,0:0|0:0,0:0:0:0:
147,31,91780,1,2,0:2:0:0:
147,31,91855,1,2,0:2:0:0:
147,31,91930,2,0,P|130:71|101:81,1,56.2500021457673,2|0,0:0|0:0,0:0:0:0:
32,98,92080,2,0,P|113:96|159:162,1,168.750006437302,8|0,0:0|1:0,0:0:0:0:
159,162,92380,6,0,L|143:305,1,112.500004291535,2|0,0:0|0:0,0:0:0:0:
317,306,92680,2,8,B|258:278|216:325|216:325|172:374|114:347,1,225.000008583069,8|2,0:0|0:2,0:0:0:0:
113,346,93055,1,2,0:2:0:0:
113,346,93130,2,0,P|131:366|157:377,1,56.2500021457673,2|0,0:0|0:0,0:0:0:0:
273,369,93280,2,0,L|255:190,1,168.750006437302,8|0,0:0|1:0,0:0:0:0:
256,201,93580,38,0,P|296:148|366:143,1,112.500004291535,2|0,0:3|0:0,0:0:0:0:
476,284,93880,1,8,0:0:0:0:
512,156,94030,2,0,P|504:184|469:214,1,56.2500021457673,2|0,0:2|0:0,0:0:0:0:
416,235,94180,1,2,0:2:0:0:
416,235,94255,1,2,0:2:0:0:
416,235,94330,2,0,P|386:227|356:191,1,56.2500021457673,2|0,0:0|0:0,0:0:0:0:
338,137,94480,2,0,P|298:84|228:79,1,112.500004291535,8|0,0:0|0:0,0:0:0:0:
117,174,94780,5,2,0:0:0:0:
156,29,94930,1,2,0:2:0:0:
156,29,95005,1,2,0:2:0:0:
156,29,95080,2,0,L|175:131,1,93.75,8|0,0:0|0:0,0:0:0:0:
11,137,95380,2,0,L|120:175,1,112.500004291535,2|8,0:2|0:0,0:0:0:0:
74,320,95680,2,0,L|152:252,1,93.75,2|0,0:2|0:0,0:0:0:0:
144,258,95905,1,0,1:0:0:0:
144,258,95980,6,8,B|200:262|211:316|211:316|223:372|279:377,1,196.875001877546,2|2,0:0|2:2,0:0:0:0:
280,377,96280,2,0,P|343:356|363:296,1,112.500004291535,8|0,0:0|0:0,0:0:0:0:
248,199,96580,1,2,0:2:0:0:
248,199,96655,1,2,0:2:0:0:
248,199,96730,2,0,P|277:214|325:195,1,56.2500021457673,2|0,0:0|0:0,0:0:0:0:
370,175,96880,2,0,L|353:-6,1,168.750006437302,8|0,0:0|1:0,0:0:0:0:
354,6,97180,6,0,P|415:18|454:90,1,112.500004291535,2|0,0:0|0:0,0:0:0:0:
169,161,97480,2,0,P|206:120|261:112,1,112.500004291535,8|0,0:0|0:0,0:0:0:0:
223,360,97780,1,2,0:2:0:0:
223,360,97855,1,2,0:2:0:0:
223,360,97930,2,0,P|200:321|212:280,1,56.2500021457673,2|0,0:0|0:0,0:0:0:0:
235,244,98080,1,8,0:0:0:0:
482,352,98230,1,2,0:2:0:0:
482,352,98305,1,0,1:2:0:0:
482,352,98380,38,8,B|424:379|380:330|380:330|338:283|279:311,1,225.000008583069,2|8,0:0|0:0,0:0:0:0:
450,291,98830,2,0,P|488:251|491:196,1,112.500004291535,2|2,0:2|0:2,0:0:0:0:
491,197,99055,1,2,0:2:0:0:
491,196,99130,2,0,P|484:169|469:146,1,56.2500021457673,2|0,0:0|0:0,0:0:0:0:
278,311,99280,2,0,P|334:357|461:341,1,168.750006437302,8|0,0:0|1:0,0:0:0:0:
427,359,99580,6,0,L|413:231,1,112.500004291535,2|0,0:0|0:0,0:0:0:0:
399,37,99880,1,8,0:0:0:0:
314,136,100030,1,2,0:2:0:0:
314,136,100105,1,2,0:2:0:0:
314,136,100180,1,2,0:2:0:0:
196,116,100330,1,8,0:0:0:0:
124,145,100480,2,0,L|-2:127,1,112.5,2|0,0:2|1:0,0:0:0:0:
12,129,100780,6,8,B|68:128|84:73|84:73|100:20|158:21,1,196.875001877546,4|0,1:0|2:0,0:0:0:0:
157,21,101080,2,0,P|192:54|188:132,1,112.500004291535,8|0,0:0|0:0,0:0:0:0:
75,235,101380,1,2,0:2:0:0:
75,235,101455,1,2,0:2:0:0:
75,235,101530,2,0,P|132:197|159:207,1,56.2500021457673,2|0,0:0|0:0,0:0:0:0:
334,157,101680,2,0,P|275:212|195:196,1,168.750006437302,8|0,0:0|1:0,0:0:0:0:
194,195,101980,6,0,P|295:253|295:274,1,112.500004291535,2|0,0:3|0:0,0:0:0:0:
408,369,102280,1,8,0:0:0:0:
408,369,102355,1,2,0:2:0:0:
408,369,102430,2,0,P|460:353|487:305,1,112.500004291535,2|0,0:2|0:0,0:0:0:0:
220,266,102730,2,0,P|241:292|297:308,1,56.2500021457673,2|0,0:0|0:0,0:0:0:0:
337,290,102880,2,0,L|319:106,1,168.750006437302,8|0,0:0|1:0,0:0:0:0:
320,122,103180,38,0,P|386:143|410:201,1,112.500004291535,2|0,0:3|0:0,0:0:0:0:
154,305,103480,2,8,B|127:247|176:203|176:203|223:161|195:102,1,225.000008583069,8|2,0:0|0:2,0:0:0:0:
194,101,103855,1,2,0:2:0:0:
194,101,103930,2,0,P|132:86|109:99,1,56.2500021457673,2|0,0:0|0:0,0:0:0:0:
8,102,104080,6,0,B|20:132|20:132|136:162,1,112.500004291535,8|0,0:0|0:0,0:0:0:0:
280,21,104380,2,0,B|260:46|260:46|290:153,1,104.999996795654,2|0,0:0|0:0,0:0:0:0:
468,145,104680,2,0,B|436:140|436:140|366:209,1,97.4999955368044,8|0,0:0|0:0,0:0:0:0:
475,339,104980,2,0,B|463:309|463:309|373:284,2,89.9999972534181,2|8|2,0:2|0:0|0:2,0:0:0:0:
403,375,105430,1,2,0:2:0:0:
403,375,105505,1,0,1:0:0:0:
403,375,105580,6,0,L|260:388,1,131.250001251698,2|0,0:0|0:0,0:0:0:0:
71,212,105880,2,0,L|214:225,1,112.500004291535,8|0,0:0|0:0,0:0:0:0:
283,306,106180,1,2,0:2:0:0:
283,306,106255,1,2,0:2:0:0:
283,306,106330,2,0,P|236:289|209:247,1,56.2500021457673,2|0,0:0|0:0,0:0:0:0:
183,222,106480,1,8,0:0:0:0:
272,384,106630,1,2,0:2:0:0:
235,168,106780,6,0,P|307:100|394:139,1,168.750006437302,2|0,0:0|2:0,0:0:0:0:
367,112,107080,2,0,P|448:134|483:115,1,112.500004291535,8|0,0:0|0:0,0:0:0:0:
295,16,107380,1,2,0:2:0:0:
295,16,107455,1,2,0:2:0:0:
295,16,107530,2,0,L|304:108,1,56.2500021457673,2|0,0:0|0:0,0:0:0:0:
322,176,107680,2,0,P|381:252|481:251,1,168.750006437302,8|0,0:0|1:0,0:0:0:0:
448,261,107980,38,8,B|385:243|351:297|351:297|317:353|255:336,1,225.000008583069,2|8,0:0|0:0,0:0:0:0:
82,293,108430,1,2,0:2:0:0:
82,293,108505,1,2,0:2:0:0:
82,293,108580,1,2,0:2:0:0:
188,373,108730,2,0,P|158:347|144:297,1,56.2500021457673,2|0,0:0|0:0,0:0:0:0:
151,255,108880,2,0,P|183:215|166:116,1,112.500004291535,8|0,0:0|0:0,0:0:0:0:
62,37,109180,6,0,L|191:62,1,112.5,2|0,0:0|2:0,0:0:0:0:
186,41,109480,2,0,L|122:29,1,56.2500021457673,8|0,0:0|0:0,0:0:0:0:
85,208,109630,1,2,0:2:0:0:
112,219,109930,2,0,L|154:169,1,56.2500021457673,8|0,0:0|0:0,0:0:0:0:
2,94,110080,2,0,L|21:150,3,37.5,2|0|0|0,0:2|0:0|0:0|0:0,0:0:0:0:
99,111,110380,37,4,1:0:0:0:
52,352,110530,1,2,0:2:0:0:
99,111,110680,1,8,0:0:0:0:
52,352,110830,1,2,0:2:0:0:
198,163,110980,54,0,P|247:193|255:220,1,56.2500021457673,2|0,0:2|0:0,0:0:0:0:
254,273,111130,1,8,0:0:0:0:
254,273,111205,1,2,0:2:0:0:
254,273,111280,2,0,P|191:314|151:302,1,112.500004291535,2|0,0:2|0:0,0:0:0:0:
329,147,111580,38,0,L|458:127,1,112.5,2|0,0:0|2:0,0:0:0:0:
453,108,111880,2,0,L|377:120,1,56.2500021457673,8|0,0:0|0:0,0:0:0:0:
311,170,112030,2,0,L|390:157,1,75,2|0,0:2|0:0,0:0:0:0:
417,37,112180,53,2,0:2:0:0:
301,73,112330,1,8,0:0:0:0:
185,119,112480,2,0,L|34:94,1,140.625,2|0,0:2|1:0,0:0:0:0:
46,96,112780,5,4,1:0:0:0:
219,36,112930,1,2,0:2:0:0:
46,96,113080,2,0,P|37:141|89:217,1,112.500004291535,8|0,0:0|0:0,0:0:0:0:
262,218,113380,22,0,P|235:225|213:243,1,56.2500021457673,2|0,0:2|0:0,0:0:0:0:
120,303,113530,1,8,0:0:0:0:
120,303,113605,1,2,0:2:0:0:
120,303,113680,2,0,P|176:309|232:358,1,112.500004291535,2|0,0:2|0:0,0:0:0:0:
399,381,113980,6,0,L|508:303,1,112.5,2|0,0:0|2:0,0:0:0:0:
510,328,114280,2,0,L|463:364,1,56.2500021457673,8|0,0:0|0:0,0:0:0:0:
355,214,114430,6,0,L|488:200,1,112.5,2|0,0:0|2:0,0:0:0:0:
477,223,114730,2,0,L|418:230,1,56.2500021457673,8|0,0:0|0:0,0:0:0:0:
400,47,114880,5,2,1:3:0:0:
425,58,114955,1,0,1:0:0:0:
451,70,115030,1,0,1:0:0:0:
476,81,115105,1,0,1:0:0:0:
511,103,115180,6,8,B|448:85|414:139|414:139|380:195|318:178,1,225.000008583069,4|0,1:0|2:0,0:0:0:0:
318,178,115480,2,8,B|255:161|254:96|254:96|251:32|188:16,1,225.000008583069,8|0,0:0|2:0,0:0:0:0:
188,17,115780,5,2,0:2:0:0:
328,94,115930,1,8,0:0:0:0:
188,17,116080,2,0,P|107:36|89:98,1,112.500004291535,2|0,0:2|0:0,0:0:0:0:
169,296,116380,70,0,L|143:165,1,112.5,2|0,0:0|2:0,0:0:0:0:
164,164,116680,2,0,L|179:235,1,56.2500021457673,8|0,0:0|0:0,0:0:0:0:
152,321,116830,2,0,L|137:247,1,75,2|0,0:2|0:0,0:0:0:0:
243,175,116980,21,2,0:2:0:0:
332,284,117130,1,8,0:0:0:0:
474,268,117280,2,0,P|512:190|500:98,1,140.625,2|0,0:2|1:0,0:0:0:0:
512,137,117580,69,4,1:0:0:0:
332,284,117730,1,2,0:2:0:0:
512,137,117880,2,0,L|392:164,1,112.500004291535,8|0,0:0|0:0,0:0:0:0:
175,58,118180,22,0,P|197:42|225:36,1,56.2500021457673,2|0,0:2|0:0,0:0:0:0:
297,86,118330,1,8,0:0:0:0:
297,86,118405,1,2,0:2:0:0:
297,86,118480,2,0,P|249:172|204:177,1,112.500004291535,2|0,0:2|0:0,0:0:0:0:
50,175,118780,38,0,B|105:140|196:157|232:225|232:225|222:305|222:305|261:364|335:388|424:336,2,506.250019311906,2|2|2,0:0|0:0|0:0,0:0:0:0:
50,175,119830,1,2,0:2:0:0:
332,262,119980,5,4,1:0:0:0:
245,68,120130,1,2,0:2:0:0:
332,262,120280,1,8,0:0:0:0:
245,68,120430,1,2,0:2:0:0:
383,185,120580,38,0,P|409:177|432:161,1,56.2500021457673,2|0,0:2|0:0,0:0:0:0:
446,83,120730,1,8,0:0:0:0:
446,83,120805,1,2,0:2:0:0:
446,83,120880,2,0,P|356:31|324:42,1,112.500004291535,2|0,0:2|0:0,0:0:0:0:
118,142,121180,22,0,L|255:162,1,112.500004291535,2|0,0:0|2:0,0:0:0:0:
249,144,121480,2,0,L|268:218,1,56.2500021457673,8|0,0:0|0:0,0:0:0:0:
98,158,121630,2,0,L|77:77,1,75,2|0,0:2|0:0,0:0:0:0:
237,67,121780,69,2,0:2:0:0:
193,230,121930,1,8,0:0:0:0:
36,308,122080,2,0,P|112:308|179:351,1,140.625,2|0,0:2|1:0,0:0:0:0:
167,338,122380,21,4,1:0:0:0:
19,142,122530,1,2,0:2:0:0:
167,338,122680,1,8,0:0:0:0:
19,142,122830,1,2,0:2:0:0:
193,230,122980,6,0,P|231:224|265:188,1,56.2500021457673,2|0,0:2|0:0,0:0:0:0:
277,144,123130,1,8,0:0:0:0:
277,144,123205,1,2,0:2:0:0:
277,144,123280,2,0,P|209:89|159:99,1,112.500004291535,2|0,0:2|0:0,0:0:0:0:
400,133,123580,6,0,L|501:42,1,112.500004291535,2|0,0:0|2:0,0:0:0:0:
510,60,123880,2,0,L|457:109,1,56.2500021457673,8|0,0:0|0:0,0:0:0:0:
341,186,124030,6,0,L|211:143,1,112.500004291535,2|0,0:0|2:0,0:0:0:0:
223,127,124330,2,0,L|292:147,1,56.2500021457673,8|0,0:0|0:0,0:0:0:0:
416,210,124480,5,2,1:3:0:0:
421,237,124555,1,0,1:0:0:0:
427,265,124630,1,0,1:0:0:0:
432,292,124705,1,0,1:0:0:0:
443,325,124780,5,4,1:0:0:0:
471,101,124930,1,2,0:2:0:0:
443,325,125080,1,8,0:0:0:0:
471,101,125230,1,2,0:2:0:0:
323,305,125380,5,2,0:2:0:0:
503,272,125530,1,8,0:0:0:0:
323,305,125680,2,0,P|264:285|214:238,1,112.500004291535,2|0,0:2|0:0,0:0:0:0:
165,53,125980,6,0,L|151:164,1,112.5,2|0,0:0|2:0,0:0:0:0:
128,179,126280,2,0,L|136:113,1,56.2500021457673,8|0,0:0|0:0,0:0:0:0:
291,201,126430,1,2,0:2:0:0:
277,231,126730,2,0,L|225:253,1,56.2500021457673,8|0,0:0|0:0,0:0:0:0:
256,79,126880,2,0,L|354:148,1,112.500004291535,2|0,0:2|0:0,0:0:0:0:
347,143,127105,1,0,1:0:0:0:
347,143,127180,53,4,1:0:0:0:
128,179,127330,1,2,0:2:0:0:
347,143,127480,1,8,0:0:0:0:
128,179,127630,1,2,0:2:0:0:
386,316,127780,38,0,P|361:261|294:223,1,112.500004291535,2|8,0:2|0:0,0:0:0:0:
321,231,128005,1,0,0:0:0:0:
321,231,128080,2,0,P|299:266|299:317,1,56.2500021457673,2|0,0:2|0:0,0:0:0:0:
494,251,128230,2,0,P|457:170|431:157,1,75,2|0,0:2|0:0,0:0:0:0:
341,55,128380,38,0,L|266:43,1,67.4999979400635,2|0,0:3|0:0,0:0:0:0:
208,175,128980,6,0,L|165:148,1,37.5,2|0,0:3|0:0,0:0:0:0:
170,33,129280,70,0,L|132:27,1,28.1250010728836,8|0,0:3|0:0,0:0:0:0:
85,86,129430,2,0,L|48:63,1,37.5,2|0,0:3|0:0,0:0:0:0:
44,42,129580,5,4,2:2:0:0:
