osu file format v14

[General]
AudioFilename: audio.mp3
AudioLeadIn: 0
PreviewTime: 91180
Countdown: 0
SampleSet: Drum
StackLeniency: 0.7
Mode: 0
LetterboxInBreaks: 0
WidescreenStoryboard: 1

[Editor]
Bookmarks: 39580,43180,62380,81580,91180,100780,110380,119980,129580
DistanceSpacing: 1.1
BeatDivisor: 4
GridSize: 16
TimelineZoom: 1

[Metadata]
Title:Left Behind
TitleUnicode:Left Behind
Artist:VINXIS
ArtistUnicode:VINXIS
Creator:EririSawamura
Version:Easy
Source:osu!
Tags:dnb drum n bass electronic english featured artist fa
BeatmapID:2109362
BeatmapSetID:780372

[Difficulty]
HPDrainRate:3
CircleSize:3
OverallDifficulty:3
ApproachRate:4
SliderMultiplier:0.83
SliderTickRate:1

[Events]
//Background and Video events
0,0,"58351244_p0.jpg",0,0
//Break Periods
2,81780,88660
//Storyboard Layer 0 (Background)
//Storyboard Layer 1 (Fail)
//Storyboard Layer 2 (Pass)
//Storyboard Layer 3 (Foreground)
//Storyboard Layer 4 (Overlay)
//Storyboard Sound Samples

[TimingPoints]
4780,300,4,3,33,44,1,0
39580,-100,4,3,33,44,0,0
41980,-100,4,3,33,44,0,0
42880,-100,4,3,33,44,0,0
43180,-100,4,3,33,66,0,1
43480,-100,4,3,33,66,0,0
44080,-100,4,3,33,66,0,0
44380,-100,4,3,33,66,0,0
44680,-100,4,3,33,66,0,0
44830,-100,4,3,33,66,0,0
45130,-100,4,3,33,66,0,0
45280,-100,4,3,33,66,0,0
45580,-100,4,3,33,66,0,0
45880,-100,4,3,33,66,0,0
46480,-100,4,3,33,66,0,0
46780,-100,4,3,33,66,0,0
47080,-100,4,3,33,66,0,0
47230,-100,4,3,33,66,0,0
47530,-100,4,3,33,66,0,0
47980,-100,4,3,33,66,0,0
48880,-100,4,3,33,66,0,0
49180,-100,4,3,33,66,0,0
49480,-100,4,3,33,66,0,0
51280,-100,4,3,33,66,0,0
52780,-100,4,3,33,66,0,0
53080,-100,4,3,33,66,0,0
53680,-100,4,3,33,66,0,0
53980,-100,4,3,33,66,0,0
54280,-100,4,3,33,66,0,0
54880,-100,4,3,33,66,0,0
55180,-100,4,3,33,66,0,0
55480,-100,4,3,33,66,0,0
56080,-100,4,3,33,66,0,0
56380,-100,4,3,33,66,0,0
56680,-100,4,3,33,66,0,0
56830,-100,4,3,33,66,0,0
57130,-100,4,3,33,66,0,0
57280,-100,4,3,33,66,0,0
57880,-100,4,3,33,66,0,0
58480,-100,4,3,33,66,0,0
58780,-100,4,3,33,66,0,0
59080,-100,4,3,33,66,0,0
60880,-100,4,3,33,66,0,0
61180,-100,4,2,33,55,0,0
61255,-100,4,2,33,33,0,0
61780,-100,4,2,33,55,0,0
61855,-100,4,2,33,44,0,0
62080,-100,4,2,33,55,0,0
62155,-100,4,2,33,44,0,0
62230,-100,4,2,33,55,0,0
62305,-100,4,2,33,44,0,0
62380,-100,4,3,33,66,0,1
62530,-100,4,3,33,66,0,0
64780,-100,4,3,33,66,0,0
80980,-100,4,3,33,66,0,0
81580,-100,4,3,33,55,0,0
82780,-100,4,2,33,44,0,0
87580,-100,4,3,33,44,0,0
90880,-100,4,3,33,44,0,0
91180,-100,4,3,33,66,0,1
91480,-100,4,3,33,66,0,0
95080,-100,4,3,33,66,0,0
95380,-100,4,3,33,66,0,0
95680,-100,4,3,33,66,0,0
95980,-100,4,3,33,66,0,0
96280,-100,4,3,33,66,0,0
100330,-100,4,3,33,66,0,0
100780,-100,4,3,33,66,0,0
101080,-100,4,3,33,66,0,0
104080,-100,4,3,33,66,0,0
104380,-100,4,3,33,66,0,0
104680,-100,4,3,33,66,0,0
104980,-100,4,3,33,66,0,0
105580,-100,4,3,33,66,0,0
105880,-100,4,3,33,66,0,0
109180,-100,4,3,33,66,0,0
109480,-100,4,3,33,66,0,0
110080,-100,4,3,33,66,0,0
110230,-100,4,3,33,66,0,0
110380,-100,4,3,33,66,0,1
110980,-100,4,3,33,66,0,0
111580,-100,4,3,33,66,0,0
111880,-100,4,3,33,66,0,0
112030,-100,4,3,33,66,0,0
112180,-100,4,3,33,66,0,0
112480,-100,4,3,33,66,0,0
112780,-100,4,3,33,66,0,1
113380,-100,4,3,33,66,0,0
113980,-100,4,3,33,66,0,0
114280,-100,4,3,33,66,0,0
114430,-100,4,3,33,66,0,0
114730,-100,4,3,33,66,0,0
114880,-100,4,3,33,66,0,0
115180,-100,4,3,33,66,0,1
115780,-100,4,3,33,66,0,0
116080,-100,4,3,33,66,0,0
116380,-100,4,3,33,66,0,0
116680,-100,4,3,33,66,0,0
116830,-100,4,3,33,66,0,0
116980,-100,4,3,33,66,0,0
117580,-100,4,3,33,66,0,1
118180,-100,4,3,33,66,0,0
118780,-100,4,3,33,66,0,0
119980,-100,4,3,33,66,0,1
120580,-100,4,3,33,66,0,0
121180,-100,4,3,33,66,0,0
121480,-100,4,3,33,66,0,0
121630,-100,4,3,33,66,0,0
122080,-100,4,3,33,66,0,0
122380,-100,4,3,33,66,0,1
122980,-100,4,3,33,66,0,0
123580,-100,4,3,33,66,0,0
123880,-100,4,3,33,66,0,0
124030,-100,4,3,33,66,0,0
124330,-100,4,3,33,66,0,0
124780,-100,4,3,33,66,0,1
125380,-100,4,3,33,66,0,0
125980,-100,4,3,33,66,0,0
126280,-100,4,3,33,66,0,0
127180,-100,4,3,33,66,0,1
127780,-100,4,3,33,66,0,0
128230,-100,4,3,33,66,0,0
128380,-100,4,2,33,55,0,0
128455,-100,4,2,33,33,0,0
128980,-100,4,2,33,55,0,0
129055,-100,4,2,33,33,0,0
129280,-100,4,2,33,55,0,0
129355,-100,4,2,33,44,0,0
129430,-100,4,2,33,55,0,0
129505,-100,4,2,33,44,0,0
129580,-100,4,2,33,22,0,0

[Colours]
Combo1 : 223,207,115
Combo2 : 176,176,176
Combo3 : 154,147,191
Combo4 : 115,115,115
Combo5 : 100,87,117
Combo6 : 220,149,118

[HitObjects]
53,130,41980,5,2,0:0:0:0:
74,311,42580,1,2,0:0:0:0:
144,252,42880,2,0,B|182:263|182:263|210:305,1,83,8|4,0:0|1:1,0:0:0:0:
377,362,43780,5,2,0:2:0:0:
465,334,44080,1,2,0:2:0:0:
452,244,44380,2,0,L|433:107,2,124.5,2|2|2,0:3|0:2|0:2,0:0:0:0:
465,334,45580,1,2,0:0:0:0:
305,244,46180,5,2,0:2:0:0:
221,205,46480,1,2,0:2:0:0:
145,256,46780,2,0,L|159:387,1,124.5,2|2,0:0|0:0,0:0:0:0:
33,322,47680,1,2,1:3:0:0:
22,231,47980,1,2,1:3:0:0:
161,113,48580,5,2,0:2:0:0:
243,151,48880,1,2,0:2:0:0:
295,76,49180,2,0,P|359:41|420:42,2,124.5,2|2|2,0:0|3:2|0:2,0:0:0:0:
243,151,50380,2,0,L|253:253,2,83,2|8|2,0:0|0:0|0:2,0:0:0:0:
295,76,51280,1,2,0:2:0:0:
364,135,51580,2,0,L|376:266,1,124.5,2|2,1:3|0:0,0:0:0:0:
486,177,52480,1,2,0:0:0:0:
476,86,52780,1,4,1:1:0:0:
293,81,53380,37,2,0:2:0:0:
212,38,53680,1,2,0:2:0:0:
131,81,53980,2,0,L|-4:58,2,124.5,2|2|2,0:0|0:2|0:2,0:0:0:0:
212,38,55180,1,2,0:0:0:0:
111,190,55780,5,2,0:2:0:0:
162,265,56080,1,2,0:2:0:0:
247,297,56380,2,0,L|382:282,1,124.5,2|2,0:0|0:0,0:0:0:0:
421,156,57280,1,2,1:3:0:0:
512,147,57580,1,2,1:3:0:0:
454,320,58180,5,2,0:2:0:0:
366,346,58480,1,2,0:2:0:0:
300,282,58780,2,0,P|303:227|338:160,2,124.5,2|2|2,0:0|0:2|0:2,0:0:0:0:
226,336,59980,2,0,L|127:327,2,83,2|8|2,0:0|0:0|0:2,0:0:0:0:
300,282,60880,1,2,0:2:0:0:
248,206,61180,5,2,0:3:0:0:
319,37,61780,2,0,L|220:25,1,83,2|8,0:3|0:3,0:0:0:0:
146,14,62380,38,0,P|95:70|88:87,1,83,4|8,1:0|0:0,0:0:0:0:
37,149,62980,2,0,P|103:130|213:131,2,166,2|2|2,0:2|0:0|0:2,0:0:0:0:
35,331,64780,6,0,P|79:345|128:347,1,83,2|8,0:0|0:0,0:0:0:0:
177,280,65380,2,0,P|231:218|317:189,1,166,2|2,0:2|0:0,0:0:0:0:
473,267,66580,1,2,0:2:0:0:
443,353,66880,1,0,1:0:0:0:
353,370,67180,6,0,P|296:356|267:334,1,83,2|8,1:3|0:0,0:0:0:0:
264,252,67780,2,0,P|302:167|307:89,2,166,2|2|2,0:2|0:0|0:2,0:0:0:0:
97,326,69580,6,0,P|49:269|39:246,1,83,2|8,0:0|0:0,0:0:0:0:
80,177,70180,2,0,P|130:138|147:112,1,83,2|8,0:2|0:0,0:0:0:0:
129,31,70780,2,0,P|205:139|316:127,1,249,2|0,0:0|1:0,0:0:0:0:
386,79,71980,38,0,P|449:116|464:134,1,83,4|8,1:0|0:0,0:0:0:0:
436,212,72580,1,2,0:2:0:0:
483,289,72880,1,8,0:0:0:0:
431,364,73180,2,0,P|345:351|267:303,1,166,2|2,0:0|0:2,0:0:0:0:
173,161,74380,6,0,P|95:183|80:194,1,83,2|8,0:0|0:0,0:0:0:0:
42,258,74980,1,2,0:2:0:0:
69,345,75280,1,8,0:0:0:0:
155,373,75580,2,0,P|239:352|306:299,1,166,2|2,0:0|0:2,0:0:0:0:
328,217,76480,1,0,1:0:0:0:
312,126,76780,6,0,P|327:62|345:34,1,83,2|8,1:3|0:0,0:0:0:0:
421,17,77380,1,2,0:2:0:0:
495,70,77680,1,8,0:0:0:0:
501,161,77980,2,0,P|476:232|397:302,1,166,2|2,0:0|0:2,0:0:0:0:
226,261,79180,6,0,P|171:243|130:245,1,83,2|8,0:0|0:0,0:0:0:0:
114,156,79780,2,0,P|155:152|193:137,1,83,2|8,0:2|0:0,0:0:0:0:
242,60,80380,1,2,0:0:0:0:
419,63,80980,37,8,0:0:0:0:
441,151,81280,1,10,0:0:0:0:
462,239,81580,1,4,0:3:0:0:
76,70,89980,5,2,0:0:0:0:
252,111,90580,1,2,0:0:0:0:
317,47,90880,1,8,0:0:0:0:
407,56,91180,1,4,1:1:0:0:
488,222,91780,6,0,P|476:296|462:315,1,83,2|8,0:2|0:0,0:0:0:0:
388,336,92380,1,2,0:0:0:0:
315,280,92680,2,0,P|230:248|151:261,1,166,8|8,0:0|0:0,0:0:0:0:
85,314,93580,6,0,L|104:175,2,124.5,2|2|8,0:3|0:2|0:0,0:0:0:0:
255,378,95080,1,8,0:0:0:0:
341,349,95380,1,2,0:2:0:0:
368,261,95680,2,0,L|353:172,1,83,2|2,0:2|0:0,0:0:0:0:
298,106,96280,37,8,0:0:0:0:
354,34,96580,1,2,0:2:0:0:
444,43,96880,1,8,0:0:0:0:
482,125,97180,2,0,L|459:299,1,166,2|2,0:0|0:2,0:0:0:0:
287,350,98380,6,0,P|227:333|174:301,2,124.5,2|2|8,0:0|0:2|0:0,0:0:0:0:
225,178,99880,2,0,P|78:211|2:283,1,249,8|4,0:0|1:0,0:0:0:0:
13,92,101380,6,0,L|109:109,1,83,2|8,0:2|0:0,0:0:0:0:
173,60,101980,2,0,L|298:32,2,124.5,2|2|8,0:3|0:2|0:0,0:0:0:0:
94,106,103180,1,2,0:3:0:0:
137,186,103480,1,8,0:0:0:0:
308,124,104080,5,8,0:0:0:0:
385,172,104380,1,2,0:0:0:0:
408,260,104680,1,8,0:0:0:0:
400,350,104980,2,0,P|360:360|318:360,1,83,2|2,0:2|0:2,0:0:0:0:
237,319,105580,1,2,0:0:0:0:
215,230,105880,2,0,L|238:54,1,166,8|8,0:0|0:0,0:0:0:0:
444,84,107080,37,8,0:0:0:0:
465,172,107380,1,2,0:2:0:0:
385,216,107680,1,8,0:0:0:0:
360,127,107980,1,2,0:0:0:0:
205,28,108580,1,2,0:2:0:0:
178,115,108880,1,8,0:0:0:0:
149,201,109180,2,0,P|82:194|27:168,2,124.5,2|2|2,0:0|0:2|0:2,0:0:0:0:
235,229,110380,54,0,B|262:259|262:259|247:304,1,83,4|8,1:0|0:0,0:0:0:0:
310,366,110980,1,2,0:2:0:0:
400,354,111280,1,2,0:2:0:0:
490,343,111580,2,0,L|516:176,1,166,2|2,0:0|0:2,0:0:0:0:
471,98,112480,1,2,0:2:0:0:
391,142,112780,6,0,B|348:148|348:148|313:110,1,83,4|8,1:0|0:0,0:0:0:0:
274,42,113380,1,2,0:2:0:0:
188,74,113680,1,2,0:2:0:0:
101,102,113980,2,0,P|171:152|183:195,2,124.5,2|2|2,0:0|0:0|1:3,0:0:0:0:
19,143,115180,69,4,1:0:0:0:
47,229,115480,1,8,0:0:0:0:
118,285,115780,2,0,B|158:274|158:274|202:308,1,83,2|2,0:2|0:2,0:0:0:0:
267,349,116380,2,0,L|432:314,1,166,2|2,0:0|0:2,0:0:0:0:
474,234,117280,1,2,0:2:0:0:
401,178,117580,6,0,P|384:136|382:92,1,83,4|8,1:0|0:0,0:0:0:0:
293,122,118180,2,0,P|309:160|312:201,1,83,2|2,0:2|0:2,0:0:0:0:
230,242,118780,1,2,0:0:0:0:
133,137,119230,1,2,0:0:0:0:
10,198,119680,1,2,0:0:0:0:
40,283,119980,70,0,B|54:320|54:320|99:332,1,83,4|8,1:0|0:0,0:0:0:0:
187,339,120580,2,0,L|199:242,1,83,2|2,0:2|0:2,0:0:0:0:
285,284,121180,2,0,P|329:243|438:241,1,166,2|2,0:0|0:2,0:0:0:0:
488,308,122080,1,2,0:2:0:0:
425,374,122380,6,0,B|396:343|396:343|338:351,1,83,4|8,1:0|0:0,0:0:0:0:
265,363,122980,1,2,0:2:0:0:
188,313,123280,1,2,0:2:0:0:
145,232,123580,2,0,L|160:96,2,124.5,2|2|2,0:0|0:0|1:3,0:0:0:0:
76,292,124780,70,0,B|49:258|49:258|54:205,1,83,4|8,1:0|0:0,0:0:0:0:
65,128,125380,1,2,0:2:0:0:
17,50,125680,1,2,0:2:0:0:
97,7,125980,2,0,L|236:19,1,124.5,2|2,0:0|0:2,0:0:0:0:
340,85,126880,1,2,0:2:0:0:
423,48,127180,6,0,B|453:23|453:23|501:35,1,83,4|8,1:0|0:0,0:0:0:0:
478,123,127780,2,0,L|465:218,1,83,2|2,0:2|0:2,0:0:0:0:
457,296,128380,5,2,0:3:0:0:
279,254,128980,1,2,0:3:0:0:
224,327,129280,2,0,B|257:353|257:353|297:346,1,83,8|4,0:3|2:2,0:0:0:0:
