osu file format v14

[General]
AudioFilename: audio.mp3
AudioLeadIn: 0
PreviewTime: 4169
Countdown: 0
SampleSet: Soft
StackLeniency: 0.7
Mode: 0
LetterboxInBreaks: 0
EpilepsyWarning: 1
WidescreenStoryboard: 1

[Editor]
Bookmarks: 26203,43658,69840,85112,102566,121111,137475
DistanceSpacing: 0.8
BeatDivisor: 4
GridSize: 8
TimelineZoom: 1.900001

[Metadata]
Title:Joushou no Tabi ~ The Ascending Journey
TitleUnicode:上昇の旅 ~ The Ascending Journey
Artist:VINXIS
ArtistUnicode:VINXIS
Creator:Shurelia
Version:Yohatri's Another
Source:Genshin Impact
Tags:skystar amamiya yuko captin1 rlc xlni lcfc lowcomboFC scubdomino uberfazz lit120 -Hakurei- Crissa Ascended -Ascended- -_ascended_- Cubby Yohanes -Atri- Firis Mistlud Anxient Ajisai- Ducky- -keitaro Video Game Instrumental breakcore hoyoverse 原神 shizuku- Kazato Asa shikibe Mayu Ayesha Altugle Enkrypton hokichi nitrous tofumang rizen munehime ningguang KuranteMelodii sinnoh jemzuu kukkai 原げん神しん electronic natsume shiki anime girl jungkyuyoung [keqing] faputa Cynplytholowazy deif
BeatmapID:3818021
BeatmapSetID:1857663

[Difficulty]
HPDrainRate:6
CircleSize:3.8
OverallDifficulty:8
ApproachRate:9
SliderMultiplier:1.8
SliderTickRate:1

[Events]
//Background and Video events
0,0,"stars.jpg",0,0
//Break Periods
//Storyboard Layer 0 (Background)
//Storyboard Layer 1 (Fail)
//Storyboard Layer 2 (Pass)
//Storyboard Layer 3 (Foreground)
Sprite,Foreground,Centre,"sb\text\difficulty\_026.png",600,100 S,0,52942,,0.4 F,0,52942,53442,0,1 F,0,56215,56715,1,0
Sprite,Foreground,Centre,"sb\text\difficulty\_027.png",600,100 S,0,56760,,0.4 F,0,56760,57260,0,1 F,0,59487,59987,1,0
Sprite,Foreground,TopLeft,"sb\p.png",-107,0 F,0,78283,,0 C,0,78283,,255,255,255 F,0,78533,,1 V,0,78533,,854,480 C,0,80715,,29,28,34 C,0,81260,,255,255,255 C,0,81805,,29,28,34 F,0,82931,,0
Sprite,Foreground,TopLeft,"sb\p.png",0,0 F,0,78299,,0,0.06 V,0,78299,,862.29,484.8 F,0,78299,78523,0.06,0.96 F,0,78523,78539,0.96,1 C,0,80699,80715,255,255,255,29,28,34 M,0,81259,81275,-106.9,0,205.6,0 C,0,81259,81275,29,28,34,255,255,255 M,0,81803,81819,205.6,0,-356.9,-187.5 C,0,81803,81819,255,255,255,29,28,34 F,0,82475,82491,1,0
Sprite,Foreground,Centre,"sb\text\loading\_000.png",0,0 F,0,78299,,0,0.06 S,0,78299,,0.38 F,0,78299,78523,0.06,0.96 F,0,78523,78539,0.96,1 C,0,80699,80715,134,153,168,211,188,144 M,0,81259,81275,320,377.5,632.5,377.5 C,0,81259,81275,211,188,144,134,153,168 M,0,81803,81819,632.5,377.5,70,190 C,0,81803,81819,134,153,168,211,188,144 F,0,82475,82491,1,0
Sprite,Foreground,Centre,"sb\text\loading\_001.png",0,0 F,0,78299,,0,0.06 S,0,78299,,0.28 F,0,78299,78523,0.06,0.96 F,0,78523,78539,0.96,1 C,0,80699,80715,134,153,168,211,188,144 M,0,81259,81275,320,396.3,632.5,396.3 C,0,81259,81275,211,188,144,134,153,168 M,0,81803,81819,632.5,396.3,70,208.8 C,0,81803,81819,134,153,168,211,188,144 F,0,82475,82491,1,0
Sprite,Foreground,Centre,"sb\bg_loading_logo_day.png",0,0 F,0,78299,,0,0.06 S,0,78299,,0.63 F,0,78299,78523,0.06,0.96 F,0,78523,78539,0.96,1 F,0,80699,80715,1,0 M,0,81275,,320,227.5,632.5,227.5 F,0,81275,,0,1 M,0,81803,81819,632.5,227.5,70,40 F,0,81803,81819,1,0
Sprite,Foreground,Centre,"sb\bg_loading_logo_night.png",0,0 F,0,80715,,0,1 S,0,80715,,0.63 M,0,81259,81275,320,227.5,632.5,227.5 F,0,81259,81275,1,0 M,0,81819,,632.5,227.5,70,40 F,0,81819,,0,1 F,0,82475,82491,1,0
Sprite,Foreground,CentreLeft,"sb\p.png",0,0 F,0,78539,,0,1 V,0,78539,,862.29,1.26 C,0,80699,80715,235,236,238,48,47,52 M,0,81259,81275,-106.9,427.5,205.6,427.5 C,0,81259,81275,48,47,52,235,236,238 M,0,81803,81819,205.6,427.5,-356.9,240 C,0,81803,81819,235,236,238,48,47,52 F,0,82475,82491,1,0
Sprite,Foreground,CentreLeft,"sb\p.png",0,0 F,0,78539,,0,1 V,0,78539,,151.5,25.25 C,0,80699,80715,235,236,238,48,47,52 M,0,81259,81275,245,427.5,557.5,427.5 C,0,81259,81275,48,47,52,235,236,238 M,0,81803,81819,557.5,427.5,-5,240 C,0,81803,81819,235,236,238,48,47,52 F,0,82475,82491,1,0
Sprite,Foreground,CentreLeft,"sb\p.png",0,0 F,0,78539,,0,1 V,0,79435,79451,26.15,25.25,52.94,25.25 V,0,80219,80235,52.94,25.25,71.21,25.25 C,0,80699,80715,73,82,101,237,229,217 V,0,80987,81003,71.21,25.25,100.09,25.25 M,0,81259,81275,245,427.5,557.5,427.5 C,0,81259,81275,237,229,217,73,82,101 V,0,81707,81723,100.09,25.25,130.05,25.25 M,0,81803,81819,557.5,427.5,-5,240 C,0,81803,81819,73,82,101,237,229,217 V,0,82347,82363,130.05,25.25,149.62,25.25 F,0,82475,82491,1,0
Sprite,Foreground,Centre,"sb\bg_loading_mask.png",0,0 F,0,78539,,0,1 S,0,78539,,0.41 C,0,80699,80715,255,255,255,29,28,34 M,0,81259,81275,320,427.5,632.5,427.5 C,0,81259,81275,29,28,34,255,255,255 M,0,81803,81819,632.5,427.5,70,240 C,0,81803,81819,255,255,255,29,28,34 F,0,82475,82491,1,0
Animation,Foreground,TopLeft,"sb\noise.jpg",-107,0,3,10,LoopForever F,0,78533,,0.1 S,0,78533,,0.625 P,0,78533,,A F,0,80715,,0.4 F,0,81976,82794,0.4,0.8
Animation,Foreground,TopLeft,"sb\noise.jpg",320,0,3,10,LoopForever F,0,78533,,0.1 S,0,78533,,0.625 P,0,78533,,A F,0,80715,,0.4 F,0,81976,82794,0.4,0.8
Animation,Foreground,TopLeft,"sb\noise.jpg",-107,240,3,10,LoopForever F,0,78533,,0.1 S,0,78533,,0.625 P,0,78533,,A F,0,80715,,0.4 F,0,81976,82794,0.4,0.8
Animation,Foreground,TopLeft,"sb\noise.jpg",320,240,3,10,LoopForever F,0,78533,,0.1 S,0,78533,,0.625 P,0,78533,,A F,0,80715,,0.4 F,0,81976,82794,0.4,0.8
Sprite,Foreground,Centre,"sb\light.png",320,241 S,0,82522,,0.25 P,0,82522,,A F,0,82522,82931,0.2,0.6 F,0,82931,,0.6,1 S,0,82931,,0.25,0.3 F,0,82931,83067,1,0
Sprite,Foreground,Centre,"sb\p.png",320,240 F,0,82522,,1 V,0,82522,,854,480 P,0,82522,,A V,0,82794,82931,854,480,854,1 V,0,82931,83067,854,1,3,1
//Storyboard Layer 4 (Overlay)
//Storyboard Sound Samples

[TimingPoints]
4344,697.674418604651,3,2,1,35,1,8
4344,-133.333333333333,3,2,1,35,0,8
5041,-100,3,2,1,35,0,0
5253,727.272727272727,3,2,1,35,1,0
5253,-117.647058823529,3,2,1,35,0,0
6337,-117.647058823529,3,2,1,5,0,0
6525,750,3,2,1,35,1,8
6525,-100,3,2,1,35,0,8
6916,821.917808219178,3,2,1,35,1,0
7245,789.473684210526,3,2,1,35,1,0
7245,-100,3,2,1,35,0,0
8231,-100,3,2,1,5,0,0
8429,800,3,2,1,35,1,8
8429,-100,3,2,1,35,0,8
8629,750,3,2,1,35,1,8
8629,-133.333333333333,3,2,1,35,0,8
9379,740.740740740741,3,2,1,35,1,0
9379,-133.333333333333,3,2,1,35,0,0
10675,-133.333333333333,3,2,1,5,0,0
10860,618.556701030928,3,2,1,35,1,8
10860,-166.666666666667,3,2,1,35,0,8
11169,722.89156626506,3,2,1,35,1,8
11169,-100,3,2,1,35,0,8
11530,731.707317073171,3,2,1,35,1,0
11530,-133.333333333333,3,2,1,35,0,0
12993,789.473684210526,3,2,1,35,1,8
12993,-125,3,2,1,35,0,8
13387,769.230769230769,3,2,1,35,1,8
13387,-100,3,2,1,35,0,8
13771,681.818181818182,3,2,1,35,1,0
13771,-100,3,2,1,35,0,0
15475,833.333333333333,3,2,1,35,1,8
15475,-100,3,2,1,35,0,8
15891,759.493670886076,3,2,1,35,1,0
15891,-133.333333333333,3,2,1,35,0,0
16650,731.707317073171,3,2,1,35,1,8
16650,-166.666666666667,3,2,1,35,0,8
17747,638.297872340426,3,2,1,35,1,8
17747,-100,3,2,1,35,0,8
18066,623.441396508728,3,2,1,35,1,0
18066,-111.111111111111,3,2,1,35,0,0
21806,272.727272727273,4,2,1,45,1,0
21806,-100,4,2,1,45,0,0
30124,-142.857142857143,4,2,1,45,0,0
30465,-142.857142857143,4,2,1,5,0,0
30533,-142.857142857143,4,2,1,45,0,0
34896,-142.857142857143,4,2,1,55,0,0
41374,-142.857142857143,4,2,1,5,0,0
41442,-142.857142857143,4,2,1,55,0,0
43624,-83.3333333333333,4,2,1,65,0,1
43828,-83.3333333333333,4,2,1,5,0,1
43896,-83.3333333333333,4,2,1,65,0,1
46010,-83.3333333333333,4,2,1,5,0,1
46078,-83.3333333333333,4,2,1,65,0,1
47101,-83.3333333333333,4,2,1,5,0,1
47169,-83.3333333333333,4,2,1,65,0,1
48465,-83.3333333333333,4,2,1,5,0,1
48533,-83.3333333333333,4,2,1,65,0,1
49283,-83.3333333333333,4,2,1,5,0,1
49351,-83.3333333333333,4,2,1,65,0,1
49896,-100,4,2,1,65,0,1
52078,-71.4285714285714,4,2,1,65,0,1
52351,-83.3333333333333,4,2,1,65,0,1
54737,-83.3333333333333,4,2,1,5,0,1
54806,-83.3333333333333,4,2,1,65,0,1
57192,-83.3333333333333,4,2,1,5,0,1
57260,-83.3333333333333,4,2,1,65,0,1
58010,-83.3333333333333,4,2,1,5,0,1
58078,-83.3333333333333,4,2,1,65,0,1
58624,-100,4,2,1,65,0,1
60806,-71.4285714285714,4,2,1,65,0,1
61078,-83.3333333333333,4,2,1,75,0,0
62169,-100,4,2,1,75,0,0
63260,-83.3333333333333,4,2,1,75,0,0
64351,-100,4,2,1,75,0,0
64556,-100,4,2,1,5,0,0
64624,-100,4,2,1,75,0,0
64828,-100,4,2,1,5,0,0
64896,-100,4,2,1,75,0,0
65442,-83.3333333333333,4,2,1,75,0,0
70896,-100,4,2,1,75,0,0
71237,-100,4,2,1,5,0,0
71306,-100,4,2,1,75,0,0
72124,-83.3333333333333,4,2,1,75,0,0
75601,-83.3333333333333,4,2,1,5,0,0
75669,-83.3333333333333,4,2,1,75,0,0
78533,545.454545454546,4,2,1,45,1,0
78533,-100,4,2,1,45,0,0
79623,-100,4,2,1,35,0,0
80578,-100,4,2,1,25,0,0
80646,-100,4,2,1,5,0,0
82487,-100,4,2,1,25,0,0
83987,-100,4,2,1,15,0,0
85078,545.454545454546,4,2,1,35,1,0
85078,-125,4,2,1,35,0,0
100350,-125,4,2,1,25,0,0
101987,-125,4,2,1,35,0,0
102532,272.727272727273,4,2,1,75,1,1
102532,-83.3333333333333,4,2,1,75,0,1
102736,-83.3333333333333,4,2,1,5,0,1
102804,-83.3333333333333,4,2,1,75,0,1
103554,-83.3333333333333,4,2,1,5,0,1
103622,-83.3333333333333,4,2,1,75,0,1
107100,-83.3333333333333,4,2,1,5,0,1
107168,-83.3333333333333,4,2,1,75,0,1
108191,-83.3333333333333,4,2,1,5,0,1
108259,-83.3333333333333,4,2,1,75,0,1
110645,-83.3333333333333,4,2,1,5,0,1
110713,-83.3333333333333,4,2,1,75,0,1
111463,-83.3333333333333,4,2,1,5,0,1
111532,-83.3333333333333,4,2,1,75,0,1
112554,-83.3333333333333,4,2,1,5,0,1
112622,-83.3333333333333,4,2,1,75,0,1
113645,-83.3333333333333,4,2,1,5,0,1
113713,-83.3333333333333,4,2,1,75,0,1
115827,-83.3333333333333,4,2,1,5,0,1
115895,-83.3333333333333,4,2,1,75,0,1
116918,-83.3333333333333,4,2,1,5,0,1
116986,-83.3333333333333,4,2,1,75,0,1
117804,-83.3333333333333,4,2,1,40,0,0
118350,-250,4,2,1,40,0,0
119645,-250,4,2,1,5,0,0
119713,-62.5,4,2,1,60,0,0
119986,-83.3333333333333,4,2,1,85,0,0
123463,-83.3333333333333,4,2,1,5,0,0
123532,-83.3333333333333,4,2,1,85,0,0
123736,-83.3333333333333,4,2,1,5,0,0
123804,-83.3333333333333,4,2,1,85,0,0
140918,-83.3333333333333,4,2,1,5,0,0
140986,-83.3333333333333,4,2,1,85,0,0
141191,-83.3333333333333,4,2,1,5,0,0
141259,-83.3333333333333,4,2,1,85,0,0
145282,-83.3333333333333,4,2,1,5,0,0
145350,-83.3333333333333,4,2,1,85,0,0
145554,-83.3333333333333,4,2,1,5,0,0
145622,-83.3333333333333,4,2,1,85,0,0
145895,-62.5,4,2,1,85,0,0
146168,545.454545454546,4,2,1,35,1,0
146168,-62.5,4,2,1,35,0,0
150532,-62.5,4,2,1,20,0,0

[Colours]
Combo1 : 240,140,140
Combo2 : 200,180,220
Combo3 : 240,200,155
Combo4 : 150,185,220

[HitObjects]
31,343,4344,6,0,B|106:346|82:313|164:312,1,135,2|2,2:0|2:0,2:0:0:0:
308,345,5253,6,0,P|202:326|186:219,1,229.500004377365,2|0,2:0|2:0,2:0:0:0:
98,230,6525,2,0,P|102:200|104:136,1,94.08,2|2,2:0|2:0,2:0:0:0:
27,103,7245,6,0,B|118:124|153:33|153:33|115:51|73:37,1,225,2|0,2:0|2:0,2:0:0:0:
228,85,8429,1,2,2:0:0:0:
228,85,8529,1,2,2:0:0:0:
228,85,8629,2,0,P|227:128|224:160,1,67.5000000000002,2|2,2:0|2:0,2:0:0:0:
368,99,9379,6,0,B|342:125|298:125|282:58|390:1|451:130,1,236.250000000001,2|0,2:0|2:0,2:0:0:0:
399,181,10860,2,0,P|392:202|391:239,1,53.9999983520508,2|2,2:0|2:0,2:0:0:0:
247,195,11530,6,0,P|283:198|321:203,1,67.5000000000002,2|0,2:0|2:0,2:0:0:0:
466,214,12261,1,2,2:0:0:0:
387,384,12993,6,0,L|380:297,1,72,2|2,2:0|2:0,2:0:0:0:
289,302,13771,6,0,B|125:283|210:394|17:368,1,270,2|0,2:0|2:0,2:0:0:0:
63,288,15134,1,2,2:0:0:0:
31,207,15475,1,2,2:0:0:0:
38,215,15891,2,0,P|49:186|48:144,1,67.5000000000002,2|0,2:0|2:0,2:0:0:0:
51,62,16650,2,0,B|82:30|141:0|177:98|133:124|107:67,1,161.999995056153,2|2,2:0|2:0,2:0:0:0:
96,192,18066,6,0,B|184:182|246:138|256:32|256:32|264:120|308:182|414:192|414:192|326:200|264:244|256:350|256:350|246:262|202:200|96:192,1,971.999970336915,2|0,2:0|2:0,2:0:0:0:
256,192,21874,12,0,25078,2:0:0:0:
88,194,26169,5,2,3:2:0:0:
93,205,26578,1,2,2:0:0:0:
98,216,26987,5,2,2:0:0:0:
177,124,27260,1,2,2:0:0:0:
218,290,27533,1,2,2:0:0:0:
225,283,27942,5,2,2:0:0:0:
232,276,28351,1,2,2:0:0:0:
239,269,28760,1,2,2:0:0:0:
246,262,29169,5,2,2:0:0:0:
370,181,29442,1,2,2:0:0:0:
177,124,29715,1,2,2:0:0:0:
177,124,30124,6,0,P|226:53|305:66,1,157.5,2|0,2:0|2:0,2:0:0:0:
305,70,30533,6,0,L|365:60,1,31.5,2|0,2:0|2:0,2:0:0:0:
481,163,30942,6,0,L|421:173,1,31.5,2|0,2:0|2:0,2:0:0:0:
248,213,31351,5,0,2:0:0:0:
408,304,31624,2,0,P|371:276|378:341,1,126,2|0,2:0|2:0,2:0:0:0:
115,240,32306,6,0,P|51:233|34:158,1,126,2|0,2:0|2:0,2:0:0:0:
99,108,32715,2,0,L|224:117,1,126,2|0,2:0|2:0,2:0:0:0:
336,64,33124,2,0,L|327:189,1,126,2|0,2:0|2:0,2:0:0:0:
213,273,33533,2,0,L|217:210,1,62.9999999999999,2|0,2:0|2:0,2:0:0:0:
323,293,33806,5,2,2:0:0:0:
236,363,33942,1,2,2:0:0:0:
235,363,34078,2,0,P|205:373|174:378,1,62.9999999999999,2|2,2:0|2:0,2:0:0:0:
334,298,34351,2,0,P|363:286|394:281,1,62.9999999999999,2|2,2:0|2:0,2:0:0:0:
217,210,34624,2,0,P|187:220|156:225,1,62.9999999999999,2|2,2:0|2:0,2:0:0:0:
309,122,34896,6,0,P|314:153|325:183,1,62.9999999999999,2|0,3:2|2:0,2:0:0:0:
469,221,35169,2,0,P|415:183|389:122,1,126,8|0,2:0|3:2,2:0:0:0:
495,125,35578,1,0,3:2:0:0:
495,125,35646,1,0,3:2:0:0:
495,125,35715,2,0,L|515:37,1,62.9999999999999,10|0,2:0|2:0,2:0:0:0:
341,20,35987,6,0,P|295:56|210:37,1,126,2|10,3:2|2:0,2:0:0:0:
19,101,36396,2,0,P|133:93|163:99,1,126,0|2,3:2|3:2,2:0:0:0:
232,206,36806,2,0,P|224:149|226:123,1,62.9999999999999,8|8,2:0|2:0,2:0:0:0:
317,158,37078,5,2,3:2:0:0:
144,240,37215,1,0,3:2:0:0:
144,240,37283,1,0,3:2:0:0:
144,240,37351,2,0,L|7:218,1,126,8|0,2:0|3:2,2:0:0:0:
86,139,37760,1,0,3:2:0:0:
162,331,37896,2,0,P|212:333|237:329,1,62.9999999999999,10|0,2:0|2:0,2:0:0:0:
434,240,38169,5,2,3:2:0:0:
437,233,38442,2,0,P|434:153|426:96,1,126,10|2,2:0|3:2,2:0:0:0:
339,47,38851,1,2,3:2:0:0:
339,47,38919,1,0,3:2:0:0:
339,47,38987,2,0,L|265:55,1,62.9999999999999,8|8,2:0|2:0,2:0:0:0:
189,151,39260,6,0,L|339:136,1,126,2|8,3:2|2:0,2:0:0:0:
371,215,39669,1,2,2:0:0:0:
349,304,39806,1,0,3:2:0:0:
283,241,39942,1,0,3:2:0:0:
435,277,40078,2,0,P|466:266|495:239,1,62.9999999999999,10|0,2:0|2:0,2:0:0:0:
471,28,40351,6,0,P|439:108|386:128,1,126,2|10,3:2|2:0,2:0:0:0:
255,24,40760,2,0,P|326:40|382:38,1,126,8|2,2:0|3:2,2:0:0:0:
201,100,41169,2,0,P|130:84|89:86,1,94.4999999999999,8|0,2:0|2:0,2:0:0:0:
62,93,41442,6,0,P|21:71|2:45,1,62.9999999999999,2|0,3:2|2:0,2:0:0:0:
207,92,41715,1,10,2:0:0:0:
87,172,41851,6,0,P|40:173|11:160,1,62.9999999999999,2|0,2:0|3:2,2:0:0:0:
212,83,42124,1,2,3:2:0:0:
148,227,42260,6,0,P|108:251|76:254,1,62.9999999999999,10|0,2:0|2:0,2:0:0:0:
215,73,42533,1,2,3:2:0:0:
228,244,42669,6,0,P|205:284|179:303,1,62.9999999999999,2|10,3:2|2:0,2:0:0:0:
211,64,42942,1,2,2:0:0:0:
297,103,43078,6,0,L|381:88,1,62.9999999999999,2|2,3:2|3:2,2:0:0:0:
125,25,43351,2,0,L|41:40,1,62.9999999999999,10|2,2:0|2:0,2:0:0:0:
8,216,43624,6,0,B|112:211|56:272|184:264,1,162,6|0,3:2|2:0,2:0:0:0:
232,264,43896,2,0,B|264:240|256:208|256:208|232:192|216:208,1,108,8|0,2:0|2:0,2:0:0:0:
30,292,44169,1,0,3:2:0:0:
144,184,44306,1,0,3:2:0:0:
50,43,44442,2,0,B|18:67|26:99|26:99|50:115|66:99,1,108,8|0,2:0|3:2,2:0:0:0:
253,0,44715,6,0,B|249:54|249:54|246:60|246:60|242:119,1,108,2|0,3:2|2:0,2:0:0:0:
236,227,44987,1,8,2:0:0:0:
232,105,45124,1,0,2:0:0:0:
297,172,45260,2,0,P|319:223|299:280,1,108,2|0,3:2|3:2,2:0:0:0:
172,379,45533,2,0,P|150:328|170:271,1,108,8|8,2:0|2:0,2:0:0:0:
281,384,45806,6,0,B|368:385|340:329|437:333,1,162,2|0,3:2|2:0,2:0:0:0:
501,300,46078,2,0,B|478:240|495:197|495:197|506:218,1,108,8|0,2:0|2:0,2:0:0:0:
393,127,46351,2,0,B|381:69|412:80|398:12,2,108,0|0|10,3:2|3:2|2:0,2:0:0:0:
330,227,46760,1,2,3:2:0:0:
488,209,46896,6,0,B|491:215|491:215|411:209|305:214,1,162,2|0,3:2|2:0,2:0:0:0:
265,182,47169,2,0,P|199:175|171:220,1,108,8|0,2:0|2:0,2:0:0:0:
169,300,47442,2,0,P|208:246|183:199,1,108,2|0,3:2|3:2,2:0:0:0:
117,151,47715,2,0,P|143:211|196:213,1,108,8|8,2:0|2:0,2:0:0:0:
48,326,47987,6,0,B|111:329|92:297|156:299,1,108,2|0,3:2|2:0,2:0:0:0:
258,368,48260,2,0,B|282:245|282:245|247:288,1,162,8|0,2:0|2:0,2:0:0:0:
246,294,48533,6,0,B|309:291|290:323|354:321,1,108,0|0,3:2|3:2,2:0:0:0:
470,377,48806,2,0,B|490:360|490:360|494:274,1,108,10|0,2:0|3:2,2:0:0:0:
413,150,49078,6,0,P|421:92|380:140,1,162,2|0,3:2|2:0,2:0:0:0:
396,148,49351,1,10,2:0:0:0:
504,203,49487,2,0,B|442:196|469:233|390:223,1,108,0|2,2:0|3:2,2:0:0:0:
304,154,49760,1,2,3:2:0:0:
304,154,49896,2,0,L|200:159,1,90,8|8,2:0|2:0,2:0:0:0:
48,208,50169,6,0,P|35:153|60:117,1,90,2|0,3:2|2:0,2:0:0:0:
103,267,50442,1,10,2:0:0:0:
80,345,50578,6,0,P|38:383|-4:380,1,90,2|0,2:0|3:2,2:0:0:0:
103,267,50851,1,2,3:2:0:0:
156,331,50987,2,0,L|203:321,1,45,10|0,2:0|2:0,2:0:0:0:
48,208,51124,2,0,L|1:198,1,45,2|0,2:0|2:0,2:0:0:0:
143,23,51260,5,0,3:2:0:0:
135,100,51396,1,2,2:0:0:0:
135,100,51533,2,0,P|128:146|122:203,1,90,10|2,2:0|2:0,2:0:0:0:
132,349,51806,6,0,P|197:329|206:281,1,90,2|2,3:2|3:2,2:0:0:0:
48,208,52078,6,0,P|94:268|143:270,1,126,10|2,3:2|3:2,2:0:0:0:
276,361,52351,6,0,B|408:370|344:285|486:293,2,216,6|8|0,3:2|2:0|3:2,2:0:0:0:
132,349,53033,1,0,3:2:0:0:
324,305,53169,2,0,B|386:300|362:337|426:335,1,108,8|0,2:0|3:2,2:0:0:0:
408,209,53442,6,0,B|462:159|453:72|360:67|338:109|366:140|401:138,1,216,2|8,3:2|2:0,2:0:0:0:
340,29,53851,1,0,2:0:0:0:
500,103,53987,2,0,B|438:98|462:135|398:133,1,108,2|0,3:2|3:2,2:0:0:0:
260,30,54260,2,0,P|196:26|135:19,1,108,8|0,2:0|2:0,2:0:0:0:
7,219,54533,6,0,B|37:253|92:251|109:210|109:210|93:196|82:181|79:147,1,162,2|0,3:2|2:0,2:0:0:0:
154,151,54806,2,0,B|175:138|183:118|167:94|167:94|150:100|142:116|154:144,1,108,8|0,2:0|2:0,2:0:0:0:
66,0,55078,2,0,B|55:59|82:43|72:115,1,108,0|0,3:2|3:2,2:0:0:0:
184,230,55351,1,10,2:0:0:0:
177,310,55487,1,2,3:2:0:0:
56,353,55624,6,0,B|44:330|22:322|-1:324|-1:324|5:266|71:236|128:268,1,216,2|8,3:2|2:0,2:0:0:0:
177,310,56033,1,0,2:0:0:0:
259,283,56169,2,0,L|371:274,1,108,2|0,3:2|3:2,2:0:0:0:
115,182,56442,2,0,L|3:173,1,108,8|8,2:0|2:0,2:0:0:0:
94,370,56715,6,0,B|79:312|104:323|93:249,1,108,2|0,3:2|2:0,2:0:0:0:
9,108,56987,2,0,P|77:103|95:14,1,162,8|0,2:0|2:0,2:0:0:0:
84,4,57260,2,0,L|104:121,1,108,2|0,3:2|3:2,2:0:0:0:
186,23,57533,2,0,L|206:140,1,108,10|0,2:0|3:2,2:0:0:0:
101,260,57806,6,0,P|93:318|134:270,1,162,2|0,3:2|2:0,2:0:0:0:
118,262,58078,1,10,2:0:0:0:
10,207,58215,2,0,B|72:214|45:177|124:187,1,108,0|2,2:0|3:2,2:0:0:0:
210,256,58487,1,2,3:2:0:0:
210,256,58624,2,0,L|314:251,1,90,8|0,2:0|2:0,2:0:0:0:
462,125,58896,6,0,P|478:166|464:208,1,90,2|0,3:2|2:0,2:0:0:0:
409,267,59169,1,10,2:0:0:0:
504,383,59306,6,0,P|461:377|432:345,1,90,2|0,2:0|3:2,2:0:0:0:
409,267,59578,1,2,3:2:0:0:
311,321,59715,2,0,L|356:331,1,45,10|0,2:0|2:0,2:0:0:0:
508,198,59851,2,0,L|464:208,1,45,2|0,2:0|2:0,2:0:0:0:
369,23,59987,5,0,3:2:0:0:
377,100,60124,1,2,3:2:0:0:
377,100,60260,2,0,P|384:146|390:203,1,90,10|2,2:0|3:2,2:0:0:0:
380,349,60533,6,0,P|315:329|306:281,1,90,10|10,2:0|2:0,2:0:0:0:
464,208,60806,6,0,P|418:268|369:270,1,126,10|10,2:0|2:0,2:0:0:0:
173,374,61078,6,0,L|175:313,1,54,6|2,3:2|2:0,2:0:0:0:
174,265,61215,2,0,L|120:293,1,54,6|2,3:2|2:0,2:0:0:0:
79,314,61351,2,0,L|130:346,1,54,8|0,2:0|2:0,2:0:0:0:
220,349,61487,6,0,L|222:288,1,54,6|2,3:2|2:0,2:0:0:0:
222,241,61624,2,0,L|168:269,1,54,6|0,3:2|2:0,2:0:0:0:
126,289,61760,2,0,L|177:321,1,54,10|0,2:0|2:0,2:0:0:0:
267,324,61896,6,0,L|269:263,1,54,6|0,3:2|2:0,2:0:0:0:
269,216,62033,2,0,L|215:244,1,54,10|10,2:0|2:0,2:0:0:0:
110,146,62169,6,0,B|60:146|84:115|1:120,2,90,4|8|8,3:2|2:0|2:0,2:0:0:0:
184,171,62578,1,0,3:2:0:0:
175,92,62715,2,0,L|168:-3,1,90,0|8,3:2|2:0,2:0:0:0:
254,128,62987,2,0,L|247:33,1,90,8|0,2:3|3:2,2:0:0:0:
433,209,63260,6,0,L|478:180,1,54,6|2,3:2|2:0,2:0:0:0:
432,156,63396,2,0,L|384:131,1,54,6|2,3:2|2:0,2:0:0:0:
386,184,63533,2,0,L|387:237,1,54,2|0,2:0|2:0,2:0:0:0:
312,257,63669,6,0,L|357:228,1,54,6|2,3:2|2:0,2:0:0:0:
311,204,63806,2,0,L|263:179,1,54,6|0,3:2|2:0,2:0:0:0:
265,232,63942,2,0,L|266:285,1,54,10|0,2:0|2:0,2:0:0:0:
182,300,64078,6,0,L|227:271,1,54,6|0,3:2|2:0,2:0:0:0:
181,247,64215,2,0,L|133:222,1,54,10|0,2:0|2:0,2:0:0:0:
261,366,64351,6,0,B|342:364|307:316|390:324,1,135,0|0,3:2|2:0,2:0:0:0:
263,358,64624,2,0,P|320:343|396:333,1,135,0|0,3:2|2:0,2:0:0:0:
471,314,64896,6,0,L|467:379,1,45,4|0,3:2|2:0,2:0:0:0:
471,314,65033,2,0,L|467:379,1,45,4|0,3:2|2:0,2:0:0:0:
471,314,65169,2,0,L|467:379,1,45,4|0,3:2|2:0,2:0:0:0:
471,314,65306,2,0,L|467:379,1,45,4|0,3:2|2:0,2:0:0:0:
440,231,65442,6,0,L|382:236,1,54,6|2,3:2|2:0,2:0:0:0:
424,152,65578,2,0,L|366:157,1,54,6|2,3:2|2:0,2:0:0:0:
408,73,65715,2,0,L|350:78,1,54,10|2,2:0|2:0,2:0:0:0:
350,159,65851,6,0,L|292:164,1,54,6|0,3:2|2:0,2:0:0:0:
334,80,65987,2,0,L|276:85,1,54,6|0,3:2|2:0,2:0:0:0:
318,1,66124,2,0,L|260:6,1,54,10|0,2:0|2:0,2:0:0:0:
260,87,66260,6,0,L|202:92,1,54,6|0,3:2|2:0,2:0:0:0:
244,8,66396,2,0,L|186:13,1,54,10|0,2:0|2:0,2:0:0:0:
170,15,66533,6,0,L|112:20,1,54,4|0,3:2|2:0,2:0:0:0:
52,109,66669,2,0,B|61:45|33:60|44:-7,6,108,8|8|8|8|8|8|4,2:0|2:0|2:0|2:0|2:0|2:0|3:2,2:0:0:0:
67,207,67624,6,0,L|4:209,1,54,6|2,3:2|2:0,2:0:0:0:
128,209,67760,2,0,L|65:211,1,54,6|2,3:2|2:0,2:0:0:0:
189,211,67896,2,0,L|126:213,1,54,10|2,2:0|2:0,2:0:0:0:
147,287,68033,6,0,L|84:289,1,54,6|2,3:2|2:0,2:0:0:0:
208,289,68169,2,0,L|145:291,1,54,2|0,3:2|2:0,2:0:0:0:
269,291,68306,2,0,L|206:293,1,54,10|2,2:0|2:0,2:0:0:0:
227,367,68442,6,0,L|164:369,1,54,6|0,3:2|2:0,2:0:0:0:
288,369,68578,2,0,L|225:371,1,54,10|0,2:0|2:0,2:0:0:0:
409,280,68715,6,0,B|393:335|417:328|401:397,1,108,4|10,3:2|2:0,2:0:0:0:
473,215,68987,2,0,P|478:171|485:98,1,108,6|4,3:2|3:2,2:0:0:0:
426,24,69260,6,0,B|422:48|454:51|458:19|432:15,7,54,10|8|8|8|10|8|10|8,2:0|2:0|2:0|2:0|2:0|2:0|2:0|2:0,2:0:0:0:
330,55,69806,6,0,B|289:55|277:49|277:49|263:55|215:46,2,108,6|6|8,3:2|3:2|2:0,2:0:0:0:
379,185,70215,2,0,L|369:258,1,54,6|2,3:2|2:0,2:0:0:0:
308,283,70351,2,0,P|244:304|230:337,1,108,6|10,3:2|2:0,2:0:0:0:
412,335,70624,2,0,B|463:340|463:340|473:353|473:353|522:360,1,108,6|10,3:2|2:0,2:0:0:0:
451,137,70896,6,0,L|465:187,1,45,4|0,3:2|2:0,2:0:0:0:
379,185,71033,2,0,B|309:196|309:196|243:172,1,135,8|0,2:0|2:0,2:0:0:0:
181,203,71306,2,0,P|176:180|177:143,2,45,4|0|0,3:2|3:2|3:2,2:0:0:0:
228,95,71578,5,8,2:0:0:0:
152,46,71715,1,0,3:2:0:0:
233,4,71851,1,8,2:0:0:0:
240,99,71987,5,6,3:2:0:0:
104,120,72124,2,0,L|16:101,2,54,6|2|8,3:2|2:0|2:0,2:0:0:0:
181,203,72396,1,6,3:2:0:0:
59,268,72533,2,0,L|49:178,2,54,6|0|10,3:2|2:0|2:0,2:0:0:0:
166,298,72806,2,0,L|276:289,1,108,6|10,3:2|2:0,2:0:0:0:
367,352,73078,6,0,B|350:322|350:322|334:365|296:368,7,108,4|4|4|4|4|4|4|8,3:2|3:2|3:2|3:2|3:2|3:2|3:2|2:0,2:0:0:0:
440,304,74169,5,6,3:2:0:0:
366,228,74306,2,0,L|357:168,2,54,6|2|10,3:2|2:0|2:0,2:0:0:0:
429,76,74578,1,6,3:2:0:0:
493,155,74715,2,0,L|486:226,2,54,6|0|10,3:2|2:0|2:0,2:0:0:0:
415,55,74987,5,6,3:2:0:0:
251,79,75124,1,10,2:0:0:0:
357,174,75260,1,4,3:2:0:0:
158,234,75396,6,0,B|129:204|129:204|149:76,1,162,8|0,2:0|2:0,2:0:0:0:
156,58,75669,1,0,3:2:0:0:
332,125,75806,2,0,L|413:83,1,54,8|0,2:0|2:0,2:0:0:0:
332,125,75942,2,0,L|422:129,1,54,8|0,2:0|2:0,2:0:0:0:
332,125,76078,2,0,L|407:173,1,54,8|0,2:0|2:0,2:0:0:0:
332,125,76215,2,0,L|373:206,1,54,8|0,2:0|2:0,2:0:0:0:
251,79,76351,6,0,B|237:119|237:119|260:207,1,108,6|6,3:2|3:2,2:0:0:0:
332,125,76624,1,10,2:0:0:0:
156,105,76760,2,0,B|142:40|142:40|159:-2,1,108,6|0,3:2|3:2,2:0:0:0:
259,69,77033,1,10,2:0:0:0:
160,192,77169,2,0,B|95:184|95:184|49:207,1,108,6|10,3:2|2:0,2:0:0:0:
90,375,77442,6,0,L|116:259,1,108,4|10,3:2|2:0,2:0:0:0:
293,347,77715,2,0,L|172:322,1,108,6|8,3:2|2:0,2:0:0:0:
288,216,77987,6,0,L|277:148,3,54,10|8|8|8,2:0|2:0|2:0|2:0,2:0:0:0:
389,221,78260,6,0,L|378:289,3,54,10|8|8|8,2:0|2:0|2:0|2:0,2:0:0:0:
475,173,78533,5,2,3:2:0:0:
256,192,78601,12,0,80646,2:0:0:0:
256,192,80714,12,0,82487,2:0:0:0:
115,202,83987,5,2,2:0:0:0:
427,138,84533,1,2,2:0:0:0:
492,363,85078,6,0,B|370:359|447:276|297:282,1,216,2|2,2:0|2:0,2:0:0:0:
118,363,86168,2,0,P|82:284|186:339,1,288,2|2,2:0|2:0,2:0:0:0:
56,25,87805,6,0,L|48:109,1,72,2|2,2:0|2:0,2:0:0:0:
38,175,88350,2,0,B|117:179|83:127|173:129,2,144,2|2|2,2:0|2:0|2:0,2:0:0:0:
324,122,90259,5,2,2:0:0:0:
324,122,90532,2,0,P|397:38|395:149,1,288,2|2,2:0|2:0,2:0:0:0:
256,328,92714,5,2,2:0:0:0:
256,232,93259,1,2,2:0:0:0:
446,349,93805,6,0,P|390:339|369:204,1,216,2|2,2:0|2:0,2:0:0:0:
449,50,94896,6,0,B|483:126|483:126|275:90,1,288,2|2,2:0|2:0,2:0:0:0:
51,32,96532,6,0,B|69:49|69:49|74:105,1,72,2|2,2:0|2:0,2:0:0:0:
179,154,97078,2,0,B|152:134|152:134|143:22,2,144,2|2|2,2:0|2:0|2:0,2:0:0:0:
180,241,99259,5,2,2:0:0:0:
178,330,100350,5,2,2:0:0:0:
178,330,101441,6,0,B|108:319|132:378|29:364,1,144,2|2,2:0|3:2,2:0:0:0:
43,365,102532,6,0,B|0:296|0:296|44:208,1,162,6|0,3:2|2:0,2:0:0:0:
174,210,102804,2,0,B|119:229|119:229|92:280,1,108,8|2,2:0|2:0,2:0:0:0:
261,358,103077,1,0,3:2:0:0:
261,358,103213,1,0,3:2:0:0:
318,245,103350,2,0,B|373:260|373:260|401:289|401:289|471:313,1,162,10|0,2:0|2:0,2:0:0:0:
497,321,103622,6,0,L|476:197,1,108,0|2,3:2|2:0,2:0:0:0:
360,32,103895,2,0,L|378:138,1,108,8|0,2:0|3:2,2:0:0:0:
151,158,104168,1,2,3:2:0:0:
263,154,104304,1,0,3:2:0:0:
205,78,104441,1,10,2:0:0:0:
209,234,104577,1,0,2:0:0:0:
66,114,104713,6,0,B|8:124|8:124|-19:169,1,108,2|0,3:2|2:0,2:0:0:0:
121,301,104986,2,0,B|94:324|92:355|92:355|62:200,1,216,8|0,2:0|3:2,2:0:0:0:
179,370,105395,1,0,3:2:0:0:
205,78,105532,2,0,B|153:117|153:184,1,108,10|0,2:0|3:2,2:0:0:0:
358,313,105804,6,0,B|300:314|269:364|269:364|266:304|197:278,1,216,0|8,3:2|2:0,2:0:0:0:
320,119,106213,1,0,2:0:0:0:
298,225,106350,1,2,3:2:0:0:
298,225,106486,1,0,3:2:0:0:
200,125,106622,5,10,2:0:0:0:
426,220,106759,1,0,2:0:0:0:
311,104,106895,6,0,P|315:35|386:73,1,162,2|0,3:2|2:0,2:0:0:0:
394,82,107168,1,8,2:0:0:0:
126,163,107304,2,0,P|116:110|151:58,1,108,2|0,2:0|3:2,2:0:0:0:
301,225,107577,5,0,3:2:0:0:
138,256,107713,1,10,2:0:0:0:
200,125,107850,1,0,3:2:0:0:
239,335,107986,2,0,L|64:348,1,162,0|0,3:2|2:0,2:0:0:0:
42,320,108259,6,0,B|9:221|9:221|23:199|19:158,1,162,8|0,2:0|3:2,2:0:0:0:
10,88,108532,6,0,P|57:96|63:117,2,54,2|0|0,3:2|2:0|3:2,2:0:0:0:
138,256,108804,1,10,2:0:0:0:
222,47,108941,1,0,2:0:0:0:
418,90,109077,6,0,L|311:104,1,108,2|0,3:2|2:0,2:0:0:0:
214,36,109350,1,10,2:0:0:0:
131,220,109486,6,0,L|118:113,1,108,2|0,2:0|3:2,2:0:0:0:
206,25,109759,1,2,3:2:0:0:
321,156,109895,6,0,L|306:80,1,54,10|0,2:0|2:0,2:0:0:0:
228,178,110032,2,0,L|243:254,1,54,2|0,2:0|2:0,2:0:0:0:
258,326,110168,5,0,3:0:0:0:
131,294,110304,1,2,2:0:0:0:
356,259,110441,2,0,B|460:238|460:238|482:256|524:251,1,162,8|0,2:0|2:0,2:0:0:0:
512,363,110713,6,0,P|449:349|448:308,1,108,2|2,3:2|3:2,2:0:0:0:
512,146,110986,1,2,3:2:0:0:
512,146,111122,1,2,3:2:0:0:
310,103,111259,6,0,B|229:179|138:119|209:77,1,162,6|0,3:2|2:0,2:0:0:0:
135,43,111532,6,0,B|185:21|185:21|235:42,1,108,8|2,2:0|2:0,2:0:0:0:
72,160,111804,2,0,B|-8:148|-8:148|15:182,2,108,0|0|10,3:2|3:2|2:0,2:0:0:0:
145,344,112213,1,0,3:2:0:0:
270,219,112350,2,0,B|255:206|245:185|245:185|234:339,1,162,0|0,3:2|2:0,2:0:0:0:
269,347,112622,6,0,P|341:347|363:312,1,108,8|0,2:0|2:0,2:0:0:0:
323,140,112895,1,2,3:2:0:0:
323,140,113032,1,0,3:2:0:0:
509,246,113168,6,0,P|490:176|450:164,1,108,10|0,2:0|2:0,2:0:0:0:
196,115,113441,6,0,B|220:117|242:131|242:131|253:57|339:54,1,162,2|0,3:2|2:0,2:0:0:0:
355,59,113713,6,0,P|393:36|354:5,1,108,8|2,2:0|2:0,2:0:0:0:
153,33,113986,1,0,3:2:0:0:
234,215,114122,1,0,3:2:0:0:
142,33,114259,2,0,L|-3:25,1,108,10|0,2:0|3:2,2:0:0:0:
83,227,114532,6,0,B|30:110|30:110|145:116,1,216,0|8,3:2|2:0,2:0:0:0:
224,123,114941,1,0,2:0:0:0:
279,310,115077,1,2,3:2:0:0:
386,301,115213,1,0,3:2:0:0:
325,213,115350,1,10,2:0:0:0:
171,344,115486,1,0,2:0:0:0:
29,208,115622,6,0,B|71:200|107:226|107:226|150:215|193:241,1,162,2|0,3:2|2:0,2:0:0:0:
211,265,115895,6,0,P|161:210|144:160,1,108,8|2,2:0|2:0,2:0:0:0:
398,141,116168,1,0,3:2:0:0:
325,213,116304,1,0,3:2:0:0:
251,137,116441,2,0,B|229:81|229:81|254:36,1,108,10|0,2:0|3:2,2:0:0:0:
512,48,116713,6,0,L|319:24,1,162,0|0,3:2|2:0,2:0:0:0:
405,114,116986,6,0,L|512:127,1,108,8|0,2:0|2:0,2:0:0:0:
413,273,117259,5,2,3:2:0:0:
325,213,117395,1,0,3:2:0:0:
224,245,117532,1,10,2:0:0:0:
136,185,117668,1,0,2:0:0:0:
246,63,117804,5,2,3:2:0:0:
246,63,118077,5,0,3:2:0:0:
246,63,118350,6,0,L|253:149,1,72,8|2,2:0|2:0,2:0:0:0:
269,363,118895,5,0,2:0:0:0:
214,294,119168,5,0,3:2:0:0:
262,221,119441,6,0,L|324:234,1,54,10|0,2:0|2:0,2:0:0:0:
395,269,119713,6,8,B|362:233|315:233|315:233|361:226|364:207,1,144,10|8,2:0|2:0,2:0:0:0:
378,89,119986,6,0,L|354:76,2,27,6|2|2,3:2|2:0|2:0,2:0:0:0:
378,89,120122,2,0,L|400:74,2,27,6|2|0,3:2|2:0|2:0,2:0:0:0:
378,89,120259,2,0,L|378:115,2,27,10|2|2,2:0|2:0|2:0,2:0:0:0:
271,112,120395,6,0,L|309:106,2,27,6|2|2,3:2|2:0|2:0,2:0:0:0:
378,89,120532,2,0,L|413:80,2,27,6|2|0,3:2|2:0|2:0,2:0:0:0:
479,71,120668,2,0,L|517:65,2,27,10|2|2,2:0|2:0|2:0,2:0:0:0:
351,17,120804,6,0,L|345:53,2,27,6|2|2,3:2|2:0|2:0,2:0:0:0:
438,151,120941,2,0,L|432:182,2,27,10|2|8,2:0|2:0|2:0,2:0:0:0:
304,195,121077,5,6,3:2:0:0:
304,195,121213,2,0,B|188:181|247:273|105:261,1,216,8|0,2:0|3:2,2:0:0:0:
21,107,121622,2,0,L|36:-7,2,108,2|8|8,3:2|2:0|2:3,2:0:0:0:
75,172,122032,1,0,3:2:0:0:
22,272,122168,6,0,L|26:230,2,27,6|2|2,3:2|2:0|2:0,2:0:0:0:
99,303,122304,2,0,L|103:261,2,27,6|2|0,3:2|2:0|2:0,2:0:0:0:
179,332,122441,2,0,L|183:290,2,27,10|2|2,2:0|2:0|2:0,2:0:0:0:
111,282,122577,6,0,L|115:240,2,27,6|2|2,3:2|2:0|2:0,2:0:0:0:
188,313,122713,2,0,L|192:271,2,27,6|2|0,3:2|2:0|2:0,2:0:0:0:
268,342,122850,2,0,L|272:300,2,27,10|2|2,2:0|2:0|2:0,2:0:0:0:
200,296,122986,6,0,L|204:254,2,27,6|2|2,3:2|2:0|2:0,2:0:0:0:
277,327,123122,2,0,L|281:285,2,27,10|2|2,2:0|2:0|2:0,2:0:0:0:
355,362,123259,6,0,B|435:367|404:318|517:320,1,162,2|0,3:2|2:0,2:0:0:0:
360,276,123532,2,0,B|388:299|388:299|445:288|499:313|499:313|488:313|479:320,1,162,0|0,3:2|2:0,2:0:0:0:
494,223,123804,6,0,L|487:168,1,54,6|0,3:2|2:0,2:0:0:0:
494,223,123941,2,0,L|487:168,1,54,4|0,3:2|2:0,2:0:0:0:
494,223,124077,2,0,L|487:168,1,54,4|0,3:2|2:0,2:0:0:0:
494,223,124213,2,0,L|487:168,1,54,4|0,3:2|2:0,2:0:0:0:
484,77,124350,6,0,P|465:88|460:90,2,27,6|2|2,3:2|2:0|2:0,2:0:0:0:
484,77,124486,2,0,P|503:88|506:92,2,27,6|2|0,3:2|2:0|2:0,2:0:0:0:
484,77,124622,2,0,P|483:56|484:51,2,27,10|2|2,2:0|2:0|2:0,2:0:0:0:
371,103,124759,6,0,P|352:114|347:116,2,27,6|2|2,3:2|2:0|2:0,2:0:0:0:
371,103,124895,2,0,P|390:114|393:118,2,27,6|2|2,3:2|2:0|2:0,2:0:0:0:
371,103,125032,2,0,P|370:82|371:77,2,27,10|2|2,2:0|2:0|2:0,2:0:0:0:
261,139,125168,6,0,P|280:150|283:154,2,27,6|2|0,3:2|2:0|2:0,2:0:0:0:
261,139,125304,2,0,P|260:118|261:113,2,27,10|2|8,2:0|2:0|2:0,2:0:0:0:
186,61,125441,5,6,3:2:0:0:
186,61,125577,2,0,B|122:6|30:40|30:40|66:50|80:64,1,216,8|0,2:0|3:2,2:0:0:0:
40,228,125986,6,0,L|29:117,1,108,2|8,3:2|2:0,2:0:0:0:
131,128,126259,2,0,L|143:238,1,108,0|0,2:0|3:2,2:0:0:0:
41,350,126532,6,0,P|60:339|65:337,2,27,6|2|2,3:2|2:0|2:0,2:0:0:0:
41,350,126668,2,0,P|22:339|19:335,2,27,6|2|2,3:2|2:0|2:0,2:0:0:0:
41,350,126804,2,0,P|42:371|41:376,2,27,10|2|0,2:0|2:0|2:0,2:0:0:0:
154,324,126941,6,0,P|173:313|178:311,2,27,6|2|2,3:2|2:0|2:0,2:0:0:0:
154,324,127077,2,0,P|135:313|132:309,2,27,6|2|2,3:2|2:0|2:0,2:0:0:0:
154,324,127213,2,0,P|155:345|154:350,2,27,10|2|0,2:0|2:0|2:0,2:0:0:0:
264,288,127350,6,0,P|245:277|242:273,2,27,6|2|2,3:2|2:0|2:0,2:0:0:0:
264,288,127486,2,0,P|265:309|264:314,2,27,10|2|0,2:0|2:0|2:0,2:0:0:0:
388,374,127622,6,0,B|382:319|400:332|392:266,1,108,6|10,3:2|2:0,2:0:0:0:
308,200,127895,2,0,B|306:197|306:197|361:196|411:174,1,108,6|8,3:2|2:0,2:0:0:0:
470,112,128168,2,0,L|473:52,7,54,10|8|8|8|10|8|10|8,2:0|2:0|2:0|2:0|2:0|2:0|2:0|2:0,2:0:0:0:
477,41,128713,6,0,L|473:-1,2,27,6|2|2,3:2|2:0|2:0,2:0:0:0:
400,72,128850,2,0,L|396:30,2,27,6|2|0,3:2|2:0|2:0,2:0:0:0:
320,101,128986,2,0,L|316:59,2,27,10|2|2,2:0|2:0|2:0,2:0:0:0:
388,51,129122,6,0,L|384:9,2,27,6|2|2,3:2|2:0|2:0,2:0:0:0:
311,82,129259,2,0,L|307:40,2,27,6|2|0,3:2|2:0|2:0,2:0:0:0:
231,111,129395,2,0,L|227:69,2,27,10|2|2,2:0|2:0|2:0,2:0:0:0:
299,65,129532,6,0,L|295:23,2,27,6|2|0,3:2|2:0|2:0,2:0:0:0:
222,96,129668,2,0,L|218:54,2,27,10|2|8,2:0|2:0|2:0,2:0:0:0:
133,16,129804,5,6,3:2:0:0:
133,16,129941,2,0,B|99:140|161:100|128:235,1,216,8|4,2:0|3:2,2:0:0:0:
74,324,130350,2,0,B|54:290|18:296|18:296|35:303|55:335,2,108,2|8|0,3:2|2:0|3:2,2:0:0:0:
128,247,130759,1,8,2:0:0:0:
234,333,130895,6,0,L|266:325,2,27,6|2|2,3:2|2:0|2:0,2:0:0:0:
308,349,131032,2,0,L|340:341,2,27,6|2|0,3:2|2:0|2:0,2:0:0:0:
386,364,131168,2,0,L|418:356,2,27,10|2|2,2:0|2:0|2:0,2:0:0:0:
284,274,131304,6,0,L|316:266,2,27,6|2|2,3:2|2:0|2:0,2:0:0:0:
358,290,131441,2,0,L|390:282,2,27,6|2|0,3:2|2:0|2:0,2:0:0:0:
436,305,131577,2,0,L|468:297,2,27,10|2|2,2:0|2:0|2:0,2:0:0:0:
408,231,131713,6,0,L|440:223,2,27,6|2|2,3:2|2:0|2:0,2:0:0:0:
486,246,131850,2,0,L|518:238,2,27,10|2|2,2:0|2:0|2:0,2:0:0:0:
488,156,131986,6,0,B|466:100|494:108|483:51|458:43|466:88,7,108,6|4|4|4|6|4|4|4,3:2|3:2|3:2|3:2|3:2|3:2|3:2|3:2,2:0:0:0:
392,78,133077,6,0,L|398:109,2,27,6|2|2,3:2|2:0|2:0,2:0:0:0:
382,61,133213,2,0,L|405:40,2,27,6|2|0,3:2|2:0|2:0,2:0:0:0:
373,79,133350,2,0,L|343:68,2,27,10|2|2,2:0|2:0|2:0,2:0:0:0:
271,69,133486,6,0,L|277:38,2,27,6|2|2,3:2|2:0|2:0,2:0:0:0:
261,86,133622,2,0,L|284:106,2,27,6|2|2,3:2|2:0|2:0,2:0:0:0:
252,68,133759,2,0,L|222:78,2,27,10|2|2,2:0|2:0|2:0,2:0:0:0:
117,86,133895,6,0,L|87:96,2,27,6|2|0,3:2|2:0|2:0,2:0:0:0:
117,86,134032,2,0,L|146:75,2,27,10|2|8,2:0|2:0|2:0,2:0:0:0:
69,165,134168,5,4,3:2:0:0:
69,165,134304,2,0,B|49:227|92:216|76:290,1,108,8|8,2:0|2:0,2:0:0:0:
48,377,134577,1,0,3:2:0:0:
48,377,134713,2,0,B|21:363|21:363|105:349,2,108,8|8|8,2:0|2:0|2:0,2:0:0:0:
79,269,135122,1,8,2:0:0:0:
176,377,135259,6,0,L|182:341,2,27,6|2|2,3:2|2:0|2:0,2:0:0:0:
260,362,135395,2,0,L|266:326,2,27,6|2|2,3:2|2:0|2:0,2:0:0:0:
344,347,135532,2,0,L|350:311,2,27,10|2|0,2:0|2:0|2:0,2:0:0:0:
262,326,135668,6,0,L|268:290,2,27,6|2|2,3:2|2:0|2:0,2:0:0:0:
346,311,135804,2,0,L|352:275,2,27,6|2|2,3:2|2:0|2:0,2:0:0:0:
430,296,135941,2,0,L|436:260,2,27,10|2|0,2:0|2:0|2:0,2:0:0:0:
356,261,136077,6,0,L|362:225,2,27,6|2|2,3:2|2:0|2:0,2:0:0:0:
440,246,136213,2,0,L|446:210,2,27,10|2|0,2:0|2:0|2:0,2:0:0:0:
502,131,136350,6,0,B|448:135|469:101|393:107,1,108,4|10,3:2|2:0,2:0:0:0:
333,157,136622,2,0,B|320:145|320:145|311:46,1,108,6|10,3:2|2:0,2:0:0:0:
233,104,136895,2,8,L|230:139,14,27,10|8|8|8|10|8|8|8|10|8|8|8|10|8|8,2:0|2:0|2:0|2:0|2:0|2:0|2:0|2:0|2:0|2:0|2:0|2:0|2:0|2:0|2:0,2:0:0:0:
128,136,137441,6,0,B|72:149|72:149|16:132,2,108,6|6|10,3:2|3:2|2:0,2:0:0:0:
158,53,137850,5,6,3:2:0:0:
128,136,137986,1,6,3:2:0:0:
98,219,138122,1,10,2:0:0:0:
72,69,138259,5,6,3:2:0:0:
185,203,138395,1,10,2:0:0:0:
223,120,138532,6,0,L|339:112,1,108,6|8,3:2|2:0,2:0:0:0:
425,68,138804,1,8,2:0:0:0:
504,168,138941,2,0,L|508:115,2,54,0|0|2,3:2|3:2|3:2,2:0:0:0:
467,286,139213,5,8,2:0:0:0:
385,224,139350,2,0,L|271:243,1,108,8|0,2:0|3:0,2:0:0:0:
182,260,139622,5,6,3:2:0:0:
222,172,139759,2,0,L|206:116,2,54,6|0|10,3:2|2:0|2:0,2:0:0:0:
167,245,140032,5,6,3:2:0:0:
207,333,140168,2,0,L|191:389,2,54,6|0|10,3:2|2:0|2:0,2:0:0:0:
155,232,140441,5,6,3:2:0:0:
67,192,140577,1,10,2:0:0:0:
141,122,140713,2,0,P|157:66|77:-1,1,162,2|0,3:2|2:0,2:0:0:0:
2,127,140986,2,0,P|70:92|135:135,1,162,0|0,3:2|2:0,2:0:0:0:
8,16,141259,6,0,L|30:115,1,54,4|0,3:2|2:0,2:0:0:0:
8,16,141395,2,0,L|30:115,1,54,4|0,3:2|2:0,2:0:0:0:
8,16,141532,2,0,L|31:115,1,54,4|0,3:2|2:0,2:0:0:0:
8,16,141668,2,0,L|31:115,1,54,4|0,3:2|2:0,2:0:0:0:
128,64,141804,6,0,B|174:69|174:69|186:68|186:68|197:72|197:72|242:77,2,108,6|6|10,3:2|3:2|2:0,2:0:0:0:
264,4,142213,1,6,3:2:0:0:
324,68,142350,2,0,P|329:126|277:150,1,108,4|10,3:2|2:0,2:0:0:0:
196,162,142622,2,0,B|112:152|112:152|134:174,1,108,6|10,3:2|2:0,2:0:0:0:
187,317,142895,6,0,P|159:253|202:236,1,108,6|8,3:2|2:0,2:0:0:0:
270,262,143168,1,0,2:0:0:0:
351,214,143304,2,0,P|388:210|423:216,2,54,0|0|2,3:2|3:2|3:2,2:0:0:0:
276,269,143577,5,2,2:0:0:0:
247,178,143713,2,0,L|255:59,1,108,2|8,3:2|2:0,2:0:0:0:
161,42,143986,6,0,L|89:70,2,54,6|2|6,3:2|2:0|3:2,2:0:0:0:
252,81,144259,1,10,2:0:0:0:
338,54,144395,2,0,L|410:82,2,54,6|2|6,3:2|2:0|3:2,2:0:0:0:
247,93,144668,1,10,2:0:0:0:
281,185,144804,2,0,L|309:257,2,54,6|2|10,3:2|2:0|2:0,2:0:0:0:
181,178,145077,6,0,P|135:116|181:28,1,162,6|0,3:2|2:0,2:0:0:0:
281,185,145350,6,0,P|327:247|281:335,1,162,6|0,3:2|2:0,2:0:0:0:
247,93,145622,6,0,L|229:21,3,54,10|8|8|8,2:0|2:0|2:0|2:0,2:0:0:0:
423,115,145895,6,0,L|349:126,3,72,10|8|10|8,2:0|2:0|2:0|2:0,2:0:0:0:
512,103,146168,5,2,2:0:0:0:
499,237,147259,5,2,2:0:0:0:
364,212,147804,1,2,2:0:0:0:
229,187,148350,1,2,2:0:0:0:
229,187,149168,5,2,2:0:0:0:
318,170,149304,1,2,2:0:0:0:
405,153,149441,1,2,2:0:0:0:
405,153,149986,5,2,2:0:0:0:
135,103,150532,1,2,2:0:0:0:
